0
SECTION
2
HEADER
9
$ACADVER
1
AC1015
9
$DWGCODEPAGE
3
ANSI_1252
9
$HANDSEED
5
19e
9
$ANGBASE
50
0
9
$ANGDIR
70
0
9
$ATTMODE
70
1
9
$AUNITS
70
0
9
$AUPREC
70
0
9
$CECOLOR
62
256
9
$CELTSCALE
40
1
9
$CELTYPE
6
ByLayer
9
$CELWEIGHT
370
-1
9
$CLAYER
8
0
9
$CMLJUST
70
0
9
$CMLSCALE
40
1
9
$CMLSTYLE
2
Standard
9
$DIMSTYLE
2
Standard
9
$TEXTSIZE
40
0.2
9
$TEXTSTYLE
7
Standard
9
$LUNITS
70
2
9
$LUPREC
70
4
9
$EXTNAMES
290
1
9
$INSUNITS
70
4
9
$LTSCALE
40
1
9
$LWDISPLAY
290
0
9
$PDMODE
70
0
9
$PDSIZE
40
0
9
$PLINEGEN
70
0
0
ENDSEC
0
SECTION
2
CLASSES
0
CLASS
1
RASTERVARIABLES
2
AcDbRasterVariables
3
ISM
90
0
280
0
281
0
0
ENDSEC
0
SECTION
2
TABLES
0
TABLE
2
VPORT
5
194
100
AcDbSymbolTable
0
VPORT
5
1
100
AcDbSymbolTableRecord
100
AcDbViewportTableRecord
2
*Active
70
0
10
0
20
0
11
1
21
1
12
-1
22
1
13
0
23
0
14
0.5
24
0.5
15
10
25
10
16
0
26
0
36
1
17
0
27
0
37
0
0
ENDTAB
0
TABLE
2
LTYPE
5
195
100
AcDbSymbolTable
0
LTYPE
5
14
100
AcDbSymbolTableRecord
100
AcDbLinetypeTableRecord
70
0
2
ByBlock
3

72
65
73
0
40
0
0
LTYPE
5
15
100
AcDbSymbolTableRecord
100
AcDbLinetypeTableRecord
70
0
2
ByLayer
3

72
65
73
0
40
0
0
LTYPE
5
16
100
AcDbSymbolTableRecord
100
AcDbLinetypeTableRecord
70
0
2
CONTINUOUS
3
Solid line
72
65
73
0
40
0
0
LTYPE
5
3B
100
AcDbSymbolTableRecord
100
AcDbLinetypeTableRecord
70
0
2
DASHED
3
__ __ __ __ __ __ __ __ __
72
65
73
2
40
25.72
49
12.86
74
0
49
-12.86
74
0
0
LTYPE
5
3C
100
AcDbSymbolTableRecord
100
AcDbLinetypeTableRecord
70
0
2
HIDDEN
3
_ _ _ _ _ _ _ _ _ _ _ _ _ _ _
72
65
73
2
40
0.5
49
0.25
74
0
49
-0.25
74
0
0
LTYPE
5
3D
100
AcDbSymbolTableRecord
100
AcDbLinetypeTableRecord
70
0
2
PHANTOM
3
____ _ _ ____ _ _ _____ _ _ ____
72
65
73
6
40
50.5
49
18
74
0
49
-6.5
74
0
49
6.5
74
0
49
-6.5
74
0
49
6.5
74
0
49
-6.5
74
0
0
LTYPE
5
3E
100
AcDbSymbolTableRecord
100
AcDbLinetypeTableRecord
70
0
2
CENTER
3
____ _ ____ _ ____ _ ____
72
65
73
4
40
47.5
49
22
74
0
49
-8.5
74
0
49
8.5
74
0
49
-8.5
74
0
0
LTYPE
5
3F
100
AcDbSymbolTableRecord
100
AcDbLinetypeTableRecord
70
0
2
DOT
3
.........................
72
65
73
2
40
10
49
0
74
0
49
-10
74
0
0
LTYPE
5
40
100
AcDbSymbolTableRecord
100
AcDbLinetypeTableRecord
70
0
2
DASHDOT
3
_._._._._._._._._._._._._._._._.
72
65
73
4
40
70
49
31
74
0
49
-13
74
0
49
13
74
0
49
-13
74
0
0
ENDTAB
0
TABLE
2
LAYER
5
196
100
AcDbSymbolTable
0
LAYER
5
10
100
AcDbSymbolTableRecord
100
AcDbLayerTableRecord
2
0
70
0
62
7
6
CONTINUOUS
290
1
370
-3
390
0
0
LAYER
5
42
100
AcDbSymbolTableRecord
100
AcDbLayerTableRecord
2
80
70
0
62
-6
6
CONTINUOUS
290
1
370
-3
390
0
0
LAYER
5
44
100
AcDbSymbolTableRecord
100
AcDbLayerTableRecord
2
81
70
0
62
-3
6
CONTINUOUS
290
1
370
-3
390
0
0
LAYER
5
48
100
AcDbSymbolTableRecord
100
AcDbLayerTableRecord
2
1
70
0
62
4
6
CONTINUOUS
290
1
370
-3
390
0
0
LAYER
5
139
100
AcDbSymbolTableRecord
100
AcDbLayerTableRecord
2
2
70
0
62
7
6
CONTINUOUS
290
1
370
-3
390
0
0
LAYER
5
181
100
AcDbSymbolTableRecord
100
AcDbLayerTableRecord
2
SK1
70
0
62
4
6
CONTINUOUS
290
1
370
-3
390
0
0
LAYER
5
182
100
AcDbSymbolTableRecord
100
AcDbLayerTableRecord
2
SK6
70
0
62
5
6
CONTINUOUS
290
1
370
-3
390
0
0
LAYER
5
183
100
AcDbSymbolTableRecord
100
AcDbLayerTableRecord
2
SK2
70
0
62
7
6
CONTINUOUS
290
1
370
-3
390
0
0
ENDTAB
0
TABLE
2
STYLE
5
197
100
AcDbSymbolTable
0
STYLE
5
11
100
AcDbSymbolTableRecord
100
AcDbTextStyleTableRecord
2
Standard
3
txt
70
0
71
0
40
0
41
1
42
0
50
0
0
STYLE
5
EE
100
AcDbSymbolTableRecord
100
AcDbTextStyleTableRecord
2
DEFAULT
3
simplex.shx
70
0
71
0
40
0
41
1
42
0
50
0
0
STYLE
5
111
100
AcDbSymbolTableRecord
100
AcDbTextStyleTableRecord
2
DWGDirectTextStyle
3
SIMPLEX
70
0
71
0
40
0
41
1
42
0
50
0
0
ENDTAB
0
TABLE
2
DIMSTYLE
5
198
100
AcDbSymbolTable
100
AcDbDimStyleTable
0
DIMSTYLE
105
27
100
AcDbSymbolTableRecord
100
AcDbDimStyleTableRecord
2
Standard
70
0
3
<>
41
0.18
42
0.0625
44
0.18
140
0.18
147
0.09
73
0
74
0
77
1
271
2
275
0
278
52
280
0
340
11
0
ENDTAB
0
TABLE
2
VIEW
5
199
100
AcDbSymbolTable
0
ENDTAB
0
TABLE
2
UCS
5
19a
100
AcDbSymbolTable
0
ENDTAB
0
TABLE
2
APPID
5
19b
100
AcDbSymbolTable
0
APPID
5
12
100
AcDbSymbolTableRecord
100
AcDbRegAppTableRecord
2
ACAD
70
0
0
ENDTAB
0
TABLE
2
BLOCK_RECORD
5
19c
100
AcDbSymbolTable
0
BLOCK_RECORD
5
1F
100
AcDbSymbolTableRecord
100
AcDbBlockTableRecord
2
*Model_Space
340
0
70
0
0
BLOCK_RECORD
5
1B
100
AcDbSymbolTableRecord
100
AcDbBlockTableRecord
2
*Paper_Space
340
0
70
0
0
BLOCK_RECORD
5
23
100
AcDbSymbolTableRecord
100
AcDbBlockTableRecord
2
*Paper_Space0
340
0
70
0
0
BLOCK_RECORD
5
113
100
AcDbSymbolTableRecord
100
AcDbBlockTableRecord
2
DimnDraft3D1
340
0
70
0
0
BLOCK_RECORD
5
122
100
AcDbSymbolTableRecord
100
AcDbBlockTableRecord
2
_CLOSED
340
0
70
0
0
BLOCK_RECORD
5
129
100
AcDbSymbolTableRecord
100
AcDbBlockTableRecord
2
DimnDraft3D2
340
0
70
0
0
BLOCK_RECORD
5
137
100
AcDbSymbolTableRecord
100
AcDbBlockTableRecord
2
DimnDraft3D3
340
0
70
0
0
BLOCK_RECORD
5
146
100
AcDbSymbolTableRecord
100
AcDbBlockTableRecord
2
DimnDraft3D4
340
0
70
0
0
BLOCK_RECORD
5
154
100
AcDbSymbolTableRecord
100
AcDbBlockTableRecord
2
DimnDraft3D5
340
0
70
0
0
ENDTAB
0
ENDSEC
0
SECTION
2
BLOCKS
0
BLOCK
5
20
100
AcDbEntity
8
0
100
AcDbBlockBegin
2
*Model_Space
70
0
10
0
20
0
30
0
3
*Model_Space
0
ENDBLK
5
21
100
AcDbEntity
8
0
100
AcDbBlockEnd
0
BLOCK
5
1C
100
AcDbEntity
8
0
100
AcDbBlockBegin
2
*Paper_Space
70
0
10
0
20
0
30
0
3
*Paper_Space
0
ENDBLK
5
1D
100
AcDbEntity
8
0
100
AcDbBlockEnd
0
BLOCK
5
24
100
AcDbEntity
8
0
100
AcDbBlockBegin
2
*Paper_Space0
70
0
10
0
20
0
30
0
3
*Paper_Space0
0
ENDBLK
5
25
100
AcDbEntity
8
0
100
AcDbBlockEnd
0
BLOCK
5
11F
100
AcDbEntity
8
0
100
AcDbBlockBegin
2
DimnDraft3D1
70
0
10
0
20
0
30
0
3
DimnDraft3D1
0
MTEXT
5
114
100
AcDbEntity
8
SK2
62
256
6
ByLayer
370
-1
48
1
60
0
100
AcDbMText
10
-79.22505
20
-4.038158
30
0
210
0
220
0
230
1
1
\W01.000;\fsimplex.shx,bigfont.shx;20.0 
40
4.5
41
0
44
1.084337
50
90
71
7
72
5
7
DEFAULT
0
LINE
5
116
100
AcDbEntity
8
SK2
62
256
6
ByLayer
370
-1
48
1
60
0
100
AcDbLine
10
-70.5875
20
-9.9625
30
0
11
-81.27505
21
-9.9625
31
0
39
0
210
0
220
0
230
1
0
LINE
5
117
100
AcDbEntity
8
SK2
62
256
6
ByLayer
370
-1
48
1
60
0
100
AcDbLine
10
-70.5875
20
9.9625
30
0
11
-81.27505
21
9.9625
31
0
39
0
210
0
220
0
230
1
0
LINE
5
118
100
AcDbEntity
8
SK2
62
256
6
ByLayer
370
-1
48
1
60
0
100
AcDbLine
10
-78.10005
20
-9.9625
30
0
11
-78.10005
21
9.9625
31
0
39
0
210
0
220
0
230
1
0
LINE
5
119
100
AcDbEntity
8
SK2
62
256
6
ByLayer
370
-1
48
1
60
0
100
AcDbLine
10
-78.10005
20
-9.9625
30
0
11
-78.950789
21
-6.787503
31
0
39
0
210
0
220
0
230
1
0
LINE
5
11A
100
AcDbEntity
8
SK2
62
256
6
ByLayer
370
-1
48
1
60
0
100
AcDbLine
10
-78.10005
20
-9.9625
30
0
11
-77.249311
21
-6.787497
31
0
39
0
210
0
220
0
230
1
0
LINE
5
11B
100
AcDbEntity
8
SK2
62
256
6
ByLayer
370
-1
48
1
60
0
100
AcDbLine
10
-78.950789
20
-6.787503
30
0
11
-77.249311
21
-6.787497
31
0
39
0
210
0
220
0
230
1
0
LINE
5
11C
100
AcDbEntity
8
SK2
62
256
6
ByLayer
370
-1
48
1
60
0
100
AcDbLine
10
-78.10005
20
9.9625
30
0
11
-77.249311
21
6.787503
31
0
39
0
210
0
220
0
230
1
0
LINE
5
11D
100
AcDbEntity
8
SK2
62
256
6
ByLayer
370
-1
48
1
60
0
100
AcDbLine
10
-78.10005
20
9.9625
30
0
11
-78.950789
21
6.787497
31
0
39
0
210
0
220
0
230
1
0
LINE
5
11E
100
AcDbEntity
8
SK2
62
256
6
ByLayer
370
-1
48
1
60
0
100
AcDbLine
10
-77.249311
20
6.787503
30
0
11
-78.950789
21
6.787497
31
0
39
0
210
0
220
0
230
1
0
ENDBLK
5
120
100
AcDbEntity
8
0
100
AcDbBlockEnd
0
BLOCK
5
123
100
AcDbEntity
8
0
100
AcDbBlockBegin
2
_CLOSED
70
0
10
0
20
0
30
0
3
_CLOSED
0
LINE
5
125
100
AcDbEntity
8
0
62
256
6
ByLayer
370
-2
48
1
60
0
100
AcDbLine
10
-1
20
0.166667
30
0
11
0
21
0
31
0
39
0
210
0
220
0
230
1
0
LINE
5
126
100
AcDbEntity
8
0
62
256
6
ByLayer
370
-2
48
1
60
0
100
AcDbLine
10
0
20
0
30
0
11
-1
21
-0.166667
31
0
39
0
210
0
220
0
230
1
0
LINE
5
127
100
AcDbEntity
8
0
62
256
6
ByLayer
370
-2
48
1
60
0
100
AcDbLine
10
-1
20
0.166667
30
0
11
-1
21
-0.166667
31
0
39
0
210
0
220
0
230
1
0
LINE
5
128
100
AcDbEntity
8
0
62
256
6
ByLayer
370
-2
48
1
60
0
100
AcDbLine
10
0
20
0
30
0
11
-1
21
0
31
0
39
0
210
0
220
0
230
1
0
ENDBLK
5
124
100
AcDbEntity
8
0
100
AcDbBlockEnd
0
BLOCK
5
134
100
AcDbEntity
8
0
100
AcDbBlockBegin
2
DimnDraft3D2
70
0
10
0
20
0
30
0
3
DimnDraft3D2
0
MTEXT
5
12A
100
AcDbEntity
8
SK2
62
256
6
ByLayer
370
-1
48
1
60
0
100
AcDbMText
10
-17.065132
20
-38.9125
30
0
210
0
220
0
230
1
1
\W01.000;\fsimplex.shx,bigfont.shx;113.0 
40
4.5
41
0
44
1.084337
50
0
71
7
72
5
7
DEFAULT
0
LINE
5
12B
100
AcDbEntity
8
SK2
62
256
6
ByLayer
370
-1
48
1
60
0
100
AcDbLine
10
-69
20
-11.55
30
0
11
-69
21
-43.2125
31
0
39
0
210
0
220
0
230
1
0
LINE
5
12C
100
AcDbEntity
8
SK2
62
256
6
ByLayer
370
-1
48
1
60
0
100
AcDbLine
10
44
20
-12.125
30
0
11
44
21
-43.2125
31
0
39
0
210
0
220
0
230
1
0
LINE
5
12D
100
AcDbEntity
8
SK2
62
256
6
ByLayer
370
-1
48
1
60
0
100
AcDbLine
10
-69
20
-40.0375
30
0
11
44
21
-40.0375
31
0
39
0
210
0
220
0
230
1
0
LINE
5
12E
100
AcDbEntity
8
SK2
62
256
6
ByLayer
370
-1
48
1
60
0
100
AcDbLine
10
-69
20
-40.0375
30
0
11
-65.825003
21
-39.186761
31
0
39
0
210
0
220
0
230
1
0
LINE
5
12F
100
AcDbEntity
8
SK2
62
256
6
ByLayer
370
-1
48
1
60
0
100
AcDbLine
10
-69
20
-40.0375
30
0
11
-65.824997
21
-40.888239
31
0
39
0
210
0
220
0
230
1
0
LINE
5
130
100
AcDbEntity
8
SK2
62
256
6
ByLayer
370
-1
48
1
60
0
100
AcDbLine
10
-65.825003
20
-39.186761
30
0
11
-65.824997
21
-40.888239
31
0
39
0
210
0
220
0
230
1
0
LINE
5
131
100
AcDbEntity
8
SK2
62
256
6
ByLayer
370
-1
48
1
60
0
100
AcDbLine
10
44
20
-40.0375
30
0
11
40.825003
21
-40.888239
31
0
39
0
210
0
220
0
230
1
0
LINE
5
132
100
AcDbEntity
8
SK2
62
256
6
ByLayer
370
-1
48
1
60
0
100
AcDbLine
10
44
20
-40.0375
30
0
11
40.824997
21
-39.186761
31
0
39
0
210
0
220
0
230
1
0
LINE
5
133
100
AcDbEntity
8
SK2
62
256
6
ByLayer
370
-1
48
1
60
0
100
AcDbLine
10
40.825003
20
-40.888239
30
0
11
40.824997
21
-39.186761
31
0
39
0
210
0
220
0
230
1
0
ENDBLK
5
135
100
AcDbEntity
8
0
100
AcDbBlockEnd
0
BLOCK
5
143
100
AcDbEntity
8
0
100
AcDbBlockBegin
2
DimnDraft3D3
70
0
10
0
20
0
30
0
3
DimnDraft3D3
0
MTEXT
5
138
100
AcDbEntity
8
2
62
256
6
ByLayer
370
-1
48
1
60
0
100
AcDbMText
10
17.488158
20
17.93755
30
0
210
0
220
0
230
1
1
\W01.000;\fsimplex.shx,bigfont.shx;44.0 
40
4.5
41
0
44
1.084337
50
0
71
7
72
5
7
DEFAULT
0
LINE
5
13A
100
AcDbEntity
8
2
62
256
6
ByLayer
370
-1
48
1
60
0
100
AcDbLine
10
44
20
-8.95
30
0
11
44
21
19.98755
31
0
39
0
210
0
220
0
230
1
0
LINE
5
13B
100
AcDbEntity
8
2
62
256
6
ByLayer
370
-1
48
1
60
0
100
AcDbLine
10
0
20
11.55
30
0
11
0
21
19.98755
31
0
39
0
210
0
220
0
230
1
0
LINE
5
13C
100
AcDbEntity
8
2
62
256
6
ByLayer
370
-1
48
1
60
0
100
AcDbLine
10
44
20
16.81255
30
0
11
0
21
16.81255
31
0
39
0
210
0
220
0
230
1
0
LINE
5
13D
100
AcDbEntity
8
2
62
256
6
ByLayer
370
-1
48
1
60
0
100
AcDbLine
10
44
20
16.81255
30
0
11
40.825003
21
15.961811
31
0
39
0
210
0
220
0
230
1
0
LINE
5
13E
100
AcDbEntity
8
2
62
256
6
ByLayer
370
-1
48
1
60
0
100
AcDbLine
10
44
20
16.81255
30
0
11
40.824997
21
17.663289
31
0
39
0
210
0
220
0
230
1
0
LINE
5
13F
100
AcDbEntity
8
2
62
256
6
ByLayer
370
-1
48
1
60
0
100
AcDbLine
10
40.825003
20
15.961811
30
0
11
40.824997
21
17.663289
31
0
39
0
210
0
220
0
230
1
0
LINE
5
140
100
AcDbEntity
8
2
62
256
6
ByLayer
370
-1
48
1
60
0
100
AcDbLine
10
0
20
16.81255
30
0
11
3.174997
21
17.663289
31
0
39
0
210
0
220
0
230
1
0
LINE
5
141
100
AcDbEntity
8
2
62
256
6
ByLayer
370
-1
48
1
60
0
100
AcDbLine
10
0
20
16.81255
30
0
11
3.175003
21
15.961811
31
0
39
0
210
0
220
0
230
1
0
LINE
5
142
100
AcDbEntity
8
2
62
256
6
ByLayer
370
-1
48
1
60
0
100
AcDbLine
10
3.174997
20
17.663289
30
0
11
3.175003
21
15.961811
31
0
39
0
210
0
220
0
230
1
0
ENDBLK
5
144
100
AcDbEntity
8
0
100
AcDbBlockEnd
0
BLOCK
5
151
100
AcDbEntity
8
0
100
AcDbBlockBegin
2
DimnDraft3D4
70
0
10
0
20
0
30
0
3
DimnDraft3D4
0
MTEXT
5
147
100
AcDbEntity
8
2
62
256
6
ByLayer
370
-1
48
1
60
0
100
AcDbMText
10
26.484043
20
-21.635215
30
0
210
0
220
0
230
1
1
\W01.000;\fsimplex.shx,bigfont.shx;93.0 
40
4.5
41
0
44
1.084337
50
313.5
71
7
72
5
7
DEFAULT
0
LINE
5
148
100
AcDbEntity
8
2
62
256
6
ByLayer
370
-1
48
1
60
0
100
AcDbLine
10
28.597147
20
-9.772961
30
0
11
19.418332
21
-9.29192
31
0
39
0
210
0
220
0
230
1
0
LINE
5
149
100
AcDbEntity
8
2
62
256
6
ByLayer
370
-1
48
1
60
0
100
AcDbLine
10
44
20
-12.125
30
0
11
44
21
-35.195593
31
0
39
0
210
0
220
0
230
1
0
ARC
5
14A
100
AcDbEntity
8
2
62
256
6
ByLayer
370
-1
48
1
60
0
100
AcDbCircle
39
0
10
44
20
-10.580191
30
0
40
21.4404027865335
210
0
220
0
230
1
100
AcDbArc
50
177
51
270
0
LINE
5
14B
100
AcDbEntity
8
2
62
256
6
ByLayer
370
-1
48
1
60
0
100
AcDbLine
10
22.588981
20
-9.458087
30
0
11
23.390706
21
-12.645813
31
0
39
0
210
0
220
0
230
1
0
LINE
5
14C
100
AcDbEntity
8
2
62
256
6
ByLayer
370
-1
48
1
60
0
100
AcDbLine
10
22.588981
20
-9.458087
30
0
11
21.68943
21
-12.619607
31
0
39
0
210
0
220
0
230
1
0
LINE
5
14D
100
AcDbEntity
8
2
62
256
6
ByLayer
370
-1
48
1
60
0
100
AcDbLine
10
23.390706
20
-12.645813
30
0
11
21.68943
21
-12.619607
31
0
39
0
210
0
220
0
230
1
0
LINE
5
14E
100
AcDbEntity
8
2
62
256
6
ByLayer
370
-1
48
1
60
0
100
AcDbLine
10
44
20
-32.020593
30
0
11
40.79574
21
-32.75345
31
0
39
0
210
0
220
0
230
1
0
LINE
5
14F
100
AcDbEntity
8
2
62
256
6
ByLayer
370
-1
48
1
60
0
100
AcDbLine
10
44
20
-32.020593
30
0
11
40.858595
21
-31.053134
31
0
39
0
210
0
220
0
230
1
0
LINE
5
150
100
AcDbEntity
8
2
62
256
6
ByLayer
370
-1
48
1
60
0
100
AcDbLine
10
40.79574
20
-32.75345
30
0
11
40.858595
21
-31.053134
31
0
39
0
210
0
220
0
230
1
0
ENDBLK
5
152
100
AcDbEntity
8
0
100
AcDbBlockEnd
0
BLOCK
5
15F
100
AcDbEntity
8
0
100
AcDbBlockBegin
2
DimnDraft3D5
70
0
10
0
20
0
30
0
3
DimnDraft3D5
0
MTEXT
5
155
100
AcDbEntity
8
2
62
256
6
ByLayer
370
-1
48
1
60
0
100
AcDbMText
10
63.725
20
-4.325658
30
0
210
0
220
0
230
1
1
\W01.000;\fsimplex.shx,bigfont.shx;20.5 
40
4.5
41
0
44
1.084337
50
90
71
7
72
5
7
DEFAULT
0
LINE
5
156
100
AcDbEntity
8
2
62
256
6
ByLayer
370
-1
48
1
60
0
100
AcDbLine
10
45.5875
20
-10.5375
30
0
11
68.025
21
-10.5375
31
0
39
0
210
0
220
0
230
1
0
LINE
5
157
100
AcDbEntity
8
2
62
256
6
ByLayer
370
-1
48
1
60
0
100
AcDbLine
10
1.5875
20
9.9625
30
0
11
68.025
21
9.9625
31
0
39
0
210
0
220
0
230
1
0
LINE
5
158
100
AcDbEntity
8
2
62
256
6
ByLayer
370
-1
48
1
60
0
100
AcDbLine
10
64.85
20
-10.5375
30
0
11
64.85
21
9.9625
31
0
39
0
210
0
220
0
230
1
0
LINE
5
159
100
AcDbEntity
8
2
62
256
6
ByLayer
370
-1
48
1
60
0
100
AcDbLine
10
64.85
20
-10.5375
30
0
11
63.999261
21
-7.362503
31
0
39
0
210
0
220
0
230
1
0
LINE
5
15A
100
AcDbEntity
8
2
62
256
6
ByLayer
370
-1
48
1
60
0
100
AcDbLine
10
64.85
20
-10.5375
30
0
11
65.700739
21
-7.362497
31
0
39
0
210
0
220
0
230
1
0
LINE
5
15B
100
AcDbEntity
8
2
62
256
6
ByLayer
370
-1
48
1
60
0
100
AcDbLine
10
63.999261
20
-7.362503
30
0
11
65.700739
21
-7.362497
31
0
39
0
210
0
220
0
230
1
0
LINE
5
15C
100
AcDbEntity
8
2
62
256
6
ByLayer
370
-1
48
1
60
0
100
AcDbLine
10
64.85
20
9.9625
30
0
11
65.700739
21
6.787503
31
0
39
0
210
0
220
0
230
1
0
LINE
5
15D
100
AcDbEntity
8
2
62
256
6
ByLayer
370
-1
48
1
60
0
100
AcDbLine
10
64.85
20
9.9625
30
0
11
63.999261
21
6.787497
31
0
39
0
210
0
220
0
230
1
0
LINE
5
15E
100
AcDbEntity
8
2
62
256
6
ByLayer
370
-1
48
1
60
0
100
AcDbLine
10
65.700739
20
6.787503
30
0
11
63.999261
21
6.787497
31
0
39
0
210
0
220
0
230
1
0
ENDBLK
5
160
100
AcDbEntity
8
0
100
AcDbBlockEnd
0
ENDSEC
0
SECTION
2
ENTITIES
0
ARC
5
AB
100
AcDbEntity
8
1
62
256
6
ByLayer
370
-1
48
1
60
0
100
AcDbCircle
39
0
10
-21.882505
20
-1.771097
30
0
40
1.60000000000001
210
0
220
0
230
-1
100
AcDbArc
50
24.083322
51
110.5
0
ARC
5
AC
100
AcDbEntity
8
1
62
256
6
ByLayer
370
-1
48
1
60
0
100
AcDbCircle
39
0
10
-15.834977
20
-5.965524
30
0
40
1.59999999999997
210
0
220
0
230
-1
100
AcDbArc
50
192.214526
51
280.249429
0
ARC
5
AD
100
AcDbEntity
8
1
62
256
6
ByLayer
370
-1
48
1
60
0
100
AcDbCircle
39
0
10
-21.882505
20
-1.771097
30
0
40
1.6
210
0
220
0
230
-1
100
AcDbArc
50
290.5
51
16.916678
0
ARC
5
AE
100
AcDbEntity
8
1
62
256
6
ByLayer
370
-1
48
1
60
0
100
AcDbCircle
39
0
10
-21.568058
20
-19.788814
30
0
40
11
210
0
220
0
230
-1
100
AcDbArc
50
63.291056
51
93
0
ARC
5
AF
100
AcDbEntity
8
1
62
256
6
ByLayer
370
-1
48
1
60
0
100
AcDbCircle
39
0
10
-17.396202
20
1.246576
30
0
40
1.59999999999993
210
0
220
0
230
-1
100
AcDbArc
50
109.960299
51
192.214526
0
ARC
5
B0
100
AcDbEntity
8
1
62
256
6
ByLayer
370
-1
48
1
60
0
100
AcDbCircle
39
0
10
15.834977
20
-5.965524
30
0
40
3.2
210
0
220
0
230
1
100
AcDbArc
50
259.750571
51
347.785474
0
ARC
5
B1
100
AcDbEntity
8
1
62
256
6
ByLayer
370
-1
48
1
60
0
100
AcDbCircle
39
0
10
21.882505
20
-1.771097
30
0
40
1.5
210
0
220
0
230
1
100
AcDbArc
50
163.200879
51
249.5
0
ARC
5
B2
100
AcDbEntity
8
1
62
256
6
ByLayer
370
-1
48
1
60
0
100
AcDbCircle
39
0
10
21.882505
20
-1.771097
30
0
40
1.50000000000001
210
0
220
0
230
1
100
AcDbArc
50
69.5
51
155.799121
0
ARC
5
B3
100
AcDbEntity
8
1
62
256
6
ByLayer
370
-1
48
1
60
0
100
AcDbCircle
39
0
10
17.396202
20
1.246576
30
0
40
3.2
210
0
220
0
230
1
100
AcDbArc
50
347.785474
51
70.039701
0
ARC
5
B5
100
AcDbEntity
8
1
62
256
6
ByLayer
370
-1
48
1
60
0
100
AcDbCircle
39
0
10
23.232136
20
-2.275704
30
0
40
0.793799999999973
210
0
220
0
230
1
100
AcDbArc
50
97
51
222
0
ARC
5
B8
100
AcDbEntity
8
1
62
256
6
ByLayer
370
-1
48
1
60
0
100
AcDbCircle
39
0
10
-43.2062
20
-9.7437
30
0
40
0.793799999999973
210
0
220
0
230
-1
100
AcDbArc
50
138
51
263
0
ARC
5
B9
100
AcDbEntity
8
1
62
256
6
ByLayer
370
-1
48
1
60
0
100
AcDbCircle
39
0
10
33.219168
20
-6.009702
30
0
40
1.0744
210
0
220
0
230
1
100
AcDbArc
50
99.5
51
159.5
0
ARC
5
BB
100
AcDbEntity
8
1
62
256
6
ByLayer
370
-1
48
1
60
0
100
AcDbCircle
39
0
10
33.219168
20
-6.009702
30
0
40
1.40969999999996
210
0
220
0
230
1
100
AcDbArc
50
249.5
51
309.5
0
ARC
5
BC
100
AcDbEntity
8
1
62
256
6
ByLayer
370
-1
48
1
60
0
100
AcDbCircle
39
0
10
33.219168
20
-6.009702
30
0
40
1.0744
210
0
220
0
230
1
100
AcDbArc
50
339.5
51
39.5
0
ARC
5
BD
100
AcDbEntity
8
1
62
256
6
ByLayer
370
-1
48
1
60
0
100
AcDbCircle
39
0
10
33.219168
20
-6.009702
30
0
40
1.40969999999996
210
0
220
0
230
1
100
AcDbArc
50
69.5
51
129.5
0
ARC
5
BE
100
AcDbEntity
8
1
62
256
6
ByLayer
370
-1
48
1
60
0
100
AcDbCircle
39
0
10
33.219168
20
-6.009702
30
0
40
1.40969999999996
210
0
220
0
230
1
100
AcDbArc
50
9.5
51
69.5
0
ARC
5
BF
100
AcDbEntity
8
1
62
256
6
ByLayer
370
-1
48
1
60
0
100
AcDbCircle
39
0
10
33.219168
20
-6.009702
30
0
40
1.40969999999996
210
0
220
0
230
1
100
AcDbArc
50
189.5
51
249.5
0
ARC
5
C0
100
AcDbEntity
8
1
62
256
6
ByLayer
370
-1
48
1
60
0
100
AcDbCircle
39
0
10
33.219168
20
-6.009702
30
0
40
1.0744
210
0
220
0
230
1
100
AcDbArc
50
279.5
51
339.5
0
ARC
5
C1
100
AcDbEntity
8
1
62
256
6
ByLayer
370
-1
48
1
60
0
100
AcDbCircle
39
0
10
33.219168
20
-6.009702
30
0
40
1.40969999999996
210
0
220
0
230
1
100
AcDbArc
50
309.5
51
9.5
0
ARC
5
C2
100
AcDbEntity
8
1
62
256
6
ByLayer
370
-1
48
1
60
0
100
AcDbCircle
39
0
10
33.219168
20
-6.009702
30
0
40
1.40969999999996
210
0
220
0
230
1
100
AcDbArc
50
129.5
51
189.5
0
ARC
5
C3
100
AcDbEntity
8
1
62
256
6
ByLayer
370
-1
48
1
60
0
100
AcDbCircle
39
0
10
33.219168
20
-6.009702
30
0
40
1.0744
210
0
220
0
230
1
100
AcDbArc
50
219.5
51
279.5
0
ARC
5
C4
100
AcDbEntity
8
1
62
256
6
ByLayer
370
-1
48
1
60
0
100
AcDbCircle
39
0
10
33.219168
20
-6.009702
30
0
40
1.0744
210
0
220
0
230
1
100
AcDbArc
50
159.5
51
219.5
0
ARC
5
C5
100
AcDbEntity
8
1
62
256
6
ByLayer
370
-1
48
1
60
0
100
AcDbCircle
39
0
10
33.219168
20
-6.009702
30
0
40
1.0744
210
0
220
0
230
1
100
AcDbArc
50
39.5
51
99.5
0
CIRCLE
5
B4
100
AcDbEntity
8
1
62
256
6
ByLayer
370
-1
48
1
60
0
100
AcDbCircle
10
-33.219168
20
-6.009702
30
0
40
2.20386856458361
39
0
210
0
220
0
230
-1
0
CIRCLE
5
B6
100
AcDbEntity
8
1
62
256
6
ByLayer
370
-1
48
1
60
0
100
AcDbCircle
10
-33.219168
20
-6.009702
30
0
40
2.28743682147946
39
0
210
0
220
0
230
-1
0
CIRCLE
5
B7
100
AcDbEntity
8
1
62
256
6
ByLayer
370
-1
48
1
60
0
100
AcDbCircle
10
-33.219168
20
-6.009702
30
0
40
2.32
39
0
210
0
220
0
230
-1
0
CIRCLE
5
BA
100
AcDbEntity
8
1
62
256
6
ByLayer
370
-1
48
1
60
0
100
AcDbCircle
10
33.219168
20
-6.009702
30
0
40
2.2
39
0
210
0
220
0
230
1
0
CIRCLE
5
C6
100
AcDbEntity
8
1
62
256
6
ByLayer
370
-1
48
1
60
0
100
AcDbCircle
10
33.219168
20
-6.009702
30
0
40
1.5
39
0
210
0
220
0
230
1
0
ELLIPSE
5
C7
100
AcDbEntity
8
1
62
256
6
ByLayer
370
-1
48
1
60
0
100
AcDbEllipse
10
0.717727
20
10.708471
30
0
11
0.0416475571301335
21
-1.70933019322822
31
0
210
0
220
0
230
-1
40
0.249625
41
0.0972976938404752
42
0.416080273786718
0
ELLIPSE
5
C8
100
AcDbEntity
8
1
62
256
6
ByLayer
370
-1
48
1
60
0
100
AcDbEllipse
10
0.717727
20
-6.483928
30
0
11
0.0219345950747348
21
-1.62778278856519
31
0
210
0
220
0
230
-1
40
0.263031
41
2.87399556084994
42
-3.09040716636416
0
ELLIPSE
5
C9
100
AcDbEntity
8
1
62
256
6
ByLayer
370
-1
48
1
60
0
100
AcDbEllipse
10
32.189367
20
-8.764031
30
0
11
-0.418848292192588
21
-1.12026064499282
31
0
210
0
220
0
230
-1
40
0.995819
41
-0.304233038584732
42
0.304233038584728
0
ELLIPSE
5
CA
100
AcDbEntity
8
1
62
256
6
ByLayer
370
-1
48
1
60
0
100
AcDbEllipse
10
34.24897
20
-3.255372
30
0
11
0.418848292192586
21
1.12026064499282
31
0
210
0
220
0
230
-1
40
0.995819
41
-0.304233038584733
42
0.304233038584734
0
POINT
5
41
100
AcDbEntity
8
80
62
256
6
ByLayer
370
-1
48
1
60
0
100
AcDbPoint
10
0
20
0
30
0
39
0
210
0
220
0
230
1
50
360
0
POINT
5
43
100
AcDbEntity
8
81
62
256
6
ByLayer
370
-1
48
1
60
0
100
AcDbPoint
10
44
20
-10.5375
30
0
39
0
210
0
220
0
230
1
50
360
0
SPLINE
5
CB
100
AcDbEntity
8
1
62
256
6
ByLayer
370
-1
48
1
60
0
100
AcDbSpline
70
4
71
3
72
8
73
4
40
0
40
0
40
0
40
0
40
1
40
1
40
1
40
1
41
1
10
20.5143340338095
20
-1.15619150574605
30
0
41
1
10
20.4834890293481
20
-1.14350931460334
30
0
41
1
10
20.4526374707598
20
-1.13084382034586
30
0
41
1
10
20.4217799751047
20
-1.11819348536932
30
0
0
SPLINE
5
CC
100
AcDbEntity
8
1
62
256
6
ByLayer
370
-1
48
1
60
0
100
AcDbSpline
70
4
71
3
72
22
73
18
40
0
40
0
40
0
40
0
40
0.25
40
0.25
40
0.375
40
0.375
40
0.5
40
0.5
40
0.625
40
0.625
40
0.75
40
0.75
40
0.8125
40
0.8125
40
0.875
40
0.875
40
1
40
1
40
1
40
1
41
1
10
0.583361727329844
20
-4.9156046162571
30
0
41
1
10
0.540562488075409
20
-4.96143731592139
30
0
41
1
10
0.487447042470563
20
-5.02836416211738
30
0
41
1
10
0.398599640377825
20
-5.16034994431206
30
0
41
1
10
0.367627301490273
20
-5.20954117961503
30
0
41
1
10
0.306046987484223
20
-5.31606810987566
30
0
41
1
10
0.275205144675198
20
-5.37372345046705
30
0
41
1
10
0.21518271174935
20
-5.49877616129308
30
0
41
1
10
0.185873640912291
20
-5.56664977805522
30
0
41
1
10
0.133135312910156
20
-5.70858376296175
30
0
41
1
10
0.109444365036666
20
-5.78310041840288
30
0
41
1
10
0.079633673086164
20
-5.90089814640595
30
0
41
1
10
0.0706190295622946
20
-5.94139913278781
30
0
41
1
10
0.0551162124920381
20
-6.02296016046037
30
0
41
1
10
0.048591626293387
20
-6.06410779212143
30
0
41
1
10
0.0328444506476444
20
-6.18864850942268
30
0
41
1
10
0.0274584978620283
20
-6.27313640893334
30
0
41
1
10
0.0274584978620283
20
-6.35911379585278
30
0
0
SPLINE
5
CD
100
AcDbEntity
8
1
62
256
6
ByLayer
370
-1
48
1
60
0
100
AcDbSpline
70
4
71
3
72
8
73
4
40
0
40
0
40
0
40
0
40
1
40
1
40
1
40
1
41
1
10
20.4465188779969
20
-1.33757137909626
30
0
41
1
10
20.4149195916213
20
-1.32690660657377
30
0
41
1
10
20.3833263129258
20
-1.31622493285766
30
0
41
1
10
20.3517384988521
20
-1.30552792322089
30
0
0
SPLINE
5
CE
100
AcDbEntity
8
1
62
256
6
ByLayer
370
-1
48
1
60
0
100
AcDbSpline
70
4
71
3
72
12
73
8
40
0
40
0
40
0
40
0
40
0.5
40
0.5
40
0.75
40
0.75
40
1
40
1
40
1
40
1
41
1
10
0.213376124077911
20
9.96250000000001
30
0
41
1
10
0.274159364959246
20
9.78510742483019
30
0
41
1
10
0.340440575069635
20
9.6261798546891
30
0
41
1
10
0.437531015146021
20
9.41579521905558
30
0
41
1
10
0.469834642717046
20
9.3499558178363
30
0
41
1
10
0.530167163515188
20
9.23356719602572
30
0
41
1
10
0.558288953543894
20
9.1827408854634
30
0
41
1
10
0.583361727329844
20
9.1407784296654
30
0
0
SPLINE
5
CF
100
AcDbEntity
8
1
62
256
6
ByLayer
370
-1
48
1
60
0
100
AcDbSpline
70
4
71
3
72
16
73
12
40
0
40
0
40
0
40
0
40
0.250000000000007
40
0.250000000000007
40
0.500000000000014
40
0.500000000000014
40
0.75000000000002
40
0.75000000000002
40
0.87500000000001
40
0.87500000000001
40
1
40
1
40
1
40
1
41
1
10
31.8288014171944
20
-6.24236943753161
30
0
41
1
10
31.8229924874354
20
-6.20765664208199
30
0
41
1
10
31.8199629606485
20
-6.17257871645651
30
0
41
1
10
31.8201823921576
20
-6.1022971721701
30
0
41
1
10
31.8234045388384
20
-6.06710580340999
30
0
41
1
10
31.8386430762656
20
-5.99908057253288
30
0
41
1
10
31.8507414190124
20
-5.96573355869282
30
0
41
1
10
31.8793635120422
20
-5.92485788100117
30
0
41
1
10
31.8909985787632
20
-5.91256258510495
30
0
41
1
10
31.9176220141712
20
-5.89484202504201
30
0
41
1
10
31.9326191574497
20
-5.88949052356509
30
0
41
1
10
31.948033444446
20
-5.88845218597646
30
0
0
SPLINE
5
D0
100
AcDbEntity
8
1
62
256
6
ByLayer
370
-1
48
1
60
0
100
AcDbSpline
70
4
71
3
72
8
73
4
40
0
40
0
40
0
40
0
40
1
40
1
40
1
40
1
41
1
10
32.6886061068666
20
-4.848241991116
30
0
41
1
10
32.6918085317285
20
-4.85424182902085
30
0
41
1
10
32.6950109809457
20
-4.86024171255613
30
0
41
1
10
32.6982134557213
20
-4.86624164397566
30
0
0
SPLINE
5
D1
100
AcDbEntity
8
1
62
256
6
ByLayer
370
-1
48
1
60
0
100
AcDbSpline
70
4
71
3
72
16
73
12
40
0
40
0
40
0
40
0
40
0.124999999999993
40
0.124999999999993
40
0.249999999999986
40
0.249999999999986
40
0.499999999999991
40
0.499999999999991
40
0.749999999999995
40
0.749999999999995
40
1
40
1
40
1
40
1
41
1
10
34.2580527519684
20
-6.75213301437276
30
0
41
1
10
34.268979915685
20
-6.76300453124099
30
0
41
1
10
34.2767244263453
20
-6.77670385254379
30
0
41
1
10
34.2852613982057
20
-6.80756527853845
30
0
41
1
10
34.2860014792096
20
-6.82440575868273
30
0
41
1
10
34.2808271946036
20
-6.87419663257594
30
0
41
1
10
34.2680433051698
20
-6.90736446443026
30
0
41
1
10
34.2349248515581
20
-6.96869641612199
30
0
41
1
10
34.2142678555146
20
-6.99737775164141
30
0
41
1
10
34.1683028060324
20
-7.0505916050102
30
0
41
1
10
34.1430087054179
20
-7.07507119507795
30
0
41
1
10
34.1158476968069
20
-7.09746100275154
30
0
0
SPLINE
5
D2
100
AcDbEntity
8
1
62
256
6
ByLayer
370
-1
48
1
60
0
100
AcDbSpline
70
4
71
3
72
8
73
4
40
0
40
0
40
0
40
0
40
1
40
1
40
1
40
1
41
1
10
34.3625151661769
20
-5.48849855555545
30
0
41
1
10
34.3688684137516
20
-5.48607136232405
30
0
41
1
10
34.3752216106222
20
-5.48364418846359
30
0
41
1
10
34.3815747591754
20
-5.48121703306231
30
0
0
SPLINE
5
D3
100
AcDbEntity
8
1
62
256
6
ByLayer
370
-1
48
1
60
0
100
AcDbSpline
70
4
71
3
72
16
73
12
40
0
40
0
40
0
40
0
40
0.250000000000002
40
0.250000000000002
40
0.500000000000005
40
0.500000000000005
40
0.750000000000007
40
0.750000000000007
40
0.875000000000004
40
0.875000000000004
40
1
40
1
40
1
40
1
41
1
10
32.72548088432
20
-7.33012861273329
30
0
41
1
10
32.7583978481532
20
-7.34243576120571
30
0
41
1
10
32.7923494623944
20
-7.35212989633931
30
0
41
1
10
32.8612762938264
20
-7.36530548499843
30
0
41
1
10
32.8964516640883
20
-7.36886497575563
30
0
41
1
10
32.9661214115571
20
-7.36689552762775
30
0
41
1
10
33.0012326421423
20
-7.36136092746352
30
0
41
1
10
33.046735138917
20
-7.34111633950369
30
0
41
1
10
33.0610389436583
20
-7.33204569427852
30
0
41
1
10
33.083522951175
20
-7.30931623651929
30
0
41
1
10
33.0916832342833
20
-7.29556035693776
30
0
41
1
10
33.0956462224744
20
-7.28061780886063
30
0
0
SPLINE
5
D4
100
AcDbEntity
8
1
62
256
6
ByLayer
370
-1
48
1
60
0
100
AcDbSpline
70
4
71
3
72
16
73
12
40
0
40
0
40
0
40
0
40
0.249999999999988
40
0.249999999999988
40
0.499999999999976
40
0.499999999999976
40
0.749999999999964
40
0.749999999999964
40
0.874999999999982
40
0.874999999999982
40
1
40
1
40
1
40
1
41
1
10
34.1158476968069
20
-7.09746100275154
30
0
41
1
10
34.0886899989907
20
-7.1198480812165
30
0
41
1
10
34.0598263876804
20
-7.14001069118811
30
0
41
1
10
33.9988510691566
20
-7.17496143007006
30
0
41
1
10
33.966763376476
20
-7.18976665356979
30
0
41
1
10
33.9002325297245
20
-7.2105823084799
30
0
41
1
10
33.8653039972253
20
-7.21677834323756
30
0
41
1
10
33.8155935754324
20
-7.21242872240998
30
0
41
1
10
33.7991280034788
20
-7.20850010700303
30
0
41
1
10
33.770469830591
20
-7.19430381563518
30
0
41
1
10
33.7583367227244
20
-7.18399165931021
30
0
41
1
10
33.7497303524968
20
-7.17116166398455
30
0
0
SPLINE
5
D5
100
AcDbEntity
8
1
62
256
6
ByLayer
370
-1
48
1
60
0
100
AcDbSpline
70
4
71
3
72
8
73
4
40
0
40
0
40
0
40
0
40
1
40
1
40
1
40
1
41
1
10
31.9480334444469
20
-5.88845218597635
30
0
41
1
10
31.9548306689221
20
-5.88867872364466
30
0
41
1
10
31.961627945092
20
-5.88890526303587
30
0
41
1
10
31.96842527551
20
-5.88913180423503
30
0
0
SPLINE
5
D6
100
AcDbEntity
8
1
62
256
6
ByLayer
370
-1
48
1
60
0
100
AcDbSpline
70
4
71
3
72
8
73
4
40
0
40
0
40
0
40
0
40
1
40
1
40
1
40
1
41
1
10
34.2422169720119
20
-6.73926768389691
30
0
41
1
10
34.2474956067975
20
-6.74355616107738
30
0
41
1
10
34.2527741994554
20
-6.74784460403234
30
0
41
1
10
34.2580527519684
20
-6.75213301437276
30
0
0
SPLINE
5
D7
100
AcDbEntity
8
1
62
256
6
ByLayer
370
-1
48
1
60
0
100
AcDbSpline
70
4
71
3
72
16
73
12
40
0
40
0
40
0
40
0
40
0.125000000000017
40
0.125000000000017
40
0.250000000000034
40
0.250000000000034
40
0.500000000000023
40
0.500000000000023
40
0.750000000000011
40
0.750000000000011
40
1
40
1
40
1
40
1
41
1
10
34.3815747591754
20
-5.48121703306231
30
0
41
1
10
34.3964533508192
20
-5.47718959012659
30
0
41
1
10
34.4121895664122
20
-5.47733230780625
30
0
41
1
10
34.4431848312507
20
-5.48536978630111
30
0
41
1
10
34.4581391553695
20
-5.49314909742304
30
0
41
1
10
34.4986721747346
20
-5.52252559628485
30
0
41
1
10
34.5210044149921
20
-5.55018068522077
30
0
41
1
10
34.557560216415
20
-5.60952808322838
30
0
41
1
10
34.5720704835675
20
-5.6417582343276
30
0
41
1
10
34.595172507677
20
-5.70817206154976
30
0
41
1
10
34.6037254042427
20
-5.74231719028165
30
0
41
1
10
34.6095350421684
20
-5.777034217568
30
0
0
SPLINE
5
D8
100
AcDbEntity
8
1
62
256
6
ByLayer
370
-1
48
1
60
0
100
AcDbSpline
70
4
71
3
72
16
73
12
40
0
40
0
40
0
40
0
40
0.250000000000005
40
0.250000000000005
40
0.50000000000001
40
0.50000000000001
40
0.750000000000015
40
0.750000000000015
40
0.875000000000008
40
0.875000000000008
40
1
40
1
40
1
40
1
41
1
10
33.7128555750429
20
-4.68927504236652
30
0
41
1
10
33.7458222026182
20
-4.70160075935121
30
0
41
1
10
33.7777153407154
20
-4.71651607500505
30
0
41
1
10
33.83847122773
20
-4.75184688040949
30
0
41
1
10
33.8673367737299
20
-4.77223302566986
30
0
41
1
10
33.9186290830541
20
-4.81944260163692
30
0
41
1
10
33.9414592728066
20
-4.84659358071931
30
0
41
1
10
33.9625476015695
20
-4.89181887923851
30
0
41
1
10
33.9673781068022
20
-4.90804279054168
30
0
41
1
10
33.969412844282
20
-4.93995964197251
30
0
41
1
10
33.9665488088701
20
-4.95562329977437
30
0
41
1
10
33.9597408921014
20
-4.96949163268866
30
0
0
SPLINE
5
D9
100
AcDbEntity
8
1
62
256
6
ByLayer
370
-1
48
1
60
0
100
AcDbSpline
70
4
71
3
72
16
73
12
40
0
40
0
40
0
40
0
40
0.124999999999998
40
0.124999999999998
40
0.249999999999996
40
0.249999999999996
40
0.499999999999998
40
0.499999999999998
40
0.749999999999999
40
0.749999999999999
40
1
40
1
40
1
40
1
41
1
10
32.1802837073944
20
-5.26727064072702
30
0
41
1
10
32.1693565436778
20
-5.25639912385878
30
0
41
1
10
32.1616120330175
20
-5.24269980255599
30
0
41
1
10
32.1530750611571
20
-5.21183837656133
30
0
41
1
10
32.1523349801533
20
-5.19499789641705
30
0
41
1
10
32.1575092647593
20
-5.14520702252386
30
0
41
1
10
32.170293154193
20
-5.11203919066955
30
0
41
1
10
32.2034116078047
20
-5.05070723897779
30
0
41
1
10
32.2240686038481
20
-5.0220259034584
30
0
41
1
10
32.2700336533304
20
-4.96881205008961
30
0
41
1
10
32.2953277539448
20
-4.94433246002183
30
0
41
1
10
32.3224887625559
20
-4.92194265234826
30
0
0
SPLINE
5
DA
100
AcDbEntity
8
1
62
256
6
ByLayer
370
-1
48
1
60
0
100
AcDbSpline
70
4
71
3
72
18
73
14
40
0
40
0
40
0
40
0
40
0.124999999999999
40
0.124999999999999
40
0.249999999999997
40
0.249999999999997
40
0.499999999999992
40
0.499999999999992
40
0.749999999999987
40
0.749999999999987
40
0.874999999999993
40
0.874999999999993
40
1
40
1
40
1
40
1
41
1
10
33.9489564098926
20
-4.98681166729054
30
0
41
1
10
33.933864424821
20
-5.01104961386829
30
0
41
1
10
33.9298168556296
20
-5.04071243678874
30
0
41
1
10
33.9329759309667
20
-5.1001598085162
30
0
41
1
10
33.9402999677112
20
-5.13056289678914
30
0
41
1
10
33.9721765765112
20
-5.21921187656289
30
0
41
1
10
34.0066131017663
20
-5.27585713466317
30
0
41
1
10
34.0898603548036
20
-5.37682666225984
30
0
41
1
10
34.1387715587826
20
-5.42132814853343
30
0
41
1
10
34.2197252387845
20
-5.46955353925173
30
0
41
1
10
34.2480867369745
20
-5.48253054629683
30
0
41
1
10
34.3060859356208
20
-5.49703365794437
30
0
41
1
10
34.3358343713902
20
-5.49869168021363
30
0
41
1
10
34.3625151661769
20
-5.48849855555545
30
0
0
SPLINE
5
DB
100
AcDbEntity
8
1
62
256
6
ByLayer
370
-1
48
1
60
0
100
AcDbSpline
70
4
71
3
72
18
73
14
40
0
40
0
40
0
40
0
40
0.125000000000002
40
0.125000000000002
40
0.250000000000005
40
0.250000000000005
40
0.500000000000003
40
0.500000000000003
40
0.750000000000001
40
0.750000000000001
40
0.875000000000001
40
0.875000000000001
40
1
40
1
40
1
40
1
41
1
10
31.96842527551
20
-5.88913180423503
30
0
41
1
10
31.9969619455178
20
-5.8900828734117
30
0
41
1
10
32.0246744883105
20
-5.8787567596948
30
0
41
1
10
32.0745778847462
20
-5.84629723433673
30
0
41
1
10
32.0972457131718
20
-5.82475288832126
30
0
41
1
10
32.1580796772755
20
-5.75282244542703
30
0
41
1
10
32.1899176471666
20
-5.69467691068792
30
0
41
1
10
32.2357361965548
20
-5.57209791096398
30
0
41
1
10
32.2498200121844
20
-5.50748882265179
30
0
41
1
10
32.251107585653
20
-5.41326818388112
30
0
41
1
10
32.2481652543241
20
-5.38221790243665
30
0
41
1
10
32.2317257181217
20
-5.32473756718605
30
0
41
1
10
32.2182873896422
20
-5.29814565495226
30
0
41
1
10
32.1961194873509
20
-5.28013597120292
30
0
0
SPLINE
5
DC
100
AcDbEntity
8
1
62
256
6
ByLayer
370
-1
48
1
60
0
100
AcDbSpline
70
4
71
3
72
8
73
4
40
0
40
0
40
0
40
0
40
1
40
1
40
1
40
1
41
1
10
32.1961194873509
20
-5.28013597120284
30
0
41
1
10
32.1908408525653
20
-5.2758474940224
30
0
41
1
10
32.1855622599074
20
-5.27155905106744
30
0
41
1
10
32.1802837073944
20
-5.26727064072699
30
0
0
SPLINE
5
DD
100
AcDbEntity
8
1
62
256
6
ByLayer
370
-1
48
1
60
0
100
AcDbSpline
70
4
71
3
72
8
73
4
40
0
40
0
40
0
40
0
40
1
40
1
40
1
40
1
41
1
10
34.4903030149159
20
-6.13095146912343
30
0
41
1
10
34.4835057904407
20
-6.13072493145512
30
0
41
1
10
34.4767085142708
20
-6.13049839206391
30
0
41
1
10
34.4699111838527
20
-6.13027185086474
30
0
0
SPLINE
5
DE
100
AcDbEntity
8
1
62
256
6
ByLayer
370
-1
48
1
60
0
100
AcDbSpline
70
4
71
3
72
18
73
14
40
0
40
0
40
0
40
0
40
0.125
40
0.125
40
0.25
40
0.25
40
0.500000000000004
40
0.500000000000004
40
0.750000000000008
40
0.750000000000008
40
0.875000000000004
40
0.875000000000004
40
1
40
1
40
1
40
1
41
1
10
34.4699111838527
20
-6.13027185086474
30
0
41
1
10
34.441374513845
20
-6.12932078168808
30
0
41
1
10
34.4136619710523
20
-6.14064689540498
30
0
41
1
10
34.3637585746166
20
-6.17310642076305
30
0
41
1
10
34.341090746191
20
-6.19465076677852
30
0
41
1
10
34.2802567820874
20
-6.26658120967275
30
0
41
1
10
34.2484188121962
20
-6.32472674441186
30
0
41
1
10
34.202600262808
20
-6.4473057441358
30
0
41
1
10
34.1885164471784
20
-6.51191483244799
30
0
41
1
10
34.1872288737098
20
-6.60613547121866
30
0
41
1
10
34.1901712050387
20
-6.63718575266313
30
0
41
1
10
34.2066107412412
20
-6.69466608791373
30
0
41
1
10
34.2200490697206
20
-6.72125800014751
30
0
41
1
10
34.2422169720119
20
-6.73926768389685
30
0
0
SPLINE
5
DF
100
AcDbEntity
8
1
62
256
6
ByLayer
370
-1
48
1
60
0
100
AcDbSpline
70
4
71
3
72
8
73
4
40
0
40
0
40
0
40
0
40
1
40
1
40
1
40
1
41
1
10
32.0758212931858
20
-6.53090509954433
30
0
41
1
10
32.0694680456113
20
-6.53333229277573
30
0
41
1
10
32.0631148487406
20
-6.53575946663619
30
0
41
1
10
32.0567617001875
20
-6.53818662203747
30
0
0
SPLINE
5
E0
100
AcDbEntity
8
1
62
256
6
ByLayer
370
-1
48
1
60
0
100
AcDbSpline
70
4
71
3
72
8
73
4
40
0
40
0
40
0
40
0
40
1
40
1
40
1
40
1
41
1
10
33.3394664238464
20
-4.7589326992084
30
0
41
1
10
33.3405410366354
20
-4.75221702879657
30
0
41
1
10
33.3416156408481
20
-4.74550141198114
30
0
41
1
10
33.3426902368884
20
-4.73878584623944
30
0
0
SPLINE
5
E1
100
AcDbEntity
8
1
62
256
6
ByLayer
370
-1
48
1
60
0
100
AcDbSpline
70
4
71
3
72
8
73
4
40
0
40
0
40
0
40
0
40
1
40
1
40
1
40
1
41
1
10
32.4893800494702
20
-7.03259198780927
30
0
41
1
10
32.4857851938277
20
-7.03836537802962
30
0
41
1
10
32.482190366875
20
-7.0441387221737
30
0
41
1
10
32.4785955672617
20
-7.04991202241024
30
0
0
SPLINE
5
E2
100
AcDbEntity
8
1
62
256
6
ByLayer
370
-1
48
1
60
0
100
AcDbSpline
70
4
71
3
72
20
73
16
40
0
40
0
40
0
40
0
40
0.125000000000001
40
0.125000000000001
40
0.250000000000001
40
0.250000000000001
40
0.375000000000002
40
0.375000000000002
40
0.500000000000003
40
0.500000000000003
40
0.750000000000004
40
0.750000000000004
40
0.875000000000002
40
0.875000000000002
40
1
40
1
40
1
40
1
41
1
10
32.0758212931859
20
-6.53090509954436
30
0
41
1
10
32.1026298213151
20
-6.52066317566926
30
0
41
1
10
32.1326791537465
20
-6.52241443085367
30
0
41
1
10
32.1907255378011
20
-6.53705582392953
30
0
41
1
10
32.2189089354166
20
-6.55000651997139
30
0
41
1
10
32.2727036814891
20
-6.58209496640916
30
0
41
1
10
32.2984765217012
20
-6.60147102672528
30
0
41
1
10
32.3463822854607
20
-6.64396578967958
30
0
41
1
10
32.3689467126953
20
-6.66744235454877
30
0
41
1
10
32.4315260520842
20
-6.74323433621177
30
0
41
1
10
32.4659724017924
20
-6.79980768590974
30
0
41
1
10
32.4979712522792
20
-6.88859119183149
30
0
41
1
10
32.5053291255855
20
-6.91895231557973
30
0
41
1
10
32.508538174647
20
-6.9787424800829
30
0
41
1
10
32.5044987891853
20
-7.00831107288585
30
0
41
1
10
32.4893800494702
20
-7.03259198780921
30
0
0
SPLINE
5
E3
100
AcDbEntity
8
1
62
256
6
ByLayer
370
-1
48
1
60
0
100
AcDbSpline
70
4
71
3
72
8
73
4
40
0
40
0
40
0
40
0
40
1
40
1
40
1
40
1
41
1
10
33.7497303524962
20
-7.17116166398378
30
0
41
1
10
33.7465279276343
20
-7.16516182607893
30
0
41
1
10
33.7433254784171
20
-7.15916194254365
30
0
41
1
10
33.7401230036415
20
-7.1531620111241
30
0
0
SPLINE
5
E4
100
AcDbEntity
8
1
62
256
6
ByLayer
370
-1
48
1
60
0
100
AcDbSpline
70
4
71
3
72
16
73
12
40
0
40
0
40
0
40
0
40
0.124999999999992
40
0.124999999999992
40
0.249999999999984
40
0.249999999999984
40
0.499999999999989
40
0.499999999999989
40
0.749999999999995
40
0.749999999999995
40
1
40
1
40
1
40
1
41
1
10
32.4785955672617
20
-7.04991202241024
30
0
41
1
10
32.4718005100918
20
-7.06375415917597
30
0
41
1
10
32.4689385170679
20
-7.07923555493363
30
0
41
1
10
32.4709206919109
20
-7.11120735360544
30
0
41
1
10
32.475709339484
20
-7.12737710291714
30
0
41
1
10
32.4968309526527
20
-7.17278466610352
30
0
41
1
10
32.5197322954097
20
-7.19998977283953
30
0
41
1
10
32.5710446371716
20
-7.24720621129146
30
0
41
1
10
32.599823631227
20
-7.26753006894546
30
0
41
1
10
32.6606010487303
20
-7.30287842072087
30
0
41
1
10
32.6925572223853
20
-7.31781895994339
30
0
41
1
10
32.72548088432
20
-7.33012861273329
30
0
0
SPLINE
5
E5
100
AcDbEntity
8
1
62
256
6
ByLayer
370
-1
48
1
60
0
100
AcDbSpline
70
4
71
3
72
16
73
12
40
0
40
0
40
0
40
0
40
0.25
40
0.25
40
0.5
40
0.5
40
0.75
40
0.75
40
0.875
40
0.875
40
1
40
1
40
1
40
1
41
1
10
34.6095350421684
20
-5.777034217568
30
0
41
1
10
34.6153439719274
20
-5.81174701301765
30
0
41
1
10
34.6183734987143
20
-5.84682493864315
30
0
41
1
10
34.6181540672052
20
-5.91710648292957
30
0
41
1
10
34.6149319205244
20
-5.95229785168971
30
0
41
1
10
34.5996933830972
20
-6.02032308256685
30
0
41
1
10
34.5875950403505
20
-6.0536700964069
30
0
41
1
10
34.5589729473206
20
-6.09454577409861
30
0
41
1
10
34.5473378805996
20
-6.10684106999483
30
0
41
1
10
34.5207144451916
20
-6.1245616300578
30
0
41
1
10
34.5057173019131
20
-6.12991313153469
30
0
41
1
10
34.4903030149168
20
-6.13095146912332
30
0
0
SPLINE
5
E6
100
AcDbEntity
8
1
62
256
6
ByLayer
370
-1
48
1
60
0
100
AcDbSpline
70
4
71
3
72
8
73
4
40
0
40
0
40
0
40
0
40
1
40
1
40
1
40
1
41
1
10
33.9597408921011
20
-4.96949163268954
30
0
41
1
10
33.9561460924878
20
-4.97526493292611
30
0
41
1
10
33.9525512655351
20
-4.98103827707018
30
0
41
1
10
33.9489564098926
20
-4.98681166729054
30
0
0
SPLINE
5
E7
100
AcDbEntity
8
1
62
256
6
ByLayer
370
-1
48
1
60
0
100
AcDbSpline
70
4
71
3
72
18
73
14
40
0
40
0
40
0
40
0
40
0.124999999999988
40
0.124999999999988
40
0.249999999999977
40
0.249999999999977
40
0.499999999999984
40
0.499999999999984
40
0.74999999999999
40
0.74999999999999
40
0.874999999999995
40
0.874999999999995
40
1
40
1
40
1
40
1
41
1
10
32.6982134557213
20
-4.86624164397566
30
0
41
1
10
32.7116581406574
20
-4.8914306597301
30
0
41
1
10
32.7353231142587
20
-4.90976736893361
30
0
41
1
10
32.7883855860314
20
-4.93675521530301
30
0
41
1
10
32.8183774512016
20
-4.94561395756048
30
0
41
1
10
32.9110880241052
20
-4.96233249444001
30
0
41
1
10
32.9773625192515
20
-4.96083221780117
30
0
41
1
10
33.1064283216771
20
-4.9392227456739
30
0
41
1
10
33.1694233412856
20
-4.91911514363531
30
0
41
1
10
33.2516645947561
20
-4.87311989558293
30
0
41
1
10
33.2770837616172
20
-4.85504662118356
30
0
41
1
10
33.318643424061
20
-4.8120693975805
30
0
41
1
10
33.3349535313509
20
-4.787135507616
30
0
41
1
10
33.3394664238464
20
-4.75893269920846
30
0
0
SPLINE
5
E8
100
AcDbEntity
8
1
62
256
6
ByLayer
370
-1
48
1
60
0
100
AcDbSpline
70
4
71
3
72
16
73
12
40
0
40
0
40
0
40
0
40
0.250000000000012
40
0.250000000000012
40
0.500000000000024
40
0.500000000000024
40
0.750000000000036
40
0.750000000000036
40
0.875000000000018
40
0.875000000000018
40
1
40
1
40
1
40
1
41
1
10
32.3224887625559
20
-4.92194265234826
30
0
41
1
10
32.3496464603721
20
-4.8995555738833
30
0
41
1
10
32.3785100716824
20
-4.87939296391167
30
0
41
1
10
32.4394853902062
20
-4.84444222502972
30
0
41
1
10
32.4715730828868
20
-4.82963700152996
30
0
41
1
10
32.5381039296383
20
-4.80882134661988
30
0
41
1
10
32.5730324621375
20
-4.80262531186222
30
0
41
1
10
32.6227428839304
20
-4.8069749326898
30
0
41
1
10
32.639208455884
20
-4.81090354809672
30
0
41
1
10
32.6678666287718
20
-4.8250998394646
30
0
41
1
10
32.6799997366385
20
-4.83541199578957
30
0
41
1
10
32.688606106866
20
-4.84824199111523
30
0
0
SPLINE
5
E9
100
AcDbEntity
8
1
62
256
6
ByLayer
370
-1
48
1
60
0
100
AcDbSpline
70
4
71
3
72
8
73
4
40
0
40
0
40
0
40
0
40
1
40
1
40
1
40
1
41
1
10
33.0956462224744
20
-7.28061780886037
30
0
41
1
10
33.0967208185146
20
-7.27390224311864
30
0
41
1
10
33.0977954227274
20
-7.26718662630324
30
0
41
1
10
33.0988700355164
20
-7.26047095589138
30
0
0
SPLINE
5
EA
100
AcDbEntity
8
1
62
256
6
ByLayer
370
-1
48
1
60
0
100
AcDbSpline
70
4
71
3
72
16
73
12
40
0
40
0
40
0
40
0
40
0.125000000000016
40
0.125000000000016
40
0.250000000000033
40
0.250000000000033
40
0.500000000000022
40
0.500000000000022
40
0.750000000000011
40
0.750000000000011
40
1
40
1
40
1
40
1
41
1
10
33.3426902368883
20
-4.73878584623944
30
0
41
1
10
33.3466416648156
20
-4.72388688643548
30
0
41
1
10
33.3546333697483
20
-4.71033028281235
30
0
41
1
10
33.3770916627265
20
-4.68750633531255
30
0
41
1
10
33.3913059058414
20
-4.6784451662902
30
0
41
1
10
33.4370132098126
20
-4.65803079125885
30
0
41
1
10
33.4721293395037
20
-4.65251804834045
30
0
41
1
10
33.5418035945383
20
-4.65053349465634
30
0
41
1
10
33.5769708577343
20
-4.65408231023616
30
0
41
1
10
33.646037931326
20
-4.66728228408959
30
0
41
1
10
33.6798849285062
20
-4.67694782275373
30
0
41
1
10
33.7128555750429
20
-4.68927504236652
30
0
0
SPLINE
5
EB
100
AcDbEntity
8
1
62
256
6
ByLayer
370
-1
48
1
60
0
100
AcDbSpline
70
4
71
3
72
20
73
16
40
0
40
0
40
0
40
0
40
0.125
40
0.125
40
0.250000000000001
40
0.250000000000001
40
0.499999999999999
40
0.499999999999999
40
0.624999999999999
40
0.624999999999999
40
0.75
40
0.75
40
0.875
40
0.875
40
1
40
1
40
1
40
1
41
1
10
33.0988700355164
20
-7.26047095589138
30
0
41
1
10
33.1033887629408
20
-7.23223168275681
30
0
41
1
10
33.1198372874644
20
-7.20715607721027
30
0
41
1
10
33.1613226523569
20
-7.16431385131415
30
0
41
1
10
33.1868525517119
20
-7.14616033667323
30
0
41
1
10
33.2692452036839
20
-7.10014780805852
30
0
41
1
10
33.3325383709222
20
-7.07999979085133
30
0
41
1
10
33.4294912402878
20
-7.06388102773076
30
0
41
1
10
33.4616970462196
20
-7.06098480495638
30
0
41
1
10
33.5259090555891
20
-7.06034437956882
30
0
41
1
10
33.558195174532
20
-7.06266147428272
30
0
41
1
10
33.6196614721472
20
-7.07372640767608
30
0
41
1
10
33.6496683974277
20
-7.08253906981224
30
0
41
1
10
33.7028821844438
20
-7.1095355442007
30
0
41
1
10
33.7265877500298
20
-7.12780331227114
30
0
41
1
10
33.7401230036416
20
-7.15316201112404
30
0
0
SPLINE
5
EC
100
AcDbEntity
8
1
62
256
6
ByLayer
370
-1
48
1
60
0
100
AcDbSpline
70
4
71
3
72
16
73
12
40
0
40
0
40
0
40
0
40
0.125
40
0.125
40
0.25
40
0.25
40
0.5
40
0.5
40
0.75
40
0.75
40
1
40
1
40
1
40
1
41
1
10
32.0567617001875
20
-6.53818662203747
30
0
41
1
10
32.0418831085436
20
-6.54221406497322
30
0
41
1
10
32.0261468929506
20
-6.54207134729356
30
0
41
1
10
31.9951516281121
20
-6.5340338687987
30
0
41
1
10
31.9801973039932
20
-6.52625455767674
30
0
41
1
10
31.9396642846281
20
-6.4968780588149
30
0
41
1
10
31.9173320443706
20
-6.46922296987896
30
0
41
1
10
31.8807762429478
20
-6.40987557187131
30
0
41
1
10
31.8662659757953
20
-6.3776454207721
30
0
41
1
10
31.8431639516857
20
-6.3112315935499
30
0
41
1
10
31.8346110551201
20
-6.27708646481796
30
0
41
1
10
31.8288014171944
20
-6.24236943753161
30
0
0
LINE
5
45
100
AcDbEntity
8
80
62
256
6
ByLayer
370
-1
48
1
60
0
100
AcDbLine
10
0
20
0
30
0
11
-5
21
0
31
0
39
0
210
0
220
0
230
1
0
LINE
5
46
100
AcDbEntity
8
81
62
256
6
ByLayer
370
-1
48
1
60
0
100
AcDbLine
10
44
20
-10.5375
30
0
11
49
21
-10.5375
31
0
39
0
210
0
220
0
230
1
0
LINE
5
47
100
AcDbEntity
8
1
62
256
6
ByLayer
370
-1
48
1
60
0
100
AcDbLine
10
27.343077
20
-9.076374
30
0
11
27.099409
21
-9.063604
31
0
39
0
210
0
220
0
230
1
0
LINE
5
49
100
AcDbEntity
8
1
62
256
6
ByLayer
370
-1
48
1
60
0
100
AcDbLine
10
25.765038
20
-1.3898
30
0
11
25.044915
21
-1.35206
31
0
39
0
210
0
220
0
230
1
0
LINE
5
4A
100
AcDbEntity
8
1
62
256
6
ByLayer
370
-1
48
1
60
0
100
AcDbLine
10
18.959982
20
0.90806
30
0
11
17.398756
21
-6.30404
31
0
39
0
210
0
220
0
230
1
0
LINE
5
4B
100
AcDbEntity
8
1
62
256
6
ByLayer
370
-1
48
1
60
0
100
AcDbLine
10
17.398756
20
-6.30404
30
0
11
18.962536
21
-6.642556
31
0
39
0
210
0
220
0
230
1
0
LINE
5
4C
100
AcDbEntity
8
1
62
256
6
ByLayer
370
-1
48
1
60
0
100
AcDbLine
10
22.143753
20
-8.803889
30
0
11
22.348448
21
-8.814616
31
0
39
0
210
0
220
0
230
1
0
LINE
5
4D
100
AcDbEntity
8
1
62
256
6
ByLayer
370
-1
48
1
60
0
100
AcDbLine
10
22.976703
20
-8.847542
30
0
11
22.871994
21
-8.842054
31
0
39
0
210
0
220
0
230
1
0
LINE
5
4E
100
AcDbEntity
8
1
62
256
6
ByLayer
370
-1
48
1
60
0
100
AcDbLine
10
29.363965
20
-9.182284
30
0
11
29.684737
21
-8.32434
31
0
39
0
210
0
220
0
230
1
0
LINE
5
4F
100
AcDbEntity
8
1
62
256
6
ByLayer
370
-1
48
1
60
0
100
AcDbLine
10
32.070238
20
-1.944027
30
0
11
32.391011
21
-1.086083
31
0
39
0
210
0
220
0
230
1
0
LINE
5
50
100
AcDbEntity
8
1
62
256
6
ByLayer
370
-1
48
1
60
0
100
AcDbLine
10
10.292151
20
5.528921
30
0
11
3.536171
21
7.982597
31
0
39
0
210
0
220
0
230
1
0
LINE
5
51
100
AcDbEntity
8
1
62
256
6
ByLayer
370
-1
48
1
60
0
100
AcDbLine
10
0
20
-9.9625
30
0
11
0
21
9.9625
31
0
39
0
210
0
220
0
230
1
0
LINE
5
52
100
AcDbEntity
8
1
62
256
6
ByLayer
370
-1
48
1
60
0
100
AcDbLine
10
23.994293
20
-4.162076
30
0
11
24.562536
21
-4.606037
31
0
39
0
210
0
220
0
230
1
0
LINE
5
53
100
AcDbEntity
8
1
62
256
6
ByLayer
370
-1
48
1
60
0
100
AcDbLine
10
0.027458
20
-9.9625
30
0
11
0.027458
21
-6.359114
31
0
39
0
210
0
220
0
230
1
0
LINE
5
54
100
AcDbEntity
8
1
62
256
6
ByLayer
370
-1
48
1
60
0
100
AcDbLine
10
32.391011
20
-1.086083
30
0
11
33.159425
21
-1.686434
31
0
39
0
210
0
220
0
230
1
0
LINE
5
55
100
AcDbEntity
8
1
62
256
6
ByLayer
370
-1
48
1
60
0
100
AcDbLine
10
30.599565
20
-9.247039
30
0
11
30.884855
21
-9.26199
31
0
39
0
210
0
220
0
230
1
0
LINE
5
56
100
AcDbEntity
8
1
62
256
6
ByLayer
370
-1
48
1
60
0
100
AcDbLine
10
24.030065
20
-4.316926
30
0
11
22.348448
21
-8.814616
31
0
39
0
210
0
220
0
230
1
0
LINE
5
57
100
AcDbEntity
8
1
62
256
6
ByLayer
370
-1
48
1
60
0
100
AcDbLine
10
30.599565
20
-9.247039
30
0
11
30.659733
21
-9.086111
31
0
39
0
210
0
220
0
230
1
0
LINE
5
58
100
AcDbEntity
8
1
62
256
6
ByLayer
370
-1
48
1
60
0
100
AcDbLine
10
23.944855
20
-4.250353
30
0
11
21.322173
21
-3.269773
31
0
39
0
210
0
220
0
230
1
0
LINE
5
59
100
AcDbEntity
8
1
62
256
6
ByLayer
370
-1
48
1
60
0
100
AcDbLine
10
15.550283
20
-7.539992
30
0
11
15.265589
21
-9.11446
31
0
39
0
210
0
220
0
230
1
0
LINE
5
5A
100
AcDbEntity
8
1
62
256
6
ByLayer
370
-1
48
1
60
0
100
AcDbLine
10
22.442837
20
-0.272422
30
0
11
25.065519
21
-1.253002
31
0
39
0
210
0
220
0
230
1
0
LINE
5
5B
100
AcDbEntity
8
1
62
256
6
ByLayer
370
-1
48
1
60
0
100
AcDbLine
10
33.305844
20
-2.008766
30
0
11
33.366013
21
-1.847838
31
0
39
0
210
0
220
0
230
1
0
LINE
5
5C
100
AcDbEntity
8
1
62
256
6
ByLayer
370
-1
48
1
60
0
100
AcDbLine
10
27.350872
20
2.851705
30
0
11
25.765038
21
-1.3898
31
0
39
0
210
0
220
0
230
1
0
LINE
5
5D
100
AcDbEntity
8
1
62
256
6
ByLayer
370
-1
48
1
60
0
100
AcDbLine
10
20.351738
20
-1.305528
30
0
11
20.42178
21
-1.118193
31
0
39
0
210
0
220
0
230
1
0
LINE
5
5E
100
AcDbEntity
8
1
62
256
6
ByLayer
370
-1
48
1
60
0
100
AcDbLine
10
26.855121
20
3.239028
30
0
11
25.173503
21
-1.258661
31
0
39
0
210
0
220
0
230
1
0
LINE
5
5F
100
AcDbEntity
8
1
62
256
6
ByLayer
370
-1
48
1
60
0
100
AcDbLine
10
0.583362
20
-4.915605
30
0
11
0.583362
21
9.140778
31
0
39
0
210
0
220
0
230
1
0
LINE
5
60
100
AcDbEntity
8
1
62
256
6
ByLayer
370
-1
48
1
60
0
100
AcDbLine
10
27.343077
20
-9.076374
30
0
11
28.090062
21
-7.078472
31
0
39
0
210
0
220
0
230
1
0
LINE
5
61
100
AcDbEntity
8
1
62
256
6
ByLayer
370
-1
48
1
60
0
100
AcDbLine
10
30.049359
20
-1.838094
30
0
11
30.796344
21
0.159807
31
0
39
0
210
0
220
0
230
1
0
LINE
5
62
100
AcDbEntity
8
1
62
256
6
ByLayer
370
-1
48
1
60
0
100
AcDbLine
10
24.562536
20
-4.606037
30
0
11
22.976703
21
-8.847542
31
0
39
0
210
0
220
0
230
1
0
LINE
5
63
100
AcDbEntity
8
1
62
256
6
ByLayer
370
-1
48
1
60
0
100
AcDbLine
10
23.994293
20
-4.162076
30
0
11
23.944855
21
-4.250353
31
0
39
0
210
0
220
0
230
1
0
LINE
5
64
100
AcDbEntity
8
1
62
256
6
ByLayer
370
-1
48
1
60
0
100
AcDbLine
10
27.268247
20
2.916259
30
0
11
25.697049
21
-1.286099
31
0
39
0
210
0
220
0
230
1
0
LINE
5
65
100
AcDbEntity
8
1
62
256
6
ByLayer
370
-1
48
1
60
0
100
AcDbLine
10
20.514334
20
-1.156192
30
0
11
20.446519
21
-1.337571
31
0
39
0
210
0
220
0
230
1
0
LINE
5
66
100
AcDbEntity
8
1
62
256
6
ByLayer
370
-1
48
1
60
0
100
AcDbLine
10
7.086495
20
-6.009577
30
0
11
15.550283
21
-7.539992
31
0
39
0
210
0
220
0
230
1
0
LINE
5
67
100
AcDbEntity
8
1
62
256
6
ByLayer
370
-1
48
1
60
0
100
AcDbLine
10
28.316873
20
-9.127408
30
0
11
27.343077
21
-9.076374
31
0
39
0
210
0
220
0
230
1
0
LINE
5
68
100
AcDbEntity
8
1
62
256
6
ByLayer
370
-1
48
1
60
0
100
AcDbLine
10
17.942392
20
2.750463
30
0
11
18.488582
21
4.25435
31
0
39
0
210
0
220
0
230
1
0
LINE
5
69
100
AcDbEntity
8
1
62
256
6
ByLayer
370
-1
48
1
60
0
100
AcDbLine
10
21.357194
20
-3.176105
30
0
11
23.994293
21
-4.162076
31
0
39
0
210
0
220
0
230
1
0
LINE
5
6A
100
AcDbEntity
8
1
62
256
6
ByLayer
370
-1
48
1
60
0
100
AcDbLine
10
18.959982
20
0.90806
30
0
11
20.523761
21
0.569544
31
0
39
0
210
0
220
0
230
1
0
LINE
5
6B
100
AcDbEntity
8
1
62
256
6
ByLayer
370
-1
48
1
60
0
100
AcDbLine
10
30.796344
20
0.159807
30
0
11
31.564758
21
-0.440544
31
0
39
0
210
0
220
0
230
1
0
LINE
5
6C
100
AcDbEntity
8
1
62
256
6
ByLayer
370
-1
48
1
60
0
100
AcDbLine
10
31.564758
20
-0.440544
30
0
11
32.391011
21
-1.086083
31
0
39
0
210
0
220
0
230
1
0
LINE
5
6D
100
AcDbEntity
8
1
62
256
6
ByLayer
370
-1
48
1
60
0
100
AcDbLine
10
33.591133
20
-2.023721
30
0
11
33.366013
21
-1.847838
31
0
39
0
210
0
220
0
230
1
0
LINE
5
6E
100
AcDbEntity
8
1
62
256
6
ByLayer
370
-1
48
1
60
0
100
AcDbLine
10
25.044915
20
-1.35206
30
0
11
22.407816
21
-0.366089
31
0
39
0
210
0
220
0
230
1
0
LINE
5
6F
100
AcDbEntity
8
1
62
256
6
ByLayer
370
-1
48
1
60
0
100
AcDbLine
10
22.348448
20
-8.814616
30
0
11
22.871994
21
-8.842054
31
0
39
0
210
0
220
0
230
1
0
LINE
5
70
100
AcDbEntity
8
1
62
256
6
ByLayer
370
-1
48
1
60
0
100
AcDbLine
10
27.268247
20
2.916259
30
0
11
27.350872
21
2.851705
31
0
39
0
210
0
220
0
230
1
0
LINE
5
71
100
AcDbEntity
8
1
62
256
6
ByLayer
370
-1
48
1
60
0
100
AcDbLine
10
27.099409
20
-9.063604
30
0
11
27.897814
21
-6.928173
31
0
39
0
210
0
220
0
230
1
0
LINE
5
72
100
AcDbEntity
8
1
62
256
6
ByLayer
370
-1
48
1
60
0
100
AcDbLine
10
29.805662
20
-1.825401
30
0
11
30.604067
21
0.31003
31
0
39
0
210
0
220
0
230
1
0
LINE
5
73
100
AcDbEntity
8
1
62
256
6
ByLayer
370
-1
48
1
60
0
100
AcDbLine
10
22.976703
20
-8.847542
30
0
11
27.099409
21
-9.063604
31
0
39
0
210
0
220
0
230
1
0
LINE
5
74
100
AcDbEntity
8
1
62
256
6
ByLayer
370
-1
48
1
60
0
100
AcDbLine
10
3.536171
20
-5.36761
30
0
11
3.536171
21
7.982597
31
0
39
0
210
0
220
0
230
1
0
LINE
5
75
100
AcDbEntity
8
1
62
256
6
ByLayer
370
-1
48
1
60
0
100
AcDbLine
10
30.604067
20
0.31003
30
0
11
27.350872
21
2.851705
31
0
39
0
210
0
220
0
230
1
0
LINE
5
76
100
AcDbEntity
8
1
62
256
6
ByLayer
370
-1
48
1
60
0
100
AcDbLine
10
10.292151
20
5.528921
30
0
11
17.942392
21
2.750463
31
0
39
0
210
0
220
0
230
1
0
LINE
5
77
100
AcDbEntity
8
1
62
256
6
ByLayer
370
-1
48
1
60
0
100
AcDbLine
10
24.562536
20
-4.606037
30
0
11
24.443191
21
-4.639696
31
0
39
0
210
0
220
0
230
1
0
LINE
5
78
100
AcDbEntity
8
1
62
256
6
ByLayer
370
-1
48
1
60
0
100
AcDbLine
10
28.316873
20
-9.127408
30
0
11
28.858508
21
-7.678738
31
0
39
0
210
0
220
0
230
1
0
LINE
5
79
100
AcDbEntity
8
1
62
256
6
ByLayer
370
-1
48
1
60
0
100
AcDbLine
10
31.023123
20
-1.889214
30
0
11
31.564758
21
-0.440544
31
0
39
0
210
0
220
0
230
1
0
LINE
5
7A
100
AcDbEntity
8
1
62
256
6
ByLayer
370
-1
48
1
60
0
100
AcDbLine
10
0.027458
20
-9.9625
30
0
11
0
21
-9.9625
31
0
39
0
210
0
220
0
230
1
0
LINE
5
7B
100
AcDbEntity
8
1
62
256
6
ByLayer
370
-1
48
1
60
0
100
AcDbLine
10
20.523761
20
0.569544
30
0
11
18.962536
21
-6.642556
31
0
39
0
210
0
220
0
230
1
0
LINE
5
7C
100
AcDbEntity
8
1
62
256
6
ByLayer
370
-1
48
1
60
0
100
AcDbLine
10
25.044915
20
-1.35206
30
0
11
25.065519
21
-1.253002
31
0
39
0
210
0
220
0
230
1
0
LINE
5
7D
100
AcDbEntity
8
1
62
256
6
ByLayer
370
-1
48
1
60
0
100
AcDbLine
10
24.443191
20
-4.639696
30
0
11
22.871994
21
-8.842054
31
0
39
0
210
0
220
0
230
1
0
LINE
5
7E
100
AcDbEntity
8
1
62
256
6
ByLayer
370
-1
48
1
60
0
100
AcDbLine
10
30.337761
20
-9.233318
30
0
11
29.363965
21
-9.182284
31
0
39
0
210
0
220
0
230
1
0
LINE
5
7F
100
AcDbEntity
8
1
62
256
6
ByLayer
370
-1
48
1
60
0
100
AcDbLine
10
21.357194
20
-3.176105
30
0
11
21.322173
21
-3.269773
31
0
39
0
210
0
220
0
230
1
0
LINE
5
80
100
AcDbEntity
8
1
62
256
6
ByLayer
370
-1
48
1
60
0
100
AcDbLine
10
2.771692
20
9.9625
30
0
11
18.488582
21
4.25435
31
0
39
0
210
0
220
0
230
1
0
LINE
5
81
100
AcDbEntity
8
1
62
256
6
ByLayer
370
-1
48
1
60
0
100
AcDbLine
10
30.599565
20
-9.247039
30
0
11
30.337761
21
-9.233318
31
0
39
0
210
0
220
0
230
1
0
LINE
5
82
100
AcDbEntity
8
1
62
256
6
ByLayer
370
-1
48
1
60
0
100
AcDbLine
10
0.213376
20
9.9625
30
0
11
0
21
9.9625
31
0
39
0
210
0
220
0
230
1
0
LINE
5
83
100
AcDbEntity
8
1
62
256
6
ByLayer
370
-1
48
1
60
0
100
AcDbLine
10
3.536171
20
7.982597
30
0
11
0.717727
21
9.006215
31
0
39
0
210
0
220
0
230
1
0
LINE
5
84
100
AcDbEntity
8
1
62
256
6
ByLayer
370
-1
48
1
60
0
100
AcDbLine
10
25.065519
20
-1.253002
30
0
11
25.173503
21
-1.258661
31
0
39
0
210
0
220
0
230
1
0
LINE
5
85
100
AcDbEntity
8
1
62
256
6
ByLayer
370
-1
48
1
60
0
100
AcDbLine
10
15.265589
20
-9.11446
30
0
11
0.027458
21
-6.359114
31
0
39
0
210
0
220
0
230
1
0
LINE
5
86
100
AcDbEntity
8
1
62
256
6
ByLayer
370
-1
48
1
60
0
100
AcDbLine
10
10.292151
20
5.528921
30
0
11
7.086495
21
-6.009577
31
0
39
0
210
0
220
0
230
1
0
LINE
5
87
100
AcDbEntity
8
1
62
256
6
ByLayer
370
-1
48
1
60
0
100
AcDbLine
10
2.771692
20
9.9625
30
0
11
5.353738
21
9.9625
31
0
39
0
210
0
220
0
230
1
0
LINE
5
88
100
AcDbEntity
8
1
62
256
6
ByLayer
370
-1
48
1
60
0
100
AcDbLine
10
0.717727
20
-4.857981
30
0
11
3.536171
21
-5.36761
31
0
39
0
210
0
220
0
230
1
0
LINE
5
89
100
AcDbEntity
8
1
62
256
6
ByLayer
370
-1
48
1
60
0
100
AcDbLine
10
33.159425
20
-1.686434
30
0
11
33.366013
21
-1.847838
31
0
39
0
210
0
220
0
230
1
0
LINE
5
8A
100
AcDbEntity
8
1
62
256
6
ByLayer
370
-1
48
1
60
0
100
AcDbLine
10
22.407816
20
-0.366089
30
0
11
22.442837
21
-0.272422
31
0
39
0
210
0
220
0
230
1
0
LINE
5
8B
100
AcDbEntity
8
1
62
256
6
ByLayer
370
-1
48
1
60
0
100
AcDbLine
10
25.697049
20
-1.286099
30
0
11
25.173503
21
-1.258661
31
0
39
0
210
0
220
0
230
1
0
LINE
5
8C
100
AcDbEntity
8
1
62
256
6
ByLayer
370
-1
48
1
60
0
100
AcDbLine
10
30.604067
20
0.31003
30
0
11
30.796344
21
0.159807
31
0
39
0
210
0
220
0
230
1
0
LINE
5
8D
100
AcDbEntity
8
1
62
256
6
ByLayer
370
-1
48
1
60
0
100
AcDbLine
10
24.030065
20
-4.316926
30
0
11
23.944855
21
-4.250353
31
0
39
0
210
0
220
0
230
1
0
LINE
5
8E
100
AcDbEntity
8
1
62
256
6
ByLayer
370
-1
48
1
60
0
100
AcDbLine
10
22.02242
20
7.014748
30
0
11
5.353738
21
9.9625
31
0
39
0
210
0
220
0
230
1
0
LINE
5
8F
100
AcDbEntity
8
1
62
256
6
ByLayer
370
-1
48
1
60
0
100
AcDbLine
10
2.771692
20
9.9625
30
0
11
0.213376
21
9.9625
31
0
39
0
210
0
220
0
230
1
0
LINE
5
90
100
AcDbEntity
8
1
62
256
6
ByLayer
370
-1
48
1
60
0
100
AcDbLine
10
24.030065
20
-4.316926
30
0
11
24.443191
21
-4.639696
31
0
39
0
210
0
220
0
230
1
0
LINE
5
91
100
AcDbEntity
8
1
62
256
6
ByLayer
370
-1
48
1
60
0
100
AcDbLine
10
0.027458
20
-9.9625
30
0
11
16.624015
21
-9.9625
31
0
39
0
210
0
220
0
230
1
0
LINE
5
92
100
AcDbEntity
8
1
62
256
6
ByLayer
370
-1
48
1
60
0
100
AcDbLine
10
30.337761
20
-9.233318
30
0
11
30.453143
21
-8.924715
31
0
39
0
210
0
220
0
230
1
0
LINE
5
93
100
AcDbEntity
8
1
62
256
6
ByLayer
370
-1
48
1
60
0
100
AcDbLine
10
3.536171
20
-5.36761
30
0
11
7.086495
21
-6.009577
31
0
39
0
210
0
220
0
230
1
0
LINE
5
94
100
AcDbEntity
8
1
62
256
6
ByLayer
370
-1
48
1
60
0
100
AcDbLine
10
25.765038
20
-1.3898
30
0
11
25.697049
21
-1.286099
31
0
39
0
210
0
220
0
230
1
0
LINE
5
95
100
AcDbEntity
8
1
62
256
6
ByLayer
370
-1
48
1
60
0
100
AcDbLine
10
27.268247
20
2.916259
30
0
11
26.855121
21
3.239028
31
0
39
0
210
0
220
0
230
1
0
LINE
5
96
100
AcDbEntity
8
1
62
256
6
ByLayer
370
-1
48
1
60
0
100
AcDbLine
10
33.044043
20
-1.995038
30
0
11
33.159425
21
-1.686434
31
0
39
0
210
0
220
0
230
1
0
LINE
5
97
100
AcDbEntity
8
1
62
256
6
ByLayer
370
-1
48
1
60
0
100
AcDbLine
10
26.855121
20
3.239028
30
0
11
22.02242
21
7.014748
31
0
39
0
210
0
220
0
230
1
0
LINE
5
98
100
AcDbEntity
8
1
62
256
6
ByLayer
370
-1
48
1
60
0
100
AcDbLine
10
29.363965
20
-9.182284
30
0
11
28.316873
21
-9.127408
31
0
39
0
210
0
220
0
230
1
0
LINE
5
99
100
AcDbEntity
8
SK1
62
256
6
ByLayer
370
-1
48
1
60
0
100
AcDbLine
10
-66
20
-9.9625
30
0
11
-69
21
-6.9625
31
0
39
0
210
0
220
0
230
1
0
LINE
5
9B
100
AcDbEntity
8
SK1
62
256
6
ByLayer
370
-1
48
1
60
0
100
AcDbLine
10
0
20
9.9625
30
0
11
-3.513374
21
9.9625
31
0
39
0
210
0
220
0
230
1
0
LINE
5
9C
100
AcDbEntity
8
SK1
62
256
6
ByLayer
370
-1
48
1
60
0
100
AcDbLine
10
-66
20
9.9625
30
0
11
-3.513374
21
9.9625
31
0
39
0
210
0
220
0
230
1
0
LINE
5
9D
100
AcDbEntity
8
SK1
62
256
6
ByLayer
370
-1
48
1
60
0
100
AcDbLine
10
-66
20
9.9625
30
0
11
-69
21
6.9625
31
0
39
0
210
0
220
0
230
1
0
LINE
5
9E
100
AcDbEntity
8
SK1
62
256
6
ByLayer
370
-1
48
1
60
0
100
AcDbLine
10
-66
20
-9.9625
30
0
11
-3.513374
21
-9.9625
31
0
39
0
210
0
220
0
230
1
0
LINE
5
9F
100
AcDbEntity
8
SK1
62
256
6
ByLayer
370
-1
48
1
60
0
100
AcDbLine
10
0
20
-9.9625
30
0
11
-3.513374
21
-9.9625
31
0
39
0
210
0
220
0
230
1
0
LINE
5
A0
100
AcDbEntity
8
SK1
62
256
6
ByLayer
370
-1
48
1
60
0
100
AcDbLine
10
0
20
-9.9625
30
0
11
0
21
9.9625
31
0
39
0
210
0
220
0
230
1
0
LINE
5
A1
100
AcDbEntity
8
SK1
62
256
6
ByLayer
370
-1
48
1
60
0
100
AcDbLine
10
-69
20
-6.9625
30
0
11
-69
21
6.9625
31
0
39
0
210
0
220
0
230
1
0
LINE
5
A2
100
AcDbEntity
8
SK1
62
256
6
ByLayer
370
-1
48
1
60
0
100
AcDbLine
10
-3.513374
20
9.9625
30
0
11
-3.513374
21
-9.9625
31
0
39
0
210
0
220
0
230
1
0
LINE
5
A3
100
AcDbEntity
8
1
62
256
6
ByLayer
370
-1
48
1
60
0
100
AcDbLine
10
23.133904
20
-1.475666
30
0
11
34.3144
21
-2.061611
31
0
39
0
210
0
220
0
230
1
0
LINE
5
A4
100
AcDbEntity
8
1
62
256
6
ByLayer
370
-1
48
1
60
0
100
AcDbLine
10
43.796108
20
-9.212544
30
0
11
43.805209
21
-9.20435
31
0
39
0
210
0
220
0
230
1
0
LINE
5
A5
100
AcDbEntity
8
1
62
256
6
ByLayer
370
-1
48
1
60
0
100
AcDbLine
10
43.30294
20
-10.531583
30
0
11
43.304432
21
-10.543738
31
0
39
0
210
0
220
0
230
1
0
LINE
5
A6
100
AcDbEntity
8
1
62
256
6
ByLayer
370
-1
48
1
60
0
100
AcDbLine
10
34.982767
20
-2.311504
30
0
11
43.805209
21
-9.20435
31
0
39
0
210
0
220
0
230
1
0
LINE
5
A7
100
AcDbEntity
8
1
62
256
6
ByLayer
370
-1
48
1
60
0
100
AcDbLine
10
31.455569
20
-9.7079
30
0
11
22.633128
21
-2.815053
31
0
39
0
210
0
220
0
230
1
0
LINE
5
A8
100
AcDbEntity
8
1
62
256
6
ByLayer
370
-1
48
1
60
0
100
AcDbLine
10
22.642228
20
-2.80686
30
0
11
22.633128
21
-2.815053
31
0
39
0
210
0
220
0
230
1
0
LINE
5
A9
100
AcDbEntity
8
1
62
256
6
ByLayer
370
-1
48
1
60
0
100
AcDbLine
10
43.304432
20
-10.543738
30
0
11
32.123937
21
-9.957793
31
0
39
0
210
0
220
0
230
1
0
LINE
5
AA
100
AcDbEntity
8
1
62
256
6
ByLayer
370
-1
48
1
60
0
100
AcDbLine
10
23.135397
20
-1.487821
30
0
11
23.133904
21
-1.475666
31
0
39
0
210
0
220
0
230
1
0
MTEXT
5
ED
100
AcDbEntity
8
SK6
62
256
6
ByLayer
370
-1
48
1
60
0
100
AcDbMText
10
-68.449979
20
20.867166
30
0
210
0
220
0
230
1
1
\W00.787;\fsimplex.shx,bigfont.shx;QS-TR-V13JBL2020HP 
40
3.5
41
0
44
1.084337
50
0
71
7
72
5
7
DEFAULT
0
DIMENSION
5
121
100
AcDbEntity
8
SK2
62
256
6
ByLayer
370
-3
48
1
60
0
100
AcDbDimension
2
DimnDraft3D1
10
-78.10005
20
9.9625
30
0
11
-78.10005
21
0
31
0
70
32
71
5
72
1
41
1
210
0
220
0
230
1
3
Standard
100
AcDbAlignedDimension
13
-70.5875
23
-9.9625
33
0
14
-70.5875
24
9.9625
34
0
50
90
100
AcDbRotatedDimension
1001
ACAD
1000
DSTYLE
1002
{
1070
    74
1070
     0
1070
   279
1070
     0
1070
   172
1070
     1
1070
   173
1070
     1
1070
   340
1005
EE
1070
   271
1070
     1
1070
   272
1070
     2
1070
    77
1070
     1
1070
    73
1070
     0
1070
   171
1070
     3
1070
   274
1070
     4
1070
   177
1070
   150
1070
   176
1070
     9
1070
   178
1070
    43
1070
    78
1070
     8
1070
    48
1040
-0.005
1070
    41
1041
3.175
1070
   147
1041
2.25
1070
    42
1041
1.5875
1070
    44
1041
3.175
1070
   140
1041
4.5
1070
   343
1005
122
1070
   344
1005
122
1002
}
0
DIMENSION
5
136
100
AcDbEntity
8
SK2
62
256
6
ByLayer
370
-3
48
1
60
0
100
AcDbDimension
2
DimnDraft3D2
10
44
20
-40.0375
30
0
11
-12.5
21
-40.0375
31
0
70
32
71
5
72
1
41
1
210
0
220
0
230
1
3
Standard
100
AcDbAlignedDimension
13
-69
23
-11.55
33
0
14
44
24
-12.125
34
0
50
0
100
AcDbRotatedDimension
1001
ACAD
1000
DSTYLE
1002
{
1070
   279
1070
     0
1070
   172
1070
     1
1070
   173
1070
     1
1070
   340
1005
EE
1070
   271
1070
     1
1070
   272
1070
     2
1070
    77
1070
     1
1070
    73
1070
     0
1070
   171
1070
     3
1070
   274
1070
     4
1070
   177
1070
   150
1070
   176
1070
     9
1070
   178
1070
    43
1070
    78
1070
     8
1070
    48
1040
-0.005
1070
    41
1041
3.175
1070
   147
1041
2.25
1070
    42
1041
1.5875
1070
    44
1041
3.175
1070
   140
1041
4.5
1070
   343
1005
122
1070
   344
1005
122
1002
}
0
DIMENSION
5
145
100
AcDbEntity
8
2
62
256
6
ByLayer
370
-3
48
1
60
0
100
AcDbDimension
2
DimnDraft3D3
10
0
20
16.81255
30
0
11
22
21
16.81255
31
0
70
32
71
5
72
1
41
1
210
0
220
0
230
1
3
Standard
100
AcDbAlignedDimension
13
44
23
-8.95
33
0
14
0
24
11.55
34
0
50
0
100
AcDbRotatedDimension
1001
ACAD
1000
DSTYLE
1002
{
1070
   279
1070
     0
1070
   172
1070
     1
1070
   173
1070
     1
1070
   340
1005
EE
1070
   271
1070
     1
1070
   272
1070
     2
1070
    77
1070
     1
1070
    73
1070
     0
1070
   171
1070
     3
1070
   274
1070
     4
1070
   177
1070
   150
1070
   176
1070
     9
1070
   178
1070
    43
1070
    78
1070
     8
1070
    48
1040
-0.005
1070
    41
1041
3.175
1070
   147
1041
2.25
1070
    42
1041
1.5875
1070
    44
1041
3.175
1070
   140
1041
4.5
1070
   343
1005
122
1070
   344
1005
122
1002
}
0
DIMENSION
5
153
100
AcDbEntity
8
2
62
256
6
ByLayer
370
-3
48
1
60
0
100
AcDbDimension
2
DimnDraft3D4
10
44
20
-35.195593
30
0
11
26.52569
21
-20.04477
31
0
70
34
71
5
72
1
41
1
210
0
220
0
230
1
3
Standard
100
AcDb2LineAngularDimension
13
28.597147
23
-9.772961
33
0
14
19.418332
24
-9.29192
34
0
15
44
25
-12.125
35
0
16
31.711866
26
-22.241194
36
0
40
0
0
DIMENSION
5
161
100
AcDbEntity
8
2
62
256
6
ByLayer
370
-3
48
1
60
0
100
AcDbDimension
2
DimnDraft3D5
10
64.85
20
9.9625
30
0
11
64.85
21
-0.2875
31
0
70
32
71
5
72
1
41
1
210
0
220
0
230
1
3
Standard
100
AcDbAlignedDimension
13
45.5875
23
-10.5375
33
0
14
1.5875
24
9.9625
34
0
50
90
100
AcDbRotatedDimension
1001
ACAD
1000
DSTYLE
1002
{
1070
    74
1070
     0
1070
   279
1070
     0
1070
   172
1070
     1
1070
   173
1070
     1
1070
   340
1005
EE
1070
   271
1070
     1
1070
   272
1070
     2
1070
    77
1070
     1
1070
    73
1070
     0
1070
   171
1070
     3
1070
   274
1070
     4
1070
   177
1070
   150
1070
   176
1070
     9
1070
   178
1070
    43
1070
    78
1070
     8
1070
    48
1040
-0.005
1070
    41
1041
3.175
1070
   147
1041
2.25
1070
    42
1041
1.5875
1070
    44
1041
3.175
1070
   140
1041
4.5
1070
   343
1005
122
1070
   344
1005
122
1002
}
0
ENDSEC
0
SECTION
2
OBJECTS
0
DICTIONARY
5
191
330
0
100
AcDbDictionary
280
0
281
1
3
ACAD_GROUP
350
192
3
ACAD_MLINESTYLE
350
193
0
DICTIONARY
5
192
330
0
100
AcDbDictionary
280
0
281
1
0
DICTIONARY
5
193
330
0
100
AcDbDictionary
280
0
281
1
3
Standard
350
18
0
MLINESTYLE
5
18
330
193
100
AcDbMlineStyle
2
Standard
70
0
3

62
256
51
90
52
90
71
2
49
-0.5
62
256
6
ByLayer
49
0.5
62
256
6
ByLayer
0
RASTERVARIABLES
5
180
330

100
AcDbRasterVariables
90
0
70
1
71
1
72
1
0
ENDSEC
0
EOF
