0
SECTION
2
HEADER
9
$ACADVER
1
AC1015
9
$DWGCODEPAGE
3
ANSI_1252
9
$HANDSEED
5
1a4
9
$ANGBASE
50
0
9
$ANGDIR
70
0
9
$ATTMODE
70
1
9
$AUNITS
70
0
9
$AUPREC
70
0
9
$CECOLOR
62
256
9
$CELTSCALE
40
1
9
$CELTYPE
6
ByLayer
9
$CELWEIGHT
370
-1
9
$CLAYER
8
0
9
$CMLJUST
70
0
9
$CMLSCALE
40
1
9
$CMLSTYLE
2
Standard
9
$DIMSTYLE
2
Standard
9
$TEXTSIZE
40
0.2
9
$TEXTSTYLE
7
Standard
9
$LUNITS
70
2
9
$LUPREC
70
4
9
$EXTNAMES
290
1
9
$INSUNITS
70
4
9
$LTSCALE
40
1
9
$LWDISPLAY
290
0
9
$PDMODE
70
0
9
$PDSIZE
40
0
9
$PLINEGEN
70
0
0
ENDSEC
0
SECTION
2
CLASSES
0
CLASS
1
RASTERVARIABLES
2
AcDbRasterVariables
3
ISM
90
0
280
0
281
0
0
ENDSEC
0
SECTION
2
TABLES
0
TABLE
2
VPORT
5
19a
100
AcDbSymbolTable
0
VPORT
5
1
100
AcDbSymbolTableRecord
100
AcDbViewportTableRecord
2
*Active
70
0
10
0
20
0
11
1
21
1
12
-1
22
1
13
0
23
0
14
0.5
24
0.5
15
10
25
10
16
0
26
0
36
1
17
0
27
0
37
0
0
ENDTAB
0
TABLE
2
LTYPE
5
19b
100
AcDbSymbolTable
0
LTYPE
5
14
100
AcDbSymbolTableRecord
100
AcDbLinetypeTableRecord
70
0
2
ByBlock
3

72
65
73
0
40
0
0
LTYPE
5
15
100
AcDbSymbolTableRecord
100
AcDbLinetypeTableRecord
70
0
2
ByLayer
3

72
65
73
0
40
0
0
LTYPE
5
16
100
AcDbSymbolTableRecord
100
AcDbLinetypeTableRecord
70
0
2
CONTINUOUS
3
Solid line
72
65
73
0
40
0
0
LTYPE
5
3B
100
AcDbSymbolTableRecord
100
AcDbLinetypeTableRecord
70
0
2
DASHED
3
__ __ __ __ __ __ __ __ __
72
65
73
2
40
25.72
49
12.86
74
0
49
-12.86
74
0
0
LTYPE
5
3C
100
AcDbSymbolTableRecord
100
AcDbLinetypeTableRecord
70
0
2
HIDDEN
3
_ _ _ _ _ _ _ _ _ _ _ _ _ _ _
72
65
73
2
40
0.5
49
0.25
74
0
49
-0.25
74
0
0
LTYPE
5
3D
100
AcDbSymbolTableRecord
100
AcDbLinetypeTableRecord
70
0
2
PHANTOM
3
____ _ _ ____ _ _ _____ _ _ ____
72
65
73
6
40
50.5
49
18
74
0
49
-6.5
74
0
49
6.5
74
0
49
-6.5
74
0
49
6.5
74
0
49
-6.5
74
0
0
LTYPE
5
3E
100
AcDbSymbolTableRecord
100
AcDbLinetypeTableRecord
70
0
2
CENTER
3
____ _ ____ _ ____ _ ____
72
65
73
4
40
47.5
49
22
74
0
49
-8.5
74
0
49
8.5
74
0
49
-8.5
74
0
0
LTYPE
5
3F
100
AcDbSymbolTableRecord
100
AcDbLinetypeTableRecord
70
0
2
DOT
3
.........................
72
65
73
2
40
10
49
0
74
0
49
-10
74
0
0
LTYPE
5
40
100
AcDbSymbolTableRecord
100
AcDbLinetypeTableRecord
70
0
2
DASHDOT
3
_._._._._._._._._._._._._._._._.
72
65
73
4
40
70
49
31
74
0
49
-13
74
0
49
13
74
0
49
-13
74
0
0
ENDTAB
0
TABLE
2
LAYER
5
19c
100
AcDbSymbolTable
0
LAYER
5
10
100
AcDbSymbolTableRecord
100
AcDbLayerTableRecord
2
0
70
0
62
7
6
CONTINUOUS
290
1
370
-3
390
0
0
LAYER
5
42
100
AcDbSymbolTableRecord
100
AcDbLayerTableRecord
2
80
70
0
62
-6
6
CONTINUOUS
290
1
370
-3
390
0
0
LAYER
5
44
100
AcDbSymbolTableRecord
100
AcDbLayerTableRecord
2
81
70
0
62
-3
6
CONTINUOUS
290
1
370
-3
390
0
0
LAYER
5
48
100
AcDbSymbolTableRecord
100
AcDbLayerTableRecord
2
1
70
0
62
4
6
CONTINUOUS
290
1
370
-3
390
0
0
LAYER
5
13F
100
AcDbSymbolTableRecord
100
AcDbLayerTableRecord
2
2
70
0
62
7
6
CONTINUOUS
290
1
370
-3
390
0
0
LAYER
5
187
100
AcDbSymbolTableRecord
100
AcDbLayerTableRecord
2
SK1
70
0
62
4
6
CONTINUOUS
290
1
370
-3
390
0
0
LAYER
5
188
100
AcDbSymbolTableRecord
100
AcDbLayerTableRecord
2
SK6
70
0
62
5
6
CONTINUOUS
290
1
370
-3
390
0
0
LAYER
5
189
100
AcDbSymbolTableRecord
100
AcDbLayerTableRecord
2
SK2
70
0
62
7
6
CONTINUOUS
290
1
370
-3
390
0
0
ENDTAB
0
TABLE
2
STYLE
5
19d
100
AcDbSymbolTable
0
STYLE
5
11
100
AcDbSymbolTableRecord
100
AcDbTextStyleTableRecord
2
Standard
3
txt
70
0
71
0
40
0
41
1
42
0
50
0
0
STYLE
5
F4
100
AcDbSymbolTableRecord
100
AcDbTextStyleTableRecord
2
DEFAULT
3
simplex.shx
70
0
71
0
40
0
41
1
42
0
50
0
0
STYLE
5
117
100
AcDbSymbolTableRecord
100
AcDbTextStyleTableRecord
2
DWGDirectTextStyle
3
SIMPLEX
70
0
71
0
40
0
41
1
42
0
50
0
0
ENDTAB
0
TABLE
2
DIMSTYLE
5
19e
100
AcDbSymbolTable
100
AcDbDimStyleTable
0
DIMSTYLE
105
27
100
AcDbSymbolTableRecord
100
AcDbDimStyleTableRecord
2
Standard
70
0
3
<>
41
0.18
42
0.0625
44
0.18
140
0.18
147
0.09
73
0
74
0
77
1
271
2
275
0
278
52
280
0
340
11
0
ENDTAB
0
TABLE
2
VIEW
5
19f
100
AcDbSymbolTable
0
ENDTAB
0
TABLE
2
UCS
5
1a0
100
AcDbSymbolTable
0
ENDTAB
0
TABLE
2
APPID
5
1a1
100
AcDbSymbolTable
0
APPID
5
12
100
AcDbSymbolTableRecord
100
AcDbRegAppTableRecord
2
ACAD
70
0
0
ENDTAB
0
TABLE
2
BLOCK_RECORD
5
1a2
100
AcDbSymbolTable
0
BLOCK_RECORD
5
1F
100
AcDbSymbolTableRecord
100
AcDbBlockTableRecord
2
*Model_Space
340
0
70
0
0
BLOCK_RECORD
5
1B
100
AcDbSymbolTableRecord
100
AcDbBlockTableRecord
2
*Paper_Space
340
0
70
0
0
BLOCK_RECORD
5
23
100
AcDbSymbolTableRecord
100
AcDbBlockTableRecord
2
*Paper_Space0
340
0
70
0
0
BLOCK_RECORD
5
119
100
AcDbSymbolTableRecord
100
AcDbBlockTableRecord
2
DimnDraft3D1
340
0
70
0
0
BLOCK_RECORD
5
128
100
AcDbSymbolTableRecord
100
AcDbBlockTableRecord
2
_CLOSED
340
0
70
0
0
BLOCK_RECORD
5
12F
100
AcDbSymbolTableRecord
100
AcDbBlockTableRecord
2
DimnDraft3D2
340
0
70
0
0
BLOCK_RECORD
5
13D
100
AcDbSymbolTableRecord
100
AcDbBlockTableRecord
2
DimnDraft3D3
340
0
70
0
0
BLOCK_RECORD
5
14C
100
AcDbSymbolTableRecord
100
AcDbBlockTableRecord
2
DimnDraft3D4
340
0
70
0
0
BLOCK_RECORD
5
15A
100
AcDbSymbolTableRecord
100
AcDbBlockTableRecord
2
DimnDraft3D5
340
0
70
0
0
ENDTAB
0
ENDSEC
0
SECTION
2
BLOCKS
0
BLOCK
5
20
100
AcDbEntity
8
0
100
AcDbBlockBegin
2
*Model_Space
70
0
10
0
20
0
30
0
3
*Model_Space
0
ENDBLK
5
21
100
AcDbEntity
8
0
100
AcDbBlockEnd
0
BLOCK
5
1C
100
AcDbEntity
8
0
100
AcDbBlockBegin
2
*Paper_Space
70
0
10
0
20
0
30
0
3
*Paper_Space
0
ENDBLK
5
1D
100
AcDbEntity
8
0
100
AcDbBlockEnd
0
BLOCK
5
24
100
AcDbEntity
8
0
100
AcDbBlockBegin
2
*Paper_Space0
70
0
10
0
20
0
30
0
3
*Paper_Space0
0
ENDBLK
5
25
100
AcDbEntity
8
0
100
AcDbBlockEnd
0
BLOCK
5
125
100
AcDbEntity
8
0
100
AcDbBlockBegin
2
DimnDraft3D1
70
0
10
0
20
0
30
0
3
DimnDraft3D1
0
MTEXT
5
11A
100
AcDbEntity
8
SK2
62
256
6
ByLayer
370
-1
48
1
60
0
100
AcDbMText
10
-94.22505
20
-4.038158
30
0
210
0
220
0
230
1
1
\W01.000;\fsimplex.shx,bigfont.shx;25.0 
40
4.5
41
0
44
1.084337
50
90
71
7
72
5
7
DEFAULT
0
LINE
5
11C
100
AcDbEntity
8
SK2
62
256
6
ByLayer
370
-1
48
1
60
0
100
AcDbLine
10
-85.5875
20
-12.4625
30
0
11
-96.27505
21
-12.4625
31
0
39
0
210
0
220
0
230
1
0
LINE
5
11D
100
AcDbEntity
8
SK2
62
256
6
ByLayer
370
-1
48
1
60
0
100
AcDbLine
10
-85.5875
20
12.4625
30
0
11
-96.27505
21
12.4625
31
0
39
0
210
0
220
0
230
1
0
LINE
5
11E
100
AcDbEntity
8
SK2
62
256
6
ByLayer
370
-1
48
1
60
0
100
AcDbLine
10
-93.10005
20
-12.4625
30
0
11
-93.10005
21
12.4625
31
0
39
0
210
0
220
0
230
1
0
LINE
5
11F
100
AcDbEntity
8
SK2
62
256
6
ByLayer
370
-1
48
1
60
0
100
AcDbLine
10
-93.10005
20
-12.4625
30
0
11
-93.950789
21
-9.287503
31
0
39
0
210
0
220
0
230
1
0
LINE
5
120
100
AcDbEntity
8
SK2
62
256
6
ByLayer
370
-1
48
1
60
0
100
AcDbLine
10
-93.10005
20
-12.4625
30
0
11
-92.249311
21
-9.287497
31
0
39
0
210
0
220
0
230
1
0
LINE
5
121
100
AcDbEntity
8
SK2
62
256
6
ByLayer
370
-1
48
1
60
0
100
AcDbLine
10
-93.950789
20
-9.287503
30
0
11
-92.249311
21
-9.287497
31
0
39
0
210
0
220
0
230
1
0
LINE
5
122
100
AcDbEntity
8
SK2
62
256
6
ByLayer
370
-1
48
1
60
0
100
AcDbLine
10
-93.10005
20
12.4625
30
0
11
-92.249311
21
9.287503
31
0
39
0
210
0
220
0
230
1
0
LINE
5
123
100
AcDbEntity
8
SK2
62
256
6
ByLayer
370
-1
48
1
60
0
100
AcDbLine
10
-93.10005
20
12.4625
30
0
11
-93.950789
21
9.287497
31
0
39
0
210
0
220
0
230
1
0
LINE
5
124
100
AcDbEntity
8
SK2
62
256
6
ByLayer
370
-1
48
1
60
0
100
AcDbLine
10
-92.249311
20
9.287503
30
0
11
-93.950789
21
9.287497
31
0
39
0
210
0
220
0
230
1
0
ENDBLK
5
126
100
AcDbEntity
8
0
100
AcDbBlockEnd
0
BLOCK
5
129
100
AcDbEntity
8
0
100
AcDbBlockBegin
2
_CLOSED
70
0
10
0
20
0
30
0
3
_CLOSED
0
LINE
5
12B
100
AcDbEntity
8
0
62
256
6
ByLayer
370
-2
48
1
60
0
100
AcDbLine
10
-1
20
0.166667
30
0
11
0
21
0
31
0
39
0
210
0
220
0
230
1
0
LINE
5
12C
100
AcDbEntity
8
0
62
256
6
ByLayer
370
-2
48
1
60
0
100
AcDbLine
10
0
20
0
30
0
11
-1
21
-0.166667
31
0
39
0
210
0
220
0
230
1
0
LINE
5
12D
100
AcDbEntity
8
0
62
256
6
ByLayer
370
-2
48
1
60
0
100
AcDbLine
10
-1
20
0.166667
30
0
11
-1
21
-0.166667
31
0
39
0
210
0
220
0
230
1
0
LINE
5
12E
100
AcDbEntity
8
0
62
256
6
ByLayer
370
-2
48
1
60
0
100
AcDbLine
10
0
20
0
30
0
11
-1
21
0
31
0
39
0
210
0
220
0
230
1
0
ENDBLK
5
12A
100
AcDbEntity
8
0
100
AcDbBlockEnd
0
BLOCK
5
13A
100
AcDbEntity
8
0
100
AcDbBlockBegin
2
DimnDraft3D2
70
0
10
0
20
0
30
0
3
DimnDraft3D2
0
MTEXT
5
130
100
AcDbEntity
8
SK2
62
256
6
ByLayer
370
-1
48
1
60
0
100
AcDbMText
10
-26.127632
20
-41.4125
30
0
210
0
220
0
230
1
1
\W01.000;\fsimplex.shx,bigfont.shx;126.0 
40
4.5
41
0
44
1.084337
50
0
71
7
72
5
7
DEFAULT
0
LINE
5
131
100
AcDbEntity
8
SK2
62
256
6
ByLayer
370
-1
48
1
60
0
100
AcDbLine
10
-84
20
-14.05
30
0
11
-84
21
-45.7125
31
0
39
0
210
0
220
0
230
1
0
LINE
5
132
100
AcDbEntity
8
SK2
62
256
6
ByLayer
370
-1
48
1
60
0
100
AcDbLine
10
42
20
-14.625
30
0
11
42
21
-45.7125
31
0
39
0
210
0
220
0
230
1
0
LINE
5
133
100
AcDbEntity
8
SK2
62
256
6
ByLayer
370
-1
48
1
60
0
100
AcDbLine
10
-84
20
-42.5375
30
0
11
42
21
-42.5375
31
0
39
0
210
0
220
0
230
1
0
LINE
5
134
100
AcDbEntity
8
SK2
62
256
6
ByLayer
370
-1
48
1
60
0
100
AcDbLine
10
-84
20
-42.5375
30
0
11
-80.825003
21
-41.686761
31
0
39
0
210
0
220
0
230
1
0
LINE
5
135
100
AcDbEntity
8
SK2
62
256
6
ByLayer
370
-1
48
1
60
0
100
AcDbLine
10
-84
20
-42.5375
30
0
11
-80.824997
21
-43.388239
31
0
39
0
210
0
220
0
230
1
0
LINE
5
136
100
AcDbEntity
8
SK2
62
256
6
ByLayer
370
-1
48
1
60
0
100
AcDbLine
10
-80.825003
20
-41.686761
30
0
11
-80.824997
21
-43.388239
31
0
39
0
210
0
220
0
230
1
0
LINE
5
137
100
AcDbEntity
8
SK2
62
256
6
ByLayer
370
-1
48
1
60
0
100
AcDbLine
10
42
20
-42.5375
30
0
11
38.825003
21
-43.388239
31
0
39
0
210
0
220
0
230
1
0
LINE
5
138
100
AcDbEntity
8
SK2
62
256
6
ByLayer
370
-1
48
1
60
0
100
AcDbLine
10
42
20
-42.5375
30
0
11
38.824997
21
-41.686761
31
0
39
0
210
0
220
0
230
1
0
LINE
5
139
100
AcDbEntity
8
SK2
62
256
6
ByLayer
370
-1
48
1
60
0
100
AcDbLine
10
38.825003
20
-43.388239
30
0
11
38.824997
21
-41.686761
31
0
39
0
210
0
220
0
230
1
0
ENDBLK
5
13B
100
AcDbEntity
8
0
100
AcDbBlockEnd
0
BLOCK
5
149
100
AcDbEntity
8
0
100
AcDbBlockBegin
2
DimnDraft3D3
70
0
10
0
20
0
30
0
3
DimnDraft3D3
0
MTEXT
5
13E
100
AcDbEntity
8
2
62
256
6
ByLayer
370
-1
48
1
60
0
100
AcDbMText
10
16.725
20
20.43755
30
0
210
0
220
0
230
1
1
\W01.000;\fsimplex.shx,bigfont.shx;42.0 
40
4.5
41
0
44
1.084337
50
0
71
7
72
5
7
DEFAULT
0
LINE
5
140
100
AcDbEntity
8
2
62
256
6
ByLayer
370
-1
48
1
60
0
100
AcDbLine
10
42
20
-11.45
30
0
11
42
21
22.48755
31
0
39
0
210
0
220
0
230
1
0
LINE
5
141
100
AcDbEntity
8
2
62
256
6
ByLayer
370
-1
48
1
60
0
100
AcDbLine
10
0
20
14.05
30
0
11
0
21
22.48755
31
0
39
0
210
0
220
0
230
1
0
LINE
5
142
100
AcDbEntity
8
2
62
256
6
ByLayer
370
-1
48
1
60
0
100
AcDbLine
10
42
20
19.31255
30
0
11
0
21
19.31255
31
0
39
0
210
0
220
0
230
1
0
LINE
5
143
100
AcDbEntity
8
2
62
256
6
ByLayer
370
-1
48
1
60
0
100
AcDbLine
10
42
20
19.31255
30
0
11
38.825003
21
18.461811
31
0
39
0
210
0
220
0
230
1
0
LINE
5
144
100
AcDbEntity
8
2
62
256
6
ByLayer
370
-1
48
1
60
0
100
AcDbLine
10
42
20
19.31255
30
0
11
38.824997
21
20.163289
31
0
39
0
210
0
220
0
230
1
0
LINE
5
145
100
AcDbEntity
8
2
62
256
6
ByLayer
370
-1
48
1
60
0
100
AcDbLine
10
38.825003
20
18.461811
30
0
11
38.824997
21
20.163289
31
0
39
0
210
0
220
0
230
1
0
LINE
5
146
100
AcDbEntity
8
2
62
256
6
ByLayer
370
-1
48
1
60
0
100
AcDbLine
10
0
20
19.31255
30
0
11
3.174997
21
20.163289
31
0
39
0
210
0
220
0
230
1
0
LINE
5
147
100
AcDbEntity
8
2
62
256
6
ByLayer
370
-1
48
1
60
0
100
AcDbLine
10
0
20
19.31255
30
0
11
3.175003
21
18.461811
31
0
39
0
210
0
220
0
230
1
0
LINE
5
148
100
AcDbEntity
8
2
62
256
6
ByLayer
370
-1
48
1
60
0
100
AcDbLine
10
3.174997
20
20.163289
30
0
11
3.175003
21
18.461811
31
0
39
0
210
0
220
0
230
1
0
ENDBLK
5
14A
100
AcDbEntity
8
0
100
AcDbBlockEnd
0
BLOCK
5
157
100
AcDbEntity
8
0
100
AcDbBlockBegin
2
DimnDraft3D4
70
0
10
0
20
0
30
0
3
DimnDraft3D4
0
MTEXT
5
14D
100
AcDbEntity
8
2
62
256
6
ByLayer
370
-1
48
1
60
0
100
AcDbMText
10
24.484043
20
-24.135215
30
0
210
0
220
0
230
1
1
\W01.000;\fsimplex.shx,bigfont.shx;93.0 
40
4.5
41
0
44
1.084337
50
313.5
71
7
72
5
7
DEFAULT
0
LINE
5
14E
100
AcDbEntity
8
2
62
256
6
ByLayer
370
-1
48
1
60
0
100
AcDbLine
10
26.597147
20
-12.272961
30
0
11
17.418332
21
-11.79192
31
0
39
0
210
0
220
0
230
1
0
LINE
5
14F
100
AcDbEntity
8
2
62
256
6
ByLayer
370
-1
48
1
60
0
100
AcDbLine
10
42
20
-14.625
30
0
11
42
21
-37.695593
31
0
39
0
210
0
220
0
230
1
0
ARC
5
150
100
AcDbEntity
8
2
62
256
6
ByLayer
370
-1
48
1
60
0
100
AcDbCircle
39
0
10
42
20
-13.080191
30
0
40
21.4404027865335
210
0
220
0
230
1
100
AcDbArc
50
177
51
270
0
LINE
5
151
100
AcDbEntity
8
2
62
256
6
ByLayer
370
-1
48
1
60
0
100
AcDbLine
10
20.588981
20
-11.958087
30
0
11
21.390706
21
-15.145813
31
0
39
0
210
0
220
0
230
1
0
LINE
5
152
100
AcDbEntity
8
2
62
256
6
ByLayer
370
-1
48
1
60
0
100
AcDbLine
10
20.588981
20
-11.958087
30
0
11
19.68943
21
-15.119607
31
0
39
0
210
0
220
0
230
1
0
LINE
5
153
100
AcDbEntity
8
2
62
256
6
ByLayer
370
-1
48
1
60
0
100
AcDbLine
10
21.390706
20
-15.145813
30
0
11
19.68943
21
-15.119607
31
0
39
0
210
0
220
0
230
1
0
LINE
5
154
100
AcDbEntity
8
2
62
256
6
ByLayer
370
-1
48
1
60
0
100
AcDbLine
10
42
20
-34.520593
30
0
11
38.79574
21
-35.25345
31
0
39
0
210
0
220
0
230
1
0
LINE
5
155
100
AcDbEntity
8
2
62
256
6
ByLayer
370
-1
48
1
60
0
100
AcDbLine
10
42
20
-34.520593
30
0
11
38.858595
21
-33.553134
31
0
39
0
210
0
220
0
230
1
0
LINE
5
156
100
AcDbEntity
8
2
62
256
6
ByLayer
370
-1
48
1
60
0
100
AcDbLine
10
38.79574
20
-35.25345
30
0
11
38.858595
21
-33.553134
31
0
39
0
210
0
220
0
230
1
0
ENDBLK
5
158
100
AcDbEntity
8
0
100
AcDbBlockEnd
0
BLOCK
5
165
100
AcDbEntity
8
0
100
AcDbBlockBegin
2
DimnDraft3D5
70
0
10
0
20
0
30
0
3
DimnDraft3D5
0
MTEXT
5
15B
100
AcDbEntity
8
2
62
256
6
ByLayer
370
-1
48
1
60
0
100
AcDbMText
10
61.725
20
-4.325658
30
0
210
0
220
0
230
1
1
\W01.000;\fsimplex.shx,bigfont.shx;25.5 
40
4.5
41
0
44
1.084337
50
90
71
7
72
5
7
DEFAULT
0
LINE
5
15C
100
AcDbEntity
8
2
62
256
6
ByLayer
370
-1
48
1
60
0
100
AcDbLine
10
43.5875
20
-13.0375
30
0
11
66.025
21
-13.0375
31
0
39
0
210
0
220
0
230
1
0
LINE
5
15D
100
AcDbEntity
8
2
62
256
6
ByLayer
370
-1
48
1
60
0
100
AcDbLine
10
1.5875
20
12.4625
30
0
11
66.025
21
12.4625
31
0
39
0
210
0
220
0
230
1
0
LINE
5
15E
100
AcDbEntity
8
2
62
256
6
ByLayer
370
-1
48
1
60
0
100
AcDbLine
10
62.85
20
-13.0375
30
0
11
62.85
21
12.4625
31
0
39
0
210
0
220
0
230
1
0
LINE
5
15F
100
AcDbEntity
8
2
62
256
6
ByLayer
370
-1
48
1
60
0
100
AcDbLine
10
62.85
20
-13.0375
30
0
11
61.999261
21
-9.862503
31
0
39
0
210
0
220
0
230
1
0
LINE
5
160
100
AcDbEntity
8
2
62
256
6
ByLayer
370
-1
48
1
60
0
100
AcDbLine
10
62.85
20
-13.0375
30
0
11
63.700739
21
-9.862497
31
0
39
0
210
0
220
0
230
1
0
LINE
5
161
100
AcDbEntity
8
2
62
256
6
ByLayer
370
-1
48
1
60
0
100
AcDbLine
10
61.999261
20
-9.862503
30
0
11
63.700739
21
-9.862497
31
0
39
0
210
0
220
0
230
1
0
LINE
5
162
100
AcDbEntity
8
2
62
256
6
ByLayer
370
-1
48
1
60
0
100
AcDbLine
10
62.85
20
12.4625
30
0
11
63.700739
21
9.287503
31
0
39
0
210
0
220
0
230
1
0
LINE
5
163
100
AcDbEntity
8
2
62
256
6
ByLayer
370
-1
48
1
60
0
100
AcDbLine
10
62.85
20
12.4625
30
0
11
61.999261
21
9.287497
31
0
39
0
210
0
220
0
230
1
0
LINE
5
164
100
AcDbEntity
8
2
62
256
6
ByLayer
370
-1
48
1
60
0
100
AcDbLine
10
63.700739
20
9.287503
30
0
11
61.999261
21
9.287497
31
0
39
0
210
0
220
0
230
1
0
ENDBLK
5
166
100
AcDbEntity
8
0
100
AcDbBlockEnd
0
ENDSEC
0
SECTION
2
ENTITIES
0
ARC
5
B0
100
AcDbEntity
8
1
62
256
6
ByLayer
370
-1
48
1
60
0
100
AcDbCircle
39
0
10
23.288403
20
-1.689311
30
0
40
1.50000000000001
210
0
220
0
230
1
100
AcDbArc
50
59.5
51
145.799121
0
ARC
5
B1
100
AcDbEntity
8
1
62
256
6
ByLayer
370
-1
48
1
60
0
100
AcDbCircle
39
0
10
17.851176
20
0.545463
30
0
40
3.2
210
0
220
0
230
1
100
AcDbArc
50
345.743305
51
65.618337
0
ARC
5
B2
100
AcDbEntity
8
1
62
256
6
ByLayer
370
-1
48
1
60
0
100
AcDbCircle
39
0
10
23.288403
20
-1.689311
30
0
40
1.5
210
0
220
0
230
1
100
AcDbArc
50
153.200879
51
239.5
0
ARC
5
B3
100
AcDbEntity
8
1
62
256
6
ByLayer
370
-1
48
1
60
0
100
AcDbCircle
39
0
10
-23.288403
20
-1.689311
30
0
40
1.6
210
0
220
0
230
-1
100
AcDbArc
50
300.5
51
26.916678
0
ARC
5
B4
100
AcDbEntity
8
1
62
256
6
ByLayer
370
-1
48
1
60
0
100
AcDbCircle
39
0
10
-16.036352
20
-6.596927
30
0
40
3.2
210
0
220
0
230
-1
100
AcDbArc
50
194.256695
51
285.615344
0
ARC
5
B5
100
AcDbEntity
8
1
62
256
6
ByLayer
370
-1
48
1
60
0
100
AcDbCircle
39
0
10
-23.288403
20
-1.689311
30
0
40
1.60000000000001
210
0
220
0
230
-1
100
AcDbArc
50
34.083322
51
120.5
0
ARC
5
B6
100
AcDbEntity
8
1
62
256
6
ByLayer
370
-1
48
1
60
0
100
AcDbCircle
39
0
10
-19.015774
20
-22.169746
30
0
40
11
210
0
220
0
230
-1
100
AcDbArc
50
61.942612
51
91.635987
0
ARC
5
B7
100
AcDbEntity
8
1
62
256
6
ByLayer
370
-1
48
1
60
0
100
AcDbCircle
39
0
10
-17.851176
20
0.545463
30
0
40
1.59999999999994
210
0
220
0
230
-1
100
AcDbArc
50
114.381663
51
194.256695
0
ARC
5
B8
100
AcDbEntity
8
1
62
256
6
ByLayer
370
-1
48
1
60
0
100
AcDbCircle
39
0
10
-16.036352
20
-6.596927
30
0
40
1.59999999999994
210
0
220
0
230
-1
100
AcDbArc
50
194.256695
51
285.615344
0
ARC
5
BA
100
AcDbEntity
8
1
62
256
6
ByLayer
370
-1
48
1
60
0
100
AcDbCircle
39
0
10
23.642534
20
-1.89791
30
0
40
0.793800000000731
210
0
220
0
230
1
100
AcDbArc
50
87
51
212
0
ARC
5
BD
100
AcDbEntity
8
1
62
256
6
ByLayer
370
-1
48
1
60
0
100
AcDbCircle
39
0
10
-41.2062
20
-12.2437
30
0
40
0.793800000000731
210
0
220
0
230
-1
100
AcDbArc
50
148
51
273
0
ARC
5
BE
100
AcDbEntity
8
1
62
256
6
ByLayer
370
-1
48
1
60
0
100
AcDbCircle
39
0
10
-32.424367
20
-7.070805
30
0
40
1.2903
210
0
220
0
230
-1
100
AcDbArc
50
150.5
51
210.5
0
ARC
5
BF
100
AcDbEntity
8
1
62
256
6
ByLayer
370
-1
48
1
60
0
100
AcDbCircle
39
0
10
-32.424367
20
-7.070805
30
0
40
1.2903
210
0
220
0
230
-1
100
AcDbArc
50
30.5
51
90.5
0
ARC
5
C0
100
AcDbEntity
8
1
62
256
6
ByLayer
370
-1
48
1
60
0
100
AcDbCircle
39
0
10
32.424367
20
-7.070805
30
0
40
1.67639999999995
210
0
220
0
230
1
100
AcDbArc
50
179.5
51
239.5
0
ARC
5
C1
100
AcDbEntity
8
1
62
256
6
ByLayer
370
-1
48
1
60
0
100
AcDbCircle
39
0
10
32.424367
20
-7.070805
30
0
40
1.67639999999995
210
0
220
0
230
1
100
AcDbArc
50
59.5
51
119.5
0
ARC
5
C2
100
AcDbEntity
8
1
62
256
6
ByLayer
370
-1
48
1
60
0
100
AcDbCircle
39
0
10
-32.424367
20
-7.070805
30
0
40
1.2903
210
0
220
0
230
-1
100
AcDbArc
50
330.5
51
30.5
0
ARC
5
C3
100
AcDbEntity
8
1
62
256
6
ByLayer
370
-1
48
1
60
0
100
AcDbCircle
39
0
10
32.424367
20
-7.070805
30
0
40
1.67639999999995
210
0
220
0
230
1
100
AcDbArc
50
239.5
51
299.5
0
ARC
5
C5
100
AcDbEntity
8
1
62
256
6
ByLayer
370
-1
48
1
60
0
100
AcDbCircle
39
0
10
32.424367
20
-7.070805
30
0
40
1.67639999999995
210
0
220
0
230
1
100
AcDbArc
50
359.5
51
59.5
0
ARC
5
C6
100
AcDbEntity
8
1
62
256
6
ByLayer
370
-1
48
1
60
0
100
AcDbCircle
39
0
10
32.424367
20
-7.070805
30
0
40
1.67639999999995
210
0
220
0
230
1
100
AcDbArc
50
119.5
51
179.5
0
ARC
5
C7
100
AcDbEntity
8
1
62
256
6
ByLayer
370
-1
48
1
60
0
100
AcDbCircle
39
0
10
32.424367
20
-7.070805
30
0
40
1.29029999999998
210
0
220
0
230
1
100
AcDbArc
50
209.5
51
269.5
0
ARC
5
C8
100
AcDbEntity
8
1
62
256
6
ByLayer
370
-1
48
1
60
0
100
AcDbCircle
39
0
10
32.424367
20
-7.070805
30
0
40
1.67639999999995
210
0
220
0
230
1
100
AcDbArc
50
299.5
51
359.5
0
ARC
5
CA
100
AcDbEntity
8
1
62
256
6
ByLayer
370
-1
48
1
60
0
100
AcDbCircle
39
0
10
-32.424367
20
-7.070805
30
0
40
1.2903
210
0
220
0
230
-1
100
AcDbArc
50
90.5
51
150.5
0
ARC
5
CB
100
AcDbEntity
8
1
62
256
6
ByLayer
370
-1
48
1
60
0
100
AcDbCircle
39
0
10
32.424367
20
-7.070805
30
0
40
1.29029999999998
210
0
220
0
230
1
100
AcDbArc
50
269.5
51
329.5
0
CIRCLE
5
B9
100
AcDbEntity
8
1
62
256
6
ByLayer
370
-1
48
1
60
0
100
AcDbCircle
10
-32.424367
20
-7.070805
30
0
40
3.0111521844133
39
0
210
0
220
0
230
-1
0
CIRCLE
5
BB
100
AcDbEntity
8
1
62
256
6
ByLayer
370
-1
48
1
60
0
100
AcDbCircle
10
-32.424367
20
-7.070805
30
0
40
3.07
39
0
210
0
220
0
230
-1
0
CIRCLE
5
BC
100
AcDbEntity
8
1
62
256
6
ByLayer
370
-1
48
1
60
0
100
AcDbCircle
10
-32.424367
20
-7.070805
30
0
40
2.88321791935966
39
0
210
0
220
0
230
-1
0
CIRCLE
5
C4
100
AcDbEntity
8
1
62
256
6
ByLayer
370
-1
48
1
60
0
100
AcDbCircle
10
-32.424367
20
-7.070805
30
0
40
1.79999999999999
39
0
210
0
220
0
230
-1
0
CIRCLE
5
C9
100
AcDbEntity
8
1
62
256
6
ByLayer
370
-1
48
1
60
0
100
AcDbCircle
10
-32.424367
20
-7.070805
30
0
40
2.62499999999999
39
0
210
0
220
0
230
-1
0
ELLIPSE
5
CC
100
AcDbEntity
8
1
62
256
6
ByLayer
370
-1
48
1
60
0
100
AcDbEllipse
10
1.378858
20
11.524616
30
0
11
0.0500398918269333
21
-1.76733969338381
31
0
210
0
220
0
230
-1
40
0.240921
41
0.116986295884847
42
0.30652991719025
0
ELLIPSE
5
CD
100
AcDbEntity
8
1
62
256
6
ByLayer
370
-1
48
1
60
0
100
AcDbEllipse
10
1.378858
20
-5.822886
30
0
11
0.0330164528181362
21
-1.66561246869569
31
0
210
0
220
0
230
-1
40
0.25663
41
3.02913728492238
42
-3.06450440093277
0
ELLIPSE
5
CE
100
AcDbEntity
8
1
62
256
6
ByLayer
370
-1
48
1
60
0
100
AcDbEllipse
10
19.015773
20
-22.169749
30
0
11
0.465669701275185
21
10.9901416552508
31
0
210
0
220
0
230
-1
40
1
41
-0.013792896161193
42
0.0100136231112441
0
ELLIPSE
5
CF
100
AcDbEntity
8
1
62
256
6
ByLayer
370
-1
48
1
60
0
100
AcDbEllipse
10
34.884814
20
-2.893795
30
0
11
0.610242066869127
21
1.03598545078505
31
0
210
0
220
0
230
-1
40
0.990555
41
-0.476089217726879
42
0.476089217726881
0
ELLIPSE
5
D0
100
AcDbEntity
8
1
62
256
6
ByLayer
370
-1
48
1
60
0
100
AcDbEllipse
10
29.96392
20
-11.247815
30
0
11
-0.610242066869127
21
-1.03598545078505
31
0
210
0
220
0
230
-1
40
0.990555
41
-0.476089217726887
42
0.476089217726884
0
POINT
5
41
100
AcDbEntity
8
80
62
256
6
ByLayer
370
-1
48
1
60
0
100
AcDbPoint
10
0
20
0
30
0
39
0
210
0
220
0
230
1
50
360
0
POINT
5
43
100
AcDbEntity
8
81
62
256
6
ByLayer
370
-1
48
1
60
0
100
AcDbPoint
10
42
20
-13.0375
30
0
39
0
210
0
220
0
230
1
50
360
0
SPLINE
5
D1
100
AcDbEntity
8
1
62
256
6
ByLayer
370
-1
48
1
60
0
100
AcDbSpline
70
4
71
3
72
22
73
18
40
0
40
0
40
0
40
0
40
0.125
40
0.125
40
0.25
40
0.25
40
0.375
40
0.375
40
0.5
40
0.5
40
0.625
40
0.625
40
0.75
40
0.75
40
0.875
40
0.875
40
1
40
1
40
1
40
1
41
1
10
0.566955740029499
20
11.8925982997881
30
0
41
1
10
0.566955740029499
20
11.778937507637
30
0
41
1
10
0.576464841970676
20
11.6679741582402
30
0
41
1
10
0.608730060426041
20
11.4499726693739
30
0
41
1
10
0.631660727710397
20
11.3424244896122
30
0
41
1
10
0.686435870773352
20
11.1328980098101
30
0
41
1
10
0.71784320366956
20
11.0322963460281
30
0
41
1
10
0.785566827494733
20
10.8379215827433
30
0
41
1
10
0.821910658595783
20
10.7441640225521
30
0
41
1
10
0.897566570956002
20
10.5631805761727
30
0
41
1
10
0.937061071959477
20
10.4756635550725
30
0
41
1
10
1.01542643242229
20
10.312089270034
30
0
41
1
10
1.05452458610097
20
10.2354605657837
30
0
41
1
10
1.13099854334808
20
10.0939919602322
30
0
41
1
10
1.16872146622731
20
10.0286242966337
30
0
41
1
10
1.23817216605261
20
9.91721733520487
30
0
41
1
10
1.27009851437972
20
9.87070227936536
30
0
41
1
10
1.29808257793033
20
9.83602100783088
30
0
0
SPLINE
5
D2
100
AcDbEntity
8
1
62
256
6
ByLayer
370
-1
48
1
60
0
100
AcDbSpline
70
4
71
3
72
8
73
4
40
0
40
0
40
0
40
0
40
1
40
1
40
1
40
1
41
1
10
21.949513688935
20
-1.01301507771126
30
0
41
1
10
21.9202463850365
20
-0.997025168552341
30
0
41
1
10
21.8909879324092
20
-0.981019658189581
30
0
41
1
10
21.8617375244386
20
-0.964999993814899
30
0
0
SPLINE
5
D3
100
AcDbEntity
8
1
62
256
6
ByLayer
370
-1
48
1
60
0
100
AcDbSpline
70
4
71
3
72
22
73
18
40
0
40
0
40
0
40
0
40
0.249999999999999
40
0.249999999999999
40
0.499999999999998
40
0.499999999999998
40
0.624999999999997
40
0.624999999999997
40
0.687499999999997
40
0.687499999999997
40
0.749999999999997
40
0.749999999999997
40
0.874999999999996
40
0.874999999999996
40
0.937499999999998
40
0.937499999999998
40
1
40
1
40
1
40
1
41
1
10
1.29808257793033
20
-4.16874502643677
30
0
41
1
10
1.24925036464211
20
-4.19139960320945
30
0
41
1
10
1.18567845484674
20
-4.24036185170201
30
0
41
1
10
1.03636893417917
20
-4.39066597100563
30
0
41
1
10
0.954279223432252
20
-4.48807277171625
30
0
41
1
10
0.831970317981501
20
-4.67345146362828
30
0
41
1
10
0.792322926924101
20
-4.7406632716357
30
0
41
1
10
0.737289126331149
20
-4.8498206390787
30
0
41
1
10
0.719661888696294
20
-4.88764946391419
30
0
41
1
10
0.686316529567819
20
-4.96650705020508
30
0
41
1
10
0.670541763568281
20
-5.00775060538754
30
0
41
1
10
0.627890069160287
20
-5.13382959161012
30
0
41
1
10
0.605342100436786
20
-5.22168099530262
30
0
41
1
10
0.582356988570353
20
-5.35964950300905
30
0
41
1
10
0.576522826068754
20
-5.40673157405007
30
0
41
1
10
0.568847556428921
20
-5.50094260567448
30
0
41
1
10
0.566955740029499
20
-5.54832167171006
30
0
41
1
10
0.566955740029499
20
-5.595964401115
30
0
0
SPLINE
5
D4
100
AcDbEntity
8
1
62
256
6
ByLayer
370
-1
48
1
60
0
100
AcDbSpline
70
4
71
3
72
8
73
4
40
0
40
0
40
0
40
0
40
1
40
1
40
1
40
1
41
1
10
22.0477948646227
20
-0.846166750422384
30
0
41
1
10
22.0196207044682
20
-0.828321051444959
30
0
41
1
10
21.9914371903749
20
-0.81049065757756
30
0
41
1
10
21.9632451970308
20
-0.792674161726552
30
0
0
SPLINE
5
D5
100
AcDbEntity
8
1
62
256
6
ByLayer
370
-1
48
1
60
0
100
AcDbSpline
70
4
71
3
72
8
73
4
40
0
40
0
40
0
40
0
40
1
40
1
40
1
40
1
41
1
10
31.356886719896
20
-5.98306074817583
30
0
41
1
10
31.3613716286084
20
-5.98818297058753
30
0
41
1
10
31.365856561543
20
-5.99330522066327
30
0
41
1
10
31.3703415196981
20
-5.99842749954351
30
0
0
SPLINE
5
D6
100
AcDbEntity
8
1
62
256
6
ByLayer
370
-1
48
1
60
0
100
AcDbSpline
70
4
71
3
72
20
73
16
40
0
40
0
40
0
40
0
40
0.0624999999999995
40
0.0624999999999995
40
0.124999999999999
40
0.124999999999999
40
0.250000000000002
40
0.250000000000002
40
0.499999999999999
40
0.499999999999999
40
0.749999999999996
40
0.749999999999996
40
0.874999999999998
40
0.874999999999998
40
1
40
1
40
1
40
1
41
1
10
33.8800861668797
20
-6.6941809645916
30
0
41
1
10
33.8634306268316
20
-6.69748026963416
30
0
41
1
10
33.8462760941173
20
-6.69677533577288
30
0
41
1
10
33.8124591109708
20
-6.69015654851574
30
0
41
1
10
33.7960413310794
20
-6.68433978826866
30
0
41
1
10
33.7477056298407
20
-6.66171746790755
30
0
41
1
10
33.7174434637173
20
-6.64010135550407
30
0
41
1
10
33.6333789420594
20
-6.56566963305738
30
0
41
1
10
33.5856601271153
20
-6.50309122778856
30
0
41
1
10
33.5090495533422
20
-6.36765679295706
30
0
41
1
10
33.4800393919716
20
-6.2946092422095
30
0
41
1
10
33.4595472341441
20
-6.18432850089008
30
0
41
1
10
33.4565884543438
20
-6.14722616751698
30
0
41
1
10
33.4639364154532
20
-6.07635342021777
30
0
41
1
10
33.4741252061598
20
-6.04215172632539
30
0
41
1
10
33.4969477531807
20
-6.0169861109861
30
0
0
SPLINE
5
D7
100
AcDbEntity
8
1
62
256
6
ByLayer
370
-1
48
1
60
0
100
AcDbSpline
70
4
71
3
72
18
73
14
40
0
40
0
40
0
40
0
40
0.124999999999999
40
0.124999999999999
40
0.249999999999997
40
0.249999999999997
40
0.374999999999996
40
0.374999999999996
40
0.499999999999994
40
0.499999999999994
40
0.749999999999997
40
0.749999999999997
40
1
40
1
40
1
40
1
41
1
10
32.0417812724705
20
-5.59556605440005
30
0
41
1
10
32.0346474071386
20
-5.57862601387328
30
0
41
1
10
32.0225641246182
20
-5.56408626321419
30
0
41
1
10
31.9914025176994
20
-5.54193874272741
30
0
41
1
10
31.9726501742798
20
-5.53440910079712
30
0
41
1
10
31.9337620172949
20
-5.52511162918981
30
0
41
1
10
31.9131442607935
20
-5.52315791694045
30
0
41
1
10
31.8723238693619
20
-5.52295623123012
30
0
41
1
10
31.8518475428072
20
-5.52466377305279
30
0
41
1
10
31.7903129920819
20
-5.53377774414997
30
0
41
1
10
31.7503690549337
20
-5.54489499621485
30
0
41
1
10
31.6729128087339
20
-5.57351259799535
30
0
41
1
10
31.6349531215286
20
-5.5913249859712
30
0
41
1
10
31.5988682619637
20
-5.61174081721774
30
0
0
SPLINE
5
D8
100
AcDbEntity
8
1
62
256
6
ByLayer
370
-1
48
1
60
0
100
AcDbSpline
70
4
71
3
72
8
73
4
40
0
40
0
40
0
40
0
40
1
40
1
40
1
40
1
41
1
10
32.8007108211701
20
-8.5265966809126
30
0
41
1
10
32.802791546917
20
-8.53307920904186
30
0
41
1
10
32.8048722609633
20
-8.5395617007174
30
0
41
1
10
32.8069529637721
20
-8.54604415738254
30
0
0
SPLINE
5
D9
100
AcDbEntity
8
1
62
256
6
ByLayer
370
-1
48
1
60
0
100
AcDbSpline
70
4
71
3
72
16
73
12
40
0
40
0
40
0
40
0
40
0.249999999999996
40
0.249999999999996
40
0.499999999999993
40
0.499999999999993
40
0.749999999999989
40
0.749999999999989
40
0.874999999999994
40
0.874999999999994
40
1
40
1
40
1
40
1
41
1
10
30.7480309502965
20
-7.05617594178179
30
0
41
1
10
30.7476690877874
20
-7.09764127824178
30
0
41
1
10
30.7504278554595
20
-7.13887386815085
30
0
41
1
10
30.7629469307836
20
-7.22081115514507
30
0
41
1
10
30.7727107939301
20
-7.26157229082077
30
0
41
1
10
30.8017946468917
20
-7.33902111116049
30
0
41
1
10
30.8206835684298
20
-7.37575101853764
30
0
41
1
10
30.8615273433489
20
-7.42053884511492
30
0
41
1
10
30.8771959962951
20
-7.43326672304823
30
0
41
1
10
30.9115973230259
20
-7.44979790343183
30
0
41
1
10
30.9303146582936
20
-7.45337386711296
30
0
41
1
10
30.9486126724038
20
-7.45139806993865
30
0
0
SPLINE
5
DA
100
AcDbEntity
8
1
62
256
6
ByLayer
370
-1
48
1
60
0
100
AcDbSpline
70
4
71
3
72
8
73
4
40
0
40
0
40
0
40
0
40
1
40
1
40
1
40
1
41
1
10
33.8732914562295
20
-7.47277768600739
30
0
41
1
10
33.8799458531437
20
-7.47421698871685
30
0
41
1
10
33.8866002126376
20
-7.47565628333254
30
0
41
1
10
33.893254536193
20
-7.47709557017495
30
0
0
SPLINE
5
DB
100
AcDbEntity
8
1
62
256
6
ByLayer
370
-1
48
1
60
0
100
AcDbSpline
70
4
71
3
72
18
73
14
40
0
40
0
40
0
40
0
40
0.125000000000009
40
0.125000000000009
40
0.250000000000019
40
0.250000000000019
40
0.375000000000029
40
0.375000000000029
40
0.500000000000038
40
0.500000000000038
40
0.750000000000019
40
0.750000000000019
40
1
40
1
40
1
40
1
41
1
10
32.8069529637721
20
-8.54604415738254
30
0
41
1
10
32.8140868291041
20
-8.56298419790932
30
0
41
1
10
32.8261701116244
20
-8.5775239485684
30
0
41
1
10
32.8573317185432
20
-8.59967146905518
30
0
41
1
10
32.8760840619628
20
-8.60720111098544
30
0
41
1
10
32.9149722189478
20
-8.61649858259278
30
0
41
1
10
32.9355899754491
20
-8.61845229484214
30
0
41
1
10
32.9764103668807
20
-8.61865398055247
30
0
41
1
10
32.9968866934355
20
-8.6169464387298
30
0
41
1
10
33.0584212441607
20
-8.60783246763262
30
0
41
1
10
33.0983651813089
20
-8.59671521556771
30
0
41
1
10
33.1758214275087
20
-8.56809761378727
30
0
41
1
10
33.213781114714
20
-8.55028522581139
30
0
41
1
10
33.2498659742789
20
-8.52986939456488
30
0
0
SPLINE
5
DC
100
AcDbEntity
8
1
62
256
6
ByLayer
370
-1
48
1
60
0
100
AcDbSpline
70
4
71
3
72
16
73
12
40
0
40
0
40
0
40
0
40
0.250000000000007
40
0.250000000000007
40
0.500000000000013
40
0.500000000000013
40
0.75000000000002
40
0.75000000000002
40
0.87500000000001
40
0.87500000000001
40
1
40
1
40
1
40
1
41
1
10
34.100703285946
20
-7.08543427000086
30
0
41
1
10
34.1010651484553
20
-7.04396893354087
30
0
41
1
10
34.0983063807831
20
-7.0027363436318
30
0
41
1
10
34.0857873054591
20
-6.92079905663755
30
0
41
1
10
34.0760234423125
20
-6.88003792096188
30
0
41
1
10
34.046939589351
20
-6.80258910062213
30
0
41
1
10
34.0280506678127
20
-6.76585919324498
30
0
41
1
10
33.9872068928937
20
-6.72107136666767
30
0
41
1
10
33.9715382399475
20
-6.70834348873436
30
0
41
1
10
33.9371369132167
20
-6.69181230835076
30
0
41
1
10
33.918419577949
20
-6.68823634466963
30
0
41
1
10
33.9001215638388
20
-6.69021214184394
30
0
0
SPLINE
5
DD
100
AcDbEntity
8
1
62
256
6
ByLayer
370
-1
48
1
60
0
100
AcDbSpline
70
4
71
3
72
16
73
12
40
0
40
0
40
0
40
0
40
0.25
40
0.25
40
0.5
40
0.5
40
0.75
40
0.75
40
0.875
40
0.875
40
1
40
1
40
1
40
1
41
1
10
31.5988682619637
20
-5.61174081721774
30
0
41
1
10
31.5627772959583
20
-5.63216010332209
30
0
41
1
10
31.5284482094693
20
-5.65516556116384
30
0
41
1
10
31.4637479750772
20
-5.70697604192347
30
0
41
1
10
31.4333297276683
20
-5.73581236328528
30
0
41
1
10
31.3807990082417
20
-5.79972412895978
30
0
41
1
10
31.3584344361436
20
-5.83444736855051
30
0
41
1
10
31.3400689280069
20
-5.89221302850549
30
0
41
1
10
31.3368805888535
20
-5.91214641896661
30
0
41
1
10
31.3397648300522
20
-5.9502044320312
30
0
41
1
10
31.3460266222951
20
-5.96820210170472
30
0
41
1
10
31.356886719896
20
-5.98306074817586
30
0
0
SPLINE
5
DE
100
AcDbEntity
8
1
62
256
6
ByLayer
370
-1
48
1
60
0
100
AcDbSpline
70
4
71
3
72
18
73
14
40
0
40
0
40
0
40
0
40
0.124999999999999
40
0.124999999999999
40
0.249999999999999
40
0.249999999999999
40
0.374999999999998
40
0.374999999999998
40
0.499999999999997
40
0.499999999999997
40
0.749999999999999
40
0.749999999999999
40
1
40
1
40
1
40
1
41
1
10
31.3380655457004
20
-8.1397536930989
30
0
41
1
10
31.3269619729291
20
-8.15440182196693
30
0
41
1
10
31.3204118207538
20
-8.17213612692018
30
0
41
1
10
31.3168123088408
20
-8.21019663037796
30
0
41
1
10
31.3196676193576
20
-8.23020145712496
30
0
41
1
10
31.3310598512471
20
-8.26852832478394
30
0
41
1
10
31.3396767650582
20
-8.28736068180785
30
0
41
1
10
31.3599122958252
20
-8.32281302063518
30
0
41
1
10
31.3716292336991
20
-8.3396922686965
30
0
41
1
10
31.4102894395613
20
-8.38842576728646
30
0
41
1
10
31.4398892308438
20
-8.41745960555147
30
0
41
1
10
31.503400924081
20
-8.47022988155206
30
0
41
1
10
31.5378067481727
20
-8.4941977410036
30
0
41
1
10
31.5735298064541
20
-8.5152402304555
30
0
0
SPLINE
5
DF
100
AcDbEntity
8
1
62
256
6
ByLayer
370
-1
48
1
60
0
100
AcDbSpline
70
4
71
3
72
20
73
16
40
0
40
0
40
0
40
0
40
0.0624999999999988
40
0.0624999999999988
40
0.124999999999998
40
0.124999999999998
40
0.249999999999992
40
0.249999999999992
40
0.499999999999983
40
0.499999999999983
40
0.749999999999985
40
0.749999999999985
40
0.874999999999993
40
0.874999999999993
40
1
40
1
40
1
40
1
41
1
10
31.3703415196981
20
-5.99842749954351
30
0
41
1
10
31.3815265717038
20
-6.01120196781761
30
0
41
1
10
31.3894933474291
20
-6.02641069586883
30
0
41
1
10
31.4006698010954
20
-6.05900645598163
30
0
41
1
10
31.4038412288995
20
-6.07613305056489
30
0
41
1
10
31.4084175753935
20
-6.12930415592791
30
0
41
1
10
31.4048285559828
20
-6.16632001676609
30
0
41
1
10
31.3824010543254
20
-6.27633788930208
30
0
41
1
10
31.3520659731063
20
-6.34895279791658
30
0
41
1
10
31.2730815988816
20
-6.48301671841838
30
0
41
1
10
31.2243256449353
20
-6.54466403050697
30
0
41
1
10
31.1390658003183
20
-6.61755113042364
30
0
41
1
10
31.1084136269777
20
-6.63866467558148
30
0
41
1
10
31.0433620468258
20
-6.66773752824429
30
0
41
1
10
31.0086481157093
20
-6.67601462360471
30
0
41
1
10
30.9754427800131
20
-6.66883252577523
30
0
0
SPLINE
5
E0
100
AcDbEntity
8
1
62
256
6
ByLayer
370
-1
48
1
60
0
100
AcDbSpline
70
4
71
3
72
16
73
12
40
0
40
0
40
0
40
0
40
0.25
40
0.25
40
0.5
40
0.5
40
0.75
40
0.75
40
0.875
40
0.875
40
1
40
1
40
1
40
1
41
1
10
33.2498659742789
20
-8.52986939456488
30
0
41
1
10
33.2859569402842
20
-8.50945010846053
30
0
41
1
10
33.3202860267733
20
-8.48644465061878
30
0
41
1
10
33.3849862611654
20
-8.43463416985912
30
0
41
1
10
33.4154045085743
20
-8.40579784849731
30
0
41
1
10
33.4679352280009
20
-8.34188608282281
30
0
41
1
10
33.490299800099
20
-8.30716284323208
30
0
41
1
10
33.5086653082357
20
-8.2493971832771
30
0
41
1
10
33.5118536473892
20
-8.22946379281598
30
0
41
1
10
33.5089694061904
20
-8.19140577975139
30
0
41
1
10
33.5027076139475
20
-8.17340811007787
30
0
41
1
10
33.4918475163466
20
-8.15854946360673
30
0
0
SPLINE
5
E1
100
AcDbEntity
8
1
62
256
6
ByLayer
370
-1
48
1
60
0
100
AcDbSpline
70
4
71
3
72
18
73
14
40
0
40
0
40
0
40
0
40
0.12500000000001
40
0.12500000000001
40
0.250000000000019
40
0.250000000000019
40
0.375000000000029
40
0.375000000000029
40
0.500000000000039
40
0.500000000000039
40
0.75000000000002
40
0.75000000000002
40
1
40
1
40
1
40
1
41
1
10
33.5106686905422
20
-6.00185651868372
30
0
41
1
10
33.5217722633136
20
-5.98720838981569
30
0
41
1
10
33.5283224154888
20
-5.96947408486244
30
0
41
1
10
33.5319219274018
20
-5.93141358140463
30
0
41
1
10
33.529066616885
20
-5.91140875465763
30
0
41
1
10
33.5176743849955
20
-5.87308188699865
30
0
41
1
10
33.5090574711844
20
-5.85424952997471
30
0
41
1
10
33.4888219404174
20
-5.81879719114741
30
0
41
1
10
33.4771050025435
20
-5.8019179430861
30
0
41
1
10
33.4384447966813
20
-5.75318444449613
30
0
41
1
10
33.4088450053988
20
-5.72415060623109
30
0
41
1
10
33.3453333121616
20
-5.67138033023053
30
0
41
1
10
33.3109274880698
20
-5.64741247077896
30
0
41
1
10
33.2752044297885
20
-5.62636998132706
30
0
0
SPLINE
5
E2
100
AcDbEntity
8
1
62
256
6
ByLayer
370
-1
48
1
60
0
100
AcDbSpline
70
4
71
3
72
8
73
4
40
0
40
0
40
0
40
0
40
1
40
1
40
1
40
1
41
1
10
33.4918475163466
20
-8.15854946360673
30
0
41
1
10
33.4873626076342
20
-8.15342724119506
30
0
41
1
10
33.4828776746996
20
-8.14830499111932
30
0
41
1
10
33.4783927165445
20
-8.14318271223908
30
0
0
SPLINE
5
E3
100
AcDbEntity
8
1
62
256
6
ByLayer
370
-1
48
1
60
0
100
AcDbSpline
70
4
71
3
72
8
73
4
40
0
40
0
40
0
40
0
40
1
40
1
40
1
40
1
41
1
10
31.3517864830619
20
-8.12462410079652
30
0
41
1
10
31.3472128118947
20
-8.12966732621632
30
0
41
1
10
31.342639166447
20
-8.13471052327614
30
0
41
1
10
31.3380655457004
20
-8.13975369309887
30
0
0
SPLINE
5
E4
100
AcDbEntity
8
1
62
256
6
ByLayer
370
-1
48
1
60
0
100
AcDbSpline
70
4
71
3
72
20
73
16
40
0
40
0
40
0
40
0
40
0.0624999999999907
40
0.0624999999999907
40
0.124999999999982
40
0.124999999999982
40
0.249999999999981
40
0.249999999999981
40
0.499999999999981
40
0.499999999999981
40
0.74999999999998
40
0.74999999999998
40
0.87499999999999
40
0.87499999999999
40
1
40
1
40
1
40
1
41
1
10
32.8260605684565
20
-5.6218033582438
30
0
41
1
10
32.8205900804141
20
-5.63787713156049
30
0
41
1
10
32.8114023234251
20
-5.65238092575041
30
0
41
1
10
32.788761793945
20
-5.67835789860607
30
0
41
1
10
32.7755154418575
20
-5.68966773294224
30
0
41
1
10
32.7317560871129
20
-5.72021651794415
30
0
41
1
10
32.6979049015787
20
-5.73561626637888
30
0
41
1
10
32.5914128782635
20
-5.77120241646819
30
0
41
1
10
32.5133589821003
20
-5.78123891981383
30
0
41
1
10
32.3577640341025
20
-5.77986840548414
30
0
41
1
10
32.2799979187856
20
-5.76846816682516
30
0
41
1
10
32.1742459163411
20
-5.73107452542243
30
0
41
1
10
32.1406349632001
20
-5.71508573720717
30
0
41
1
10
32.0829313441578
20
-5.67328584257075
30
0
41
1
10
32.0584062037478
20
-5.64736124403882
30
0
41
1
10
32.0480234150725
20
-5.61501353087002
30
0
0
SPLINE
5
E5
100
AcDbEntity
8
1
62
256
6
ByLayer
370
-1
48
1
60
0
100
AcDbSpline
70
4
71
3
72
8
73
4
40
0
40
0
40
0
40
0
40
1
40
1
40
1
40
1
41
1
10
32.0480234150725
20
-5.61501353086996
30
0
41
1
10
32.0459426893256
20
-5.60853100274073
30
0
41
1
10
32.0438619752793
20
-5.60204851106519
30
0
41
1
10
32.0417812724705
20
-5.59556605440005
30
0
0
SPLINE
5
E6
100
AcDbEntity
8
1
62
256
6
ByLayer
370
-1
48
1
60
0
100
AcDbSpline
70
4
71
3
72
16
73
12
40
0
40
0
40
0
40
0
40
0.24999999999999
40
0.24999999999999
40
0.499999999999981
40
0.499999999999981
40
0.749999999999971
40
0.749999999999971
40
0.874999999999985
40
0.874999999999985
40
1
40
1
40
1
40
1
41
1
10
31.5735298064541
20
-8.5152402304555
30
0
41
1
10
31.6092589099503
20
-8.53628628081111
30
0
41
1
10
31.6463467641114
20
-8.55451341287846
30
0
41
1
10
31.7235660738276
20
-8.584640219113
30
0
41
1
10
31.7637481843831
20
-8.59656503342686
30
0
41
1
10
31.8453627567712
20
-8.61010208809211
30
0
41
1
10
31.8866162504076
20
-8.61210875587847
30
0
41
1
10
31.9458255334633
20
-8.59913092250073
30
0
41
1
10
31.9646825255629
20
-8.59192540997293
30
0
41
1
10
31.9961996110951
20
-8.57039857729194
30
0
41
1
10
32.0086551541198
20
-8.55597687129955
30
0
41
1
10
32.0160930706292
20
-8.5391424276541
30
0
0
SPLINE
5
E7
100
AcDbEntity
8
1
62
256
6
ByLayer
370
-1
48
1
60
0
100
AcDbSpline
70
4
71
3
72
8
73
4
40
0
40
0
40
0
40
0
40
1
40
1
40
1
40
1
41
1
10
32.8326411656134
20
-5.60246778412849
30
0
41
1
10
32.8304476452373
20
-5.608912940213
30
0
41
1
10
32.8282541130145
20
-5.61535813110643
30
0
41
1
10
32.8260605684565
20
-5.6218033582438
30
0
0
SPLINE
5
E8
100
AcDbEntity
8
1
62
256
6
ByLayer
370
-1
48
1
60
0
100
AcDbSpline
70
4
71
3
72
20
73
16
40
0
40
0
40
0
40
0
40
0.0625000000000041
40
0.0625000000000041
40
0.125000000000008
40
0.125000000000008
40
0.250000000000012
40
0.250000000000012
40
0.500000000000007
40
0.500000000000007
40
0.750000000000002
40
0.750000000000002
40
0.875000000000001
40
0.875000000000001
40
1
40
1
40
1
40
1
41
1
10
30.968648069363
20
-7.447429247191
30
0
41
1
10
30.9853036094111
20
-7.44412994214844
30
0
41
1
10
31.0024581421252
20
-7.44483487600971
30
0
41
1
10
31.0362751252718
20
-7.45145366326685
30
0
41
1
10
31.0526929051632
20
-7.45727042351396
30
0
41
1
10
31.1010286064019
20
-7.47989274387504
30
0
41
1
10
31.1312907725254
20
-7.50150885627852
30
0
41
1
10
31.2153552941832
20
-7.57594057872521
30
0
41
1
10
31.2630741091273
20
-7.63851898399406
30
0
41
1
10
31.3396846829004
20
-7.77395341882556
30
0
41
1
10
31.368694844271
20
-7.84700096957312
30
0
41
1
10
31.3891870020985
20
-7.95728171089252
30
0
41
1
10
31.3921457818988
20
-7.99438404426562
30
0
41
1
10
31.3847978207894
20
-8.06525679156485
30
0
41
1
10
31.3746090300828
20
-8.09945848545721
30
0
41
1
10
31.3517864830619
20
-8.1246241007965
30
0
0
SPLINE
5
E9
100
AcDbEntity
8
1
62
256
6
ByLayer
370
-1
48
1
60
0
100
AcDbSpline
70
4
71
3
72
8
73
4
40
0
40
0
40
0
40
0
40
1
40
1
40
1
40
1
41
1
10
30.9754427800131
20
-6.6688325257752
30
0
41
1
10
30.9687883830989
20
-6.66739322306574
30
0
41
1
10
30.962134023605
20
-6.66595392845005
30
0
41
1
10
30.9554797000496
20
-6.66451464160764
30
0
0
SPLINE
5
EA
100
AcDbEntity
8
1
62
256
6
ByLayer
370
-1
48
1
60
0
100
AcDbSpline
70
4
71
3
72
20
73
16
40
0
40
0
40
0
40
0
40
0.0624999999999978
40
0.0624999999999978
40
0.124999999999996
40
0.124999999999996
40
0.249999999999997
40
0.249999999999997
40
0.499999999999991
40
0.499999999999991
40
0.749999999999985
40
0.749999999999985
40
0.874999999999993
40
0.874999999999993
40
1
40
1
40
1
40
1
41
1
10
33.4783927165445
20
-8.14318271223908
30
0
41
1
10
33.4672076645388
20
-8.13040824396495
30
0
41
1
10
33.4592408888135
20
-8.11519951591379
30
0
41
1
10
33.4480644351472
20
-8.08260375580096
30
0
41
1
10
33.4448930073432
20
-8.0654771612177
30
0
41
1
10
33.4403166608491
20
-8.01230605585471
30
0
41
1
10
33.4439056802598
20
-7.9752901950165
30
0
41
1
10
33.4663331819172
20
-7.86527232248051
30
0
41
1
10
33.4966682631363
20
-7.79265741386601
30
0
41
1
10
33.575652637361
20
-7.65859349336424
30
0
41
1
10
33.6244085913073
20
-7.59694618127563
30
0
41
1
10
33.7096684359244
20
-7.52405908135896
30
0
41
1
10
33.7403206092649
20
-7.50294553620111
30
0
41
1
10
33.8053721894168
20
-7.47387268353833
30
0
41
1
10
33.8400861205333
20
-7.46559558817788
30
0
41
1
10
33.8732914562295
20
-7.47277768600736
30
0
0
SPLINE
5
EB
100
AcDbEntity
8
1
62
256
6
ByLayer
370
-1
48
1
60
0
100
AcDbSpline
70
4
71
3
72
8
73
4
40
0
40
0
40
0
40
0
40
1
40
1
40
1
40
1
41
1
10
33.9001215638388
20
-6.69021214184397
30
0
41
1
10
33.8934431347502
20
-6.69153507551675
30
0
41
1
10
33.8867646695928
20
-6.69285801633447
30
0
41
1
10
33.8800861668797
20
-6.6941809645916
30
0
0
SPLINE
5
EC
100
AcDbEntity
8
1
62
256
6
ByLayer
370
-1
48
1
60
0
100
AcDbSpline
70
4
71
3
72
18
73
14
40
0
40
0
40
0
40
0
40
0.125000000000001
40
0.125000000000001
40
0.250000000000001
40
0.250000000000001
40
0.375000000000002
40
0.375000000000002
40
0.500000000000003
40
0.500000000000003
40
0.750000000000001
40
0.750000000000001
40
1
40
1
40
1
40
1
41
1
10
33.893254536193
20
-7.47709557017495
30
0
41
1
10
33.9114919742963
20
-7.4793874818337
30
0
41
1
10
33.9301254089919
20
-7.47619292753953
30
0
41
1
10
33.9648865278236
20
-7.46027994456853
30
0
41
1
10
33.9807835607265
20
-7.44780475975182
30
0
41
1
10
34.0082794858218
20
-7.41877536370018
30
0
41
1
10
34.0202803285122
20
-7.40189671892563
30
0
41
1
10
34.0408651891767
20
-7.36664606580868
30
0
41
1
10
34.0496245778576
20
-7.3480592759247
30
0
41
1
10
34.0724989227207
20
-7.29021180623758
30
0
41
1
10
34.0828430685864
20
-7.25006071590767
30
0
41
1
10
34.096787621549
20
-7.16867283812667
30
0
41
1
10
34.1003414846625
20
-7.1268925906993
30
0
41
1
10
34.100703285946
20
-7.08543427000086
30
0
0
SPLINE
5
ED
100
AcDbEntity
8
1
62
256
6
ByLayer
370
-1
48
1
60
0
100
AcDbSpline
70
4
71
3
72
20
73
16
40
0
40
0
40
0
40
0
40
0.0625000000000099
40
0.0625000000000099
40
0.12500000000002
40
0.12500000000002
40
0.250000000000018
40
0.250000000000018
40
0.500000000000012
40
0.500000000000012
40
0.750000000000006
40
0.750000000000006
40
0.875000000000003
40
0.875000000000003
40
1
40
1
40
1
40
1
41
1
10
32.0226736677862
20
-8.5198068535388
30
0
41
1
10
32.0281441558286
20
-8.5037330802221
30
0
41
1
10
32.0373319128175
20
-8.48922928603221
30
0
41
1
10
32.0599724422977
20
-8.46325231317653
30
0
41
1
10
32.0732187943851
20
-8.45194247884038
30
0
41
1
10
32.1169781491298
20
-8.4213936938385
30
0
41
1
10
32.1508293346639
20
-8.40599394540376
30
0
41
1
10
32.2573213579791
20
-8.37040779531446
30
0
41
1
10
32.3353752541423
20
-8.36037129196882
30
0
41
1
10
32.4909702021401
20
-8.36174180629854
30
0
41
1
10
32.568736317457
20
-8.37314204495749
30
0
41
1
10
32.6744883199015
20
-8.41053568636022
30
0
41
1
10
32.7080992730425
20
-8.42652447457544
30
0
41
1
10
32.7658028920849
20
-8.4683243692119
30
0
41
1
10
32.7903280324948
20
-8.49424896774377
30
0
41
1
10
32.8007108211701
20
-8.52659668091255
30
0
0
SPLINE
5
EE
100
AcDbEntity
8
1
62
256
6
ByLayer
370
-1
48
1
60
0
100
AcDbSpline
70
4
71
3
72
16
73
12
40
0
40
0
40
0
40
0
40
0.25
40
0.25
40
0.5
40
0.5
40
0.75
40
0.75
40
0.875
40
0.875
40
1
40
1
40
1
40
1
41
1
10
33.2752044297885
20
-5.62636998132706
30
0
41
1
10
33.2394753262923
20
-5.60532393097145
30
0
41
1
10
33.2023874721311
20
-5.58709679890413
30
0
41
1
10
33.1251681624149
20
-5.55696999266959
30
0
41
1
10
33.0849860518595
20
-5.54504517835574
30
0
41
1
10
33.0033714794713
20
-5.53150812369051
30
0
41
1
10
32.9621179858351
20
-5.52950145590412
30
0
41
1
10
32.9029087027793
20
-5.54247928928186
30
0
41
1
10
32.8840517106797
20
-5.54968480180966
30
0
41
1
10
32.8525346251475
20
-5.57121163449065
30
0
41
1
10
32.8400790821229
20
-5.58563334048307
30
0
41
1
10
32.8326411656134
20
-5.60246778412849
30
0
0
SPLINE
5
EF
100
AcDbEntity
8
1
62
256
6
ByLayer
370
-1
48
1
60
0
100
AcDbSpline
70
4
71
3
72
8
73
4
40
0
40
0
40
0
40
0
40
1
40
1
40
1
40
1
41
1
10
30.9486126724038
20
-7.45139806993865
30
0
41
1
10
30.9552911014924
20
-7.45007513626584
30
0
41
1
10
30.9619695666498
20
-7.44875219544815
30
0
41
1
10
30.968648069363
20
-7.447429247191
30
0
0
SPLINE
5
F0
100
AcDbEntity
8
1
62
256
6
ByLayer
370
-1
48
1
60
0
100
AcDbSpline
70
4
71
3
72
18
73
14
40
0
40
0
40
0
40
0
40
0.124999999999999
40
0.124999999999999
40
0.249999999999999
40
0.249999999999999
40
0.374999999999998
40
0.374999999999998
40
0.499999999999997
40
0.499999999999997
40
0.749999999999999
40
0.749999999999999
40
1
40
1
40
1
40
1
41
1
10
30.9554797000496
20
-6.66451464160764
30
0
41
1
10
30.9372422619463
20
-6.66222272994889
30
0
41
1
10
30.9186088272507
20
-6.66541728424306
30
0
41
1
10
30.883847708419
20
-6.68133026721407
30
0
41
1
10
30.8679506755161
20
-6.69380545203077
30
0
41
1
10
30.8404547504208
20
-6.72283484808241
30
0
41
1
10
30.8284539077304
20
-6.73971349285699
30
0
41
1
10
30.8078690470659
20
-6.77496414597394
30
0
41
1
10
30.799109658385
20
-6.79355093585792
30
0
41
1
10
30.7762353135218
20
-6.85139840554507
30
0
41
1
10
30.7658911676563
20
-6.89154949587495
30
0
41
1
10
30.7519466146936
20
-6.97293737365598
30
0
41
1
10
30.7483927515801
20
-7.01471762108335
30
0
41
1
10
30.7480309502965
20
-7.05617594178179
30
0
0
SPLINE
5
F1
100
AcDbEntity
8
1
62
256
6
ByLayer
370
-1
48
1
60
0
100
AcDbSpline
70
4
71
3
72
8
73
4
40
0
40
0
40
0
40
0
40
1
40
1
40
1
40
1
41
1
10
33.4969477531807
20
-6.01698611098607
30
0
41
1
10
33.5015214243479
20
-6.01194288556627
30
0
41
1
10
33.5060950697957
20
-6.00689968850645
30
0
41
1
10
33.5106686905422
20
-6.00185651868372
30
0
0
SPLINE
5
F2
100
AcDbEntity
8
1
62
256
6
ByLayer
370
-1
48
1
60
0
100
AcDbSpline
70
4
71
3
72
8
73
4
40
0
40
0
40
0
40
0
40
1
40
1
40
1
40
1
41
1
10
32.0160930706292
20
-8.5391424276541
30
0
41
1
10
32.0182865910053
20
-8.53269727156962
30
0
41
1
10
32.0204801232282
20
-8.52625208067619
30
0
41
1
10
32.0226736677862
20
-8.5198068535388
30
0
0
LINE
5
45
100
AcDbEntity
8
80
62
256
6
ByLayer
370
-1
48
1
60
0
100
AcDbLine
10
0
20
0
30
0
11
-5
21
0
31
0
39
0
210
0
220
0
230
1
0
LINE
5
46
100
AcDbEntity
8
81
62
256
6
ByLayer
370
-1
48
1
60
0
100
AcDbLine
10
42
20
-13.0375
30
0
11
47
21
-13.0375
31
0
39
0
210
0
220
0
230
1
0
LINE
5
47
100
AcDbEntity
8
1
62
256
6
ByLayer
370
-1
48
1
60
0
100
AcDbLine
10
0.566956
20
11.892598
30
0
11
0.566956
21
12.4625
31
0
39
0
210
0
220
0
230
1
0
LINE
5
49
100
AcDbEntity
8
1
62
256
6
ByLayer
370
-1
48
1
60
0
100
AcDbLine
10
20.007103
20
-11.206604
30
0
11
19.89452
21
-11.200703
31
0
39
0
210
0
220
0
230
1
0
LINE
5
4A
100
AcDbEntity
8
1
62
256
6
ByLayer
370
-1
48
1
60
0
100
AcDbLine
10
24.932423
20
-0.916825
30
0
11
24.04971
21
-0.396867
31
0
39
0
210
0
220
0
230
1
0
LINE
5
4B
100
AcDbEntity
8
1
62
256
6
ByLayer
370
-1
48
1
60
0
100
AcDbLine
10
23.877519
20
-4.438913
30
0
11
19.89452
21
-11.200703
31
0
39
0
210
0
220
0
230
1
0
LINE
5
4C
100
AcDbEntity
8
1
62
256
6
ByLayer
370
-1
48
1
60
0
100
AcDbLine
10
4.124372
20
-4.928922
30
0
11
4.124372
21
8.523588
31
0
39
0
210
0
220
0
230
1
0
LINE
5
4D
100
AcDbEntity
8
1
62
256
6
ByLayer
370
-1
48
1
60
0
100
AcDbLine
10
25.978868
20
-0.871529
30
0
11
25.41595
21
-0.842028
31
0
39
0
210
0
220
0
230
1
0
LINE
5
4E
100
AcDbEntity
8
1
62
256
6
ByLayer
370
-1
48
1
60
0
100
AcDbLine
10
23.409808
20
-3.501712
30
0
11
23.99448
21
-4.437382
31
0
39
0
210
0
220
0
230
1
0
LINE
5
4F
100
AcDbEntity
8
1
62
256
6
ByLayer
370
-1
48
1
60
0
100
AcDbLine
10
25.137144
20
-10.255145
30
0
11
26.49182
21
-7.955361
31
0
39
0
210
0
220
0
230
1
0
LINE
5
50
100
AcDbEntity
8
1
62
256
6
ByLayer
370
-1
48
1
60
0
100
AcDbLine
10
30.321861
20
-1.453242
30
0
11
31.676537
21
0.846542
31
0
39
0
210
0
220
0
230
1
0
LINE
5
51
100
AcDbEntity
8
1
62
256
6
ByLayer
370
-1
48
1
60
0
100
AcDbLine
10
28.20323
20
-11.636144
30
0
11
28.811556
21
-11.668026
31
0
39
0
210
0
220
0
230
1
0
LINE
5
52
100
AcDbEntity
8
1
62
256
6
ByLayer
370
-1
48
1
60
0
100
AcDbLine
10
29.961867
20
5.890261
30
0
11
30.021609
21
5.794653
31
0
39
0
210
0
220
0
230
1
0
LINE
5
53
100
AcDbEntity
8
1
62
256
6
ByLayer
370
-1
48
1
60
0
100
AcDbLine
10
32.949871
20
-1.25294
30
0
11
34.220154
21
-0.924423
31
0
39
0
210
0
220
0
230
1
0
LINE
5
54
100
AcDbEntity
8
1
62
256
6
ByLayer
370
-1
48
1
60
0
100
AcDbLine
10
23.578808
20
-3.960876
30
0
11
23.877519
21
-4.438913
31
0
39
0
210
0
220
0
230
1
0
LINE
5
55
100
AcDbEntity
8
1
62
256
6
ByLayer
370
-1
48
1
60
0
100
AcDbLine
10
24.962093
20
-0.818243
30
0
11
25.41595
21
-0.842028
31
0
39
0
210
0
220
0
230
1
0
LINE
5
56
100
AcDbEntity
8
1
62
256
6
ByLayer
370
-1
48
1
60
0
100
AcDbLine
10
23.337971
20
-3.575456
30
0
11
22.476341
21
-3.067918
31
0
39
0
210
0
220
0
230
1
0
LINE
5
57
100
AcDbEntity
8
1
62
256
6
ByLayer
370
-1
48
1
60
0
100
AcDbLine
10
22.527095
20
-2.981755
30
0
11
22.476341
21
-3.067918
31
0
39
0
210
0
220
0
230
1
0
LINE
5
58
100
AcDbEntity
8
1
62
256
6
ByLayer
370
-1
48
1
60
0
100
AcDbLine
10
22.047795
20
-0.846167
30
0
11
21.949514
21
-1.013015
31
0
39
0
210
0
220
0
230
1
0
LINE
5
59
100
AcDbEntity
8
1
62
256
6
ByLayer
370
-1
48
1
60
0
100
AcDbLine
10
15.174983
20
-9.678816
30
0
11
0.566956
21
-5.595964
31
0
39
0
210
0
220
0
230
1
0
LINE
5
5A
100
AcDbEntity
8
1
62
256
6
ByLayer
370
-1
48
1
60
0
100
AcDbLine
10
34.220154
20
-0.924423
30
0
11
34.221482
21
-0.926548
31
0
39
0
210
0
220
0
230
1
0
LINE
5
5B
100
AcDbEntity
8
1
62
256
6
ByLayer
370
-1
48
1
60
0
100
AcDbLine
10
29.663156
20
6.368298
30
0
11
27.806743
21
9.339181
31
0
39
0
210
0
220
0
230
1
0
LINE
5
5C
100
AcDbEntity
8
1
62
256
6
ByLayer
370
-1
48
1
60
0
100
AcDbLine
10
27.914428
20
-11.621009
30
0
11
27.411144
21
-11.594633
31
0
39
0
210
0
220
0
230
1
0
LINE
5
5D
100
AcDbEntity
8
1
62
256
6
ByLayer
370
-1
48
1
60
0
100
AcDbLine
10
25.455762
20
-10.172744
30
0
11
26.630812
21
-8.177906
31
0
39
0
210
0
220
0
230
1
0
LINE
5
5E
100
AcDbEntity
8
1
62
256
6
ByLayer
370
-1
48
1
60
0
100
AcDbLine
10
30.583888
20
-1.466915
30
0
11
31.758938
21
0.527924
31
0
39
0
210
0
220
0
230
1
0
LINE
5
5F
100
AcDbEntity
8
1
62
256
6
ByLayer
370
-1
48
1
60
0
100
AcDbLine
10
11.322049
20
5.261354
30
0
11
4.124372
21
8.523588
31
0
39
0
210
0
220
0
230
1
0
LINE
5
60
100
AcDbEntity
8
1
62
256
6
ByLayer
370
-1
48
1
60
0
100
AcDbLine
10
0.566956
20
-12.4625
30
0
11
0
21
-12.4625
31
0
39
0
210
0
220
0
230
1
0
LINE
5
61
100
AcDbEntity
8
1
62
256
6
ByLayer
370
-1
48
1
60
0
100
AcDbLine
10
27.411144
20
-11.594633
30
0
11
25.137144
21
-10.255145
31
0
39
0
210
0
220
0
230
1
0
LINE
5
62
100
AcDbEntity
8
1
62
256
6
ByLayer
370
-1
48
1
60
0
100
AcDbLine
10
27.921737
20
-11.621392
30
0
11
27.919235
21
-11.621261
31
0
39
0
210
0
220
0
230
1
0
LINE
5
63
100
AcDbEntity
8
1
62
256
6
ByLayer
370
-1
48
1
60
0
100
AcDbLine
10
0.566956
20
-12.4625
30
0
11
13.841861
21
-12.4625
31
0
39
0
210
0
220
0
230
1
0
LINE
5
64
100
AcDbEntity
8
1
62
256
6
ByLayer
370
-1
48
1
60
0
100
AcDbLine
10
19.4019
20
0.151437
30
0
11
20.952623
21
-0.242589
31
0
39
0
210
0
220
0
230
1
0
LINE
5
65
100
AcDbEntity
8
1
62
256
6
ByLayer
370
-1
48
1
60
0
100
AcDbLine
10
19.591469
20
-11.184821
30
0
11
19.89452
21
-11.200703
31
0
39
0
210
0
220
0
230
1
0
LINE
5
66
100
AcDbEntity
8
1
62
256
6
ByLayer
370
-1
48
1
60
0
100
AcDbLine
10
0
20
-12.4625
30
0
11
0
21
12.4625
31
0
39
0
210
0
220
0
230
1
0
LINE
5
67
100
AcDbEntity
8
1
62
256
6
ByLayer
370
-1
48
1
60
0
100
AcDbLine
10
23.578808
20
-3.960876
30
0
11
19.329818
21
-11.17423
31
0
39
0
210
0
220
0
230
1
0
LINE
5
68
100
AcDbEntity
8
1
62
256
6
ByLayer
370
-1
48
1
60
0
100
AcDbLine
10
25.455762
20
-10.172744
30
0
11
25.137144
21
-10.255145
31
0
39
0
210
0
220
0
230
1
0
LINE
5
69
100
AcDbEntity
8
1
62
256
6
ByLayer
370
-1
48
1
60
0
100
AcDbLine
10
27.806743
20
9.339181
30
0
11
5.94194
21
12.4625
31
0
39
0
210
0
220
0
230
1
0
LINE
5
6A
100
AcDbEntity
8
1
62
256
6
ByLayer
370
-1
48
1
60
0
100
AcDbLine
10
34.08531
20
-1.650353
30
0
11
34.370855
21
-1.165595
31
0
39
0
210
0
220
0
230
1
0
LINE
5
6B
100
AcDbEntity
8
1
62
256
6
ByLayer
370
-1
48
1
60
0
100
AcDbLine
10
27.919235
20
-11.621261
30
0
11
27.590717
21
-10.350978
31
0
39
0
210
0
220
0
230
1
0
LINE
5
6C
100
AcDbEntity
8
1
62
256
6
ByLayer
370
-1
48
1
60
0
100
AcDbLine
10
23.409808
20
-3.501712
30
0
11
23.337971
21
-3.575456
31
0
39
0
210
0
220
0
230
1
0
LINE
5
6D
100
AcDbEntity
8
1
62
256
6
ByLayer
370
-1
48
1
60
0
100
AcDbLine
10
21.861738
20
-0.965
30
0
11
21.963245
21
-0.792674
31
0
39
0
210
0
220
0
230
1
0
LINE
5
6E
100
AcDbEntity
8
1
62
256
6
ByLayer
370
-1
48
1
60
0
100
AcDbLine
10
11.322049
20
5.261354
30
0
11
18.511677
21
2.002769
31
0
39
0
210
0
220
0
230
1
0
LINE
5
6F
100
AcDbEntity
8
1
62
256
6
ByLayer
370
-1
48
1
60
0
100
AcDbLine
10
0.566956
20
-12.4625
30
0
11
0.566956
21
-5.595964
31
0
39
0
210
0
220
0
230
1
0
LINE
5
70
100
AcDbEntity
8
1
62
256
6
ByLayer
370
-1
48
1
60
0
100
AcDbLine
10
30.021609
20
5.794653
30
0
11
26.034233
21
-0.974568
31
0
39
0
210
0
220
0
230
1
0
LINE
5
71
100
AcDbEntity
8
1
62
256
6
ByLayer
370
-1
48
1
60
0
100
AcDbLine
10
31.676537
20
0.846542
30
0
11
31.758938
21
0.527924
31
0
39
0
210
0
220
0
230
1
0
LINE
5
72
100
AcDbEntity
8
1
62
256
6
ByLayer
370
-1
48
1
60
0
100
AcDbLine
10
26.034233
20
-0.974568
30
0
11
24.932423
21
-0.916825
31
0
39
0
210
0
220
0
230
1
0
LINE
5
73
100
AcDbEntity
8
1
62
256
6
ByLayer
370
-1
48
1
60
0
100
AcDbLine
10
28.20323
20
-11.636144
30
0
11
27.921737
21
-11.621392
31
0
39
0
210
0
220
0
230
1
0
LINE
5
74
100
AcDbEntity
8
1
62
256
6
ByLayer
370
-1
48
1
60
0
100
AcDbLine
10
34.217603
20
-0.92034
30
0
11
31.758938
21
0.527924
31
0
39
0
210
0
220
0
230
1
0
LINE
5
75
100
AcDbEntity
8
1
62
256
6
ByLayer
370
-1
48
1
60
0
100
AcDbLine
10
0.566956
20
12.4625
30
0
11
0
21
12.4625
31
0
39
0
210
0
220
0
230
1
0
LINE
5
76
100
AcDbEntity
8
1
62
256
6
ByLayer
370
-1
48
1
60
0
100
AcDbLine
10
15.605667
20
-8.137871
30
0
11
15.174983
21
-9.678816
31
0
39
0
210
0
220
0
230
1
0
LINE
5
77
100
AcDbEntity
8
1
62
256
6
ByLayer
370
-1
48
1
60
0
100
AcDbLine
10
1.378858
20
-4.161568
30
0
11
4.124372
21
-4.928922
31
0
39
0
210
0
220
0
230
1
0
LINE
5
78
100
AcDbEntity
8
1
62
256
6
ByLayer
370
-1
48
1
60
0
100
AcDbLine
10
26.729088
20
-9.84344
30
0
11
25.455762
21
-10.172744
31
0
39
0
210
0
220
0
230
1
0
LINE
5
79
100
AcDbEntity
8
1
62
256
6
ByLayer
370
-1
48
1
60
0
100
AcDbLine
10
0.566956
20
11.892598
30
0
11
19.172178
21
3.460074
31
0
39
0
210
0
220
0
230
1
0
LINE
5
7A
100
AcDbEntity
8
1
62
256
6
ByLayer
370
-1
48
1
60
0
100
AcDbLine
10
34.217603
20
-0.92034
30
0
11
34.220154
21
-0.924423
31
0
39
0
210
0
220
0
230
1
0
LINE
5
7B
100
AcDbEntity
8
1
62
256
6
ByLayer
370
-1
48
1
60
0
100
AcDbLine
10
20.007103
20
-11.206604
30
0
11
27.411144
21
-11.594633
31
0
39
0
210
0
220
0
230
1
0
LINE
5
7C
100
AcDbEntity
8
1
62
256
6
ByLayer
370
-1
48
1
60
0
100
AcDbLine
10
27.921737
20
-11.621392
30
0
11
28.339402
21
-10.912338
31
0
39
0
210
0
220
0
230
1
0
LINE
5
7D
100
AcDbEntity
8
1
62
256
6
ByLayer
370
-1
48
1
60
0
100
AcDbLine
10
17.587075
20
-6.990953
30
0
11
19.137799
21
-7.38498
31
0
39
0
210
0
220
0
230
1
0
LINE
5
7E
100
AcDbEntity
8
1
62
256
6
ByLayer
370
-1
48
1
60
0
100
AcDbLine
10
34.221482
20
-0.926548
30
0
11
34.370855
21
-1.165595
31
0
39
0
210
0
220
0
230
1
0
LINE
5
7F
100
AcDbEntity
8
1
62
256
6
ByLayer
370
-1
48
1
60
0
100
AcDbLine
10
27.919235
20
-11.621261
30
0
11
27.914428
21
-11.621009
31
0
39
0
210
0
220
0
230
1
0
LINE
5
80
100
AcDbEntity
8
1
62
256
6
ByLayer
370
-1
48
1
60
0
100
AcDbLine
10
4.124372
20
8.523588
30
0
11
1.378858
21
9.76795
31
0
39
0
210
0
220
0
230
1
0
LINE
5
81
100
AcDbEntity
8
1
62
256
6
ByLayer
370
-1
48
1
60
0
100
AcDbLine
10
24.932423
20
-0.916825
30
0
11
24.962093
21
-0.818243
31
0
39
0
210
0
220
0
230
1
0
LINE
5
82
100
AcDbEntity
8
1
62
256
6
ByLayer
370
-1
48
1
60
0
100
AcDbLine
10
0.566956
20
12.4625
30
0
11
5.94194
21
12.4625
31
0
39
0
210
0
220
0
230
1
0
LINE
5
83
100
AcDbEntity
8
1
62
256
6
ByLayer
370
-1
48
1
60
0
100
AcDbLine
10
29.961867
20
5.890261
30
0
11
25.978868
21
-0.871529
31
0
39
0
210
0
220
0
230
1
0
LINE
5
84
100
AcDbEntity
8
1
62
256
6
ByLayer
370
-1
48
1
60
0
100
AcDbLine
10
33.950538
20
-0.492946
30
0
11
34.217603
21
-0.92034
31
0
39
0
210
0
220
0
230
1
0
LINE
5
85
100
AcDbEntity
8
1
62
256
6
ByLayer
370
-1
48
1
60
0
100
AcDbLine
10
29.961867
20
5.890261
30
0
11
29.663156
21
6.368298
31
0
39
0
210
0
220
0
230
1
0
LINE
5
86
100
AcDbEntity
8
1
62
256
6
ByLayer
370
-1
48
1
60
0
100
AcDbLine
10
27.590717
20
-10.350978
30
0
11
26.729088
21
-9.84344
31
0
39
0
210
0
220
0
230
1
0
LINE
5
87
100
AcDbEntity
8
1
62
256
6
ByLayer
370
-1
48
1
60
0
100
AcDbLine
10
26.034233
20
-0.974568
30
0
11
25.978868
21
-0.871529
31
0
39
0
210
0
220
0
230
1
0
LINE
5
88
100
AcDbEntity
8
1
62
256
6
ByLayer
370
-1
48
1
60
0
100
AcDbLine
10
23.99448
20
-4.437382
30
0
11
20.007103
21
-11.206604
31
0
39
0
210
0
220
0
230
1
0
LINE
5
89
100
AcDbEntity
8
1
62
256
6
ByLayer
370
-1
48
1
60
0
100
AcDbLine
10
26.729088
20
-9.84344
30
0
11
27.186375
21
-9.067121
31
0
39
0
210
0
220
0
230
1
0
LINE
5
8A
100
AcDbEntity
8
1
62
256
6
ByLayer
370
-1
48
1
60
0
100
AcDbLine
10
31.630956
20
-1.52172
30
0
11
32.088242
21
-0.745402
31
0
39
0
210
0
220
0
230
1
0
LINE
5
8B
100
AcDbEntity
8
1
62
256
6
ByLayer
370
-1
48
1
60
0
100
AcDbLine
10
23.99448
20
-4.437382
30
0
11
23.877519
21
-4.438913
31
0
39
0
210
0
220
0
230
1
0
LINE
5
8C
100
AcDbEntity
8
1
62
256
6
ByLayer
370
-1
48
1
60
0
100
AcDbLine
10
29.663156
20
6.368298
30
0
11
25.41595
21
-0.842028
31
0
39
0
210
0
220
0
230
1
0
LINE
5
8D
100
AcDbEntity
8
1
62
256
6
ByLayer
370
-1
48
1
60
0
100
AcDbLine
10
23.578808
20
-3.960876
30
0
11
23.337971
21
-3.575456
31
0
39
0
210
0
220
0
230
1
0
LINE
5
8E
100
AcDbEntity
8
1
62
256
6
ByLayer
370
-1
48
1
60
0
100
AcDbLine
10
20.952623
20
-0.242589
30
0
11
19.137799
21
-7.38498
31
0
39
0
210
0
220
0
230
1
0
LINE
5
8F
100
AcDbEntity
8
1
62
256
6
ByLayer
370
-1
48
1
60
0
100
AcDbLine
10
33.803817
20
-1.635602
30
0
11
34.221482
21
-0.926548
31
0
39
0
210
0
220
0
230
1
0
LINE
5
90
100
AcDbEntity
8
1
62
256
6
ByLayer
370
-1
48
1
60
0
100
AcDbLine
10
4.124372
20
-4.928922
30
0
11
7.128189
21
-5.768469
31
0
39
0
210
0
220
0
230
1
0
LINE
5
91
100
AcDbEntity
8
1
62
256
6
ByLayer
370
-1
48
1
60
0
100
AcDbLine
10
31.676537
20
0.846542
30
0
11
33.950538
21
-0.492946
31
0
39
0
210
0
220
0
230
1
0
LINE
5
92
100
AcDbEntity
8
1
62
256
6
ByLayer
370
-1
48
1
60
0
100
AcDbLine
10
27.914428
20
-11.621009
30
0
11
25.455762
21
-10.172744
31
0
39
0
210
0
220
0
230
1
0
LINE
5
93
100
AcDbEntity
8
1
62
256
6
ByLayer
370
-1
48
1
60
0
100
AcDbLine
10
34.693661
20
-1.682193
30
0
11
34.370855
21
-1.165595
31
0
39
0
210
0
220
0
230
1
0
LINE
5
94
100
AcDbEntity
8
1
62
256
6
ByLayer
370
-1
48
1
60
0
100
AcDbLine
10
28.20323
20
-11.636144
30
0
11
28.488774
21
-11.151386
31
0
39
0
210
0
220
0
230
1
0
LINE
5
95
100
AcDbEntity
8
1
62
256
6
ByLayer
370
-1
48
1
60
0
100
AcDbLine
10
7.128189
20
-5.768469
30
0
11
15.605667
21
-8.137871
31
0
39
0
210
0
220
0
230
1
0
LINE
5
96
100
AcDbEntity
8
1
62
256
6
ByLayer
370
-1
48
1
60
0
100
AcDbLine
10
19.4019
20
0.151437
30
0
11
17.587075
21
-6.990953
31
0
39
0
210
0
220
0
230
1
0
LINE
5
97
100
AcDbEntity
8
1
62
256
6
ByLayer
370
-1
48
1
60
0
100
AcDbLine
10
33.950538
20
-0.492946
30
0
11
30.021609
21
5.794653
31
0
39
0
210
0
220
0
230
1
0
LINE
5
98
100
AcDbEntity
8
1
62
256
6
ByLayer
370
-1
48
1
60
0
100
AcDbLine
10
18.511677
20
2.002769
30
0
11
19.172178
21
3.460074
31
0
39
0
210
0
220
0
230
1
0
LINE
5
99
100
AcDbEntity
8
1
62
256
6
ByLayer
370
-1
48
1
60
0
100
AcDbLine
10
11.322049
20
5.261354
30
0
11
7.128189
21
-5.768469
31
0
39
0
210
0
220
0
230
1
0
LINE
5
9A
100
AcDbEntity
8
1
62
256
6
ByLayer
370
-1
48
1
60
0
100
AcDbLine
10
32.949871
20
-1.25294
30
0
11
32.088242
21
-0.745402
31
0
39
0
210
0
220
0
230
1
0
LINE
5
9B
100
AcDbEntity
8
1
62
256
6
ByLayer
370
-1
48
1
60
0
100
AcDbLine
10
22.527095
20
-2.981755
30
0
11
23.409808
21
-3.501712
31
0
39
0
210
0
220
0
230
1
0
LINE
5
9C
100
AcDbEntity
8
1
62
256
6
ByLayer
370
-1
48
1
60
0
100
AcDbLine
10
24.04971
20
-0.396867
30
0
11
24.100464
21
-0.310704
31
0
39
0
210
0
220
0
230
1
0
LINE
5
9D
100
AcDbEntity
8
1
62
256
6
ByLayer
370
-1
48
1
60
0
100
AcDbLine
10
31.758938
20
0.527924
30
0
11
32.088242
21
-0.745402
31
0
39
0
210
0
220
0
230
1
0
LINE
5
9E
100
AcDbEntity
8
1
62
256
6
ByLayer
370
-1
48
1
60
0
100
AcDbLine
10
24.100464
20
-0.310704
30
0
11
24.962093
21
-0.818243
31
0
39
0
210
0
220
0
230
1
0
LINE
5
9F
100
AcDbEntity
8
1
62
256
6
ByLayer
370
-1
48
1
60
0
100
AcDbLine
10
27.590717
20
-10.350978
30
0
11
27.783814
21
-10.023165
31
0
39
0
210
0
220
0
230
1
0
LINE
5
A0
100
AcDbEntity
8
1
62
256
6
ByLayer
370
-1
48
1
60
0
100
AcDbLine
10
32.756774
20
-1.580754
30
0
11
32.949871
21
-1.25294
31
0
39
0
210
0
220
0
230
1
0
LINE
5
A1
100
AcDbEntity
8
1
62
256
6
ByLayer
370
-1
48
1
60
0
100
AcDbLine
10
1.298083
20
-4.168745
30
0
11
1.298083
21
9.836021
31
0
39
0
210
0
220
0
230
1
0
LINE
5
A2
100
AcDbEntity
8
SK1
62
256
6
ByLayer
370
-1
48
1
60
0
100
AcDbLine
10
-81
20
-12.4625
30
0
11
-2.798653
21
-12.4625
31
0
39
0
210
0
220
0
230
1
0
LINE
5
A4
100
AcDbEntity
8
SK1
62
256
6
ByLayer
370
-1
48
1
60
0
100
AcDbLine
10
0
20
-12.4625
30
0
11
-2.798653
21
-12.4625
31
0
39
0
210
0
220
0
230
1
0
LINE
5
A5
100
AcDbEntity
8
SK1
62
256
6
ByLayer
370
-1
48
1
60
0
100
AcDbLine
10
0
20
-12.4625
30
0
11
0
21
12.4625
31
0
39
0
210
0
220
0
230
1
0
LINE
5
A6
100
AcDbEntity
8
SK1
62
256
6
ByLayer
370
-1
48
1
60
0
100
AcDbLine
10
-81
20
-12.4625
30
0
11
-84
21
-9.4625
31
0
39
0
210
0
220
0
230
1
0
LINE
5
A7
100
AcDbEntity
8
SK1
62
256
6
ByLayer
370
-1
48
1
60
0
100
AcDbLine
10
-81
20
12.4625
30
0
11
-2.798653
21
12.4625
31
0
39
0
210
0
220
0
230
1
0
LINE
5
A8
100
AcDbEntity
8
SK1
62
256
6
ByLayer
370
-1
48
1
60
0
100
AcDbLine
10
-84
20
-9.4625
30
0
11
-84
21
9.4625
31
0
39
0
210
0
220
0
230
1
0
LINE
5
A9
100
AcDbEntity
8
SK1
62
256
6
ByLayer
370
-1
48
1
60
0
100
AcDbLine
10
-81
20
12.4625
30
0
11
-84
21
9.4625
31
0
39
0
210
0
220
0
230
1
0
LINE
5
AA
100
AcDbEntity
8
SK1
62
256
6
ByLayer
370
-1
48
1
60
0
100
AcDbLine
10
0
20
12.4625
30
0
11
-2.798653
21
12.4625
31
0
39
0
210
0
220
0
230
1
0
LINE
5
AB
100
AcDbEntity
8
SK1
62
256
6
ByLayer
370
-1
48
1
60
0
100
AcDbLine
10
-2.798653
20
12.4625
30
0
11
-2.798653
21
-12.4625
31
0
39
0
210
0
220
0
230
1
0
LINE
5
AC
100
AcDbEntity
8
1
62
256
6
ByLayer
370
-1
48
1
60
0
100
AcDbLine
10
23.684079
20
-1.105198
30
0
11
34.956879
21
-1.695981
31
0
39
0
210
0
220
0
230
1
0
LINE
5
AD
100
AcDbEntity
8
1
62
256
6
ByLayer
370
-1
48
1
60
0
100
AcDbLine
10
28.951226
20
-11.891557
30
0
11
22.969354
21
-2.31856
31
0
39
0
210
0
220
0
230
1
0
LINE
5
AE
100
AcDbEntity
8
1
62
256
6
ByLayer
370
-1
48
1
60
0
100
AcDbLine
10
35.897508
20
-2.250053
30
0
11
41.879381
21
-11.82305
31
0
39
0
210
0
220
0
230
1
0
LINE
5
AF
100
AcDbEntity
8
1
62
256
6
ByLayer
370
-1
48
1
60
0
100
AcDbLine
10
41.164656
20
-13.036412
30
0
11
29.891855
21
-12.44563
31
0
39
0
210
0
220
0
230
1
0
MTEXT
5
F3
100
AcDbEntity
8
SK6
62
256
6
ByLayer
370
-1
48
1
60
0
100
AcDbMText
10
-83.449979
20
23.367166
30
0
210
0
220
0
230
1
1
\W00.767;\fsimplex.shx,bigfont.shx;QS-TR-D13JCL2525HP 
40
3.5
41
0
44
1.084337
50
0
71
7
72
5
7
DEFAULT
0
DIMENSION
5
127
100
AcDbEntity
8
SK2
62
256
6
ByLayer
370
-3
48
1
60
0
100
AcDbDimension
2
DimnDraft3D1
10
-93.10005
20
12.4625
30
0
11
-93.10005
21
0
31
0
70
32
71
5
72
1
41
1
210
0
220
0
230
1
3
Standard
100
AcDbAlignedDimension
13
-85.5875
23
-12.4625
33
0
14
-85.5875
24
12.4625
34
0
50
90
100
AcDbRotatedDimension
1001
ACAD
1000
DSTYLE
1002
{
1070
    74
1070
     0
1070
   279
1070
     0
1070
   172
1070
     1
1070
   173
1070
     1
1070
   340
1005
F4
1070
   271
1070
     1
1070
   272
1070
     2
1070
    77
1070
     1
1070
    73
1070
     0
1070
   171
1070
     3
1070
   274
1070
     4
1070
   177
1070
   150
1070
   176
1070
     9
1070
   178
1070
    43
1070
    78
1070
     8
1070
    48
1040
-0.005
1070
    41
1041
3.175
1070
   147
1041
2.25
1070
    42
1041
1.5875
1070
    44
1041
3.175
1070
   140
1041
4.5
1070
   343
1005
128
1070
   344
1005
128
1002
}
0
DIMENSION
5
13C
100
AcDbEntity
8
SK2
62
256
6
ByLayer
370
-3
48
1
60
0
100
AcDbDimension
2
DimnDraft3D2
10
42
20
-42.5375
30
0
11
-21
21
-42.5375
31
0
70
32
71
5
72
1
41
1
210
0
220
0
230
1
3
Standard
100
AcDbAlignedDimension
13
-84
23
-14.05
33
0
14
42
24
-14.625
34
0
50
0
100
AcDbRotatedDimension
1001
ACAD
1000
DSTYLE
1002
{
1070
   279
1070
     0
1070
   172
1070
     1
1070
   173
1070
     1
1070
   340
1005
F4
1070
   271
1070
     1
1070
   272
1070
     2
1070
    77
1070
     1
1070
    73
1070
     0
1070
   171
1070
     3
1070
   274
1070
     4
1070
   177
1070
   150
1070
   176
1070
     9
1070
   178
1070
    43
1070
    78
1070
     8
1070
    48
1040
-0.005
1070
    41
1041
3.175
1070
   147
1041
2.25
1070
    42
1041
1.5875
1070
    44
1041
3.175
1070
   140
1041
4.5
1070
   343
1005
128
1070
   344
1005
128
1002
}
0
DIMENSION
5
14B
100
AcDbEntity
8
2
62
256
6
ByLayer
370
-3
48
1
60
0
100
AcDbDimension
2
DimnDraft3D3
10
0
20
19.31255
30
0
11
21
21
19.31255
31
0
70
32
71
5
72
1
41
1
210
0
220
0
230
1
3
Standard
100
AcDbAlignedDimension
13
42
23
-11.45
33
0
14
0
24
14.05
34
0
50
0
100
AcDbRotatedDimension
1001
ACAD
1000
DSTYLE
1002
{
1070
   279
1070
     0
1070
   172
1070
     1
1070
   173
1070
     1
1070
   340
1005
F4
1070
   271
1070
     1
1070
   272
1070
     2
1070
    77
1070
     1
1070
    73
1070
     0
1070
   171
1070
     3
1070
   274
1070
     4
1070
   177
1070
   150
1070
   176
1070
     9
1070
   178
1070
    43
1070
    78
1070
     8
1070
    48
1040
-0.005
1070
    41
1041
3.175
1070
   147
1041
2.25
1070
    42
1041
1.5875
1070
    44
1041
3.175
1070
   140
1041
4.5
1070
   343
1005
128
1070
   344
1005
128
1002
}
0
DIMENSION
5
159
100
AcDbEntity
8
2
62
256
6
ByLayer
370
-3
48
1
60
0
100
AcDbDimension
2
DimnDraft3D4
10
42
20
-37.695593
30
0
11
24.52569
21
-22.54477
31
0
70
34
71
5
72
1
41
1
210
0
220
0
230
1
3
Standard
100
AcDb2LineAngularDimension
13
26.597147
23
-12.272961
33
0
14
17.418332
24
-11.79192
34
0
15
42
25
-14.625
35
0
16
29.711866
26
-24.741194
36
0
40
0
0
DIMENSION
5
167
100
AcDbEntity
8
2
62
256
6
ByLayer
370
-3
48
1
60
0
100
AcDbDimension
2
DimnDraft3D5
10
62.85
20
12.4625
30
0
11
62.85
21
-0.2875
31
0
70
32
71
5
72
1
41
1
210
0
220
0
230
1
3
Standard
100
AcDbAlignedDimension
13
43.5875
23
-13.0375
33
0
14
1.5875
24
12.4625
34
0
50
90
100
AcDbRotatedDimension
1001
ACAD
1000
DSTYLE
1002
{
1070
    74
1070
     0
1070
   279
1070
     0
1070
   172
1070
     1
1070
   173
1070
     1
1070
   340
1005
F4
1070
   271
1070
     1
1070
   272
1070
     2
1070
    77
1070
     1
1070
    73
1070
     0
1070
   171
1070
     3
1070
   274
1070
     4
1070
   177
1070
   150
1070
   176
1070
     9
1070
   178
1070
    43
1070
    78
1070
     8
1070
    48
1040
-0.005
1070
    41
1041
3.175
1070
   147
1041
2.25
1070
    42
1041
1.5875
1070
    44
1041
3.175
1070
   140
1041
4.5
1070
   343
1005
128
1070
   344
1005
128
1002
}
0
ENDSEC
0
SECTION
2
OBJECTS
0
DICTIONARY
5
197
330
0
100
AcDbDictionary
280
0
281
1
3
ACAD_GROUP
350
198
3
ACAD_MLINESTYLE
350
199
0
DICTIONARY
5
198
330
0
100
AcDbDictionary
280
0
281
1
0
DICTIONARY
5
199
330
0
100
AcDbDictionary
280
0
281
1
3
Standard
350
18
0
MLINESTYLE
5
18
330
199
100
AcDbMlineStyle
2
Standard
70
0
3

62
256
51
90
52
90
71
2
49
-0.5
62
256
6
ByLayer
49
0.5
62
256
6
ByLayer
0
RASTERVARIABLES
5
186
330

100
AcDbRasterVariables
90
0
70
1
71
1
72
1
0
ENDSEC
0
EOF
