0
SECTION
2
HEADER
9
$ACADVER
1
AC1015
9
$DWGCODEPAGE
3
ANSI_1252
9
$HANDSEED
5
184
9
$ANGBASE
50
0
9
$ANGDIR
70
0
9
$ATTMODE
70
1
9
$AUNITS
70
0
9
$AUPREC
70
0
9
$CECOLOR
62
256
9
$CELTSCALE
40
1
9
$CELTYPE
6
ByLayer
9
$CELWEIGHT
370
18
9
$CLAYER
8
0
9
$CMLJUST
70
0
9
$CMLSCALE
40
1
9
$CMLSTYLE
2
Standard
9
$DIMSTYLE
2
Standard
9
$TEXTSIZE
40
0.2
9
$TEXTSTYLE
7
Standard
9
$LUNITS
70
2
9
$LUPREC
70
4
9
$EXTNAMES
290
1
9
$INSUNITS
70
4
9
$LTSCALE
40
1
9
$LWDISPLAY
290
1
9
$PDMODE
70
0
9
$PDSIZE
40
0
9
$PLINEGEN
70
0
0
ENDSEC
0
SECTION
2
CLASSES
0
CLASS
1
RASTERVARIABLES
2
AcDbRasterVariables
3
ISM
90
0
280
0
281
0
0
ENDSEC
0
SECTION
2
TABLES
0
TABLE
2
VPORT
5
17a
100
AcDbSymbolTable
0
VPORT
5
1
100
AcDbSymbolTableRecord
100
AcDbViewportTableRecord
2
*Active
70
0
10
0
20
0
11
1
21
1
12
-1
22
1
13
0
23
0
14
0.5
24
0.5
15
10
25
10
16
0
26
0
36
1
17
0
27
0
37
0
0
ENDTAB
0
TABLE
2
LTYPE
5
17b
100
AcDbSymbolTable
0
LTYPE
5
14
100
AcDbSymbolTableRecord
100
AcDbLinetypeTableRecord
70
0
2
ByBlock
3

72
65
73
0
40
0
0
LTYPE
5
15
100
AcDbSymbolTableRecord
100
AcDbLinetypeTableRecord
70
0
2
ByLayer
3

72
65
73
0
40
0
0
LTYPE
5
16
100
AcDbSymbolTableRecord
100
AcDbLinetypeTableRecord
70
0
2
CONTINUOUS
3
Solid line
72
65
73
0
40
0
0
LTYPE
5
6A
100
AcDbSymbolTableRecord
100
AcDbLinetypeTableRecord
70
0
2
CENTER
3
____ _ ____ _ ____ _ ____
72
65
73
4
40
47.5
49
22
74
0
49
-8.5
74
0
49
8.5
74
0
49
-8.5
74
0
0
LTYPE
5
6B
100
AcDbSymbolTableRecord
100
AcDbLinetypeTableRecord
70
0
2
DASHED
3
__ __ __ __ __ __ __ __ __
72
65
73
2
40
25.72
49
12.86
74
0
49
-12.86
74
0
0
ENDTAB
0
TABLE
2
LAYER
5
17c
100
AcDbSymbolTable
0
LAYER
5
10
100
AcDbSymbolTableRecord
100
AcDbLayerTableRecord
2
0
70
0
62
7
6
CONTINUOUS
290
1
370
-3
390
0
0
LAYER
5
6D
100
AcDbSymbolTableRecord
100
AcDbLayerTableRecord
2
81
70
0
62
-3
6
CONTINUOUS
290
1
370
-3
390
0
0
LAYER
5
6F
100
AcDbSymbolTableRecord
100
AcDbLayerTableRecord
2
80
70
0
62
-6
6
CONTINUOUS
290
1
370
-3
390
0
0
LAYER
5
73
100
AcDbSymbolTableRecord
100
AcDbLayerTableRecord
2
1
70
0
62
4
6
CONTINUOUS
290
1
370
-3
390
0
0
LAYER
5
E5
100
AcDbSymbolTableRecord
100
AcDbLayerTableRecord
2
2
70
0
62
7
6
CONTINUOUS
290
1
370
-3
390
0
0
LAYER
5
167
100
AcDbSymbolTableRecord
100
AcDbLayerTableRecord
2
SK1
70
0
62
4
6
CONTINUOUS
290
1
370
-3
390
0
0
LAYER
5
168
100
AcDbSymbolTableRecord
100
AcDbLayerTableRecord
2
SK6
70
0
62
5
6
CONTINUOUS
290
1
370
-3
390
0
0
LAYER
5
169
100
AcDbSymbolTableRecord
100
AcDbLayerTableRecord
2
SK2
70
0
62
7
6
CONTINUOUS
290
1
370
-3
390
0
0
ENDTAB
0
TABLE
2
STYLE
5
17d
100
AcDbSymbolTable
0
STYLE
5
11
100
AcDbSymbolTableRecord
100
AcDbTextStyleTableRecord
2
Standard
3
txt
70
0
71
0
40
0
41
1
42
0
50
0
0
STYLE
5
CA
100
AcDbSymbolTableRecord
100
AcDbTextStyleTableRecord
2
iso_b_vert
3
simplex.shx
70
0
71
0
40
0
41
1
42
0
50
0
0
STYLE
5
CB
100
AcDbSymbolTableRecord
100
AcDbTextStyleTableRecord
2
DWGDirectTextStyle
3
simplex
70
0
71
0
40
0
41
1
42
0
50
0
0
ENDTAB
0
TABLE
2
DIMSTYLE
5
17e
100
AcDbSymbolTable
100
AcDbDimStyleTable
0
DIMSTYLE
105
27
100
AcDbSymbolTableRecord
100
AcDbDimStyleTableRecord
2
Standard
70
0
3
<>
41
0.18
42
0.0625
44
0.18
140
0.18
147
0.09
73
0
74
0
77
1
271
2
275
0
278
52
280
0
340
11
0
ENDTAB
0
TABLE
2
VIEW
5
17f
100
AcDbSymbolTable
0
ENDTAB
0
TABLE
2
UCS
5
180
100
AcDbSymbolTable
0
ENDTAB
0
TABLE
2
APPID
5
181
100
AcDbSymbolTable
0
APPID
5
12
100
AcDbSymbolTableRecord
100
AcDbRegAppTableRecord
2
ACAD
70
0
0
ENDTAB
0
TABLE
2
BLOCK_RECORD
5
182
100
AcDbSymbolTable
0
BLOCK_RECORD
5
1F
100
AcDbSymbolTableRecord
100
AcDbBlockTableRecord
2
*Model_Space
340
0
70
0
0
BLOCK_RECORD
5
1B
100
AcDbSymbolTableRecord
100
AcDbBlockTableRecord
2
*Paper_Space
340
0
70
0
0
BLOCK_RECORD
5
23
100
AcDbSymbolTableRecord
100
AcDbBlockTableRecord
2
*Paper_Space0
340
0
70
0
0
BLOCK_RECORD
5
CD
100
AcDbSymbolTableRecord
100
AcDbBlockTableRecord
2
DimnDraft3D1
340
0
70
0
0
BLOCK_RECORD
5
DC
100
AcDbSymbolTableRecord
100
AcDbBlockTableRecord
2
_CLOSED
340
0
70
0
0
BLOCK_RECORD
5
E3
100
AcDbSymbolTableRecord
100
AcDbBlockTableRecord
2
DimnDraft3D2
340
0
70
0
0
BLOCK_RECORD
5
F2
100
AcDbSymbolTableRecord
100
AcDbBlockTableRecord
2
DimnDraft3D3
340
0
70
0
0
BLOCK_RECORD
5
100
100
AcDbSymbolTableRecord
100
AcDbBlockTableRecord
2
DimnDraft3D4
340
0
70
0
0
ENDTAB
0
ENDSEC
0
SECTION
2
BLOCKS
0
BLOCK
5
20
100
AcDbEntity
8
0
100
AcDbBlockBegin
2
*Model_Space
70
0
10
0
20
0
30
0
3
*Model_Space
0
ENDBLK
5
21
100
AcDbEntity
8
0
100
AcDbBlockEnd
0
BLOCK
5
1C
100
AcDbEntity
8
0
100
AcDbBlockBegin
2
*Paper_Space
70
0
10
0
20
0
30
0
3
*Paper_Space
0
ENDBLK
5
1D
100
AcDbEntity
8
0
100
AcDbBlockEnd
0
BLOCK
5
24
100
AcDbEntity
8
0
100
AcDbBlockBegin
2
*Paper_Space0
70
0
10
0
20
0
30
0
3
*Paper_Space0
0
ENDBLK
5
25
100
AcDbEntity
8
0
100
AcDbBlockEnd
0
BLOCK
5
D9
100
AcDbEntity
8
0
100
AcDbBlockBegin
2
DimnDraft3D1
70
0
10
0
20
0
30
0
3
DimnDraft3D1
0
MTEXT
5
CE
100
AcDbEntity
8
SK2
62
256
6
ByLayer
370
18
48
1
60
0
100
AcDbMText
10
-13.972865
20
20.397296
30
0
210
0
220
0
230
1
1
\W0.6562;70
40
1.5
41
0
44
1.084337
50
0
71
8
72
5
7
iso_b_vert
0
LINE
5
D0
100
AcDbEntity
8
SK2
62
256
6
ByLayer
370
13
48
1
60
0
100
AcDbLine
10
21.027135
20
0.708999
30
0
11
21.027135
21
21.022296
31
0
39
0
210
0
220
0
230
1
0
LINE
5
D1
100
AcDbEntity
8
SK2
62
256
6
ByLayer
370
13
48
1
60
0
100
AcDbLine
10
-48.972865
20
8.75
30
0
11
-48.972865
21
21.022296
31
0
39
0
210
0
220
0
230
1
0
LINE
5
D2
100
AcDbEntity
8
SK2
62
256
6
ByLayer
370
13
48
1
60
0
100
AcDbLine
10
21.027135
20
20.022296
30
0
11
-48.972865
21
20.022296
31
0
39
0
210
0
220
0
230
1
0
LINE
5
D3
100
AcDbEntity
8
SK2
62
256
6
ByLayer
370
13
48
1
60
0
100
AcDbLine
10
21.027135
20
20.022296
30
0
11
19.439636
21
19.813298
31
0
39
0
210
0
220
0
230
1
0
LINE
5
D4
100
AcDbEntity
8
SK2
62
256
6
ByLayer
370
13
48
1
60
0
100
AcDbLine
10
21.027135
20
20.022296
30
0
11
19.439634
21
20.231295
31
0
39
0
210
0
220
0
230
1
0
LINE
5
D5
100
AcDbEntity
8
SK2
62
256
6
ByLayer
370
13
48
1
60
0
100
AcDbLine
10
19.439636
20
19.813298
30
0
11
19.439634
21
20.231295
31
0
39
0
210
0
220
0
230
1
0
LINE
5
D6
100
AcDbEntity
8
SK2
62
256
6
ByLayer
370
13
48
1
60
0
100
AcDbLine
10
-48.972865
20
20.022296
30
0
11
-47.385366
21
20.231295
31
0
39
0
210
0
220
0
230
1
0
LINE
5
D7
100
AcDbEntity
8
SK2
62
256
6
ByLayer
370
13
48
1
60
0
100
AcDbLine
10
-48.972865
20
20.022296
30
0
11
-47.385364
21
19.813298
31
0
39
0
210
0
220
0
230
1
0
LINE
5
D8
100
AcDbEntity
8
SK2
62
256
6
ByLayer
370
13
48
1
60
0
100
AcDbLine
10
-47.385366
20
20.231295
30
0
11
-47.385364
21
19.813298
31
0
39
0
210
0
220
0
230
1
0
ENDBLK
5
DA
100
AcDbEntity
8
0
100
AcDbBlockEnd
0
BLOCK
5
DD
100
AcDbEntity
8
0
100
AcDbBlockBegin
2
_CLOSED
70
0
10
0
20
0
30
0
3
_CLOSED
0
LINE
5
DF
100
AcDbEntity
8
0
62
256
6
ByLayer
370
-2
48
1
60
0
100
AcDbLine
10
-1
20
0.166667
30
0
11
0
21
0
31
0
39
0
210
0
220
0
230
1
0
LINE
5
E0
100
AcDbEntity
8
0
62
256
6
ByLayer
370
-2
48
1
60
0
100
AcDbLine
10
0
20
0
30
0
11
-1
21
-0.166667
31
0
39
0
210
0
220
0
230
1
0
LINE
5
E1
100
AcDbEntity
8
0
62
256
6
ByLayer
370
-2
48
1
60
0
100
AcDbLine
10
-1
20
0.166667
30
0
11
-1
21
-0.166667
31
0
39
0
210
0
220
0
230
1
0
LINE
5
E2
100
AcDbEntity
8
0
62
256
6
ByLayer
370
-2
48
1
60
0
100
AcDbLine
10
0
20
0
30
0
11
-1
21
0
31
0
39
0
210
0
220
0
230
1
0
ENDBLK
5
DE
100
AcDbEntity
8
0
100
AcDbBlockEnd
0
BLOCK
5
EF
100
AcDbEntity
8
0
100
AcDbBlockBegin
2
DimnDraft3D2
70
0
10
0
20
0
30
0
3
DimnDraft3D2
0
MTEXT
5
E4
100
AcDbEntity
8
2
62
256
6
ByLayer
370
18
48
1
60
0
100
AcDbMText
10
10.513568
20
15.293933
30
0
210
0
220
0
230
1
1
\W0.6139;21
40
1.5
41
0
44
1.084337
50
0
71
8
72
5
7
iso_b_vert
0
LINE
5
E6
100
AcDbEntity
8
2
62
256
6
ByLayer
370
13
48
1
60
0
100
AcDbLine
10
21.027135
20
0.708999
30
0
11
21.027135
21
15.918933
31
0
39
0
210
0
220
0
230
1
0
LINE
5
E7
100
AcDbEntity
8
2
62
256
6
ByLayer
370
13
48
1
60
0
100
AcDbLine
10
0
20
7.472181
30
0
11
0
21
15.918933
31
0
39
0
210
0
220
0
230
1
0
LINE
5
E8
100
AcDbEntity
8
2
62
256
6
ByLayer
370
13
48
1
60
0
100
AcDbLine
10
21.027135
20
14.918933
30
0
11
0
21
14.918933
31
0
39
0
210
0
220
0
230
1
0
LINE
5
E9
100
AcDbEntity
8
2
62
256
6
ByLayer
370
13
48
1
60
0
100
AcDbLine
10
21.027135
20
14.918933
30
0
11
19.439636
21
14.709934
31
0
39
0
210
0
220
0
230
1
0
LINE
5
EA
100
AcDbEntity
8
2
62
256
6
ByLayer
370
13
48
1
60
0
100
AcDbLine
10
21.027135
20
14.918933
30
0
11
19.439634
21
15.127931
31
0
39
0
210
0
220
0
230
1
0
LINE
5
EB
100
AcDbEntity
8
2
62
256
6
ByLayer
370
13
48
1
60
0
100
AcDbLine
10
19.439636
20
14.709934
30
0
11
19.439634
21
15.127931
31
0
39
0
210
0
220
0
230
1
0
LINE
5
EC
100
AcDbEntity
8
2
62
256
6
ByLayer
370
13
48
1
60
0
100
AcDbLine
10
0
20
14.918933
30
0
11
1.587499
21
15.127931
31
0
39
0
210
0
220
0
230
1
0
LINE
5
ED
100
AcDbEntity
8
2
62
256
6
ByLayer
370
13
48
1
60
0
100
AcDbLine
10
0
20
14.918933
30
0
11
1.587501
21
14.709934
31
0
39
0
210
0
220
0
230
1
0
LINE
5
EE
100
AcDbEntity
8
2
62
256
6
ByLayer
370
13
48
1
60
0
100
AcDbLine
10
1.587499
20
15.127931
30
0
11
1.587501
21
14.709934
31
0
39
0
210
0
220
0
230
1
0
ENDBLK
5
F0
100
AcDbEntity
8
0
100
AcDbBlockEnd
0
BLOCK
5
FD
100
AcDbEntity
8
0
100
AcDbBlockBegin
2
DimnDraft3D3
70
0
10
0
20
0
30
0
3
DimnDraft3D3
0
MTEXT
5
F3
100
AcDbEntity
8
2
62
256
6
ByLayer
370
18
48
1
60
0
100
AcDbMText
10
26.864939
20
3.8545
30
0
210
0
220
0
230
1
1
\W0.6912;8.3
40
1.5
41
0
44
1.084337
50
90
71
8
72
5
7
iso_b_vert
0
LINE
5
F4
100
AcDbEntity
8
2
62
256
6
ByLayer
370
13
48
1
60
0
100
AcDbLine
10
22.027135
20
-0.291001
30
0
11
28.239939
21
-0.291001
31
0
39
0
210
0
220
0
230
1
0
LINE
5
F5
100
AcDbEntity
8
2
62
256
6
ByLayer
370
13
48
1
60
0
100
AcDbLine
10
-3.845623
20
8
30
0
11
28.239939
21
8
31
0
39
0
210
0
220
0
230
1
0
LINE
5
F6
100
AcDbEntity
8
2
62
256
6
ByLayer
370
13
48
1
60
0
100
AcDbLine
10
27.239939
20
-0.291001
30
0
11
27.239939
21
8
31
0
39
0
210
0
220
0
230
1
0
LINE
5
F7
100
AcDbEntity
8
2
62
256
6
ByLayer
370
13
48
1
60
0
100
AcDbLine
10
27.239939
20
-0.291001
30
0
11
27.030941
21
1.296498
31
0
39
0
210
0
220
0
230
1
0
LINE
5
F8
100
AcDbEntity
8
2
62
256
6
ByLayer
370
13
48
1
60
0
100
AcDbLine
10
27.239939
20
-0.291001
30
0
11
27.448937
21
1.2965
31
0
39
0
210
0
220
0
230
1
0
LINE
5
F9
100
AcDbEntity
8
2
62
256
6
ByLayer
370
13
48
1
60
0
100
AcDbLine
10
27.030941
20
1.296498
30
0
11
27.448937
21
1.2965
31
0
39
0
210
0
220
0
230
1
0
LINE
5
FA
100
AcDbEntity
8
2
62
256
6
ByLayer
370
13
48
1
60
0
100
AcDbLine
10
27.239939
20
8
30
0
11
27.448937
21
6.412501
31
0
39
0
210
0
220
0
230
1
0
LINE
5
FB
100
AcDbEntity
8
2
62
256
6
ByLayer
370
13
48
1
60
0
100
AcDbLine
10
27.239939
20
8
30
0
11
27.030941
21
6.412499
31
0
39
0
210
0
220
0
230
1
0
LINE
5
FC
100
AcDbEntity
8
2
62
256
6
ByLayer
370
13
48
1
60
0
100
AcDbLine
10
27.448937
20
6.412501
30
0
11
27.030941
21
6.412499
31
0
39
0
210
0
220
0
230
1
0
ENDBLK
5
FE
100
AcDbEntity
8
0
100
AcDbBlockEnd
0
BLOCK
5
10B
100
AcDbEntity
8
0
100
AcDbBlockBegin
2
DimnDraft3D4
70
0
10
0
20
0
30
0
3
DimnDraft3D4
0
MTEXT
5
101
100
AcDbEntity
8
SK2
62
256
6
ByLayer
370
18
48
1
60
0
100
AcDbMText
10
-59.926159
20
0
30
0
210
0
220
0
230
1
1
\W0.5144;16
40
1.5
41
0
44
1.084337
50
90
71
8
72
5
7
iso_b_vert
0
LINE
5
102
100
AcDbEntity
8
SK2
62
256
6
ByLayer
370
13
48
1
60
0
100
AcDbLine
10
-49.722865
20
8
30
0
11
-60.551159
21
8
31
0
39
0
210
0
220
0
230
1
0
LINE
5
103
100
AcDbEntity
8
SK2
62
256
6
ByLayer
370
13
48
1
60
0
100
AcDbLine
10
-46.972865
20
-8
30
0
11
-60.551159
21
-8
31
0
39
0
210
0
220
0
230
1
0
LINE
5
104
100
AcDbEntity
8
SK2
62
256
6
ByLayer
370
13
48
1
60
0
100
AcDbLine
10
-59.551159
20
8
30
0
11
-59.551159
21
-8
31
0
39
0
210
0
220
0
230
1
0
LINE
5
105
100
AcDbEntity
8
SK2
62
256
6
ByLayer
370
13
48
1
60
0
100
AcDbLine
10
-59.551159
20
8
30
0
11
-59.342161
21
6.412501
31
0
39
0
210
0
220
0
230
1
0
LINE
5
106
100
AcDbEntity
8
SK2
62
256
6
ByLayer
370
13
48
1
60
0
100
AcDbLine
10
-59.551159
20
8
30
0
11
-59.760158
21
6.412499
31
0
39
0
210
0
220
0
230
1
0
LINE
5
107
100
AcDbEntity
8
SK2
62
256
6
ByLayer
370
13
48
1
60
0
100
AcDbLine
10
-59.342161
20
6.412501
30
0
11
-59.760158
21
6.412499
31
0
39
0
210
0
220
0
230
1
0
LINE
5
108
100
AcDbEntity
8
SK2
62
256
6
ByLayer
370
13
48
1
60
0
100
AcDbLine
10
-59.551159
20
-8
30
0
11
-59.760158
21
-6.412501
31
0
39
0
210
0
220
0
230
1
0
LINE
5
109
100
AcDbEntity
8
SK2
62
256
6
ByLayer
370
13
48
1
60
0
100
AcDbLine
10
-59.551159
20
-8
30
0
11
-59.342161
21
-6.412499
31
0
39
0
210
0
220
0
230
1
0
LINE
5
10A
100
AcDbEntity
8
SK2
62
256
6
ByLayer
370
13
48
1
60
0
100
AcDbLine
10
-59.760158
20
-6.412501
30
0
11
-59.342161
21
-6.412499
31
0
39
0
210
0
220
0
230
1
0
ENDBLK
5
10C
100
AcDbEntity
8
0
100
AcDbBlockEnd
0
ENDSEC
0
SECTION
2
ENTITIES
0
ARC
5
9A
100
AcDbEntity
8
1
62
256
6
ByLayer
370
18
48
1
60
0
100
AcDbCircle
39
0
10
2.051202
20
-0.638245
30
0
40
1.49999999999725
210
0
220
0
230
1
100
AcDbArc
50
57.903331
51
79.400604
0
ARC
5
9B
100
AcDbEntity
8
1
62
256
6
ByLayer
370
18
48
1
60
0
100
AcDbCircle
39
0
10
2.051202
20
-0.638245
30
0
40
1.50000000001557
210
0
220
0
230
1
100
AcDbArc
50
327.302643
51
351.801236
0
ARC
5
9C
100
AcDbEntity
8
1
62
256
6
ByLayer
370
18
48
1
60
0
100
AcDbCircle
39
0
10
2.051202
20
-0.638245
30
0
40
1.5
210
0
220
0
230
1
100
AcDbArc
50
79.400604
51
318.863914
0
ARC
5
9D
100
AcDbEntity
8
1
62
256
6
ByLayer
370
18
48
1
60
0
100
AcDbCircle
39
0
10
-11.391579
20
2.912945
30
0
40
0.396875
210
0
220
0
230
-1
100
AcDbArc
50
72.5
51
107.5
0
ARC
5
9E
100
AcDbEntity
8
1
62
256
6
ByLayer
370
18
48
1
60
0
100
AcDbCircle
39
0
10
2.152898
20
0
30
0
40
0.396874999999996
210
0
220
0
230
1
100
AcDbArc
50
107.5
51
252.5
0
ARC
5
9F
100
AcDbEntity
8
1
62
256
6
ByLayer
370
18
48
1
60
0
100
AcDbCircle
39
0
10
-11.391579
20
-2.912945
30
0
40
0.396875
210
0
220
0
230
-1
100
AcDbArc
50
252.5
51
287.5
0
ARC
5
A2
100
AcDbEntity
8
1
62
256
6
ByLayer
370
18
48
1
60
0
100
AcDbCircle
39
0
10
20.63026
20
0
30
0
40
0.396875
210
0
220
0
230
1
100
AcDbArc
50
287.5
51
72.5
0
ARC
5
A4
100
AcDbEntity
8
1
62
256
6
ByLayer
370
18
48
1
60
0
100
AcDbCircle
39
0
10
11.391579
20
0
30
0
40
0.748000000000126
210
0
220
0
230
1
100
AcDbArc
50
209.975421
51
267.838153
0
ARC
5
A5
100
AcDbEntity
8
1
62
256
6
ByLayer
370
18
48
1
60
0
100
AcDbCircle
39
0
10
11.391579
20
0
30
0
40
1.03500000000013
210
0
220
0
230
1
100
AcDbArc
50
239.950841
51
300.049159
0
ARC
5
A6
100
AcDbEntity
8
1
62
256
6
ByLayer
370
18
48
1
60
0
100
AcDbCircle
39
0
10
11.391579
20
0
30
0
40
0.747999999999839
210
0
220
0
230
1
100
AcDbArc
50
330.024579
51
29.975421
0
ARC
5
A7
100
AcDbEntity
8
1
62
256
6
ByLayer
370
18
48
1
60
0
100
AcDbCircle
39
0
10
-11.391579
20
0
30
0
40
0.747999999999999
210
0
220
0
230
-1
100
AcDbArc
50
267.838153
51
272.161847
0
ARC
5
A8
100
AcDbEntity
8
1
62
256
6
ByLayer
370
18
48
1
60
0
100
AcDbCircle
39
0
10
11.391579
20
0
30
0
40
0.7479999999998
210
0
220
0
230
1
100
AcDbArc
50
150.024579
51
209.975421
0
ARC
5
A9
100
AcDbEntity
8
1
62
256
6
ByLayer
370
18
48
1
60
0
100
AcDbCircle
39
0
10
11.391579
20
0
30
0
40
0.747999999999913
210
0
220
0
230
1
100
AcDbArc
50
272.161847
51
330.024579
0
ARC
5
AA
100
AcDbEntity
8
1
62
256
6
ByLayer
370
18
48
1
60
0
100
AcDbCircle
39
0
10
11.391579
20
0
30
0
40
1.03500000000011
210
0
220
0
230
1
100
AcDbArc
50
300.049159
51
0
0
ARC
5
AB
100
AcDbEntity
8
1
62
256
6
ByLayer
370
18
48
1
60
0
100
AcDbCircle
39
0
10
-11.391579
20
0
30
0
40
0.747999999999999
210
0
220
0
230
-1
100
AcDbArc
50
87.838153
51
92.161847
0
ARC
5
AC
100
AcDbEntity
8
1
62
256
6
ByLayer
370
18
48
1
60
0
100
AcDbCircle
39
0
10
11.391579
20
0
30
0
40
0.748000000000165
210
0
220
0
230
1
100
AcDbArc
50
92.161847
51
150.024579
0
ARC
5
AE
100
AcDbEntity
8
1
62
256
6
ByLayer
370
18
48
1
60
0
100
AcDbCircle
39
0
10
11.391579
20
0
30
0
40
1.0350000000004
210
0
220
0
230
1
100
AcDbArc
50
180
51
239.950841
0
ARC
5
AF
100
AcDbEntity
8
1
62
256
6
ByLayer
370
18
48
1
60
0
100
AcDbCircle
39
0
10
11.391579
20
0
30
0
40
1.03500000000005
210
0
220
0
230
1
100
AcDbArc
50
120.049159
51
180
0
ARC
5
B0
100
AcDbEntity
8
1
62
256
6
ByLayer
370
18
48
1
60
0
100
AcDbCircle
39
0
10
11.391579
20
0
30
0
40
1.035
210
0
220
0
230
1
100
AcDbArc
50
59.950841
51
120.049159
0
ARC
5
B1
100
AcDbEntity
8
1
62
256
6
ByLayer
370
18
48
1
60
0
100
AcDbCircle
39
0
10
11.391579
20
0
30
0
40
1.03500000000003
210
0
220
0
230
1
100
AcDbArc
50
0
51
59.950841
0
ARC
5
B2
100
AcDbEntity
8
1
62
256
6
ByLayer
370
18
48
1
60
0
100
AcDbCircle
39
0
10
11.391579
20
0
30
0
40
0.747999999999963
210
0
220
0
230
1
100
AcDbArc
50
29.975421
51
87.838153
0
CIRCLE
5
A0
100
AcDbEntity
8
1
62
256
6
ByLayer
370
18
48
1
60
0
100
AcDbCircle
10
11.391579
20
0
30
0
40
1.90468944117779
39
0
210
0
220
0
230
1
0
CIRCLE
5
A1
100
AcDbEntity
8
1
62
256
6
ByLayer
370
13
48
1
60
0
100
AcDbCircle
10
11.391579
20
0
30
0
40
1.8014146404184
39
0
210
0
220
0
230
1
0
CIRCLE
5
A3
100
AcDbEntity
8
1
62
256
6
ByLayer
370
13
48
1
60
0
100
AcDbCircle
10
11.391579
20
0
30
0
40
1.88122167929295
39
0
210
0
220
0
230
1
0
CIRCLE
5
AD
100
AcDbEntity
8
1
62
256
6
ByLayer
370
18
48
1
60
0
100
AcDbCircle
10
11.391579
20
0
30
0
40
1.3
39
0
210
0
220
0
230
1
0
CIRCLE
5
B3
100
AcDbEntity
8
1
62
256
6
ByLayer
370
18
48
1
60
0
100
AcDbCircle
10
11.391579
20
0
30
0
40
1.725
39
0
210
0
220
0
230
1
0
ELLIPSE
5
B4
100
AcDbEntity
8
1
62
256
6
ByLayer
370
18
48
1
60
0
100
AcDbEllipse
10
2.051202
20
-0.638245
30
0
11
1.19582424485465
21
-0.905540934307516
31
0
210
1.22460635382238E-16
220
1.22460635382238E-16
230
1
40
1
41
-0.0698335568292816
42
0.0774394667672052
0
POINT
5
6C
100
AcDbEntity
8
81
62
256
6
ByLayer
370
18
48
1
60
0
100
AcDbPoint
10
21.027135
20
-0.291001
30
0
39
0
210
0
220
0
230
1
50
360
0
POINT
5
6E
100
AcDbEntity
8
80
62
256
6
ByLayer
370
18
48
1
60
0
100
AcDbPoint
10
0
20
0
30
0
39
0
210
0
220
0
230
1
50
360
0
SPLINE
5
B5
100
AcDbEntity
8
1
62
256
6
ByLayer
370
18
48
1
60
0
100
AcDbSpline
70
4
71
3
72
18
73
14
40
0
40
0
40
0
40
0
40
0.213394464779721
40
0.213394464779721
40
0.389004322610664
40
0.389004322610664
40
0.566252444177967
40
0.566252444177967
40
0.721175490823055
40
0.721175490823055
40
0.92741643549918
40
0.92741643549918
40
1
40
1
40
1
40
1
41
1
10
11.9963796935186
20
0.689676927106717
30
0
41
1
10
11.9855797864267
20
0.647684247440353
30
0
41
1
10
11.9809844536117
20
0.602567541880916
30
0
41
1
10
11.9864634201404
20
0.519243486167412
30
0
41
1
10
11.9942451194285
20
0.480293232801898
30
0
41
1
10
12.0209489868612
20
0.405346859406777
30
0
41
1
10
12.0404718196875
20
0.368318603068062
30
0
41
1
10
12.0850179407357
20
0.307265998588676
30
0
41
1
10
12.1095249134888
20
0.281431183115359
30
0
41
1
10
12.170498095491
20
0.23087706510762
30
0
41
1
10
12.2092002793699
20
0.208366167020685
30
0
41
1
10
12.2627869830783
20
0.186989910068832
30
0
41
1
10
12.2770502488274
20
0.182178829643888
30
0
41
1
10
12.2914102378376
20
0.178162397670846
30
0
0
SPLINE
5
B6
100
AcDbEntity
8
1
62
256
6
ByLayer
370
18
48
1
60
0
100
AcDbSpline
70
4
71
3
72
16
73
12
40
0
40
0
40
0
40
0
40
0.0650212293342915
40
0.0650212293342915
40
0.289691523269468
40
0.289691523269468
40
0.517236422326115
40
0.517236422326115
40
0.759263521180986
40
0.759263521180986
40
1
40
1
40
1
40
1
41
1
10
11.9098477695586
20
-0.895891958587754
30
0
41
1
10
11.9145833813018
20
-0.893152431775434
30
0
41
1
10
11.9192027991067
20
-0.890198958375166
30
0
41
1
10
11.9390192049654
20
-0.876254773527435
30
0
41
1
10
11.9528196467801
20
-0.862943042222909
30
0
41
1
10
11.975444123292
20
-0.833417611229137
30
0
41
1
10
11.9845021778041
20
-0.816802028168112
30
0
41
1
10
11.9974700373023
20
-0.781633638626033
30
0
41
1
10
12.0011968528937
20
-0.762591164870756
30
0
41
1
10
12.0028526238829
20
-0.725492105118065
30
0
41
1
10
12.000845502664
20
-0.707041085084839
30
0
41
1
10
11.9963796935186
20
-0.689676927106675
30
0
0
SPLINE
5
B7
100
AcDbEntity
8
1
62
256
6
ByLayer
370
18
48
1
60
0
100
AcDbSpline
70
4
71
3
72
18
73
14
40
0
40
0
40
0
40
0
40
0.213393079737799
40
0.213393079737799
40
0.389003177496046
40
0.389003177496046
40
0.566251555260788
40
0.566251555260788
40
0.721174645896043
40
0.721174645896043
40
0.927415342089921
40
0.927415342089921
40
1
40
1
40
1
40
1
41
1
10
10.4917476057996
20
0.178162397670846
30
0
41
1
10
10.5335040099489
20
0.189841498301405
30
0
41
1
10
10.5748576625527
20
0.208455494233078
30
0
41
1
10
10.6442389516556
20
0.254921685219571
30
0
41
1
10
10.6740575906324
20
0.281161518781531
30
0
41
1
10
10.7255592804719
20
0.34180511572616
30
0
41
1
10
10.7478349689036
20
0.377245650843079
30
0
41
1
10
10.7783758460534
20
0.446376278929009
30
0
41
1
10
10.7884667246075
20
0.480526023094669
30
0
41
1
10
10.8016943884636
20
0.558618744148092
30
0
41
1
10
10.80179995908
20
0.60339133497078
30
0
41
1
10
10.7934700700149
20
0.660479989562972
30
0
41
1
10
10.7904922602075
20
0.675235558872501
30
0
41
1
10
10.7867781501185
20
0.689676927106717
30
0
0
SPLINE
5
B8
100
AcDbEntity
8
1
62
256
6
ByLayer
370
18
48
1
60
0
100
AcDbSpline
70
4
71
3
72
16
73
12
40
0
40
0
40
0
40
0
40
0.0670553612811602
40
0.0670553612811602
40
0.291697905104272
40
0.291697905104272
40
0.519329228663783
40
0.519329228663783
40
0.761535715028726
40
0.761535715028726
40
1
40
1
40
1
40
1
41
1
10
10.3565789218186
20
2.84E-14
30
0
41
1
10
10.3565789218186
20
-0.0056408776745087
30
0
41
1
10
10.3568376981765
20
-0.011288938044558
30
0
41
1
10
10.3590664941215
20
-0.0355835965025619
30
0
41
1
10
10.3637281034899
20
-0.0541765712900002
30
0
41
1
10
10.3780464760242
20
-0.0885032612863341
30
0
41
1
10
10.3879373550037
20
-0.104638448238404
30
0
41
1
10
10.4119685774563
20
-0.133415554420878
30
0
41
1
10
10.4266260687202
20
-0.146141113961974
30
0
41
1
10
10.4578214477848
20
-0.16597148182305
30
0
41
1
10
10.4746411559035
20
-0.173377791480704
30
0
41
1
10
10.4917476057996
20
-0.178162397670789
30
0
0
SPLINE
5
B9
100
AcDbEntity
8
1
62
256
6
ByLayer
370
18
48
1
60
0
100
AcDbSpline
70
4
71
3
72
18
73
14
40
0
40
0
40
0
40
0
40
0.213393079737799
40
0.213393079737799
40
0.389003177496045
40
0.389003177496045
40
0.566251555260788
40
0.566251555260788
40
0.721174645896042
40
0.721174645896042
40
0.92741534208992
40
0.92741534208992
40
1
40
1
40
1
40
1
41
1
10
12.2914102378376
20
-0.178162397670789
30
0
41
1
10
12.2496538336883
20
-0.189841498301348
30
0
41
1
10
12.2083001810844
20
-0.208455494233022
30
0
41
1
10
12.1389188919816
20
-0.254921685219514
30
0
41
1
10
12.1091002530047
20
-0.281161518781474
30
0
41
1
10
12.0575985631653
20
-0.341805115726117
30
0
41
1
10
12.0353228747335
20
-0.377245650843022
30
0
41
1
10
12.0047819975837
20
-0.446376278928952
30
0
41
1
10
11.9946911190296
20
-0.480526023094612
30
0
41
1
10
11.9814634551735
20
-0.558618744148035
30
0
41
1
10
11.9813578845572
20
-0.603391334970723
30
0
41
1
10
11.9896877736223
20
-0.660479989562916
30
0
41
1
10
11.9926655834297
20
-0.675235558872444
30
0
41
1
10
11.9963796935186
20
-0.68967692710666
30
0
0
SPLINE
5
BA
100
AcDbEntity
8
1
62
256
6
ByLayer
370
18
48
1
60
0
100
AcDbSpline
70
4
71
3
72
12
73
8
40
0
40
0
40
0
40
0
40
0.3770262906397
40
0.3770262906397
40
0.761056371823052
40
0.761056371823052
40
1
40
1
40
1
40
1
41
1
10
11.4197952768816
20
0.747467616226288
30
0
41
1
10
11.4592228815503
20
0.750109792777209
30
0
41
1
10
11.4984361193887
20
0.758510282426926
30
0
41
1
10
11.5708100887095
20
0.784502060766727
30
0
41
1
10
11.6048549593864
20
0.802520562253179
30
0
41
1
10
11.6538610806713
20
0.837123342909194
30
0
41
1
10
11.6714169821478
20
0.851848749313405
30
0
41
1
10
11.6874874219807
20
0.867654231543497
30
0
0
SPLINE
5
BB
100
AcDbEntity
8
1
62
256
6
ByLayer
370
18
48
1
60
0
100
AcDbSpline
70
4
71
3
72
16
73
12
40
0
40
0
40
0
40
0
40
0.0670553612811615
40
0.0670553612811615
40
0.291697905104274
40
0.291697905104274
40
0.519329228663785
40
0.519329228663785
40
0.761535715028727
40
0.761535715028727
40
1
40
1
40
1
40
1
41
1
10
12.4265789218186
20
2.84E-14
30
0
41
1
10
12.4265789218186
20
0.0056408776745656
30
0
41
1
10
12.4263201454607
20
0.0112889380446148
30
0
41
1
10
12.4240913495157
20
0.0355835965026188
30
0
41
1
10
12.4194297401473
20
0.054176571290057
30
0
41
1
10
12.4051113676129
20
0.088503261286391
30
0
41
1
10
12.3952204886335
20
0.104638448238461
30
0
41
1
10
12.3711892661808
20
0.133415554420935
30
0
41
1
10
12.356531774917
20
0.146141113962031
30
0
41
1
10
12.3253363958524
20
0.165971481823107
30
0
41
1
10
12.3085166877337
20
0.17337779148076
30
0
41
1
10
12.2914102378376
20
0.178162397670846
30
0
0
SPLINE
5
BC
100
AcDbEntity
8
1
62
256
6
ByLayer
370
18
48
1
60
0
100
AcDbSpline
70
4
71
3
72
18
73
14
40
0
40
0
40
0
40
0
40
0.213394464779721
40
0.213394464779721
40
0.389004322610664
40
0.389004322610664
40
0.566252444177968
40
0.566252444177968
40
0.721175490823055
40
0.721175490823055
40
0.92741643549918
40
0.92741643549918
40
1
40
1
40
1
40
1
41
1
10
10.7867781501185
20
-0.68967692710666
30
0
41
1
10
10.7975780572105
20
-0.647684247440296
30
0
41
1
10
10.8021733900254
20
-0.602567541880859
30
0
41
1
10
10.7966944234967
20
-0.519243486167355
30
0
41
1
10
10.7889127242087
20
-0.480293232801841
30
0
41
1
10
10.7622088567759
20
-0.40534685940672
30
0
41
1
10
10.7426860239497
20
-0.368318603067991
30
0
41
1
10
10.6981399029015
20
-0.307265998588619
30
0
41
1
10
10.6736329301484
20
-0.281431183115302
30
0
41
1
10
10.6126597481462
20
-0.230877065107563
30
0
41
1
10
10.5739575642673
20
-0.208366167020628
30
0
41
1
10
10.5203708605588
20
-0.186989910068775
30
0
41
1
10
10.5061075948098
20
-0.182178829643831
30
0
41
1
10
10.4917476057996
20
-0.178162397670789
30
0
0
SPLINE
5
BD
100
AcDbEntity
8
1
62
256
6
ByLayer
370
18
48
1
60
0
100
AcDbSpline
70
4
71
3
72
14
73
10
40
0
40
0
40
0
40
0
40
0.284519249123234
40
0.284519249123234
40
0.571733062184449
40
0.571733062184449
40
0.831996244286524
40
0.831996244286524
40
1
40
1
40
1
40
1
41
1
10
10.4917476057996
20
0.178162397670846
30
0
41
1
10
10.4713678213708
20
0.172462252794332
30
0
41
1
10
10.4513444055977
20
0.162995893804208
30
0
41
1
10
10.41548162733
20
0.137171676789365
30
0
41
1
10
10.3991525514184
20
0.120318470079397
30
0
41
1
10
10.3750529545311
20
0.0832818239094166
30
0
41
1
10
10.3662914160438
20
0.0629811786962335
30
0
41
1
10
10.3582180364637
20
0.0282836467914933
30
0
41
1
10
10.3565789218186
20
0.0140876391121196
30
0
41
1
10
10.3565789218186
20
2.84E-14
30
0
0
SPLINE
5
BE
100
AcDbEntity
8
1
62
256
6
ByLayer
370
18
48
1
60
0
100
AcDbSpline
70
4
71
3
72
14
73
10
40
0
40
0
40
0
40
0
40
0.283738489034225
40
0.283738489034225
40
0.57048953103077
40
0.57048953103077
40
0.830294403552174
40
0.830294403552174
40
1
40
1
40
1
40
1
41
1
10
11.0956704216565
20
0.867654231543497
30
0
41
1
10
11.0805860568796
20
0.882489896398553
30
0
41
1
10
11.0624157127577
20
0.895141439871196
30
0
41
1
10
11.0221593991398
20
0.913401319863539
30
0
41
1
10
10.999395017496
20
0.919179803703855
30
0
41
1
10
10.9552395874509
20
0.921640421788368
30
0
41
1
10
10.9332530199035
20
0.919125976557865
30
0
41
1
10
10.8989543054958
20
0.908783110262831
30
0
41
1
10
10.8856622068759
20
0.903037603294891
30
0
41
1
10
10.8733100740786
20
0.895891958587811
30
0
0
SPLINE
5
BF
100
AcDbEntity
8
1
62
256
6
ByLayer
370
18
48
1
60
0
100
AcDbSpline
70
4
71
3
72
14
73
10
40
0
40
0
40
0
40
0
40
0.28452359731229
40
0.28452359731229
40
0.571736866218036
40
0.571736866218036
40
0.831999616286239
40
0.831999616286239
40
1
40
1
40
1
40
1
41
1
10
11.9963796935186
20
0.689676927106717
30
0
41
1
10
12.0016507819817
20
0.710172207986474
30
0
41
1
10
12.003483294779
20
0.732244976963798
30
0
41
1
10
11.9990877083197
20
0.776219246634483
30
0
41
1
10
11.9926761948993
20
0.798792689915473
30
0
41
1
10
11.972684946718
20
0.838198891236573
30
0
41
1
10
11.9594999966132
20
0.855948159695572
30
0
41
1
10
11.9335087491765
20
0.880310656499788
30
0
41
1
10
11.9220417311676
20
0.888837815092117
30
0
41
1
10
11.9098477695586
20
0.895891958587796
30
0
0
SPLINE
5
C0
100
AcDbEntity
8
1
62
256
6
ByLayer
370
18
48
1
60
0
100
AcDbSpline
70
4
71
3
72
12
73
8
40
0
40
0
40
0
40
0
40
0.464390992171651
40
0.464390992171651
40
0.846401077318506
40
0.846401077318506
40
1
40
1
40
1
40
1
41
1
10
11.6874874219807
20
-0.86765423154344
30
0
41
1
10
11.6565389078028
20
-0.837215973725179
30
0
41
1
10
11.6197679784642
20
-0.810591956594891
30
0
41
1
10
11.5448555708834
20
-0.773536532928858
30
0
41
1
10
11.5072247094319
20
-0.76074108371489
30
0
41
1
10
11.452304355612
20
-0.750603237696765
30
0
41
1
10
11.4360851563639
20
-0.748559255902208
30
0
41
1
10
11.4197952768816
20
-0.747467616226231
30
0
0
SPLINE
5
C1
100
AcDbEntity
8
1
62
256
6
ByLayer
370
18
48
1
60
0
100
AcDbSpline
70
4
71
3
72
16
73
12
40
0
40
0
40
0
40
0
40
0.0668638488455259
40
0.0668638488455259
40
0.290854271538801
40
0.290854271538801
40
0.517824973971677
40
0.517824973971677
40
0.759328674281757
40
0.759328674281757
40
1
40
1
40
1
40
1
41
1
10
10.8733100740786
20
-0.895891958587754
30
0
41
1
10
10.8781930228938
20
-0.898716719131457
30
0
41
1
10
10.8832117823886
20
-0.901321060151403
30
0
41
1
10
10.90535747362
20
-0.911557212774085
30
0
41
1
10
10.9237857611788
20
-0.916832360688815
30
0
41
1
10
10.9606686467443
20
-0.921627124936904
30
0
41
1
10
10.9795879884607
20
-0.921145119254959
30
0
41
1
10
11.0165307884262
20
-0.914753560882303
30
0
41
1
10
11.0348856005101
20
-0.90843824471078
30
0
41
1
10
11.0678657658245
20
-0.891264246021436
30
0
41
1
10
11.0828592707664
20
-0.880254161591722
30
0
41
1
10
11.0956704216563
20
-0.867654231543568
30
0
0
SPLINE
5
C2
100
AcDbEntity
8
1
62
256
6
ByLayer
370
18
48
1
60
0
100
AcDbSpline
70
4
71
3
72
14
73
10
40
0
40
0
40
0
40
0
40
0.284519249123235
40
0.284519249123235
40
0.571733062184452
40
0.571733062184452
40
0.831996244286526
40
0.831996244286526
40
1
40
1
40
1
40
1
41
1
10
12.2914102378376
20
-0.178162397670789
30
0
41
1
10
12.3117900222664
20
-0.172462252794276
30
0
41
1
10
12.3318134380394
20
-0.162995893804151
30
0
41
1
10
12.3676762163071
20
-0.137171676789308
30
0
41
1
10
12.3840052922187
20
-0.12031847007934
30
0
41
1
10
12.4081048891061
20
-0.0832818239093598
30
0
41
1
10
12.4168664275933
20
-0.0629811786961767
30
0
41
1
10
12.4249398071735
20
-0.0282836467914365
30
0
41
1
10
12.4265789218186
20
-0.0140876391120628
30
0
41
1
10
12.4265789218186
20
2.84E-14
30
0
0
SPLINE
5
C3
100
AcDbEntity
8
1
62
256
6
ByLayer
370
18
48
1
60
0
100
AcDbSpline
70
4
71
3
72
12
73
8
40
0
40
0
40
0
40
0
40
0.464390992172111
40
0.464390992172111
40
0.846401077319348
40
0.846401077319348
40
1
40
1
40
1
40
1
41
1
10
11.0956704216565
20
0.867654231543497
30
0
41
1
10
11.1266189358343
20
0.837215973725236
30
0
41
1
10
11.163389865173
20
0.810591956594948
30
0
41
1
10
11.2383022727538
20
0.773536532928915
30
0
41
1
10
11.2759331342052
20
0.760741083714947
30
0
41
1
10
11.3308534880251
20
0.750603237696822
30
0
41
1
10
11.3470726872732
20
0.748559255902265
30
0
41
1
10
11.3633625667556
20
0.747467616226288
30
0
0
SPLINE
5
C4
100
AcDbEntity
8
1
62
256
6
ByLayer
370
18
48
1
60
0
100
AcDbSpline
70
4
71
3
72
14
73
10
40
0
40
0
40
0
40
0
40
0.283738489034221
40
0.283738489034221
40
0.570489531030765
40
0.570489531030765
40
0.830294403552168
40
0.830294403552168
40
1
40
1
40
1
40
1
41
1
10
11.6874874219807
20
-0.86765423154344
30
0
41
1
10
11.7025717867576
20
-0.882489896398496
30
0
41
1
10
11.7207421308794
20
-0.895141439871139
30
0
41
1
10
11.7609984444974
20
-0.913401319863482
30
0
41
1
10
11.7837628261412
20
-0.919179803703798
30
0
41
1
10
11.8279182561862
20
-0.921640421788311
30
0
41
1
10
11.8499048237337
20
-0.919125976557808
30
0
41
1
10
11.8842035381414
20
-0.908783110262775
30
0
41
1
10
11.8974956367612
20
-0.903037603294834
30
0
41
1
10
11.9098477695586
20
-0.895891958587754
30
0
0
SPLINE
5
C5
100
AcDbEntity
8
1
62
256
6
ByLayer
370
18
48
1
60
0
100
AcDbSpline
70
4
71
3
72
14
73
10
40
0
40
0
40
0
40
0
40
0.284523597312289
40
0.284523597312289
40
0.571736866218034
40
0.571736866218034
40
0.831999616286237
40
0.831999616286237
40
1
40
1
40
1
40
1
41
1
10
10.7867781501185
20
-0.68967692710666
30
0
41
1
10
10.7815070616554
20
-0.710172207986417
30
0
41
1
10
10.7796745488582
20
-0.732244976963742
30
0
41
1
10
10.7840701353175
20
-0.776219246634426
30
0
41
1
10
10.7904816487378
20
-0.798792689915416
30
0
41
1
10
10.8104728969191
20
-0.838198891236516
30
0
41
1
10
10.8236578470239
20
-0.855948159695515
30
0
41
1
10
10.8496490944607
20
-0.880310656499731
30
0
41
1
10
10.8611161124695
20
-0.88883781509206
30
0
41
1
10
10.8733100740786
20
-0.895891958587754
30
0
0
SPLINE
5
C6
100
AcDbEntity
8
1
62
256
6
ByLayer
370
18
48
1
60
0
100
AcDbSpline
70
4
71
3
72
16
73
12
40
0
40
0
40
0
40
0
40
0.0650212293342957
40
0.0650212293342957
40
0.289691523269472
40
0.289691523269472
40
0.517236422326118
40
0.517236422326118
40
0.75926352118099
40
0.75926352118099
40
1
40
1
40
1
40
1
41
1
10
10.8733100740786
20
0.895891958587811
30
0
41
1
10
10.8685744623354
20
0.893152431775491
30
0
41
1
10
10.8639550445304
20
0.890198958375223
30
0
41
1
10
10.8441386386718
20
0.876254773527492
30
0
41
1
10
10.8303381968571
20
0.862943042222966
30
0
41
1
10
10.8077137203452
20
0.833417611229194
30
0
41
1
10
10.798655665833
20
0.816802028168169
30
0
41
1
10
10.7856878063348
20
0.78163363862609
30
0
41
1
10
10.7819609907434
20
0.762591164870813
30
0
41
1
10
10.7803052197543
20
0.725492105118121
30
0
41
1
10
10.7823123409731
20
0.707041085084896
30
0
41
1
10
10.7867781501185
20
0.689676927106731
30
0
0
SPLINE
5
C7
100
AcDbEntity
8
1
62
256
6
ByLayer
370
18
48
1
60
0
100
AcDbSpline
70
4
71
3
72
16
73
12
40
0
40
0
40
0
40
0
40
0.0668638488454768
40
0.0668638488454768
40
0.290854271538574
40
0.290854271538574
40
0.51782497397127
40
0.51782497397127
40
0.759328674281161
40
0.759328674281161
40
1
40
1
40
1
40
1
41
1
10
11.9098477695586
20
0.895891958587796
30
0
41
1
10
11.9049648207434
20
0.898716719131514
30
0
41
1
10
11.8999460612486
20
0.90132106015146
30
0
41
1
10
11.8778003700171
20
0.911557212774142
30
0
41
1
10
11.8593720824584
20
0.916832360688872
30
0
41
1
10
11.8224891968929
20
0.921627124936961
30
0
41
1
10
11.8035698551765
20
0.921145119255016
30
0
41
1
10
11.766627055211
20
0.91475356088236
30
0
41
1
10
11.748272243127
20
0.908438244710837
30
0
41
1
10
11.7152920778127
20
0.891264246021464
30
0
41
1
10
11.7002985728706
20
0.880254161591708
30
0
41
1
10
11.6874874219807
20
0.867654231543497
30
0
0
SPLINE
5
C8
100
AcDbEntity
8
1
62
256
6
ByLayer
370
18
48
1
60
0
100
AcDbSpline
70
4
71
3
72
12
73
8
40
0
40
0
40
0
40
0
40
0.377026290846268
40
0.377026290846268
40
0.76105637206325
40
0.76105637206325
40
1
40
1
40
1
40
1
41
1
10
11.3633625667556
20
-0.747467616226231
30
0
41
1
10
11.3239349620653
20
-0.750109792778588
30
0
41
1
10
11.2847217242056
20
-0.758510282436234
30
0
41
1
10
11.2123477548681
20
-0.784502060794281
30
0
41
1
10
11.1783028841921
20
-0.802520562287057
30
0
41
1
10
11.1292967629307
20
-0.837123342938639
30
0
41
1
10
11.1117408614733
20
-0.851848749329164
30
0
41
1
10
11.0956704216565
20
-0.86765423154344
30
0
0
LINE
5
70
100
AcDbEntity
8
SK1
62
256
6
ByLayer
370
18
48
1
60
0
100
AcDbLine
10
-48.972865
20
-5
30
0
11
-48.972865
21
7.75
31
0
39
0
210
0
220
0
230
1
0
LINE
5
72
100
AcDbEntity
8
1
62
256
6
ByLayer
370
18
48
1
60
0
100
AcDbLine
10
0
20
6.472181
30
0
11
0
21
-6.472181
31
0
39
0
210
0
220
0
230
1
0
LINE
5
74
100
AcDbEntity
8
SK1
62
256
6
ByLayer
370
18
48
1
60
0
100
AcDbLine
10
-48.722865
20
8
30
0
11
-4.845623
21
8
31
0
39
0
210
0
220
0
230
1
0
LINE
5
75
100
AcDbEntity
8
SK1
62
256
6
ByLayer
370
18
48
1
60
0
100
AcDbLine
10
-4.845623
20
-8
30
0
11
-45.972865
21
-8
31
0
39
0
210
0
220
0
230
1
0
LINE
5
76
100
AcDbEntity
8
80
62
256
6
ByLayer
370
18
48
1
60
0
100
AcDbLine
10
0
20
0
30
0
11
-3.5
21
0
31
0
39
0
210
0
220
0
230
1
0
LINE
5
77
100
AcDbEntity
8
81
62
256
6
ByLayer
370
18
48
1
60
0
100
AcDbLine
10
21.027135
20
-0.291001
30
0
11
24.527135
21
-0.291001
31
0
39
0
210
0
220
0
230
1
0
LINE
5
78
100
AcDbEntity
8
SK1
62
256
6
ByLayer
370
18
48
1
60
0
100
AcDbLine
10
-4.052725
20
-7.75
30
0
11
0
21
-6.472181
31
0
39
0
210
0
220
0
230
1
0
LINE
5
79
100
AcDbEntity
8
1
62
256
6
ByLayer
370
18
48
1
60
0
100
AcDbLine
10
10.680205
20
3.104725
30
0
11
10.091579
21
3.290318
31
0
39
0
210
0
220
0
230
1
0
LINE
5
7A
100
AcDbEntity
8
1
62
256
6
ByLayer
370
18
48
1
60
0
100
AcDbLine
10
10.091579
20
-2.919193
30
0
11
10.091579
21
-3.265676
31
0
39
0
210
0
220
0
230
1
0
LINE
5
7B
100
AcDbEntity
8
1
62
256
6
ByLayer
370
18
48
1
60
0
100
AcDbLine
10
3.313497
20
-1.448561
30
0
11
4.374441
21
-1.11659
31
0
39
0
210
0
220
0
230
1
0
LINE
5
7C
100
AcDbEntity
8
1
62
256
6
ByLayer
370
18
48
1
60
0
100
AcDbLine
10
10.091579
20
-3.290318
30
0
11
10.091579
21
-3.265676
31
0
39
0
210
0
220
0
230
1
0
LINE
5
7D
100
AcDbEntity
8
SK1
62
256
6
ByLayer
370
18
48
1
60
0
100
AcDbLine
10
-4.845623
20
-8
30
0
11
-4.052725
21
-7.75
31
0
39
0
210
0
220
0
230
1
0
LINE
5
7E
100
AcDbEntity
8
SK1
62
256
6
ByLayer
370
18
48
1
60
0
100
AcDbLine
10
-48.722865
20
7.75
30
0
11
-48.722865
21
-5.25
31
0
39
0
210
0
220
0
230
1
0
LINE
5
7F
100
AcDbEntity
8
1
62
256
6
ByLayer
370
18
48
1
60
0
100
AcDbLine
10
10.091579
20
3.265676
30
0
11
10.091579
21
3.290318
31
0
39
0
210
0
220
0
230
1
0
LINE
5
80
100
AcDbEntity
8
1
62
256
6
ByLayer
370
18
48
1
60
0
100
AcDbLine
10
0
20
6.472181
30
0
11
0.334066
21
6.36685
31
0
39
0
210
0
220
0
230
1
0
LINE
5
81
100
AcDbEntity
8
1
62
256
6
ByLayer
370
18
48
1
60
0
100
AcDbLine
10
10.091579
20
3.265676
30
0
11
10.091579
21
2.919193
31
0
39
0
210
0
220
0
230
1
0
LINE
5
82
100
AcDbEntity
8
1
62
256
6
ByLayer
370
13
48
1
60
0
100
AcDbLine
10
0.334066
20
-6.36685
30
0
11
0.334066
21
6.36685
31
0
39
0
210
0
220
0
230
1
0
LINE
5
83
100
AcDbEntity
8
SK1
62
256
6
ByLayer
370
18
48
1
60
0
100
AcDbLine
10
-46.222865
20
-7.75
30
0
11
-4.052725
21
-7.75
31
0
39
0
210
0
220
0
230
1
0
LINE
5
84
100
AcDbEntity
8
1
62
256
6
ByLayer
370
18
48
1
60
0
100
AcDbLine
10
4.582988
20
-1.182342
30
0
11
4.00823
21
-1.362185
31
0
39
0
210
0
220
0
230
1
0
LINE
5
85
100
AcDbEntity
8
SK1
62
256
6
ByLayer
370
18
48
1
60
0
100
AcDbLine
10
-4.052725
20
7.75
30
0
11
-4.845623
21
8
31
0
39
0
210
0
220
0
230
1
0
LINE
5
86
100
AcDbEntity
8
SK1
62
256
6
ByLayer
370
18
48
1
60
0
100
AcDbLine
10
-48.972865
20
7.75
30
0
11
-48.722865
21
8
31
0
39
0
210
0
220
0
230
1
0
LINE
5
87
100
AcDbEntity
8
1
62
256
6
ByLayer
370
18
48
1
60
0
100
AcDbLine
10
10.091579
20
-3.290318
30
0
11
10.680205
21
-3.104725
31
0
39
0
210
0
220
0
230
1
0
LINE
5
88
100
AcDbEntity
8
1
62
256
6
ByLayer
370
18
48
1
60
0
100
AcDbLine
10
4.014574
20
-1.36417
30
0
11
4.00823
21
-1.362185
31
0
39
0
210
0
220
0
230
1
0
LINE
5
89
100
AcDbEntity
8
SK1
62
256
6
ByLayer
370
18
48
1
60
0
100
AcDbLine
10
-48.722865
20
-5.25
30
0
11
-48.972865
21
-5
31
0
39
0
210
0
220
0
230
1
0
LINE
5
8A
100
AcDbEntity
8
1
62
256
6
ByLayer
370
18
48
1
60
0
100
AcDbLine
10
10.091579
20
-3.290318
30
0
11
0.334066
21
-6.36685
31
0
39
0
210
0
220
0
230
1
0
LINE
5
8B
100
AcDbEntity
8
1
62
256
6
ByLayer
370
18
48
1
60
0
100
AcDbLine
10
0.334066
20
-6.36685
30
0
11
0
21
-6.472181
31
0
39
0
210
0
220
0
230
1
0
LINE
5
8C
100
AcDbEntity
8
SK1
62
256
6
ByLayer
370
18
48
1
60
0
100
AcDbLine
10
-45.972865
20
-8
30
0
11
-46.222865
21
-7.75
31
0
39
0
210
0
220
0
230
1
0
LINE
5
8D
100
AcDbEntity
8
1
62
256
6
ByLayer
370
18
48
1
60
0
100
AcDbLine
10
0.334066
20
6.36685
30
0
11
10.091579
21
3.290318
31
0
39
0
210
0
220
0
230
1
0
LINE
5
8E
100
AcDbEntity
8
SK1
62
256
6
ByLayer
370
18
48
1
60
0
100
AcDbLine
10
-48.722865
20
7.75
30
0
11
-48.722865
21
8
31
0
39
0
210
0
220
0
230
1
0
LINE
5
8F
100
AcDbEntity
8
1
62
256
6
ByLayer
370
18
48
1
60
0
100
AcDbLine
10
3.180926
20
-1.62502
30
0
11
4.014574
21
-1.36417
31
0
39
0
210
0
220
0
230
1
0
LINE
5
90
100
AcDbEntity
8
SK1
62
256
6
ByLayer
370
18
48
1
60
0
100
AcDbLine
10
-46.222865
20
-7.75
30
0
11
-48.722865
21
-5.25
31
0
39
0
210
0
220
0
230
1
0
LINE
5
91
100
AcDbEntity
8
1
62
256
6
ByLayer
370
18
48
1
60
0
100
AcDbLine
10
10.091579
20
3.265676
30
0
11
2.327113
21
0.83616
31
0
39
0
210
0
220
0
230
1
0
LINE
5
92
100
AcDbEntity
8
SK1
62
256
6
ByLayer
370
18
48
1
60
0
100
AcDbLine
10
0
20
6.472181
30
0
11
-4.052725
21
7.75
31
0
39
0
210
0
220
0
230
1
0
LINE
5
93
100
AcDbEntity
8
1
62
256
6
ByLayer
370
18
48
1
60
0
100
AcDbLine
10
4.014574
20
-1.36417
30
0
11
10.091579
21
-3.265676
31
0
39
0
210
0
220
0
230
1
0
LINE
5
94
100
AcDbEntity
8
SK1
62
256
6
ByLayer
370
18
48
1
60
0
100
AcDbLine
10
-48.972865
20
7.75
30
0
11
-48.722865
21
7.75
31
0
39
0
210
0
220
0
230
1
0
LINE
5
95
100
AcDbEntity
8
SK1
62
256
6
ByLayer
370
18
48
1
60
0
100
AcDbLine
10
-4.052725
20
7.75
30
0
11
-48.722865
21
7.75
31
0
39
0
210
0
220
0
230
1
0
LINE
5
96
100
AcDbEntity
8
1
62
256
6
ByLayer
370
18
48
1
60
0
100
AcDbLine
10
2.033555
20
0.378506
30
0
11
11.272236
21
3.291451
31
0
39
0
210
0
220
0
230
1
0
LINE
5
97
100
AcDbEntity
8
1
62
256
6
ByLayer
370
18
48
1
60
0
100
AcDbLine
10
11.510922
20
3.291451
30
0
11
20.749603
21
0.378506
31
0
39
0
210
0
220
0
230
1
0
LINE
5
98
100
AcDbEntity
8
1
62
256
6
ByLayer
370
18
48
1
60
0
100
AcDbLine
10
11.272236
20
-3.291451
30
0
11
2.033555
21
-0.378506
31
0
39
0
210
0
220
0
230
1
0
LINE
5
99
100
AcDbEntity
8
1
62
256
6
ByLayer
370
18
48
1
60
0
100
AcDbLine
10
20.749603
20
-0.378506
30
0
11
11.510922
21
-3.291451
31
0
39
0
210
0
220
0
230
1
0
MTEXT
5
C9
100
AcDbEntity
8
SK6
62
256
6
ByLayer
370
18
48
1
60
0
100
AcDbMText
10
-12.063705
20
-17.264478
30
0
210
0
220
0
230
1
1
\W0.7410;QS-SVVBN1616E11-B1
40
1.5
41
0
44
1.084337
50
0
71
8
72
5
7
iso_b_vert
0
DIMENSION
5
DB
100
AcDbEntity
8
SK2
62
256
6
ByLayer
370
13
48
1
60
0
100
AcDbDimension
2
DimnDraft3D1
10
-48.972865
20
20.022296
30
0
11
-14.849181
21
20.022296
31
0
70
32
71
5
72
1
41
1
210
0
220
0
230
1
3
Standard
100
AcDbAlignedDimension
13
21.027135
23
0.708999
33
0
14
-48.972865
24
8.75
34
0
50
0
100
AcDbRotatedDimension
1001
ACAD
1000
DSTYLE
1002
{
1070
   279
1070
     0
1070
   172
1070
     1
1070
   173
1070
     1
1070
   340
1005
CA
1070
   271
1070
     1
1070
    77
1070
     1
1070
    73
1070
     0
1070
   171
1070
     3
1070
   274
1070
     4
1070
   177
1070
   254
1070
   176
1070
   254
1070
   178
1070
   254
1070
    78
1070
     8
1070
    41
1041
1.5875
1070
   147
1041
0.75
1070
    42
1041
1.0
1070
    44
1041
1.0
1070
   140
1041
1.5
1070
   343
1005
DC
1070
   344
1005
DC
1002
}
0
DIMENSION
5
F1
100
AcDbEntity
8
2
62
256
6
ByLayer
370
13
48
1
60
0
100
AcDbDimension
2
DimnDraft3D2
10
0
20
14.918933
30
0
11
9.824752
21
14.918933
31
0
70
32
71
5
72
1
41
1
210
0
220
0
230
1
3
Standard
100
AcDbAlignedDimension
13
21.027135
23
0.708999
33
0
14
0
24
7.472181
34
0
50
0
100
AcDbRotatedDimension
1001
ACAD
1000
DSTYLE
1002
{
1070
   279
1070
     0
1070
   172
1070
     1
1070
   173
1070
     1
1070
   340
1005
CA
1070
   271
1070
     1
1070
    77
1070
     1
1070
    73
1070
     0
1070
   171
1070
     3
1070
   274
1070
     4
1070
   177
1070
   254
1070
   176
1070
   254
1070
   178
1070
   254
1070
    78
1070
     8
1070
    41
1041
1.5875
1070
   147
1041
0.75
1070
    42
1041
1.0
1070
    44
1041
1.0
1070
   140
1041
1.5
1070
   343
1005
DC
1070
   344
1005
DC
1002
}
0
DIMENSION
5
FF
100
AcDbEntity
8
2
62
256
6
ByLayer
370
13
48
1
60
0
100
AcDbDimension
2
DimnDraft3D3
10
27.239939
20
8
30
0
11
27.239939
21
2.684105
31
0
70
32
71
5
72
1
41
1
210
0
220
0
230
1
3
Standard
100
AcDbAlignedDimension
13
22.027135
23
-0.291001
33
0
14
-3.845623
24
8
34
0
50
90
100
AcDbRotatedDimension
1001
ACAD
1000
DSTYLE
1002
{
1070
    74
1070
     0
1070
   279
1070
     0
1070
   172
1070
     1
1070
   173
1070
     1
1070
   340
1005
CA
1070
   271
1070
     1
1070
    77
1070
     1
1070
    73
1070
     0
1070
   171
1070
     3
1070
   274
1070
     4
1070
   177
1070
   254
1070
   176
1070
   254
1070
   178
1070
   254
1070
    78
1070
     8
1070
    41
1041
1.5875
1070
   147
1041
0.75
1070
    42
1041
1.0
1070
    44
1041
1.0
1070
   140
1041
1.5
1070
   343
1005
DC
1070
   344
1005
DC
1002
}
0
DIMENSION
5
10D
100
AcDbEntity
8
SK2
62
256
6
ByLayer
370
13
48
1
60
0
100
AcDbDimension
2
DimnDraft3D4
10
-59.551159
20
-8
30
0
11
-59.551159
21
-0.688816
31
0
70
32
71
5
72
1
41
1
210
0
220
0
230
1
3
Standard
100
AcDbAlignedDimension
13
-49.722865
23
8
33
0
14
-46.972865
24
-8
34
0
50
90
100
AcDbRotatedDimension
1001
ACAD
1000
DSTYLE
1002
{
1070
    74
1070
     0
1070
   279
1070
     0
1070
   172
1070
     1
1070
   173
1070
     1
1070
   340
1005
CA
1070
   271
1070
     1
1070
    77
1070
     1
1070
    73
1070
     0
1070
   171
1070
     3
1070
   274
1070
     4
1070
   177
1070
   254
1070
   176
1070
   254
1070
   178
1070
   254
1070
    78
1070
     8
1070
    41
1041
1.5875
1070
   147
1041
0.75
1070
    42
1041
1.0
1070
    44
1041
1.0
1070
   140
1041
1.5
1070
   343
1005
DC
1070
   344
1005
DC
1002
}
0
ENDSEC
0
SECTION
2
OBJECTS
0
DICTIONARY
5
177
330
0
100
AcDbDictionary
280
0
281
1
3
ACAD_GROUP
350
178
3
ACAD_MLINESTYLE
350
179
0
DICTIONARY
5
178
330
0
100
AcDbDictionary
280
0
281
1
0
DICTIONARY
5
179
330
0
100
AcDbDictionary
280
0
281
1
3
Standard
350
18
0
MLINESTYLE
5
18
330
179
100
AcDbMlineStyle
2
Standard
70
0
3

62
256
51
90
52
90
71
2
49
-0.5
62
256
6
ByLayer
49
0.5
62
256
6
ByLayer
0
RASTERVARIABLES
5
166
330

100
AcDbRasterVariables
90
0
70
1
71
1
72
1
0
ENDSEC
0
EOF
