0
SECTION
2
HEADER
9
$ACADVER
1
AC1015
9
$DWGCODEPAGE
3
ANSI_1252
9
$HANDSEED
5
18e
9
$ANGBASE
50
0
9
$ANGDIR
70
0
9
$ATTMODE
70
1
9
$AUNITS
70
0
9
$AUPREC
70
0
9
$CECOLOR
62
256
9
$CELTSCALE
40
1
9
$CELTYPE
6
ByLayer
9
$CELWEIGHT
370
18
9
$CLAYER
8
0
9
$CMLJUST
70
0
9
$CMLSCALE
40
1
9
$CMLSTYLE
2
Standard
9
$DIMSTYLE
2
Standard
9
$TEXTSIZE
40
0.2
9
$TEXTSTYLE
7
Standard
9
$LUNITS
70
2
9
$LUPREC
70
4
9
$EXTNAMES
290
1
9
$INSUNITS
70
4
9
$LTSCALE
40
1
9
$LWDISPLAY
290
1
9
$PDMODE
70
0
9
$PDSIZE
40
0
9
$PLINEGEN
70
0
0
ENDSEC
0
SECTION
2
CLASSES
0
CLASS
1
RASTERVARIABLES
2
AcDbRasterVariables
3
ISM
90
0
280
0
281
0
0
ENDSEC
0
SECTION
2
TABLES
0
TABLE
2
VPORT
5
184
100
AcDbSymbolTable
0
VPORT
5
1
100
AcDbSymbolTableRecord
100
AcDbViewportTableRecord
2
*Active
70
0
10
0
20
0
11
1
21
1
12
-1
22
1
13
0
23
0
14
0.5
24
0.5
15
10
25
10
16
0
26
0
36
1
17
0
27
0
37
0
0
ENDTAB
0
TABLE
2
LTYPE
5
185
100
AcDbSymbolTable
0
LTYPE
5
14
100
AcDbSymbolTableRecord
100
AcDbLinetypeTableRecord
70
0
2
ByBlock
3

72
65
73
0
40
0
0
LTYPE
5
15
100
AcDbSymbolTableRecord
100
AcDbLinetypeTableRecord
70
0
2
ByLayer
3

72
65
73
0
40
0
0
LTYPE
5
16
100
AcDbSymbolTableRecord
100
AcDbLinetypeTableRecord
70
0
2
CONTINUOUS
3
Solid line
72
65
73
0
40
0
0
LTYPE
5
6A
100
AcDbSymbolTableRecord
100
AcDbLinetypeTableRecord
70
0
2
CENTER
3
____ _ ____ _ ____ _ ____
72
65
73
4
40
47.5
49
22
74
0
49
-8.5
74
0
49
8.5
74
0
49
-8.5
74
0
0
LTYPE
5
6B
100
AcDbSymbolTableRecord
100
AcDbLinetypeTableRecord
70
0
2
DASHED
3
__ __ __ __ __ __ __ __ __
72
65
73
2
40
25.72
49
12.86
74
0
49
-12.86
74
0
0
ENDTAB
0
TABLE
2
LAYER
5
186
100
AcDbSymbolTable
0
LAYER
5
10
100
AcDbSymbolTableRecord
100
AcDbLayerTableRecord
2
0
70
0
62
7
6
CONTINUOUS
290
1
370
-3
390
0
0
LAYER
5
6D
100
AcDbSymbolTableRecord
100
AcDbLayerTableRecord
2
81
70
0
62
-3
6
CONTINUOUS
290
1
370
-3
390
0
0
LAYER
5
6F
100
AcDbSymbolTableRecord
100
AcDbLayerTableRecord
2
80
70
0
62
-6
6
CONTINUOUS
290
1
370
-3
390
0
0
LAYER
5
71
100
AcDbSymbolTableRecord
100
AcDbLayerTableRecord
2
1
70
0
62
4
6
CONTINUOUS
290
1
370
-3
390
0
0
LAYER
5
EF
100
AcDbSymbolTableRecord
100
AcDbLayerTableRecord
2
2
70
0
62
7
6
CONTINUOUS
290
1
370
-3
390
0
0
LAYER
5
171
100
AcDbSymbolTableRecord
100
AcDbLayerTableRecord
2
SK1
70
0
62
4
6
CONTINUOUS
290
1
370
-3
390
0
0
LAYER
5
172
100
AcDbSymbolTableRecord
100
AcDbLayerTableRecord
2
SK6
70
0
62
5
6
CONTINUOUS
290
1
370
-3
390
0
0
LAYER
5
173
100
AcDbSymbolTableRecord
100
AcDbLayerTableRecord
2
SK2
70
0
62
7
6
CONTINUOUS
290
1
370
-3
390
0
0
ENDTAB
0
TABLE
2
STYLE
5
187
100
AcDbSymbolTable
0
STYLE
5
11
100
AcDbSymbolTableRecord
100
AcDbTextStyleTableRecord
2
Standard
3
txt
70
0
71
0
40
0
41
1
42
0
50
0
0
STYLE
5
D4
100
AcDbSymbolTableRecord
100
AcDbTextStyleTableRecord
2
iso_b_vert
3
simplex.shx
70
0
71
0
40
0
41
1
42
0
50
0
0
STYLE
5
D5
100
AcDbSymbolTableRecord
100
AcDbTextStyleTableRecord
2
DWGDirectTextStyle
3
simplex
70
0
71
0
40
0
41
1
42
0
50
0
0
ENDTAB
0
TABLE
2
DIMSTYLE
5
188
100
AcDbSymbolTable
100
AcDbDimStyleTable
0
DIMSTYLE
105
27
100
AcDbSymbolTableRecord
100
AcDbDimStyleTableRecord
2
Standard
70
0
3
<>
41
0.18
42
0.0625
44
0.18
140
0.18
147
0.09
73
0
74
0
77
1
271
2
275
0
278
52
280
0
340
11
0
ENDTAB
0
TABLE
2
VIEW
5
189
100
AcDbSymbolTable
0
ENDTAB
0
TABLE
2
UCS
5
18a
100
AcDbSymbolTable
0
ENDTAB
0
TABLE
2
APPID
5
18b
100
AcDbSymbolTable
0
APPID
5
12
100
AcDbSymbolTableRecord
100
AcDbRegAppTableRecord
2
ACAD
70
0
0
ENDTAB
0
TABLE
2
BLOCK_RECORD
5
18c
100
AcDbSymbolTable
0
BLOCK_RECORD
5
1F
100
AcDbSymbolTableRecord
100
AcDbBlockTableRecord
2
*Model_Space
340
0
70
0
0
BLOCK_RECORD
5
1B
100
AcDbSymbolTableRecord
100
AcDbBlockTableRecord
2
*Paper_Space
340
0
70
0
0
BLOCK_RECORD
5
23
100
AcDbSymbolTableRecord
100
AcDbBlockTableRecord
2
*Paper_Space0
340
0
70
0
0
BLOCK_RECORD
5
D7
100
AcDbSymbolTableRecord
100
AcDbBlockTableRecord
2
DimnDraft3D1
340
0
70
0
0
BLOCK_RECORD
5
E6
100
AcDbSymbolTableRecord
100
AcDbBlockTableRecord
2
_CLOSED
340
0
70
0
0
BLOCK_RECORD
5
ED
100
AcDbSymbolTableRecord
100
AcDbBlockTableRecord
2
DimnDraft3D2
340
0
70
0
0
BLOCK_RECORD
5
FC
100
AcDbSymbolTableRecord
100
AcDbBlockTableRecord
2
DimnDraft3D3
340
0
70
0
0
BLOCK_RECORD
5
10A
100
AcDbSymbolTableRecord
100
AcDbBlockTableRecord
2
DimnDraft3D4
340
0
70
0
0
ENDTAB
0
ENDSEC
0
SECTION
2
BLOCKS
0
BLOCK
5
20
100
AcDbEntity
8
0
100
AcDbBlockBegin
2
*Model_Space
70
0
10
0
20
0
30
0
3
*Model_Space
0
ENDBLK
5
21
100
AcDbEntity
8
0
100
AcDbBlockEnd
0
BLOCK
5
1C
100
AcDbEntity
8
0
100
AcDbBlockBegin
2
*Paper_Space
70
0
10
0
20
0
30
0
3
*Paper_Space
0
ENDBLK
5
1D
100
AcDbEntity
8
0
100
AcDbBlockEnd
0
BLOCK
5
24
100
AcDbEntity
8
0
100
AcDbBlockBegin
2
*Paper_Space0
70
0
10
0
20
0
30
0
3
*Paper_Space0
0
ENDBLK
5
25
100
AcDbEntity
8
0
100
AcDbBlockEnd
0
BLOCK
5
E3
100
AcDbEntity
8
0
100
AcDbBlockBegin
2
DimnDraft3D1
70
0
10
0
20
0
30
0
3
DimnDraft3D1
0
MTEXT
5
D8
100
AcDbEntity
8
SK2
62
256
6
ByLayer
370
18
48
1
60
0
100
AcDbMText
10
-4.876743
20
25.905044
30
0
210
0
220
0
230
1
1
\W0.6563;70
40
3
41
0
44
1.084337
50
0
71
8
72
5
7
iso_b_vert
0
LINE
5
DA
100
AcDbEntity
8
SK2
62
256
6
ByLayer
370
13
48
1
60
0
100
AcDbLine
10
-39.876743
20
10.129898
30
0
11
-39.876743
21
27.155044
31
0
39
0
210
0
220
0
230
1
0
LINE
5
DB
100
AcDbEntity
8
SK2
62
256
6
ByLayer
370
13
48
1
60
0
100
AcDbLine
10
30.123257
20
10.379898
30
0
11
30.123257
21
27.155044
31
0
39
0
210
0
220
0
230
1
0
LINE
5
DC
100
AcDbEntity
8
SK2
62
256
6
ByLayer
370
13
48
1
60
0
100
AcDbLine
10
-39.876743
20
25.155044
30
0
11
30.123257
21
25.155044
31
0
39
0
210
0
220
0
230
1
0
LINE
5
DD
100
AcDbEntity
8
SK2
62
256
6
ByLayer
370
13
48
1
60
0
100
AcDbLine
10
-39.876743
20
25.155044
30
0
11
-36.701745
21
25.573041
31
0
39
0
210
0
220
0
230
1
0
LINE
5
DE
100
AcDbEntity
8
SK2
62
256
6
ByLayer
370
13
48
1
60
0
100
AcDbLine
10
-39.876743
20
25.155044
30
0
11
-36.701742
21
24.737047
31
0
39
0
210
0
220
0
230
1
0
LINE
5
DF
100
AcDbEntity
8
SK2
62
256
6
ByLayer
370
13
48
1
60
0
100
AcDbLine
10
-36.701745
20
25.573041
30
0
11
-36.701742
21
24.737047
31
0
39
0
210
0
220
0
230
1
0
LINE
5
E0
100
AcDbEntity
8
SK2
62
256
6
ByLayer
370
13
48
1
60
0
100
AcDbLine
10
30.123257
20
25.155044
30
0
11
26.948258
21
24.737047
31
0
39
0
210
0
220
0
230
1
0
LINE
5
E1
100
AcDbEntity
8
SK2
62
256
6
ByLayer
370
13
48
1
60
0
100
AcDbLine
10
30.123257
20
25.155044
30
0
11
26.948255
21
25.573041
31
0
39
0
210
0
220
0
230
1
0
LINE
5
E2
100
AcDbEntity
8
SK2
62
256
6
ByLayer
370
13
48
1
60
0
100
AcDbLine
10
26.948258
20
24.737047
30
0
11
26.948255
21
25.573041
31
0
39
0
210
0
220
0
230
1
0
ENDBLK
5
E4
100
AcDbEntity
8
0
100
AcDbBlockEnd
0
BLOCK
5
E7
100
AcDbEntity
8
0
100
AcDbBlockBegin
2
_CLOSED
70
0
10
0
20
0
30
0
3
_CLOSED
0
LINE
5
E9
100
AcDbEntity
8
0
62
256
6
ByLayer
370
-2
48
1
60
0
100
AcDbLine
10
-1
20
0.166667
30
0
11
0
21
0
31
0
39
0
210
0
220
0
230
1
0
LINE
5
EA
100
AcDbEntity
8
0
62
256
6
ByLayer
370
-2
48
1
60
0
100
AcDbLine
10
0
20
0
30
0
11
-1
21
-0.166667
31
0
39
0
210
0
220
0
230
1
0
LINE
5
EB
100
AcDbEntity
8
0
62
256
6
ByLayer
370
-2
48
1
60
0
100
AcDbLine
10
-1
20
0.166667
30
0
11
-1
21
-0.166667
31
0
39
0
210
0
220
0
230
1
0
LINE
5
EC
100
AcDbEntity
8
0
62
256
6
ByLayer
370
-2
48
1
60
0
100
AcDbLine
10
0
20
0
30
0
11
-1
21
0
31
0
39
0
210
0
220
0
230
1
0
ENDBLK
5
E8
100
AcDbEntity
8
0
100
AcDbBlockEnd
0
BLOCK
5
F9
100
AcDbEntity
8
0
100
AcDbBlockBegin
2
DimnDraft3D2
70
0
10
0
20
0
30
0
3
DimnDraft3D2
0
MTEXT
5
EE
100
AcDbEntity
8
2
62
256
6
ByLayer
370
18
48
1
60
0
100
AcDbMText
10
15.061628
20
17.75899
30
0
210
0
220
0
230
1
1
\W0.6562;30
40
3
41
0
44
1.084337
50
0
71
8
72
5
7
iso_b_vert
0
LINE
5
F0
100
AcDbEntity
8
2
62
256
6
ByLayer
370
13
48
1
60
0
100
AcDbLine
10
30.123257
20
10.379898
30
0
11
30.123257
21
19.00899
31
0
39
0
210
0
220
0
230
1
0
LINE
5
F1
100
AcDbEntity
8
2
62
256
6
ByLayer
370
13
48
1
60
0
100
AcDbLine
10
0
20
9.245102
30
0
11
0
21
19.00899
31
0
39
0
210
0
220
0
230
1
0
LINE
5
F2
100
AcDbEntity
8
2
62
256
6
ByLayer
370
13
48
1
60
0
100
AcDbLine
10
30.123257
20
17.00899
30
0
11
0
21
17.00899
31
0
39
0
210
0
220
0
230
1
0
LINE
5
F3
100
AcDbEntity
8
2
62
256
6
ByLayer
370
13
48
1
60
0
100
AcDbLine
10
30.123257
20
17.00899
30
0
11
26.948258
21
16.590993
31
0
39
0
210
0
220
0
230
1
0
LINE
5
F4
100
AcDbEntity
8
2
62
256
6
ByLayer
370
13
48
1
60
0
100
AcDbLine
10
30.123257
20
17.00899
30
0
11
26.948255
21
17.426986
31
0
39
0
210
0
220
0
230
1
0
LINE
5
F5
100
AcDbEntity
8
2
62
256
6
ByLayer
370
13
48
1
60
0
100
AcDbLine
10
26.948258
20
16.590993
30
0
11
26.948255
21
17.426986
31
0
39
0
210
0
220
0
230
1
0
LINE
5
F6
100
AcDbEntity
8
2
62
256
6
ByLayer
370
13
48
1
60
0
100
AcDbLine
10
0
20
17.00899
30
0
11
3.174998
21
17.426986
31
0
39
0
210
0
220
0
230
1
0
LINE
5
F7
100
AcDbEntity
8
2
62
256
6
ByLayer
370
13
48
1
60
0
100
AcDbLine
10
0
20
17.00899
30
0
11
3.175002
21
16.590993
31
0
39
0
210
0
220
0
230
1
0
LINE
5
F8
100
AcDbEntity
8
2
62
256
6
ByLayer
370
13
48
1
60
0
100
AcDbLine
10
3.174998
20
17.426986
30
0
11
3.175002
21
16.590993
31
0
39
0
210
0
220
0
230
1
0
ENDBLK
5
FA
100
AcDbEntity
8
0
100
AcDbBlockEnd
0
BLOCK
5
107
100
AcDbEntity
8
0
100
AcDbBlockBegin
2
DimnDraft3D3
70
0
10
0
20
0
30
0
3
DimnDraft3D3
0
MTEXT
5
FD
100
AcDbEntity
8
2
62
256
6
ByLayer
370
18
48
1
60
0
100
AcDbMText
10
40.157735
20
0.442398
30
0
210
0
220
0
230
1
1
\W0.6869;15.875
40
3
41
0
44
1.084337
50
90
71
8
72
5
7
iso_b_vert
0
LINE
5
FE
100
AcDbEntity
8
2
62
256
6
ByLayer
370
13
48
1
60
0
100
AcDbLine
10
32.123257
20
8.379898
30
0
11
42.907735
21
8.379898
31
0
39
0
210
0
220
0
230
1
0
LINE
5
FF
100
AcDbEntity
8
2
62
256
6
ByLayer
370
13
48
1
60
0
100
AcDbLine
10
12.272148
20
-7.495102
30
0
11
42.907735
21
-7.495102
31
0
39
0
210
0
220
0
230
1
0
LINE
5
100
100
AcDbEntity
8
2
62
256
6
ByLayer
370
13
48
1
60
0
100
AcDbLine
10
40.907735
20
15.879898
30
0
11
40.907735
21
-14.995102
31
0
39
0
210
0
220
0
230
1
0
LINE
5
101
100
AcDbEntity
8
2
62
256
6
ByLayer
370
13
48
1
60
0
100
AcDbLine
10
40.907735
20
8.379898
30
0
11
40.489739
21
11.554897
31
0
39
0
210
0
220
0
230
1
0
LINE
5
102
100
AcDbEntity
8
2
62
256
6
ByLayer
370
13
48
1
60
0
100
AcDbLine
10
40.907735
20
8.379898
30
0
11
41.325732
21
11.5549
31
0
39
0
210
0
220
0
230
1
0
LINE
5
103
100
AcDbEntity
8
2
62
256
6
ByLayer
370
13
48
1
60
0
100
AcDbLine
10
40.489739
20
11.554897
30
0
11
41.325732
21
11.5549
31
0
39
0
210
0
220
0
230
1
0
LINE
5
104
100
AcDbEntity
8
2
62
256
6
ByLayer
370
13
48
1
60
0
100
AcDbLine
10
40.907735
20
-7.495102
30
0
11
41.325732
21
-10.6701
31
0
39
0
210
0
220
0
230
1
0
LINE
5
105
100
AcDbEntity
8
2
62
256
6
ByLayer
370
13
48
1
60
0
100
AcDbLine
10
40.907735
20
-7.495102
30
0
11
40.489739
21
-10.670103
31
0
39
0
210
0
220
0
230
1
0
LINE
5
106
100
AcDbEntity
8
2
62
256
6
ByLayer
370
13
48
1
60
0
100
AcDbLine
10
41.325732
20
-10.6701
30
0
11
40.489739
21
-10.670103
31
0
39
0
210
0
220
0
230
1
0
ENDBLK
5
108
100
AcDbEntity
8
0
100
AcDbBlockEnd
0
BLOCK
5
115
100
AcDbEntity
8
0
100
AcDbBlockBegin
2
DimnDraft3D4
70
0
10
0
20
0
30
0
3
DimnDraft3D4
0
MTEXT
5
10B
100
AcDbEntity
8
SK2
62
256
6
ByLayer
370
18
48
1
60
0
100
AcDbMText
10
-56.221044
20
0.442398
30
0
210
0
220
0
230
1
1
\W0.6869;15.875
40
3
41
0
44
1.084337
50
90
71
8
72
5
7
iso_b_vert
0
LINE
5
10C
100
AcDbEntity
8
SK2
62
256
6
ByLayer
370
13
48
1
60
0
100
AcDbLine
10
-38.876743
20
-7.495102
30
0
11
-57.471044
21
-7.495102
31
0
39
0
210
0
220
0
230
1
0
LINE
5
10D
100
AcDbEntity
8
SK2
62
256
6
ByLayer
370
13
48
1
60
0
100
AcDbLine
10
-41.626743
20
8.379898
30
0
11
-57.471044
21
8.379898
31
0
39
0
210
0
220
0
230
1
0
LINE
5
10E
100
AcDbEntity
8
SK2
62
256
6
ByLayer
370
13
48
1
60
0
100
AcDbLine
10
-55.471044
20
-14.995102
30
0
11
-55.471044
21
15.879898
31
0
39
0
210
0
220
0
230
1
0
LINE
5
10F
100
AcDbEntity
8
SK2
62
256
6
ByLayer
370
13
48
1
60
0
100
AcDbLine
10
-55.471044
20
-7.495102
30
0
11
-55.053048
21
-10.6701
31
0
39
0
210
0
220
0
230
1
0
LINE
5
110
100
AcDbEntity
8
SK2
62
256
6
ByLayer
370
13
48
1
60
0
100
AcDbLine
10
-55.471044
20
-7.495102
30
0
11
-55.889041
21
-10.670103
31
0
39
0
210
0
220
0
230
1
0
LINE
5
111
100
AcDbEntity
8
SK2
62
256
6
ByLayer
370
13
48
1
60
0
100
AcDbLine
10
-55.053048
20
-10.6701
30
0
11
-55.889041
21
-10.670103
31
0
39
0
210
0
220
0
230
1
0
LINE
5
112
100
AcDbEntity
8
SK2
62
256
6
ByLayer
370
13
48
1
60
0
100
AcDbLine
10
-55.471044
20
8.379898
30
0
11
-55.889041
21
11.554897
31
0
39
0
210
0
220
0
230
1
0
LINE
5
113
100
AcDbEntity
8
SK2
62
256
6
ByLayer
370
13
48
1
60
0
100
AcDbLine
10
-55.471044
20
8.379898
30
0
11
-55.053048
21
11.5549
31
0
39
0
210
0
220
0
230
1
0
LINE
5
114
100
AcDbEntity
8
SK2
62
256
6
ByLayer
370
13
48
1
60
0
100
AcDbLine
10
-55.889041
20
11.554897
30
0
11
-55.053048
21
11.5549
31
0
39
0
210
0
220
0
230
1
0
ENDBLK
5
116
100
AcDbEntity
8
0
100
AcDbBlockEnd
0
ENDSEC
0
SECTION
2
ENTITIES
0
ARC
5
9E
100
AcDbEntity
8
1
62
256
6
ByLayer
370
18
48
1
60
0
100
AcDbCircle
39
0
10
-3.065864
20
-2.22798
30
0
40
1.4
210
0
220
0
230
-1
100
AcDbArc
50
254.776551
51
129.793812
0
ARC
5
A0
100
AcDbEntity
8
1
62
256
6
ByLayer
370
18
48
1
60
0
100
AcDbCircle
39
0
10
3.065864
20
-2.22798
30
0
40
1.4
210
0
220
0
230
1
100
AcDbArc
50
290.738453
51
350.795234
0
ARC
5
A1
100
AcDbEntity
8
1
62
256
6
ByLayer
370
18
48
1
60
0
100
AcDbCircle
39
0
10
4.766773
20
-2.644199
30
0
40
1.62826452029388
210
0
220
0
230
1
100
AcDbArc
50
215.03092
51
308
0
ARC
5
A4
100
AcDbEntity
8
1
62
256
6
ByLayer
370
18
48
1
60
0
100
AcDbCircle
39
0
10
-16.947346
20
2.962093
30
0
40
1.6765
210
0
220
0
230
-1
100
AcDbArc
50
99.659887
51
159.5
0
ARC
5
A5
100
AcDbEntity
8
1
62
256
6
ByLayer
370
18
48
1
60
0
100
AcDbCircle
39
0
10
-16.947346
20
2.962093
30
0
40
1.6765
210
0
220
0
230
-1
100
AcDbArc
50
39.340113
51
99.659887
0
ARC
5
A6
100
AcDbEntity
8
1
62
256
6
ByLayer
370
18
48
1
60
0
100
AcDbCircle
39
0
10
16.947346
20
2.962093
30
0
40
1.2065
210
0
220
0
230
1
100
AcDbArc
50
170.579943
51
230.420057
0
ARC
5
A7
100
AcDbEntity
8
1
62
256
6
ByLayer
370
18
48
1
60
0
100
AcDbCircle
39
0
10
16.947346
20
2.962093
30
0
40
1.2065
210
0
220
0
230
1
100
AcDbArc
50
114.455279
51
170.579943
0
ARC
5
A8
100
AcDbEntity
8
1
62
256
6
ByLayer
370
18
48
1
60
0
100
AcDbCircle
39
0
10
16.947346
20
2.962093
30
0
40
1.2065
210
0
220
0
230
1
100
AcDbArc
50
350.579943
51
50.420057
0
ARC
5
A9
100
AcDbEntity
8
1
62
256
6
ByLayer
370
18
48
1
60
0
100
AcDbCircle
39
0
10
-16.947346
20
2.962093
30
0
40
1.2065
210
0
220
0
230
-1
100
AcDbArc
50
189.420057
51
245.544721
0
ARC
5
AA
100
AcDbEntity
8
1
62
256
6
ByLayer
370
18
48
1
60
0
100
AcDbCircle
39
0
10
16.947346
20
2.962093
30
0
40
1.2065
210
0
220
0
230
1
100
AcDbArc
50
50.420057
51
106.544721
0
ARC
5
AB
100
AcDbEntity
8
1
62
256
6
ByLayer
370
18
48
1
60
0
100
AcDbCircle
39
0
10
16.947346
20
2.962093
30
0
40
1.2065
210
0
220
0
230
1
100
AcDbArc
50
230.420057
51
286.544721
0
ARC
5
AC
100
AcDbEntity
8
1
62
256
6
ByLayer
370
18
48
1
60
0
100
AcDbCircle
39
0
10
-16.947346
20
2.962093
30
0
40
1.2065
210
0
220
0
230
-1
100
AcDbArc
50
65.544721
51
73.455279
0
ARC
5
AD
100
AcDbEntity
8
1
62
256
6
ByLayer
370
18
48
1
60
0
100
AcDbCircle
39
0
10
-16.947346
20
2.962093
30
0
40
1.6765
210
0
220
0
230
-1
100
AcDbArc
50
339.5
51
39.340113
0
ARC
5
AE
100
AcDbEntity
8
1
62
256
6
ByLayer
370
18
48
1
60
0
100
AcDbCircle
39
0
10
-16.947346
20
2.962093
30
0
40
1.6765
210
0
220
0
230
-1
100
AcDbArc
50
159.5
51
219.340113
0
ARC
5
AF
100
AcDbEntity
8
1
62
256
6
ByLayer
370
18
48
1
60
0
100
AcDbCircle
39
0
10
-16.947346
20
2.962093
30
0
40
1.6765
210
0
220
0
230
-1
100
AcDbArc
50
279.659887
51
339.5
0
ARC
5
B0
100
AcDbEntity
8
1
62
256
6
ByLayer
370
18
48
1
60
0
100
AcDbCircle
39
0
10
-16.947346
20
2.962093
30
0
40
1.2065
210
0
220
0
230
-1
100
AcDbArc
50
245.544721
51
253.455279
0
ARC
5
B1
100
AcDbEntity
8
1
62
256
6
ByLayer
370
18
48
1
60
0
100
AcDbCircle
39
0
10
-16.947346
20
2.962093
30
0
40
1.6765
210
0
220
0
230
-1
100
AcDbArc
50
219.340113
51
279.659887
0
ARC
5
B3
100
AcDbEntity
8
1
62
256
6
ByLayer
370
18
48
1
60
0
100
AcDbCircle
39
0
10
4.766773
20
-2.644199
30
0
40
1.5
210
0
220
0
230
1
100
AcDbArc
50
216.53974
51
308
0
ARC
5
B4
100
AcDbEntity
8
SK1
62
256
6
ByLayer
370
18
48
1
60
0
100
AcDbCircle
39
0
10
2.823257
20
11.37175
30
0
40
5
210
0
220
0
230
1
100
AcDbArc
50
220.418845
51
235.621918
0
ARC
5
B5
100
AcDbEntity
8
1
62
256
6
ByLayer
370
18
48
1
60
0
100
AcDbCircle
39
0
10
-2.823257
20
11.37175
30
0
40
5
210
0
220
0
230
-1
100
AcDbArc
50
267
51
298.594909
0
CIRCLE
5
9D
100
AcDbEntity
8
1
62
256
6
ByLayer
370
18
48
1
60
0
100
AcDbCircle
10
-16.947346
20
2.962093
30
0
40
3
39
0
210
0
220
0
230
-1
0
CIRCLE
5
9F
100
AcDbEntity
8
1
62
256
6
ByLayer
370
18
48
1
60
0
100
AcDbCircle
10
-16.947346
20
2.962093
30
0
40
2.94445165909343
39
0
210
0
220
0
230
-1
0
CIRCLE
5
A2
100
AcDbEntity
8
1
62
256
6
ByLayer
370
18
48
1
60
0
100
AcDbCircle
10
-16.947346
20
2.962093
30
0
40
2.625
39
0
210
0
220
0
230
-1
0
CIRCLE
5
A3
100
AcDbEntity
8
1
62
256
6
ByLayer
370
18
48
1
60
0
100
AcDbCircle
10
-16.947346
20
2.962093
30
0
40
1.8
39
0
210
0
220
0
230
-1
0
CIRCLE
5
B2
100
AcDbEntity
8
1
62
256
6
ByLayer
370
18
48
1
60
0
100
AcDbCircle
10
-16.947346
20
2.962093
30
0
40
3.04453416176668
39
0
210
0
220
0
230
-1
0
ELLIPSE
5
B6
100
AcDbEntity
8
1
62
256
6
ByLayer
370
18
48
1
60
0
100
AcDbEllipse
10
4.568094
20
-1.666319
30
0
11
-0.746558599125103
21
-0.279126822550513
31
0
210
0
220
0
230
-1
40
0.996195
41
-1.14164284817878
42
1.14164284817446
0
ELLIPSE
5
B7
100
AcDbEntity
8
1
62
256
6
ByLayer
370
18
48
1
60
0
100
AcDbEllipse
10
29.326598
20
7.590506
30
0
11
0.746558599125103
21
0.279126822550513
31
0
210
0
220
0
230
-1
40
0.996195
41
-1.14164284817922
42
1.14164284817386
0
ELLIPSE
5
B8
100
AcDbEntity
8
1
62
256
6
ByLayer
370
18
48
1
60
0
100
AcDbEllipse
10
18.548706
20
-1.32094
30
0
11
0.140671130879121
21
-0.376242030224291
31
0
210
0
220
0
230
1
40
0.995819
41
-0.304233038584729
42
0.304233038584706
0
ELLIPSE
5
B9
100
AcDbEntity
8
1
62
256
6
ByLayer
370
18
48
1
60
0
100
AcDbEllipse
10
0.430187
20
-7.305102
30
0
11
-0.371956652829962
21
-0.147133438937744
31
0
210
0
220
0
230
1
40
1
41
-0.11487881897589
42
0.118285824782054
0
ELLIPSE
5
BA
100
AcDbEntity
8
1
62
256
6
ByLayer
370
18
48
1
60
0
100
AcDbEllipse
10
2.823259
20
11.371753
30
0
11
-2.81082728357557
21
-4.13512838989172
31
0
210
0
220
0
230
1
40
1
41
-0.00300937840082155
42
0.00757060878755802
0
ELLIPSE
5
BB
100
AcDbEntity
8
SK1
62
256
6
ByLayer
370
18
48
1
60
0
100
AcDbEllipse
10
2.823257
20
11.37175
30
0
11
3.12511523477727
21
-3.90303145257502
31
0
210
0
220
0
230
1
40
1
41
-1.60449180449196
42
-1.5405154673343
0
ELLIPSE
5
BC
100
AcDbEntity
8
1
62
256
6
ByLayer
370
18
48
1
60
0
100
AcDbEllipse
10
15.345985
20
7.245126
30
0
11
-0.140671130879122
21
0.37624203022429
31
0
210
0
220
0
230
1
40
0.995819
41
-0.304233038584731
42
0.304233038584723
0
POINT
5
6C
100
AcDbEntity
8
81
62
256
6
ByLayer
370
18
48
1
60
0
100
AcDbPoint
10
30.123257
20
8.379898
30
0
39
0
210
0
220
0
230
1
50
360
0
POINT
5
6E
100
AcDbEntity
8
80
62
256
6
ByLayer
370
18
48
1
60
0
100
AcDbPoint
10
0
20
0
30
0
39
0
210
0
220
0
230
1
50
360
0
SPLINE
5
BD
100
AcDbEntity
8
1
62
256
6
ByLayer
370
18
48
1
60
0
100
AcDbSpline
70
4
71
3
72
16
73
12
40
0
40
0
40
0
40
0
40
0.062445008261402
40
0.062445008261402
40
0.283207995985756
40
0.283207995985756
40
0.506745688833501
40
0.506745688833501
40
0.744607284736919
40
0.744607284736919
40
1
40
1
40
1
40
1
41
1
10
17.2286610055381
20
4.61482237370328
30
0
41
1
10
17.220346903461
20
4.61623753904766
30
0
41
1
10
17.2119618003594
20
4.61729314653132
30
0
41
1
10
17.1740698557438
20
4.62040500992296
30
0
41
1
10
17.1439087345801
20
4.61822586423102
30
0
41
1
10
17.08668813637
20
4.60533484105451
30
0
41
1
10
17.0589388960699
20
4.59437511651305
30
0
41
1
10
17.0077005723373
20
4.56491450697189
30
0
41
1
10
16.9839408191616
20
4.54563419176597
30
0
41
1
10
16.9428954423467
20
4.50073485838206
30
0
41
1
10
16.925696127723
20
4.47423449200542
30
0
41
1
10
16.9132495345537
20
4.44649304539689
30
0
0
SPLINE
5
BE
100
AcDbEntity
8
1
62
256
6
ByLayer
370
18
48
1
60
0
100
AcDbSpline
70
4
71
3
72
14
73
10
40
0
40
0
40
0
40
0
40
0.283961749036714
40
0.283961749036714
40
0.570285189259028
40
0.570285189259028
40
0.829451094335682
40
0.829451094335682
40
1
40
1
40
1
40
1
41
1
10
17.4703189756078
20
4.35495310567495
30
0
41
1
10
17.4671052089231
20
4.38832506525361
30
0
41
1
10
17.4578976856923
20
4.42218203965282
30
0
41
1
10
17.4275501788117
20
4.48522517514942
30
0
41
1
10
17.4057853027289
20
4.5153193620967
30
0
41
1
10
17.3546924274726
20
4.56304208248588
30
0
41
1
10
17.3254649063083
20
4.58225859197759
30
0
41
1
10
17.2732017887502
20
4.60449632851032
30
0
41
1
10
17.2510683572766
20
4.6110083589912
30
0
41
1
10
17.2286610055381
20
4.61482237370328
30
0
0
SPLINE
5
BF
100
AcDbEntity
8
1
62
256
6
ByLayer
370
18
48
1
60
0
100
AcDbSpline
70
4
71
3
72
18
73
14
40
0
40
0
40
0
40
0
40
0.212491695755302
40
0.212491695755302
40
0.386618276853805
40
0.386618276853805
40
0.562426360907933
40
0.562426360907933
40
0.715388416645937
40
0.715388416645937
40
0.918249208689863
40
0.918249208689863
40
1
40
1
40
1
40
1
41
1
10
17.4703189756078
20
4.35495310567495
30
0
41
1
10
17.4771223261268
20
4.28430667710848
30
0
41
1
10
17.4952883531069
20
4.2123476589756
30
0
41
1
10
17.5503451046719
20
4.08756377759835
30
0
41
1
10
17.58403146748
20
4.03228704259666
30
0
41
1
10
17.6669193175896
20
3.93244925014565
30
0
41
1
10
17.7176418307421
20
3.88663847749797
30
0
41
1
10
17.8200860200324
20
3.8182474145444
30
0
41
1
10
17.8719940631876
20
3.79253362793335
30
0
41
1
10
17.993183568838
20
3.74962255071233
30
0
41
1
10
18.0646291499969
20
3.73696301209364
30
0
41
1
10
18.1616263745676
20
3.73418906056486
30
0
41
1
10
18.1895158595669
20
3.73511993526293
30
0
41
1
10
18.2169960283269
20
3.73768825997686
30
0
0
SPLINE
5
C0
100
AcDbEntity
8
1
62
256
6
ByLayer
370
18
48
1
60
0
100
AcDbSpline
70
4
71
3
72
12
73
8
40
0
40
0
40
0
40
0
40
0.422118633920707
40
0.422118633920707
40
0.843213619146828
40
0.843213619146828
40
1
40
1
40
1
40
1
41
1
10
16.6037782390492
20
4.11864134631509
30
0
41
1
10
16.6640675609838
20
4.14998315821424
30
0
41
1
10
16.7193663571879
20
4.1905086121271
30
0
41
1
10
16.8122211169964
20
4.28085494201846
30
0
41
1
10
16.8512264799079
20
4.33178016997903
30
0
41
1
10
16.8934747865955
20
4.40519888018338
30
0
41
1
10
16.9039151116337
20
4.42568812379838
30
0
41
1
10
16.9132495345537
20
4.44649304539689
30
0
0
SPLINE
5
C1
100
AcDbEntity
8
1
62
256
6
ByLayer
370
18
48
1
60
0
100
AcDbSpline
70
4
71
3
72
12
73
8
40
0
40
0
40
0
40
0
40
0.495779676780359
40
0.495779676780359
40
0.900233025448797
40
0.900233025448797
40
1
40
1
40
1
40
1
41
1
10
15.9992242479021
20
4.10475299405613
30
0
41
1
10
16.0639513504116
20
4.07479559642516
30
0
41
1
10
16.1355840192565
20
4.05408620850412
30
0
41
1
10
16.2714750823521
20
4.03874184212685
30
0
41
1
10
16.3362061955308
20
4.03999305735786
30
0
41
1
10
16.4160348447877
20
4.05328958379528
30
0
41
1
10
16.4320044694711
20
4.05653198767973
30
0
41
1
10
16.4478752667758
20
4.0603516134959
30
0
0
SPLINE
5
C2
100
AcDbEntity
8
1
62
256
6
ByLayer
370
18
48
1
60
0
100
AcDbSpline
70
4
71
3
72
16
73
12
40
0
40
0
40
0
40
0
40
0.0569446172824999
40
0.0569446172824999
40
0.279906644834072
40
0.279906644834072
40
0.505321967306684
40
0.505321967306684
40
0.744915047128813
40
0.744915047128813
40
1
40
1
40
1
40
1
41
1
10
15.6507462133587
20
4.02486420737495
30
0
41
1
10
15.6459136696767
20
4.01896841912981
30
0
41
1
10
15.6413079945548
20
4.01287744120881
30
0
41
1
10
15.6200330004294
20
3.98232626676435
30
0
41
1
10
15.6067538601715
20
3.95512567277311
30
0
41
1
10
15.589162865782
20
3.89915034155402
30
0
41
1
10
15.5847049000352
20
3.86965563154232
30
0
41
1
10
15.5844488075918
20
3.81059218920703
30
0
41
1
10
15.5891779585483
20
3.78039584580938
30
0
41
1
10
15.6072731394798
20
3.7226587608049
30
0
41
1
10
15.6213619846567
20
3.69472031571695
30
0
41
1
10
15.638854207857
20
3.67019648799678
30
0
0
SPLINE
5
C3
100
AcDbEntity
8
1
62
256
6
ByLayer
370
18
48
1
60
0
100
AcDbSpline
70
4
71
3
72
14
73
10
40
0
40
0
40
0
40
0
40
0.282169922576107
40
0.282169922576107
40
0.566902245317967
40
0.566902245317967
40
0.824523972080263
40
0.824523972080263
40
1
40
1
40
1
40
1
41
1
10
15.9992242479021
20
4.10475299405613
30
0
41
1
10
15.9687389978152
20
4.11886236591621
30
0
41
1
10
15.934804623423
20
4.12802040670536
30
0
41
1
10
15.8649176001224
20
4.13363784061937
30
0
41
1
10
15.827860244854
20
4.13000562133021
30
0
41
1
10
15.7607288308897
20
4.10985635319375
30
0
41
1
10
15.7293279399466
20
4.09423533503906
30
0
41
1
10
15.6830575313567
20
4.05967600517076
30
0
41
1
10
15.6657075197053
20
4.0431172641284
30
0
41
1
10
15.6507462133587
20
4.02486420737495
30
0
0
SPLINE
5
C4
100
AcDbEntity
8
1
62
256
6
ByLayer
370
18
48
1
60
0
100
AcDbSpline
70
4
71
3
72
18
73
14
40
0
40
0
40
0
40
0
40
0.212491592102414
40
0.212491592102414
40
0.386618191488472
40
0.386618191488472
40
0.56242629505081
40
0.56242629505081
40
0.715388354469454
40
0.715388354469454
40
0.918249128147155
40
0.918249128147155
40
1
40
1
40
1
40
1
41
1
10
15.4802920581361
20
2.71447657323725
30
0
41
1
10
15.537956719014
20
2.75585271862579
30
0
41
1
10
15.5910475078825
20
2.8077127916267
30
0
41
1
10
15.671277665193
20
2.9180095520266
30
0
41
1
10
15.7021468954592
20
2.97490752836373
30
0
41
1
10
15.7468252662829
20
3.09673456406449
30
0
41
1
10
15.7609507584263
20
3.16360661899731
30
0
41
1
10
15.768614045552
20
3.28654329295549
30
0
41
1
10
15.7647675137934
20
3.34434336445563
30
0
41
1
10
15.7409821992608
20
3.4706862113608
30
0
41
1
10
15.7160326716456
20
3.53882030971908
30
0
41
1
10
15.6696982685781
20
3.62408040619718
30
0
41
1
10
15.6548813076974
20
3.64772674067885
30
0
41
1
10
15.638854207857
20
3.67019648799675
30
0
0
SPLINE
5
C5
100
AcDbEntity
8
1
62
256
6
ByLayer
370
18
48
1
60
0
100
AcDbSpline
70
4
71
3
72
14
73
10
40
0
40
0
40
0
40
0
40
0.283961457856589
40
0.283961457856589
40
0.570284934646621
40
0.570284934646621
40
0.829450869060465
40
0.829450869060465
40
1
40
1
40
1
40
1
41
1
10
15.4802920581361
20
2.71447657323725
30
0
41
1
10
15.4530524404463
20
2.69493132030937
30
0
41
1
10
15.4284048125909
20
2.66996003822848
30
0
41
1
10
15.3891430629794
20
2.61204701444785
30
0
41
1
10
15.3740578046106
20
2.57810875959441
30
0
41
1
10
15.3584652524436
20
2.5099558938555
30
0
41
1
10
15.3565344698035
20
2.47503033685337
30
0
41
1
10
15.3635648747909
20
2.41866964565509
30
0
41
1
10
15.3690545650155
20
2.39626071723151
30
0
41
1
10
15.3770146599997
20
2.37497047609324
30
0
0
SPLINE
5
C6
100
AcDbEntity
8
1
62
256
6
ByLayer
370
18
48
1
60
0
100
AcDbSpline
70
4
71
3
72
14
73
10
40
0
40
0
40
0
40
0
40
0.283961457856589
40
0.283961457856589
40
0.570284934646621
40
0.570284934646621
40
0.829450869060465
40
0.829450869060465
40
1
40
1
40
1
40
1
41
1
10
18.4143991124132
20
3.20970972831222
30
0
41
1
10
18.441638730103
20
3.2292549812401
30
0
41
1
10
18.4662863579584
20
3.25422626332102
30
0
41
1
10
18.5055481075699
20
3.31213928710164
30
0
41
1
10
18.5206333659387
20
3.34607754195505
30
0
41
1
10
18.5362259181056
20
3.41423040769399
30
0
41
1
10
18.5381567007458
20
3.44915596469613
30
0
41
1
10
18.5311262957584
20
3.50551665589438
30
0
41
1
10
18.5256366055337
20
3.52792558431796
30
0
41
1
10
18.5176765105496
20
3.54921582545623
30
0
0
SPLINE
5
C7
100
AcDbEntity
8
1
62
256
6
ByLayer
370
18
48
1
60
0
100
AcDbSpline
70
4
71
3
72
16
73
12
40
0
40
0
40
0
40
0
40
0.0630415689509303
40
0.0630415689509303
40
0.285914332024977
40
0.285914332024977
40
0.511588305408906
40
0.511588305408906
40
0.751723061839373
40
0.751723061839373
40
1
40
1
40
1
40
1
41
1
10
18.5176765105496
20
3.54921582545623
30
0
41
1
10
18.5147229827263
20
3.55711539445528
30
0
41
1
10
18.5114229018979
20
3.56489570643242
30
0
41
1
10
18.495076052425
20
3.5992215219145
30
0
41
1
10
18.4780385195774
20
3.62420480512279
30
0
41
1
10
18.4381441357436
20
3.66720263707052
30
0
41
1
10
18.4147264427357
20
3.6856890521214
30
0
41
1
10
18.3635111319729
20
3.71518964722023
30
0
41
1
10
18.3349036096136
20
3.72604625893382
30
0
41
1
10
18.2765770747858
20
3.7387342596142
30
0
41
1
10
18.2462029973416
20
3.74041797321095
30
0
41
1
10
18.216996028327
20
3.73768825997686
30
0
0
SPLINE
5
C8
100
AcDbEntity
8
1
62
256
6
ByLayer
370
18
48
1
60
0
100
AcDbSpline
70
4
71
3
72
16
73
12
40
0
40
0
40
0
40
0
40
0.0569446172824982
40
0.0569446172824982
40
0.279906644834072
40
0.279906644834072
40
0.505321967306684
40
0.505321967306684
40
0.744915047128815
40
0.744915047128815
40
1
40
1
40
1
40
1
41
1
10
18.2439449571906
20
1.89932209417455
30
0
41
1
10
18.2487775008726
20
1.90521788241969
30
0
41
1
10
18.2533831759944
20
1.91130886034065
30
0
41
1
10
18.2746581701199
20
1.94186003478512
30
0
41
1
10
18.2879373103778
20
1.96906062877636
30
0
41
1
10
18.3055283047673
20
2.02503595999548
30
0
41
1
10
18.3099862705141
20
2.05453067000718
30
0
41
1
10
18.3102423629574
20
2.11359411234247
30
0
41
1
10
18.3055132120009
20
2.14379045574009
30
0
41
1
10
18.2874180310695
20
2.20152754074456
30
0
41
1
10
18.2733291858926
20
2.22946598583255
30
0
41
1
10
18.2558369626923
20
2.25398981355269
30
0
0
SPLINE
5
C9
100
AcDbEntity
8
1
62
256
6
ByLayer
370
18
48
1
60
0
100
AcDbSpline
70
4
71
3
72
18
73
14
40
0
40
0
40
0
40
0
40
0.212491592102414
40
0.212491592102414
40
0.386618191488472
40
0.386618191488472
40
0.56242629505081
40
0.56242629505081
40
0.715388354469454
40
0.715388354469454
40
0.918249128147155
40
0.918249128147155
40
1
40
1
40
1
40
1
41
1
10
18.4143991124132
20
3.20970972831222
30
0
41
1
10
18.3567344515353
20
3.16833358292368
30
0
41
1
10
18.3036436626668
20
3.11647350992277
30
0
41
1
10
18.2234135053563
20
3.00617674952287
30
0
41
1
10
18.1925442750901
20
2.94927877318574
30
0
41
1
10
18.1478659042664
20
2.82745173748498
30
0
41
1
10
18.133740412123
20
2.76057968255219
30
0
41
1
10
18.1260771249973
20
2.63764300859401
30
0
41
1
10
18.1299236567559
20
2.57984293709387
30
0
41
1
10
18.1537089712885
20
2.45350009018867
30
0
41
1
10
18.1786584989036
20
2.38536599183038
30
0
41
1
10
18.2249929019711
20
2.30010589535232
30
0
41
1
10
18.2398098628518
20
2.27645956087062
30
0
41
1
10
18.2558369626922
20
2.25398981355272
30
0
0
SPLINE
5
CA
100
AcDbEntity
8
1
62
256
6
ByLayer
370
18
48
1
60
0
100
AcDbSpline
70
4
71
3
72
16
73
12
40
0
40
0
40
0
40
0
40
0.0630415689509294
40
0.0630415689509294
40
0.285914332024976
40
0.285914332024976
40
0.511588305408905
40
0.511588305408905
40
0.751723061839372
40
0.751723061839372
40
1
40
1
40
1
40
1
41
1
10
15.3770146599997
20
2.37497047609324
30
0
41
1
10
15.3799681878229
20
2.36707090709422
30
0
41
1
10
15.3832682686514
20
2.35929059511707
30
0
41
1
10
15.3996151181243
20
2.324964779635
30
0
41
1
10
15.4166526509719
20
2.29998149642671
30
0
41
1
10
15.4565470348057
20
2.25698366447898
30
0
41
1
10
15.4799647278135
20
2.23849724942807
30
0
41
1
10
15.5311800385764
20
2.20899665432927
30
0
41
1
10
15.5597875609357
20
2.19814004261565
30
0
41
1
10
15.6181140957635
20
2.18545204193526
30
0
41
1
10
15.6484881732077
20
2.18376832833855
30
0
41
1
10
15.6776951422223
20
2.18649804157261
30
0
0
SPLINE
5
CB
100
AcDbEntity
8
1
62
256
6
ByLayer
370
18
48
1
60
0
100
AcDbSpline
70
4
71
3
72
18
73
14
40
0
40
0
40
0
40
0
40
0.212491695755302
40
0.212491695755302
40
0.386618276853805
40
0.386618276853805
40
0.562426360907933
40
0.562426360907933
40
0.715388416645937
40
0.715388416645937
40
0.918249208689863
40
0.918249208689863
40
1
40
1
40
1
40
1
41
1
10
16.4243721949415
20
1.56923319587455
30
0
41
1
10
16.4175688444225
20
1.63987962444102
30
0
41
1
10
16.3994028174423
20
1.71183864257387
30
0
41
1
10
16.3443460658774
20
1.83662252395112
30
0
41
1
10
16.3106597030693
20
1.89189925895283
30
0
41
1
10
16.2277718529597
20
1.99173705140382
30
0
41
1
10
16.1770493398072
20
2.0375478240515
30
0
41
1
10
16.0746051505169
20
2.10593888700507
30
0
41
1
10
16.0226971073617
20
2.13165267361612
30
0
41
1
10
15.9015076017112
20
2.17456375083717
30
0
41
1
10
15.8300620205524
20
2.18722328945583
30
0
41
1
10
15.7330647959817
20
2.18999724098464
30
0
41
1
10
15.7051753109824
20
2.18906636628654
30
0
41
1
10
15.6776951422223
20
2.18649804157261
30
0
0
SPLINE
5
CC
100
AcDbEntity
8
1
62
256
6
ByLayer
370
18
48
1
60
0
100
AcDbSpline
70
4
71
3
72
14
73
10
40
0
40
0
40
0
40
0
40
0.283961749036713
40
0.283961749036713
40
0.570285189259025
40
0.570285189259025
40
0.82945109433568
40
0.82945109433568
40
1
40
1
40
1
40
1
41
1
10
16.4243721949415
20
1.56923319587455
30
0
41
1
10
16.4275859616262
20
1.53586123629586
30
0
41
1
10
16.436793484857
20
1.50200426189664
30
0
41
1
10
16.4671409917376
20
1.43896112640005
30
0
41
1
10
16.4889058678204
20
1.40886693945279
30
0
41
1
10
16.5399987430766
20
1.36114421906359
30
0
41
1
10
16.569226264241
20
1.34192770957188
30
0
41
1
10
16.621489381799
20
1.31968997303917
30
0
41
1
10
16.6436228132726
20
1.31317794255827
30
0
41
1
10
16.6660301650112
20
1.30936392784619
30
0
0
SPLINE
5
CD
100
AcDbEntity
8
1
62
256
6
ByLayer
370
18
48
1
60
0
100
AcDbSpline
70
4
71
3
72
14
73
10
40
0
40
0
40
0
40
0
40
0.282169922576107
40
0.282169922576107
40
0.566902245317965
40
0.566902245317965
40
0.824523972080262
40
0.824523972080262
40
1
40
1
40
1
40
1
41
1
10
17.8954669226472
20
1.81943330749334
30
0
41
1
10
17.9259521727341
20
1.80532393563328
30
0
41
1
10
17.9598865471263
20
1.79616589484411
30
0
41
1
10
18.0297735704268
20
1.79054846093012
30
0
41
1
10
18.0668309256952
20
1.79418068021926
30
0
41
1
10
18.1339623396596
20
1.81432994835575
30
0
41
1
10
18.1653632306027
20
1.82995096651041
30
0
41
1
10
18.2116336391926
20
1.86451029637871
30
0
41
1
10
18.228983650844
20
1.88106903742107
30
0
41
1
10
18.2439449571906
20
1.89932209417455
30
0
0
SPLINE
5
CE
100
AcDbEntity
8
1
62
256
6
ByLayer
370
18
48
1
60
0
100
AcDbSpline
70
4
71
3
72
16
73
12
40
0
40
0
40
0
40
0
40
0.0624450082614033
40
0.0624450082614033
40
0.283207995985775
40
0.283207995985775
40
0.506745688833536
40
0.506745688833536
40
0.744607284736972
40
0.744607284736972
40
1
40
1
40
1
40
1
41
1
10
16.6660301650112
20
1.30936392784619
30
0
41
1
10
16.6743442670883
20
1.30794876250181
30
0
41
1
10
16.6827293701899
20
1.30689315501817
30
0
41
1
10
16.7206213148054
20
1.30378129162651
30
0
41
1
10
16.7507824359692
20
1.30596043731845
30
0
41
1
10
16.8080030341793
20
1.31885146049498
30
0
41
1
10
16.8357522744794
20
1.32981118503642
30
0
41
1
10
16.886990598212
20
1.35927179457758
30
0
41
1
10
16.9107503513877
20
1.37855210978353
30
0
41
1
10
16.9517957282025
20
1.42345144316741
30
0
41
1
10
16.9689950428263
20
1.44995180954405
30
0
41
1
10
16.9814416359956
20
1.47769325615258
30
0
0
SPLINE
5
CF
100
AcDbEntity
8
1
62
256
6
ByLayer
370
18
48
1
60
0
100
AcDbSpline
70
4
71
3
72
12
73
8
40
0
40
0
40
0
40
0
40
0.422118633920774
40
0.422118633920774
40
0.843213619146908
40
0.843213619146908
40
1
40
1
40
1
40
1
41
1
10
17.2909129315001
20
1.80554495523441
30
0
41
1
10
17.2306236095655
20
1.77420314333523
30
0
41
1
10
17.1753248133613
20
1.73367768942237
30
0
41
1
10
17.0824700535528
20
1.64333135953098
30
0
41
1
10
17.0434646906414
20
1.59240613157041
30
0
41
1
10
17.0012163839538
20
1.51898742136606
30
0
41
1
10
16.9907760589155
20
1.49849817775109
30
0
41
1
10
16.9814416359956
20
1.47769325615261
30
0
0
SPLINE
5
D0
100
AcDbEntity
8
1
62
256
6
ByLayer
370
18
48
1
60
0
100
AcDbSpline
70
4
71
3
72
12
73
8
40
0
40
0
40
0
40
0
40
0.49577967678036
40
0.49577967678036
40
0.900233025448792
40
0.900233025448792
40
1
40
1
40
1
40
1
41
1
10
17.8954669226472
20
1.81943330749334
30
0
41
1
10
17.8307398201377
20
1.84939070512434
30
0
41
1
10
17.7591071512928
20
1.87010009304538
30
0
41
1
10
17.6232160881972
20
1.88544445942264
30
0
41
1
10
17.5584849750184
20
1.88419324419161
30
0
41
1
10
17.4786563257615
20
1.87089671775419
30
0
41
1
10
17.4626867010782
20
1.86765431386976
30
0
41
1
10
17.4468159037735
20
1.86383468805357
30
0
0
SPLINE
5
D1
100
AcDbEntity
8
1
62
256
6
ByLayer
370
18
48
1
60
0
100
AcDbSpline
70
4
71
3
72
8
73
4
40
0
40
0
40
0
40
0
40
1
40
1
40
1
40
1
41
1
10
3.43348147944136
20
-3.57885299371239
30
0
41
1
10
3.47732651169659
20
-3.56692129136209
30
0
41
1
10
3.52004941893463
20
-3.5530047790337
30
0
41
1
10
3.56160733962597
20
-3.53726946805617
30
0
0
SPLINE
5
D2
100
AcDbEntity
8
1
62
256
6
ByLayer
370
18
48
1
60
0
100
AcDbSpline
70
4
71
3
72
14
73
10
40
0
40
0
40
0
40
0
40
0.357554423738
40
0.357554423738
40
0.663634715737037
40
0.663634715737037
40
0.895581979034643
40
0.895581979034643
40
1
40
1
40
1
40
1
41
1
10
0.430187423709896
20
6.98162220545177
30
0
41
1
10
0.370500077872947
20
7.01415792293898
30
0
41
1
10
0.31040518476982
20
7.04861158508373
30
0
41
1
10
0.210190564015676
20
7.10855875518263
30
0
41
1
10
0.166834141176622
20
7.13557052884147
30
0
41
1
10
0.103949830974585
20
7.17575030574085
30
0
41
1
10
0.0805199887050492
20
7.19110164016641
30
0
41
1
10
0.0555687845851196
20
7.20761818633844
30
0
41
1
10
0.048979094668681
20
7.21201144091293
30
0
41
1
10
0.0438170931942352
20
7.2154634338504
30
0
0
LINE
5
70
100
AcDbEntity
8
1
62
256
6
ByLayer
370
18
48
1
60
1
100
AcDbLine
10
0
20
0
30
0
11
0
21
297
31
0
39
0
210
0
220
0
230
1
0
LINE
5
72
100
AcDbEntity
8
1
62
256
6
ByLayer
370
18
48
1
60
1
100
AcDbLine
10
420
20
297
30
0
11
0
21
297
31
0
39
0
210
0
220
0
230
1
0
LINE
5
73
100
AcDbEntity
8
1
62
256
6
ByLayer
370
18
48
1
60
1
100
AcDbLine
10
420
20
297
30
0
11
420
21
0
31
0
39
0
210
0
220
0
230
1
0
LINE
5
74
100
AcDbEntity
8
1
62
256
6
ByLayer
370
18
48
1
60
1
100
AcDbLine
10
0
20
0
30
0
11
420
21
0
31
0
39
0
210
0
220
0
230
1
0
LINE
5
75
100
AcDbEntity
8
80
62
256
6
ByLayer
370
18
48
1
60
0
100
AcDbLine
10
0
20
0
30
0
11
-7
21
0
31
0
39
0
210
0
220
0
230
1
0
LINE
5
76
100
AcDbEntity
8
81
62
256
6
ByLayer
370
18
48
1
60
0
100
AcDbLine
10
30.123257
20
8.379898
30
0
11
37.123257
21
8.379898
31
0
39
0
210
0
220
0
230
1
0
LINE
5
77
100
AcDbEntity
8
1
62
256
6
ByLayer
370
18
48
1
60
0
100
AcDbLine
10
5.690266
20
-3.826215
30
0
11
7.651228
21
-2.294144
31
0
39
0
210
0
220
0
230
1
0
LINE
5
78
100
AcDbEntity
8
1
62
256
6
ByLayer
370
18
48
1
60
0
100
AcDbLine
10
7.874167
20
-2.282734
30
0
11
7.874062
21
-2.282453
31
0
39
0
210
0
220
0
230
1
0
LINE
5
79
100
AcDbEntity
8
1
62
256
6
ByLayer
370
18
48
1
60
0
100
AcDbLine
10
7.874167
20
-2.282734
30
0
11
7.939757
21
-2.27901
31
0
39
0
210
0
220
0
230
1
0
LINE
5
7A
100
AcDbEntity
8
1
62
256
6
ByLayer
370
18
48
1
60
0
100
AcDbLine
10
13.513746
20
6.925153
30
0
11
13.687935
21
6.459263
31
0
39
0
210
0
220
0
230
1
0
LINE
5
7B
100
AcDbEntity
8
1
62
256
6
ByLayer
370
18
48
1
60
0
100
AcDbLine
10
13.648051
20
6.932191
30
0
11
14.339823
21
6.968446
31
0
39
0
210
0
220
0
230
1
0
LINE
5
7C
100
AcDbEntity
8
1
62
256
6
ByLayer
370
18
48
1
60
0
100
AcDbLine
10
0.430187
20
-7.495102
30
0
11
0.430187
21
6.981622
31
0
39
0
210
0
220
0
230
1
0
LINE
5
7D
100
AcDbEntity
8
1
62
256
6
ByLayer
370
18
48
1
60
0
100
AcDbLine
10
17.596296
20
-1.772851
30
0
11
17.059528
21
-2.19222
31
0
39
0
210
0
220
0
230
1
0
LINE
5
7E
100
AcDbEntity
8
1
62
256
6
ByLayer
370
18
48
1
60
0
100
AcDbLine
10
5.769233
20
-3.927289
30
0
11
5.690266
21
-3.826215
31
0
39
0
210
0
220
0
230
1
0
LINE
5
7F
100
AcDbEntity
8
1
62
256
6
ByLayer
370
18
48
1
60
0
100
AcDbLine
10
16.781788
20
-1.815623
30
0
11
16.953549
21
-2.275019
31
0
39
0
210
0
220
0
230
1
0
LINE
5
80
100
AcDbEntity
8
1
62
256
6
ByLayer
370
18
48
1
60
0
100
AcDbLine
10
13.648051
20
6.932191
30
0
11
13.793913
21
6.542066
31
0
39
0
210
0
220
0
230
1
0
LINE
5
81
100
AcDbEntity
8
1
62
256
6
ByLayer
370
18
48
1
60
0
100
AcDbLine
10
16.916092
20
-1.808582
30
0
11
17.059528
21
-2.19222
31
0
39
0
210
0
220
0
230
1
0
LINE
5
82
100
AcDbEntity
8
1
62
256
6
ByLayer
370
18
48
1
60
0
100
AcDbLine
10
0.043817
20
7.215463
30
0
11
0.043817
21
-7.40863
31
0
39
0
210
0
220
0
230
1
0
LINE
5
83
100
AcDbEntity
8
1
62
256
6
ByLayer
370
18
48
1
60
0
100
AcDbLine
10
5.769233
20
-3.927289
30
0
11
7.874167
21
-2.282734
31
0
39
0
210
0
220
0
230
1
0
LINE
5
84
100
AcDbEntity
8
SK1
62
256
6
ByLayer
370
18
48
1
60
0
100
AcDbLine
10
-39.626743
20
-4.745102
30
0
11
-39.876743
21
-4.495102
31
0
39
0
210
0
220
0
230
1
0
LINE
5
86
100
AcDbEntity
8
1
62
256
6
ByLayer
370
18
48
1
60
0
100
AcDbLine
10
0.430187
20
-7.495102
30
0
11
10.272148
21
-7.495102
31
0
39
0
210
0
220
0
230
1
0
LINE
5
87
100
AcDbEntity
8
1
62
256
6
ByLayer
370
18
48
1
60
0
100
AcDbLine
10
0.078193
20
-7.495102
30
0
11
0.430187
21
-7.495102
31
0
39
0
210
0
220
0
230
1
0
LINE
5
88
100
AcDbEntity
8
SK1
62
256
6
ByLayer
370
18
48
1
60
0
100
AcDbLine
10
0.078193
20
-7.495102
30
0
11
-36.876743
21
-7.495102
31
0
39
0
210
0
220
0
230
1
0
LINE
5
89
100
AcDbEntity
8
1
62
256
6
ByLayer
370
18
48
1
60
0
100
AcDbLine
10
29.890091
20
7.030375
30
0
11
18.795154
21
-1.63794
31
0
39
0
210
0
220
0
230
1
0
LINE
5
8A
100
AcDbEntity
8
1
62
256
6
ByLayer
370
18
48
1
60
0
100
AcDbLine
10
18.570681
20
-1.721867
30
0
11
4.510299
21
-2.458741
31
0
39
0
210
0
220
0
230
1
0
LINE
5
8B
100
AcDbEntity
8
SK1
62
256
6
ByLayer
370
18
48
1
60
0
100
AcDbLine
10
-39.876743
20
-4.495102
30
0
11
-39.876743
21
8.129898
31
0
39
0
210
0
220
0
230
1
0
LINE
5
8C
100
AcDbEntity
8
SK1
62
256
6
ByLayer
370
18
48
1
60
0
100
AcDbLine
10
-39.626743
20
8.129898
30
0
11
-39.626743
21
-4.745102
31
0
39
0
210
0
220
0
230
1
0
LINE
5
8D
100
AcDbEntity
8
1
62
256
6
ByLayer
370
18
48
1
60
0
100
AcDbLine
10
16.953549
20
-2.275019
30
0
11
10.272148
21
-7.495102
31
0
39
0
210
0
220
0
230
1
0
LINE
5
8E
100
AcDbEntity
8
1
62
256
6
ByLayer
370
18
48
1
60
0
100
AcDbLine
10
0
20
7.245102
30
0
11
0
21
-7.245102
31
0
39
0
210
0
220
0
230
1
0
LINE
5
8F
100
AcDbEntity
8
SK1
62
256
6
ByLayer
370
18
48
1
60
0
100
AcDbLine
10
-37.126743
20
-7.245102
30
0
11
-39.626743
21
-4.745102
31
0
39
0
210
0
220
0
230
1
0
LINE
5
90
100
AcDbEntity
8
1
62
256
6
ByLayer
370
18
48
1
60
0
100
AcDbLine
10
17.059528
20
-2.19222
30
0
11
16.953549
21
-2.275019
31
0
39
0
210
0
220
0
230
1
0
LINE
5
91
100
AcDbEntity
8
1
62
256
6
ByLayer
370
18
48
1
60
0
100
AcDbLine
10
0
20
-7.245102
30
0
11
0.043817
21
-7.40863
31
0
39
0
210
0
220
0
230
1
0
LINE
5
92
100
AcDbEntity
8
SK1
62
256
6
ByLayer
370
18
48
1
60
0
100
AcDbLine
10
-36.876743
20
-7.495102
30
0
11
-37.126743
21
-7.245102
31
0
39
0
210
0
220
0
230
1
0
LINE
5
93
100
AcDbEntity
8
SK1
62
256
6
ByLayer
370
18
48
1
60
0
100
AcDbLine
10
-37.126743
20
-7.245102
30
0
11
0
21
-7.245102
31
0
39
0
210
0
220
0
230
1
0
LINE
5
94
100
AcDbEntity
8
SK1
62
256
6
ByLayer
370
18
48
1
60
0
100
AcDbLine
10
-39.626743
20
8.379898
30
0
11
-1.182842
21
8.379898
31
0
39
0
210
0
220
0
230
1
0
LINE
5
95
100
AcDbEntity
8
1
62
256
6
ByLayer
370
18
48
1
60
0
100
AcDbLine
10
15.32401
20
7.646054
30
0
11
29.384392
21
8.382927
31
0
39
0
210
0
220
0
230
1
0
LINE
5
96
100
AcDbEntity
8
SK1
62
256
6
ByLayer
370
18
48
1
60
0
100
AcDbLine
10
-0.983369
20
8.129898
30
0
11
-39.626743
21
8.129898
31
0
39
0
210
0
220
0
230
1
0
LINE
5
97
100
AcDbEntity
8
1
62
256
6
ByLayer
370
18
48
1
60
0
100
AcDbLine
10
13.513746
20
6.925153
30
0
11
13.648051
21
6.932191
31
0
39
0
210
0
220
0
230
1
0
LINE
5
98
100
AcDbEntity
8
1
62
256
6
ByLayer
370
18
48
1
60
0
100
AcDbLine
10
3.084936
20
6.378602
30
0
11
13.513746
21
6.925153
31
0
39
0
210
0
220
0
230
1
0
LINE
5
99
100
AcDbEntity
8
SK1
62
256
6
ByLayer
370
18
48
1
60
0
100
AcDbLine
10
-39.876743
20
8.129898
30
0
11
-39.626743
21
8.379898
31
0
39
0
210
0
220
0
230
1
0
LINE
5
9A
100
AcDbEntity
8
SK1
62
256
6
ByLayer
370
18
48
1
60
0
100
AcDbLine
10
-39.876743
20
8.129898
30
0
11
-39.626743
21
8.129898
31
0
39
0
210
0
220
0
230
1
0
LINE
5
9B
100
AcDbEntity
8
SK1
62
256
6
ByLayer
370
18
48
1
60
0
100
AcDbLine
10
-39.626743
20
8.129898
30
0
11
-39.626743
21
8.379898
31
0
39
0
210
0
220
0
230
1
0
LINE
5
9C
100
AcDbEntity
8
1
62
256
6
ByLayer
370
18
48
1
60
0
100
AcDbLine
10
4.0046
20
-1.106188
30
0
11
15.099538
21
7.562127
31
0
39
0
210
0
220
0
230
1
0
MTEXT
5
D3
100
AcDbEntity
8
SK6
62
256
6
ByLayer
370
18
48
1
60
0
100
AcDbMText
10
-8.754511
20
-24.314604
30
0
210
0
220
0
230
1
1
\W0.8033;QS-SVJBR103X
40
3
41
0
44
1.084337
50
0
71
8
72
5
7
iso_b_vert
0
DIMENSION
5
E5
100
AcDbEntity
8
SK2
62
256
6
ByLayer
370
13
48
1
60
0
100
AcDbDimension
2
DimnDraft3D1
10
30.123257
20
25.155044
30
0
11
-6.629375
21
25.155044
31
0
70
32
71
5
72
1
41
1
210
0
220
0
230
1
3
Standard
100
AcDbAlignedDimension
13
-39.876743
23
10.129898
33
0
14
30.123257
24
10.379898
34
0
50
0
100
AcDbRotatedDimension
1001
ACAD
1000
DSTYLE
1002
{
1070
   279
1070
     0
1070
   172
1070
     1
1070
   173
1070
     1
1070
   340
1005
D4
1070
    77
1070
     1
1070
    73
1070
     0
1070
   171
1070
     3
1070
   274
1070
     4
1070
   177
1070
   254
1070
   176
1070
   254
1070
   178
1070
   254
1070
    78
1070
     8
1070
    41
1041
3.175
1070
   147
1041
1.5
1070
    42
1041
2.0
1070
    44
1041
2.0
1070
   140
1041
3.0
1070
   343
1005
E6
1070
   344
1005
E6
1002
}
0
DIMENSION
5
FB
100
AcDbEntity
8
2
62
256
6
ByLayer
370
13
48
1
60
0
100
AcDbDimension
2
DimnDraft3D2
10
0
20
17.00899
30
0
11
13.308997
21
17.00899
31
0
70
32
71
5
72
1
41
1
210
0
220
0
230
1
3
Standard
100
AcDbAlignedDimension
13
30.123257
23
10.379898
33
0
14
0
24
9.245102
34
0
50
0
100
AcDbRotatedDimension
1001
ACAD
1000
DSTYLE
1002
{
1070
   279
1070
     0
1070
   172
1070
     1
1070
   173
1070
     1
1070
   340
1005
D4
1070
   271
1070
     0
1070
    77
1070
     1
1070
    73
1070
     0
1070
   171
1070
     3
1070
   274
1070
     4
1070
   177
1070
   254
1070
   176
1070
   254
1070
   178
1070
   254
1070
    78
1070
     8
1070
    41
1041
3.175
1070
   147
1041
1.5
1070
    42
1041
2.0
1070
    44
1041
2.0
1070
   140
1041
3.0
1070
   343
1005
E6
1070
   344
1005
E6
1002
}
0
DIMENSION
5
109
100
AcDbEntity
8
2
62
256
6
ByLayer
370
13
48
1
60
0
100
AcDbDimension
2
DimnDraft3D3
10
40.907735
20
-7.495102
30
0
11
40.907735
21
-4.827339
31
0
70
32
71
5
72
1
41
1
210
0
220
0
230
1
3
Standard
100
AcDbAlignedDimension
13
32.123257
23
8.379898
33
0
14
12.272148
24
-7.495102
34
0
50
90
100
AcDbRotatedDimension
1001
ACAD
1000
DSTYLE
1002
{
1070
    74
1070
     0
1070
   279
1070
     0
1070
   172
1070
     1
1070
   173
1070
     1
1070
   340
1005
D4
1070
   271
1070
     3
1070
    77
1070
     1
1070
    73
1070
     0
1070
   171
1070
     3
1070
   274
1070
     4
1070
   177
1070
   254
1070
   176
1070
   254
1070
   178
1070
   254
1070
    78
1070
     8
1070
    41
1041
3.175
1070
   147
1041
1.5
1070
    42
1041
2.0
1070
    44
1041
2.0
1070
   140
1041
3.0
1070
   343
1005
E6
1070
   344
1005
E6
1002
}
0
DIMENSION
5
117
100
AcDbEntity
8
SK2
62
256
6
ByLayer
370
13
48
1
60
0
100
AcDbDimension
2
DimnDraft3D4
10
-55.471044
20
8.379898
30
0
11
-55.471044
21
-4.827339
31
0
70
32
71
5
72
1
41
1
210
0
220
0
230
1
3
Standard
100
AcDbAlignedDimension
13
-38.876743
23
-7.495102
33
0
14
-41.626743
24
8.379898
34
0
50
90
100
AcDbRotatedDimension
1001
ACAD
1000
DSTYLE
1002
{
1070
    74
1070
     0
1070
   279
1070
     0
1070
   172
1070
     1
1070
   173
1070
     1
1070
   340
1005
D4
1070
   271
1070
     3
1070
    77
1070
     1
1070
    73
1070
     0
1070
   171
1070
     3
1070
   274
1070
     4
1070
   177
1070
   254
1070
   176
1070
   254
1070
   178
1070
   254
1070
    78
1070
     8
1070
    41
1041
3.175
1070
   147
1041
1.5
1070
    42
1041
2.0
1070
    44
1041
2.0
1070
   140
1041
3.0
1070
   343
1005
E6
1070
   344
1005
E6
1002
}
0
ENDSEC
0
SECTION
2
OBJECTS
0
DICTIONARY
5
181
330
0
100
AcDbDictionary
280
0
281
1
3
ACAD_GROUP
350
182
3
ACAD_MLINESTYLE
350
183
0
DICTIONARY
5
182
330
0
100
AcDbDictionary
280
0
281
1
0
DICTIONARY
5
183
330
0
100
AcDbDictionary
280
0
281
1
3
Standard
350
18
0
MLINESTYLE
5
18
330
183
100
AcDbMlineStyle
2
Standard
70
0
3

62
256
51
90
52
90
71
2
49
-0.5
62
256
6
ByLayer
49
0.5
62
256
6
ByLayer
0
RASTERVARIABLES
5
170
330

100
AcDbRasterVariables
90
0
70
1
71
1
72
1
0
ENDSEC
0
EOF
