0
SECTION
2
HEADER
9
$ACADVER
1
AC1015
9
$DWGCODEPAGE
3
ANSI_1252
9
$HANDSEED
5
186
9
$ANGBASE
50
0
9
$ANGDIR
70
0
9
$ATTMODE
70
1
9
$AUNITS
70
0
9
$AUPREC
70
0
9
$CECOLOR
62
256
9
$CELTSCALE
40
1
9
$CELTYPE
6
ByLayer
9
$CELWEIGHT
370
18
9
$CLAYER
8
0
9
$CMLJUST
70
0
9
$CMLSCALE
40
1
9
$CMLSTYLE
2
Standard
9
$DIMSTYLE
2
Standard
9
$TEXTSIZE
40
0.2
9
$TEXTSTYLE
7
Standard
9
$LUNITS
70
2
9
$LUPREC
70
4
9
$EXTNAMES
290
1
9
$INSUNITS
70
4
9
$LTSCALE
40
1
9
$LWDISPLAY
290
1
9
$PDMODE
70
0
9
$PDSIZE
40
0
9
$PLINEGEN
70
0
0
ENDSEC
0
SECTION
2
CLASSES
0
CLASS
1
RASTERVARIABLES
2
AcDbRasterVariables
3
ISM
90
0
280
0
281
0
0
ENDSEC
0
SECTION
2
TABLES
0
TABLE
2
VPORT
5
17c
100
AcDbSymbolTable
0
VPORT
5
1
100
AcDbSymbolTableRecord
100
AcDbViewportTableRecord
2
*Active
70
0
10
0
20
0
11
1
21
1
12
-1
22
1
13
0
23
0
14
0.5
24
0.5
15
10
25
10
16
0
26
0
36
1
17
0
27
0
37
0
0
ENDTAB
0
TABLE
2
LTYPE
5
17d
100
AcDbSymbolTable
0
LTYPE
5
14
100
AcDbSymbolTableRecord
100
AcDbLinetypeTableRecord
70
0
2
ByBlock
3

72
65
73
0
40
0
0
LTYPE
5
15
100
AcDbSymbolTableRecord
100
AcDbLinetypeTableRecord
70
0
2
ByLayer
3

72
65
73
0
40
0
0
LTYPE
5
16
100
AcDbSymbolTableRecord
100
AcDbLinetypeTableRecord
70
0
2
CONTINUOUS
3
Solid line
72
65
73
0
40
0
0
LTYPE
5
6A
100
AcDbSymbolTableRecord
100
AcDbLinetypeTableRecord
70
0
2
CENTER
3
____ _ ____ _ ____ _ ____
72
65
73
4
40
47.5
49
22
74
0
49
-8.5
74
0
49
8.5
74
0
49
-8.5
74
0
0
LTYPE
5
6B
100
AcDbSymbolTableRecord
100
AcDbLinetypeTableRecord
70
0
2
DASHED
3
__ __ __ __ __ __ __ __ __
72
65
73
2
40
25.72
49
12.86
74
0
49
-12.86
74
0
0
ENDTAB
0
TABLE
2
LAYER
5
17e
100
AcDbSymbolTable
0
LAYER
5
10
100
AcDbSymbolTableRecord
100
AcDbLayerTableRecord
2
0
70
0
62
7
6
CONTINUOUS
290
1
370
-3
390
0
0
LAYER
5
6D
100
AcDbSymbolTableRecord
100
AcDbLayerTableRecord
2
81
70
0
62
-3
6
CONTINUOUS
290
1
370
-3
390
0
0
LAYER
5
6F
100
AcDbSymbolTableRecord
100
AcDbLayerTableRecord
2
80
70
0
62
-6
6
CONTINUOUS
290
1
370
-3
390
0
0
LAYER
5
73
100
AcDbSymbolTableRecord
100
AcDbLayerTableRecord
2
1
70
0
62
4
6
CONTINUOUS
290
1
370
-3
390
0
0
LAYER
5
E7
100
AcDbSymbolTableRecord
100
AcDbLayerTableRecord
2
2
70
0
62
7
6
CONTINUOUS
290
1
370
-3
390
0
0
LAYER
5
169
100
AcDbSymbolTableRecord
100
AcDbLayerTableRecord
2
SK1
70
0
62
4
6
CONTINUOUS
290
1
370
-3
390
0
0
LAYER
5
16a
100
AcDbSymbolTableRecord
100
AcDbLayerTableRecord
2
SK6
70
0
62
5
6
CONTINUOUS
290
1
370
-3
390
0
0
LAYER
5
16b
100
AcDbSymbolTableRecord
100
AcDbLayerTableRecord
2
SK2
70
0
62
7
6
CONTINUOUS
290
1
370
-3
390
0
0
ENDTAB
0
TABLE
2
STYLE
5
17f
100
AcDbSymbolTable
0
STYLE
5
11
100
AcDbSymbolTableRecord
100
AcDbTextStyleTableRecord
2
Standard
3
txt
70
0
71
0
40
0
41
1
42
0
50
0
0
STYLE
5
CC
100
AcDbSymbolTableRecord
100
AcDbTextStyleTableRecord
2
iso_b_vert
3
simplex.shx
70
0
71
0
40
0
41
1
42
0
50
0
0
STYLE
5
CD
100
AcDbSymbolTableRecord
100
AcDbTextStyleTableRecord
2
DWGDirectTextStyle
3
simplex
70
0
71
0
40
0
41
1
42
0
50
0
0
ENDTAB
0
TABLE
2
DIMSTYLE
5
180
100
AcDbSymbolTable
100
AcDbDimStyleTable
0
DIMSTYLE
105
27
100
AcDbSymbolTableRecord
100
AcDbDimStyleTableRecord
2
Standard
70
0
3
<>
41
0.18
42
0.0625
44
0.18
140
0.18
147
0.09
73
0
74
0
77
1
271
2
275
0
278
52
280
0
340
11
0
ENDTAB
0
TABLE
2
VIEW
5
181
100
AcDbSymbolTable
0
ENDTAB
0
TABLE
2
UCS
5
182
100
AcDbSymbolTable
0
ENDTAB
0
TABLE
2
APPID
5
183
100
AcDbSymbolTable
0
APPID
5
12
100
AcDbSymbolTableRecord
100
AcDbRegAppTableRecord
2
ACAD
70
0
0
ENDTAB
0
TABLE
2
BLOCK_RECORD
5
184
100
AcDbSymbolTable
0
BLOCK_RECORD
5
1F
100
AcDbSymbolTableRecord
100
AcDbBlockTableRecord
2
*Model_Space
340
0
70
0
0
BLOCK_RECORD
5
1B
100
AcDbSymbolTableRecord
100
AcDbBlockTableRecord
2
*Paper_Space
340
0
70
0
0
BLOCK_RECORD
5
23
100
AcDbSymbolTableRecord
100
AcDbBlockTableRecord
2
*Paper_Space0
340
0
70
0
0
BLOCK_RECORD
5
CF
100
AcDbSymbolTableRecord
100
AcDbBlockTableRecord
2
DimnDraft3D1
340
0
70
0
0
BLOCK_RECORD
5
DE
100
AcDbSymbolTableRecord
100
AcDbBlockTableRecord
2
_CLOSED
340
0
70
0
0
BLOCK_RECORD
5
E5
100
AcDbSymbolTableRecord
100
AcDbBlockTableRecord
2
DimnDraft3D2
340
0
70
0
0
BLOCK_RECORD
5
F4
100
AcDbSymbolTableRecord
100
AcDbBlockTableRecord
2
DimnDraft3D3
340
0
70
0
0
BLOCK_RECORD
5
102
100
AcDbSymbolTableRecord
100
AcDbBlockTableRecord
2
DimnDraft3D4
340
0
70
0
0
ENDTAB
0
ENDSEC
0
SECTION
2
BLOCKS
0
BLOCK
5
20
100
AcDbEntity
8
0
100
AcDbBlockBegin
2
*Model_Space
70
0
10
0
20
0
30
0
3
*Model_Space
0
ENDBLK
5
21
100
AcDbEntity
8
0
100
AcDbBlockEnd
0
BLOCK
5
1C
100
AcDbEntity
8
0
100
AcDbBlockBegin
2
*Paper_Space
70
0
10
0
20
0
30
0
3
*Paper_Space
0
ENDBLK
5
1D
100
AcDbEntity
8
0
100
AcDbBlockEnd
0
BLOCK
5
24
100
AcDbEntity
8
0
100
AcDbBlockBegin
2
*Paper_Space0
70
0
10
0
20
0
30
0
3
*Paper_Space0
0
ENDBLK
5
25
100
AcDbEntity
8
0
100
AcDbBlockEnd
0
BLOCK
5
DB
100
AcDbEntity
8
0
100
AcDbBlockBegin
2
DimnDraft3D1
70
0
10
0
20
0
30
0
3
DimnDraft3D1
0
MTEXT
5
D0
100
AcDbEntity
8
SK2
62
256
6
ByLayer
370
18
48
1
60
0
100
AcDbMText
10
-14.972865
20
23.405283
30
0
210
0
220
0
230
1
1
\W0.6563;70
40
3
41
0
44
1.084337
50
0
71
8
72
5
7
iso_b_vert
0
LINE
5
D2
100
AcDbEntity
8
SK2
62
256
6
ByLayer
370
13
48
1
60
0
100
AcDbLine
10
-49.972865
20
8.289209
30
0
11
-49.972865
21
24.655283
31
0
39
0
210
0
220
0
230
1
0
LINE
5
D3
100
AcDbEntity
8
SK2
62
256
6
ByLayer
370
13
48
1
60
0
100
AcDbLine
10
20.027135
20
8.539209
30
0
11
20.027135
21
24.655283
31
0
39
0
210
0
220
0
230
1
0
LINE
5
D4
100
AcDbEntity
8
SK2
62
256
6
ByLayer
370
13
48
1
60
0
100
AcDbLine
10
-49.972865
20
22.655283
30
0
11
20.027135
21
22.655283
31
0
39
0
210
0
220
0
230
1
0
LINE
5
D5
100
AcDbEntity
8
SK2
62
256
6
ByLayer
370
13
48
1
60
0
100
AcDbLine
10
-49.972865
20
22.655283
30
0
11
-46.797866
21
23.07328
31
0
39
0
210
0
220
0
230
1
0
LINE
5
D6
100
AcDbEntity
8
SK2
62
256
6
ByLayer
370
13
48
1
60
0
100
AcDbLine
10
-49.972865
20
22.655283
30
0
11
-46.797863
21
22.237287
31
0
39
0
210
0
220
0
230
1
0
LINE
5
D7
100
AcDbEntity
8
SK2
62
256
6
ByLayer
370
13
48
1
60
0
100
AcDbLine
10
-46.797866
20
23.07328
30
0
11
-46.797863
21
22.237287
31
0
39
0
210
0
220
0
230
1
0
LINE
5
D8
100
AcDbEntity
8
SK2
62
256
6
ByLayer
370
13
48
1
60
0
100
AcDbLine
10
20.027135
20
22.655283
30
0
11
16.852137
21
22.237287
31
0
39
0
210
0
220
0
230
1
0
LINE
5
D9
100
AcDbEntity
8
SK2
62
256
6
ByLayer
370
13
48
1
60
0
100
AcDbLine
10
20.027135
20
22.655283
30
0
11
16.852134
21
23.07328
31
0
39
0
210
0
220
0
230
1
0
LINE
5
DA
100
AcDbEntity
8
SK2
62
256
6
ByLayer
370
13
48
1
60
0
100
AcDbLine
10
16.852137
20
22.237287
30
0
11
16.852134
21
23.07328
31
0
39
0
210
0
220
0
230
1
0
ENDBLK
5
DC
100
AcDbEntity
8
0
100
AcDbBlockEnd
0
BLOCK
5
DF
100
AcDbEntity
8
0
100
AcDbBlockBegin
2
_CLOSED
70
0
10
0
20
0
30
0
3
_CLOSED
0
LINE
5
E1
100
AcDbEntity
8
0
62
256
6
ByLayer
370
-2
48
1
60
0
100
AcDbLine
10
-1
20
0.166667
30
0
11
0
21
0
31
0
39
0
210
0
220
0
230
1
0
LINE
5
E2
100
AcDbEntity
8
0
62
256
6
ByLayer
370
-2
48
1
60
0
100
AcDbLine
10
0
20
0
30
0
11
-1
21
-0.166667
31
0
39
0
210
0
220
0
230
1
0
LINE
5
E3
100
AcDbEntity
8
0
62
256
6
ByLayer
370
-2
48
1
60
0
100
AcDbLine
10
-1
20
0.166667
30
0
11
-1
21
-0.166667
31
0
39
0
210
0
220
0
230
1
0
LINE
5
E4
100
AcDbEntity
8
0
62
256
6
ByLayer
370
-2
48
1
60
0
100
AcDbLine
10
0
20
0
30
0
11
-1
21
0
31
0
39
0
210
0
220
0
230
1
0
ENDBLK
5
E0
100
AcDbEntity
8
0
100
AcDbBlockEnd
0
BLOCK
5
F1
100
AcDbEntity
8
0
100
AcDbBlockBegin
2
DimnDraft3D2
70
0
10
0
20
0
30
0
3
DimnDraft3D2
0
MTEXT
5
E6
100
AcDbEntity
8
2
62
256
6
ByLayer
370
18
48
1
60
0
100
AcDbMText
10
10.013568
20
15.89826
30
0
210
0
220
0
230
1
1
\W0.6563;20
40
3
41
0
44
1.084337
50
0
71
8
72
5
7
iso_b_vert
0
LINE
5
E8
100
AcDbEntity
8
2
62
256
6
ByLayer
370
13
48
1
60
0
100
AcDbLine
10
20.027135
20
8.539209
30
0
11
20.027135
21
17.14826
31
0
39
0
210
0
220
0
230
1
0
LINE
5
E9
100
AcDbEntity
8
2
62
256
6
ByLayer
370
13
48
1
60
0
100
AcDbLine
10
0
20
7.910791
30
0
11
0
21
17.14826
31
0
39
0
210
0
220
0
230
1
0
LINE
5
EA
100
AcDbEntity
8
2
62
256
6
ByLayer
370
13
48
1
60
0
100
AcDbLine
10
20.027135
20
15.14826
30
0
11
0
21
15.14826
31
0
39
0
210
0
220
0
230
1
0
LINE
5
EB
100
AcDbEntity
8
2
62
256
6
ByLayer
370
13
48
1
60
0
100
AcDbLine
10
20.027135
20
15.14826
30
0
11
16.852137
21
14.730264
31
0
39
0
210
0
220
0
230
1
0
LINE
5
EC
100
AcDbEntity
8
2
62
256
6
ByLayer
370
13
48
1
60
0
100
AcDbLine
10
20.027135
20
15.14826
30
0
11
16.852134
21
15.566257
31
0
39
0
210
0
220
0
230
1
0
LINE
5
ED
100
AcDbEntity
8
2
62
256
6
ByLayer
370
13
48
1
60
0
100
AcDbLine
10
16.852137
20
14.730264
30
0
11
16.852134
21
15.566257
31
0
39
0
210
0
220
0
230
1
0
LINE
5
EE
100
AcDbEntity
8
2
62
256
6
ByLayer
370
13
48
1
60
0
100
AcDbLine
10
0
20
15.14826
30
0
11
3.174998
21
15.566257
31
0
39
0
210
0
220
0
230
1
0
LINE
5
EF
100
AcDbEntity
8
2
62
256
6
ByLayer
370
13
48
1
60
0
100
AcDbLine
10
0
20
15.14826
30
0
11
3.175002
21
14.730264
31
0
39
0
210
0
220
0
230
1
0
LINE
5
F0
100
AcDbEntity
8
2
62
256
6
ByLayer
370
13
48
1
60
0
100
AcDbLine
10
3.174998
20
15.566257
30
0
11
3.175002
21
14.730264
31
0
39
0
210
0
220
0
230
1
0
ENDBLK
5
F2
100
AcDbEntity
8
0
100
AcDbBlockEnd
0
BLOCK
5
FF
100
AcDbEntity
8
0
100
AcDbBlockBegin
2
DimnDraft3D3
70
0
10
0
20
0
30
0
3
DimnDraft3D3
0
MTEXT
5
F5
100
AcDbEntity
8
2
62
256
6
ByLayer
370
18
48
1
60
0
100
AcDbMText
10
29.874923
20
0.189209
30
0
210
0
220
0
230
1
1
\W0.6367;12.7
40
3
41
0
44
1.084337
50
90
71
8
72
5
7
iso_b_vert
0
LINE
5
F6
100
AcDbEntity
8
2
62
256
6
ByLayer
370
13
48
1
60
0
100
AcDbLine
10
5.822251
20
-6.160791
30
0
11
32.624923
21
-6.160791
31
0
39
0
210
0
220
0
230
1
0
LINE
5
F7
100
AcDbEntity
8
2
62
256
6
ByLayer
370
13
48
1
60
0
100
AcDbLine
10
22.027135
20
6.539209
30
0
11
32.624923
21
6.539209
31
0
39
0
210
0
220
0
230
1
0
LINE
5
F8
100
AcDbEntity
8
2
62
256
6
ByLayer
370
13
48
1
60
0
100
AcDbLine
10
30.624923
20
-13.660791
30
0
11
30.624923
21
14.039209
31
0
39
0
210
0
220
0
230
1
0
LINE
5
F9
100
AcDbEntity
8
2
62
256
6
ByLayer
370
13
48
1
60
0
100
AcDbLine
10
30.624923
20
-6.160791
30
0
11
31.042919
21
-9.33579
31
0
39
0
210
0
220
0
230
1
0
LINE
5
FA
100
AcDbEntity
8
2
62
256
6
ByLayer
370
13
48
1
60
0
100
AcDbLine
10
30.624923
20
-6.160791
30
0
11
30.206926
21
-9.335793
31
0
39
0
210
0
220
0
230
1
0
LINE
5
FB
100
AcDbEntity
8
2
62
256
6
ByLayer
370
13
48
1
60
0
100
AcDbLine
10
31.042919
20
-9.33579
30
0
11
30.206926
21
-9.335793
31
0
39
0
210
0
220
0
230
1
0
LINE
5
FC
100
AcDbEntity
8
2
62
256
6
ByLayer
370
13
48
1
60
0
100
AcDbLine
10
30.624923
20
6.539209
30
0
11
30.206926
21
9.714207
31
0
39
0
210
0
220
0
230
1
0
LINE
5
FD
100
AcDbEntity
8
2
62
256
6
ByLayer
370
13
48
1
60
0
100
AcDbLine
10
30.624923
20
6.539209
30
0
11
31.042919
21
9.71421
31
0
39
0
210
0
220
0
230
1
0
LINE
5
FE
100
AcDbEntity
8
2
62
256
6
ByLayer
370
13
48
1
60
0
100
AcDbLine
10
30.206926
20
9.714207
30
0
11
31.042919
21
9.71421
31
0
39
0
210
0
220
0
230
1
0
ENDBLK
5
100
100
AcDbEntity
8
0
100
AcDbBlockEnd
0
BLOCK
5
10D
100
AcDbEntity
8
0
100
AcDbBlockBegin
2
DimnDraft3D4
70
0
10
0
20
0
30
0
3
DimnDraft3D4
0
MTEXT
5
103
100
AcDbEntity
8
SK2
62
256
6
ByLayer
370
18
48
1
60
0
100
AcDbMText
10
-61.170652
20
0.189209
30
0
210
0
220
0
230
1
1
\W0.6367;12.7
40
3
41
0
44
1.084337
50
90
71
8
72
5
7
iso_b_vert
0
LINE
5
104
100
AcDbEntity
8
SK2
62
256
6
ByLayer
370
13
48
1
60
0
100
AcDbLine
10
-51.722865
20
6.539209
30
0
11
-62.420652
21
6.539209
31
0
39
0
210
0
220
0
230
1
0
LINE
5
105
100
AcDbEntity
8
SK2
62
256
6
ByLayer
370
13
48
1
60
0
100
AcDbLine
10
-48.972865
20
-6.160791
30
0
11
-62.420652
21
-6.160791
31
0
39
0
210
0
220
0
230
1
0
LINE
5
106
100
AcDbEntity
8
SK2
62
256
6
ByLayer
370
13
48
1
60
0
100
AcDbLine
10
-60.420652
20
14.039209
30
0
11
-60.420652
21
-13.660791
31
0
39
0
210
0
220
0
230
1
0
LINE
5
107
100
AcDbEntity
8
SK2
62
256
6
ByLayer
370
13
48
1
60
0
100
AcDbLine
10
-60.420652
20
6.539209
30
0
11
-60.838649
21
9.714207
31
0
39
0
210
0
220
0
230
1
0
LINE
5
108
100
AcDbEntity
8
SK2
62
256
6
ByLayer
370
13
48
1
60
0
100
AcDbLine
10
-60.420652
20
6.539209
30
0
11
-60.002656
21
9.71421
31
0
39
0
210
0
220
0
230
1
0
LINE
5
109
100
AcDbEntity
8
SK2
62
256
6
ByLayer
370
13
48
1
60
0
100
AcDbLine
10
-60.838649
20
9.714207
30
0
11
-60.002656
21
9.71421
31
0
39
0
210
0
220
0
230
1
0
LINE
5
10A
100
AcDbEntity
8
SK2
62
256
6
ByLayer
370
13
48
1
60
0
100
AcDbLine
10
-60.420652
20
-6.160791
30
0
11
-60.002656
21
-9.33579
31
0
39
0
210
0
220
0
230
1
0
LINE
5
10B
100
AcDbEntity
8
SK2
62
256
6
ByLayer
370
13
48
1
60
0
100
AcDbLine
10
-60.420652
20
-6.160791
30
0
11
-60.838649
21
-9.335793
31
0
39
0
210
0
220
0
230
1
0
LINE
5
10C
100
AcDbEntity
8
SK2
62
256
6
ByLayer
370
13
48
1
60
0
100
AcDbLine
10
-60.002656
20
-9.33579
30
0
11
-60.838649
21
-9.335793
31
0
39
0
210
0
220
0
230
1
0
ENDBLK
5
10E
100
AcDbEntity
8
0
100
AcDbBlockEnd
0
ENDSEC
0
SECTION
2
ENTITIES
0
ARC
5
97
100
AcDbEntity
8
1
62
256
6
ByLayer
370
18
48
1
60
0
100
AcDbCircle
39
0
10
-19.63026
20
6.142334
30
0
40
0.396874999999999
210
0
220
0
230
-1
100
AcDbArc
50
87
51
232
0
ARC
5
9A
100
AcDbEntity
8
1
62
256
6
ByLayer
370
18
48
1
60
0
100
AcDbCircle
39
0
10
2.451291
20
-0.962016
30
0
40
1.5
210
0
220
0
230
1
100
AcDbArc
50
347.802625
51
12.30123
0
ARC
5
9B
100
AcDbEntity
8
1
62
256
6
ByLayer
370
18
48
1
60
0
100
AcDbCircle
39
0
10
-2.323029
20
-0.328575
30
0
40
0.396874999999999
210
0
220
0
230
-1
100
AcDbArc
50
267
51
52
0
ARC
5
9C
100
AcDbEntity
8
1
62
256
6
ByLayer
370
18
48
1
60
0
100
AcDbCircle
39
0
10
-10.976644
20
2.906879
30
0
40
0.747999999999999
210
0
220
0
230
-1
100
AcDbArc
50
247.338153
51
251.661847
0
ARC
5
9D
100
AcDbEntity
8
1
62
256
6
ByLayer
370
18
48
1
60
0
100
AcDbCircle
39
0
10
-10.976644
20
2.906879
30
0
40
1.035
210
0
220
0
230
-1
100
AcDbArc
50
219.450841
51
279.549159
0
ARC
5
9E
100
AcDbEntity
8
1
62
256
6
ByLayer
370
18
48
1
60
0
100
AcDbCircle
39
0
10
-2.451291
20
-0.962016
30
0
40
1.5
210
0
220
0
230
-1
100
AcDbArc
50
200.636086
51
80.099396
0
ARC
5
9F
100
AcDbEntity
8
1
62
256
6
ByLayer
370
18
48
1
60
0
100
AcDbCircle
39
0
10
2.451291
20
-0.962016
30
0
40
1.5
210
0
220
0
230
1
100
AcDbArc
50
78.403331
51
99.900604
0
ARC
5
A0
100
AcDbEntity
8
1
62
256
6
ByLayer
370
18
48
1
60
0
100
AcDbCircle
39
0
10
0.334066
20
-5.690791
30
0
40
0.399999999999994
210
0
220
0
230
1
100
AcDbArc
50
213.367013
51
270
0
ARC
5
A1
100
AcDbEntity
8
1
62
256
6
ByLayer
370
18
48
1
60
0
100
AcDbCircle
39
0
10
-10.976644
20
2.906879
30
0
40
1.035
210
0
220
0
230
-1
100
AcDbArc
50
279.549159
51
339.5
0
ARC
5
A2
100
AcDbEntity
8
1
62
256
6
ByLayer
370
18
48
1
60
0
100
AcDbCircle
39
0
10
-10.976644
20
2.906879
30
0
40
1.035
210
0
220
0
230
-1
100
AcDbArc
50
159.5
51
219.450841
0
ARC
5
A4
100
AcDbEntity
8
1
62
256
6
ByLayer
370
18
48
1
60
0
100
AcDbCircle
39
0
10
-11.996779
20
0.178405
30
0
40
0.396875
210
0
220
0
230
-1
100
AcDbArc
50
232
51
267
0
ARC
5
A5
100
AcDbEntity
8
1
62
256
6
ByLayer
370
18
48
1
60
0
100
AcDbCircle
39
0
10
-10.976644
20
2.906879
30
0
40
1.035
210
0
220
0
230
-1
100
AcDbArc
50
339.5
51
39.450841
0
ARC
5
A6
100
AcDbEntity
8
1
62
256
6
ByLayer
370
18
48
1
60
0
100
AcDbCircle
39
0
10
-10.976644
20
2.906879
30
0
40
0.747999999999999
210
0
220
0
230
-1
100
AcDbArc
50
67.338153
51
71.661847
0
ARC
5
A7
100
AcDbEntity
8
1
62
256
6
ByLayer
370
18
48
1
60
0
100
AcDbCircle
39
0
10
10.976644
20
2.906879
30
0
40
0.747999999999999
210
0
220
0
230
1
100
AcDbArc
50
230.475421
51
288.338153
0
ARC
5
AA
100
AcDbEntity
8
1
62
256
6
ByLayer
370
18
48
1
60
0
100
AcDbCircle
39
0
10
-10.976644
20
2.906879
30
0
40
1.035
210
0
220
0
230
-1
100
AcDbArc
50
99.549159
51
159.5
0
ARC
5
AB
100
AcDbEntity
8
1
62
256
6
ByLayer
370
18
48
1
60
0
100
AcDbCircle
39
0
10
-10.976644
20
2.906879
30
0
40
1.035
210
0
220
0
230
-1
100
AcDbArc
50
39.450841
51
99.549159
0
ARC
5
AC
100
AcDbEntity
8
1
62
256
6
ByLayer
370
18
48
1
60
0
100
AcDbCircle
39
0
10
10.976644
20
2.906879
30
0
40
0.747999999999999
210
0
220
0
230
1
100
AcDbArc
50
170.524579
51
230.475421
0
ARC
5
AD
100
AcDbEntity
8
1
62
256
6
ByLayer
370
18
48
1
60
0
100
AcDbCircle
39
0
10
10.976644
20
2.906879
30
0
40
0.747999999999999
210
0
220
0
230
1
100
AcDbArc
50
112.661847
51
170.524579
0
ARC
5
AE
100
AcDbEntity
8
1
62
256
6
ByLayer
370
18
48
1
60
0
100
AcDbCircle
39
0
10
10.976644
20
2.906879
30
0
40
0.747999999999999
210
0
220
0
230
1
100
AcDbArc
50
350.524579
51
50.475421
0
ARC
5
AF
100
AcDbEntity
8
1
62
256
6
ByLayer
370
18
48
1
60
0
100
AcDbCircle
39
0
10
-10.976644
20
2.906879
30
0
40
0.747999999999999
210
0
220
0
230
-1
100
AcDbArc
50
189.475421
51
247.338153
0
ARC
5
B0
100
AcDbEntity
8
1
62
256
6
ByLayer
370
18
48
1
60
0
100
AcDbCircle
39
0
10
10.976644
20
2.906879
30
0
40
0.747999999999999
210
0
220
0
230
1
100
AcDbArc
50
50.475421
51
108.338153
0
ARC
5
B1
100
AcDbEntity
8
SK1
62
256
6
ByLayer
370
18
48
1
60
0
100
AcDbCircle
39
0
10
2.527135
20
10.225138
30
0
40
5
210
0
220
0
230
1
100
AcDbArc
50
231.923301
51
239.640297
0
ARC
5
B2
100
AcDbEntity
8
1
62
256
6
ByLayer
370
18
48
1
60
0
100
AcDbCircle
39
0
10
-2.527135
20
10.225138
30
0
40
5
210
0
220
0
230
-1
100
AcDbArc
50
267
51
296.015472
0
ARC
5
B3
100
AcDbEntity
8
1
62
256
6
ByLayer
370
18
48
1
60
0
100
AcDbCircle
39
0
10
-9.95651
20
5.635354
30
0
40
0.396875
210
0
220
0
230
-1
100
AcDbArc
50
52
51
87
0
CIRCLE
5
98
100
AcDbEntity
8
1
62
256
6
ByLayer
370
18
48
1
60
0
100
AcDbCircle
10
-10.976644
20
2.906879
30
0
40
1.88122167929295
39
0
210
0
220
0
230
-1
0
CIRCLE
5
99
100
AcDbEntity
8
1
62
256
6
ByLayer
370
18
48
1
60
0
100
AcDbCircle
10
10.976644
20
2.906879
30
0
40
1.8014146404184
39
0
210
0
220
0
230
1
0
CIRCLE
5
A3
100
AcDbEntity
8
1
62
256
6
ByLayer
370
18
48
1
60
0
100
AcDbCircle
10
10.976644
20
2.906879
30
0
40
1.90468944117779
39
0
210
0
220
0
230
1
0
CIRCLE
5
A8
100
AcDbEntity
8
1
62
256
6
ByLayer
370
18
48
1
60
0
100
AcDbCircle
10
-10.976644
20
2.906879
30
0
40
1.725
39
0
210
0
220
0
230
-1
0
CIRCLE
5
A9
100
AcDbEntity
8
1
62
256
6
ByLayer
370
18
48
1
60
0
100
AcDbCircle
10
-10.976644
20
2.906879
30
0
40
1.3
39
0
210
0
220
0
230
-1
0
ELLIPSE
5
B4
100
AcDbEntity
8
1
62
256
6
ByLayer
370
18
48
1
60
0
100
AcDbEllipse
10
2.451291
20
-0.962016
30
0
11
-0.433501138664216
21
-1.43599329971774
31
0
210
0
220
0
230
1
40
1
41
1.50381156745783
42
1.65108459138485
0
ELLIPSE
5
B5
100
AcDbEntity
8
SK1
62
256
6
ByLayer
370
18
48
1
60
0
100
AcDbEllipse
10
2.527135
20
10.225138
30
0
11
-3.53553392676792
21
-3.53553392676792
31
0
210
0
220
0
230
1
40
1
41
0.0434978922937393
42
0.120834403555695
0
POINT
5
6C
100
AcDbEntity
8
81
62
256
6
ByLayer
370
18
48
1
60
0
100
AcDbPoint
10
20.027135
20
6.539209
30
0
39
0
210
0
220
0
230
1
50
360
0
POINT
5
6E
100
AcDbEntity
8
80
62
256
6
ByLayer
370
18
48
1
60
0
100
AcDbPoint
10
0
20
0
30
0
39
0
210
0
220
0
230
1
50
360
0
SPLINE
5
B6
100
AcDbEntity
8
1
62
256
6
ByLayer
370
18
48
1
60
0
100
AcDbSpline
70
4
71
3
72
12
73
8
40
0
40
0
40
0
40
0
40
0.464390992171651
40
0.464390992171651
40
0.846401077318506
40
0.846401077318506
40
1
40
1
40
1
40
1
41
1
10
11.5576725518799
20
2.19780108386172
30
0
41
1
10
11.5180242367903
20
2.21547335534515
30
0
41
1
10
11.4742580025882
20
2.22753388088702
30
0
41
1
10
11.3911125508941
20
2.23600778761309
30
0
41
1
10
11.3513837087537
20
2.23481432359731
30
0
41
1
10
11.2963909922014
20
2.22507664873226
30
0
41
1
10
11.2804831018222
20
2.22131110633973
30
0
41
1
10
11.2648425244726
20
2.21662877883037
30
0
0
SPLINE
5
B7
100
AcDbEntity
8
1
62
256
6
ByLayer
370
18
48
1
60
0
100
AcDbSpline
70
4
71
3
72
12
73
8
40
0
40
0
40
0
40
0
40
0.377026290846268
40
0.377026290846268
40
0.76105637206325
40
0.76105637206325
40
1
40
1
40
1
40
1
41
1
10
11.2119835743337
20
2.19686562719977
30
0
41
1
10
11.1759781432628
20
2.18058293571616
30
0
41
1
10
11.1421901073936
20
2.1589816653362
30
0
41
1
10
11.0835019357226
20
2.1092899911261
30
0
41
1
10
11.0579232643959
20
2.08048979688113
30
0
41
1
10
11.0241387427037
20
2.03091602918147
30
0
41
1
10
11.0128515640614
20
2.01097494426503
30
0
41
1
10
11.0033340265518
20
1.99054240199334
30
0
0
SPLINE
5
B8
100
AcDbEntity
8
1
62
256
6
ByLayer
370
18
48
1
60
0
100
AcDbSpline
70
4
71
3
72
16
73
12
40
0
40
0
40
0
40
0
40
0.0668638488455259
40
0.0668638488455259
40
0.290854271538801
40
0.290854271538801
40
0.517824973971677
40
0.517824973971677
40
0.759328674281757
40
0.759328674281757
40
1
40
1
40
1
40
1
41
1
10
10.8049443334249
20
1.88622067336215
30
0
41
1
10
10.8105073077743
20
1.88528484343698
30
0
41
1
10
10.8161202996661
20
1.88460303625212
30
0
41
1
10
10.8404483289584
20
1.88277070129791
30
0
41
1
10
10.8595569891472
20
1.88428333927905
30
0
41
1
10
10.8957833241467
20
1.89270887572104
30
0
41
1
10
10.9133357434237
20
1.89978605015605
30
0
41
1
10
10.9457006658245
20
1.91871048636196
30
0
41
1
10
10.9606814375041
20
1.93105385805959
30
0
41
1
10
10.9855585800441
20
1.95869016233829
30
0
41
1
10
10.9957467663071
20
1.97425383832652
30
0
41
1
10
11.0033340265517
20
1.9905424019932
30
0
0
SPLINE
5
B9
100
AcDbEntity
8
1
62
256
6
ByLayer
370
18
48
1
60
0
100
AcDbSpline
70
4
71
3
72
14
73
10
40
0
40
0
40
0
40
0
40
0.283738489034221
40
0.283738489034221
40
0.570489531030765
40
0.570489531030765
40
0.830294403552168
40
0.830294403552168
40
1
40
1
40
1
40
1
41
1
10
11.5576725518799
20
2.19780108386172
30
0
41
1
10
11.576997216197
20
2.18918758506948
30
0
41
1
10
11.5984475361135
20
2.18370062477905
30
0
41
1
10
11.6425492502753
20
2.18069516118251
30
0
41
1
10
11.6658956811598
20
2.18325487055475
30
0
41
1
10
11.708116571103
20
2.19641363555107
30
0
41
1
10
11.7278302001823
20
2.20646870471359
30
0
41
1
10
11.756334703975
20
2.22816824288253
30
0
41
1
10
11.7667729241397
20
2.23820489052164
30
0
41
1
10
11.7758403658886
20
2.24922382527294
30
0
0
SPLINE
5
BA
100
AcDbEntity
8
1
62
256
6
ByLayer
370
18
48
1
60
0
100
AcDbSpline
70
4
71
3
72
14
73
10
40
0
40
0
40
0
40
0
40
0.284523597312289
40
0.284523597312289
40
0.571736866218034
40
0.571736866218034
40
0.831999616286237
40
0.831999616286237
40
1
40
1
40
1
40
1
41
1
10
10.651674260618
20
2.04907243987009
30
0
41
1
10
10.6539145772926
20
2.02802910617214
30
0
41
1
10
10.6599281601397
20
2.00671239782352
30
0
41
1
10
10.6794454975558
20
1.96706228920348
30
0
41
1
10
10.693356370325
20
1.94816373199146
30
0
41
1
10
10.7258819590949
20
1.91825412180376
30
0
41
1
10
10.7444478600009
20
1.90624634250693
30
0
41
1
10
10.7773250648455
20
1.89252899599026
30
0
41
1
10
10.7910521755883
20
1.88855767803125
30
0
41
1
10
10.8049443334249
20
1.88622067336215
30
0
0
SPLINE
5
BB
100
AcDbEntity
8
1
62
256
6
ByLayer
370
18
48
1
60
0
100
AcDbSpline
70
4
71
3
72
18
73
14
40
0
40
0
40
0
40
0
40
0.213394464779721
40
0.213394464779721
40
0.389004322610664
40
0.389004322610664
40
0.566252444177968
40
0.566252444177968
40
0.721175490823055
40
0.721175490823055
40
0.92741643549918
40
0.92741643549918
40
1
40
1
40
1
40
1
41
1
10
10.651674260618
20
2.04907243987009
30
0
41
1
10
10.6470840868595
20
2.09218802224609
30
0
41
1
10
10.6355882040026
20
2.13605690508527
30
0
41
1
10
10.601275509082
20
2.21218545624748
30
0
41
1
10
10.5803459415432
20
2.24594386680971
30
0
41
1
10
10.529086398412
20
2.30679215897084
30
0
41
1
10
10.4978323351633
20
2.33463845674083
30
0
41
1
10
10.4347261497048
20
2.37622435304027
30
0
41
1
10
10.4027236068121
20
2.39184058345805
30
0
41
1
10
10.3279072976613
20
2.41783996145182
30
0
41
1
10
10.2837725556899
20
2.4253715031796
30
0
41
1
10
10.2260932576444
20
2.42662758940057
30
0
41
1
10
10.2110483774128
20
2.42613889368869
30
0
41
1
10
10.1961911909457
20
2.42487199967164
30
0
0
SPLINE
5
BC
100
AcDbEntity
8
1
62
256
6
ByLayer
370
18
48
1
60
0
100
AcDbSpline
70
4
71
3
72
16
73
12
40
0
40
0
40
0
40
0
40
0.0670553612811602
40
0.0670553612811602
40
0.291697905104272
40
0.291697905104272
40
0.519329228663783
40
0.519329228663783
40
0.761535715028726
40
0.761535715028726
40
1
40
1
40
1
40
1
41
1
10
10.0071886570762
20
2.54441469189445
30
0
41
1
10
10.0091641340746
20
2.53913103865375
30
0
41
1
10
10.0113845151237
20
2.53393128297256
30
0
41
1
10
10.0219803350181
20
2.51195569283891
30
0
41
1
10
10.0328581318807
20
2.49617270044948
30
0
41
1
10
10.0582912134398
20
2.46903424433012
30
0
41
1
10
10.0732063862757
20
2.45738472226955
30
0
41
1
10
10.1057937190172
20
2.43884591870497
30
0
41
1
10
10.1239795683301
20
2.43205940262155
30
0
41
1
10
10.160144153531
20
2.42440970055313
30
0
41
1
10
10.1784924506671
20
2.42336280220565
30
0
41
1
10
10.1961911909457
20
2.42487199967164
30
0
0
SPLINE
5
BD
100
AcDbEntity
8
1
62
256
6
ByLayer
370
18
48
1
60
0
100
AcDbSpline
70
4
71
3
72
18
73
14
40
0
40
0
40
0
40
0
40
0.213393079737799
40
0.213393079737799
40
0.389003177496046
40
0.389003177496046
40
0.566251555260788
40
0.566251555260788
40
0.721174645896042
40
0.721174645896042
40
0.92741534208992
40
0.92741534208992
40
1
40
1
40
1
40
1
41
1
10
11.8818851284053
20
3.05512713718821
30
0
41
1
10
11.8468631731629
20
3.02956424748419
30
0
41
1
10
11.8146471156151
20
2.99764668078029
30
0
41
1
10
11.7659323947207
20
2.92982525237781
30
0
41
1
10
11.7471914882662
20
2.89480442256104
30
0
41
1
10
11.7201891229705
20
2.81996497991787
30
0
41
1
10
11.7117356421139
20
2.77896770579037
30
0
41
1
10
11.7073389080792
20
2.703519328429
30
0
41
1
10
11.7098465552474
20
2.66799831264603
30
0
41
1
10
11.7248052177202
20
2.59021860713332
30
0
41
1
10
11.7403860244441
20
2.54824439486003
30
0
41
1
10
11.7681812680952
20
2.49768822841759
30
0
41
1
10
11.7761380090136
20
2.48490994798337
30
0
41
1
10
11.7846743863928
20
2.47268382875166
30
0
0
SPLINE
5
BE
100
AcDbEntity
8
1
62
256
6
ByLayer
370
18
48
1
60
0
100
AcDbSpline
70
4
71
3
72
16
73
12
40
0
40
0
40
0
40
0
40
0.0650212293342915
40
0.0650212293342915
40
0.289691523269468
40
0.289691523269468
40
0.517236422326115
40
0.517236422326115
40
0.759263521180986
40
0.759263521180986
40
1
40
1
40
1
40
1
41
1
10
11.7758403658886
20
2.24922382527294
30
0
41
1
10
11.7793166791967
20
2.25344831003696
30
0
41
1
10
11.7826092312
20
2.25783250064509
30
0
41
1
10
11.7962873509993
20
2.27783348239544
30
0
41
1
10
11.8045519744863
20
2.29513522748729
30
0
41
1
10
11.8154036685624
20
2.33071413624634
30
0
41
1
10
11.8180691964807
20
2.34944968835774
30
0
41
1
10
11.8178996002222
20
2.38693238089789
30
0
41
1
10
11.8147215898745
20
2.40607409480765
30
0
41
1
10
11.8032801399487
20
2.4414036155473
30
0
41
1
10
11.7949384419151
20
2.45798326420979
30
0
41
1
10
11.7846743863928
20
2.47268382875163
30
0
0
SPLINE
5
BF
100
AcDbEntity
8
1
62
256
6
ByLayer
370
18
48
1
60
0
100
AcDbSpline
70
4
71
3
72
14
73
10
40
0
40
0
40
0
40
0
40
0.284519249123235
40
0.284519249123235
40
0.571733062184452
40
0.571733062184452
40
0.831996244286526
40
0.831996244286526
40
1
40
1
40
1
40
1
41
1
10
11.8818851284053
20
3.05512713718818
30
0
41
1
10
11.8989780728926
20
3.06760345530415
30
0
41
1
10
11.914418260789
20
3.08348267850539
30
0
41
1
10
11.9389660964077
20
3.12023091405413
30
0
41
1
10
11.9483589703025
20
3.14173540699241
30
0
41
1
10
11.9579618856131
20
3.18486646015819
30
0
41
1
10
11.9590591392512
20
3.20694986540261
30
0
41
1
10
11.9544699175927
20
3.24227743569401
30
0
41
1
10
11.951033684022
20
3.25614847133306
30
0
41
1
10
11.9461000888204
20
3.26934397110153
30
0
0
SPLINE
5
C0
100
AcDbEntity
8
1
62
256
6
ByLayer
370
18
48
1
60
0
100
AcDbSpline
70
4
71
3
72
16
73
12
40
0
40
0
40
0
40
0
40
0.0670553612811615
40
0.0670553612811615
40
0.291697905104274
40
0.291697905104274
40
0.519329228663785
40
0.519329228663785
40
0.761535715028727
40
0.761535715028727
40
1
40
1
40
1
40
1
41
1
10
11.9461000888204
20
3.26934397110153
30
0
41
1
10
11.944124611822
20
3.27462762434223
30
0
41
1
10
11.9419042307729
20
3.27982738002342
30
0
41
1
10
11.9313084108786
20
3.30180297015707
30
0
41
1
10
11.9204306140159
20
3.3175859625465
30
0
41
1
10
11.8949975324568
20
3.34472441866586
30
0
41
1
10
11.8800823596209
20
3.35637394072643
30
0
41
1
10
11.8474950268795
20
3.37491274429101
30
0
41
1
10
11.8293091775665
20
3.38169926037443
30
0
41
1
10
11.7931445923656
20
3.38934896244285
30
0
41
1
10
11.7747962952295
20
3.39039586079033
30
0
41
1
10
11.7570975549509
20
3.38888666332434
30
0
0
SPLINE
5
C1
100
AcDbEntity
8
1
62
256
6
ByLayer
370
18
48
1
60
0
100
AcDbSpline
70
4
71
3
72
14
73
10
40
0
40
0
40
0
40
0
40
0.284519249123234
40
0.284519249123234
40
0.571733062184449
40
0.571733062184449
40
0.831996244286524
40
0.831996244286524
40
1
40
1
40
1
40
1
41
1
10
10.0714036174913
20
2.7586315258078
30
0
41
1
10
10.054310673004
20
2.74615520769183
30
0
41
1
10
10.0388704851076
20
2.73027598449059
30
0
41
1
10
10.0143226494889
20
2.69352774894185
30
0
41
1
10
10.0049297755941
20
2.67202325600357
30
0
41
1
10
9.99532686028348
20
2.62889220283779
30
0
41
1
10
9.9942296066454
20
2.60680879759337
30
0
41
1
10
9.99881882830397
20
2.57148122730197
30
0
41
1
10
10.0022550618746
20
2.55761019166292
30
0
41
1
10
10.0071886570762
20
2.54441469189445
30
0
0
SPLINE
5
C2
100
AcDbEntity
8
1
62
256
6
ByLayer
370
18
48
1
60
0
100
AcDbSpline
70
4
71
3
72
16
73
12
40
0
40
0
40
0
40
0
40
0.0650212293342957
40
0.0650212293342957
40
0.289691523269472
40
0.289691523269472
40
0.517236422326118
40
0.517236422326118
40
0.75926352118099
40
0.75926352118099
40
1
40
1
40
1
40
1
41
1
10
10.177448380008
20
3.56453483772304
30
0
41
1
10
10.1739720666999
20
3.56031035295902
30
0
41
1
10
10.1706795146966
20
3.55592616235089
30
0
41
1
10
10.1570013948973
20
3.53592518060054
30
0
41
1
10
10.1487367714103
20
3.51862343550869
30
0
41
1
10
10.1378850773342
20
3.48304452674964
30
0
41
1
10
10.1352195494159
20
3.46430897463824
30
0
41
1
10
10.1353891456744
20
3.42682628209809
30
0
41
1
10
10.1385671560221
20
3.40768456818836
30
0
41
1
10
10.150008605948
20
3.37235504744868
30
0
41
1
10
10.1583503039815
20
3.35577539878619
30
0
41
1
10
10.1686143595038
20
3.34107483424435
30
0
0
SPLINE
5
C3
100
AcDbEntity
8
1
62
256
6
ByLayer
370
18
48
1
60
0
100
AcDbSpline
70
4
71
3
72
18
73
14
40
0
40
0
40
0
40
0
40
0.213393079737799
40
0.213393079737799
40
0.389003177496046
40
0.389003177496046
40
0.566251555260788
40
0.566251555260788
40
0.721174645896043
40
0.721174645896043
40
0.927415342089922
40
0.927415342089922
40
1
40
1
40
1
40
1
41
1
10
10.0714036174913
20
2.7586315258078
30
0
41
1
10
10.1064255727337
20
2.78419441551182
30
0
41
1
10
10.1386416302816
20
2.81611198221569
30
0
41
1
10
10.1873563511759
20
2.88393341061817
30
0
41
1
10
10.2060972576304
20
2.91895424043497
30
0
41
1
10
10.2330996229261
20
2.99379368307811
30
0
41
1
10
10.2415531037828
20
3.03479095720561
30
0
41
1
10
10.2459498378175
20
3.11023933456698
30
0
41
1
10
10.2434421906492
20
3.14576035034995
30
0
41
1
10
10.2284835281764
20
3.22354005586266
30
0
41
1
10
10.2129027214526
20
3.26551426813595
30
0
41
1
10
10.1851074778014
20
3.31607043457839
30
0
41
1
10
10.177150736883
20
3.32884871501261
30
0
41
1
10
10.1686143595038
20
3.34107483424435
30
0
0
SPLINE
5
C4
100
AcDbEntity
8
1
62
256
6
ByLayer
370
18
48
1
60
0
100
AcDbSpline
70
4
71
3
72
14
73
10
40
0
40
0
40
0
40
0
40
0.283738489034225
40
0.283738489034225
40
0.57048953103077
40
0.57048953103077
40
0.830294403552174
40
0.830294403552174
40
1
40
1
40
1
40
1
41
1
10
10.3956161940167
20
3.61595757913426
30
0
41
1
10
10.3762915296996
20
3.6245710779265
30
0
41
1
10
10.3548412097832
20
3.63005803821693
30
0
41
1
10
10.3107394956213
20
3.63306350181347
30
0
41
1
10
10.2873930647368
20
3.63050379244123
30
0
41
1
10
10.2451721747936
20
3.61734502744491
30
0
41
1
10
10.2254585457144
20
3.60728995828242
30
0
41
1
10
10.1969540419216
20
3.58559042011345
30
0
41
1
10
10.1865158217569
20
3.57555377247434
30
0
41
1
10
10.177448380008
20
3.56453483772304
30
0
0
SPLINE
5
C5
100
AcDbEntity
8
1
62
256
6
ByLayer
370
18
48
1
60
0
100
AcDbSpline
70
4
71
3
72
12
73
8
40
0
40
0
40
0
40
0
40
0.464390992172111
40
0.464390992172111
40
0.846401077319348
40
0.846401077319348
40
1
40
1
40
1
40
1
41
1
10
10.3956161940167
20
3.61595757913426
30
0
41
1
10
10.4352645091063
20
3.59828530765083
30
0
41
1
10
10.4790307433084
20
3.58622478210896
30
0
41
1
10
10.5621761950026
20
3.57775087538289
30
0
41
1
10
10.6019050371429
20
3.57894433939867
30
0
41
1
10
10.6568977536952
20
3.58868201426372
30
0
41
1
10
10.6728056440745
20
3.59244755665625
30
0
41
1
10
10.688446221424
20
3.59712988416561
30
0
0
SPLINE
5
C6
100
AcDbEntity
8
1
62
256
6
ByLayer
370
18
48
1
60
0
100
AcDbSpline
70
4
71
3
72
12
73
8
40
0
40
0
40
0
40
0
40
0.3770262906397
40
0.3770262906397
40
0.761056371823052
40
0.761056371823052
40
1
40
1
40
1
40
1
41
1
10
10.7413051715629
20
3.61689303579621
30
0
41
1
10
10.7773106026141
20
3.63317572727092
30
0
41
1
10
10.8110986384661
20
3.65477699763596
30
0
41
1
10
10.8697868101278
20
3.70446867182315
30
0
41
1
10
10.8953654814577
20
3.73326886606253
30
0
41
1
10
10.9291500031703
20
3.78284263377452
30
0
41
1
10
10.9404371818257
20
3.80278371871049
30
0
41
1
10
10.9499547193448
20
3.82321626100264
30
0
0
SPLINE
5
C7
100
AcDbEntity
8
1
62
256
6
ByLayer
370
18
48
1
60
0
100
AcDbSpline
70
4
71
3
72
16
73
12
40
0
40
0
40
0
40
0
40
0.0668638488454768
40
0.0668638488454768
40
0.290854271538574
40
0.290854271538574
40
0.51782497397127
40
0.51782497397127
40
0.759328674281161
40
0.759328674281161
40
1
40
1
40
1
40
1
41
1
10
11.1483444124717
20
3.92753798963383
30
0
41
1
10
11.1427814381223
20
3.928473819559
30
0
41
1
10
11.1371684462305
20
3.92915562674386
30
0
41
1
10
11.1128404169382
20
3.93098796169809
30
0
41
1
10
11.0937317567494
20
3.92947532371693
30
0
41
1
10
11.0575054217499
20
3.92104978727494
30
0
41
1
10
11.0399530024729
20
3.91397261283993
30
0
41
1
10
11.0075880800721
20
3.89504817663402
30
0
41
1
10
10.9926073083925
20
3.88270480493642
30
0
41
1
10
10.9677301658524
20
3.85506850065764
30
0
41
1
10
10.9575419795895
20
3.83950482466935
30
0
41
1
10
10.9499547193448
20
3.82321626100264
30
0
0
SPLINE
5
C8
100
AcDbEntity
8
1
62
256
6
ByLayer
370
18
48
1
60
0
100
AcDbSpline
70
4
71
3
72
14
73
10
40
0
40
0
40
0
40
0
40
0.28452359731229
40
0.28452359731229
40
0.571736866218036
40
0.571736866218036
40
0.831999616286239
40
0.831999616286239
40
1
40
1
40
1
40
1
41
1
10
11.3016144852786
20
3.76468622312589
30
0
41
1
10
11.299374168604
20
3.78572955682384
30
0
41
1
10
11.2933605857569
20
3.80704626517246
30
0
41
1
10
11.2738432483408
20
3.8466963737925
30
0
41
1
10
11.2599323755716
20
3.86559493100452
30
0
41
1
10
11.2274067868018
20
3.89550454119222
30
0
41
1
10
11.2088408858957
20
3.90751232048905
30
0
41
1
10
11.1759636810511
20
3.92122966700572
30
0
41
1
10
11.1622365703084
20
3.92520098496473
30
0
41
1
10
11.1483444124717
20
3.92753798963383
30
0
0
SPLINE
5
C9
100
AcDbEntity
8
1
62
256
6
ByLayer
370
18
48
1
60
0
100
AcDbSpline
70
4
71
3
72
18
73
14
40
0
40
0
40
0
40
0
40
0.213394464779721
40
0.213394464779721
40
0.389004322610664
40
0.389004322610664
40
0.566252444177967
40
0.566252444177967
40
0.721175490823055
40
0.721175490823055
40
0.92741643549918
40
0.92741643549918
40
1
40
1
40
1
40
1
41
1
10
11.3016144852786
20
3.76468622312589
30
0
41
1
10
11.3062046590371
20
3.72157064074989
30
0
41
1
10
11.3177005418941
20
3.67770175791071
30
0
41
1
10
11.3520132368146
20
3.6015732067485
30
0
41
1
10
11.3729428043534
20
3.56781479618627
30
0
41
1
10
11.4242023474846
20
3.50696650402517
30
0
41
1
10
11.4554564107333
20
3.47912020625518
30
0
41
1
10
11.5185625961918
20
3.43753430995571
30
0
41
1
10
11.5505651390845
20
3.42191807953793
30
0
41
1
10
11.6253814482354
20
3.39591870154416
30
0
41
1
10
11.6695161902068
20
3.38838715981638
30
0
41
1
10
11.7271954882522
20
3.38713107359541
30
0
41
1
10
11.7422403684838
20
3.38761976930729
30
0
41
1
10
11.7570975549509
20
3.38888666332434
30
0
0
SPLINE
5
CA
100
AcDbEntity
8
1
62
256
6
ByLayer
370
18
48
1
60
0
100
AcDbSpline
70
4
71
3
72
12
73
8
40
0
40
0
40
0
40
0
40
0.386387223223564
40
0.386387223223564
40
0.773484313967957
40
0.773484313967957
40
1
40
1
40
1
40
1
41
1
10
0.334065861769801
20
5.73175996429418
30
0
41
1
10
0.284080524690893
20
5.75615615332248
30
0
41
1
10
0.233841882667264
20
5.78176493489715
30
0
41
1
10
0.14095788346691
20
5.83094624172182
30
0
41
1
10
0.0969106878100945
20
5.85525704594099
30
0
41
1
10
0.0373769566732562
20
5.88903956106188
30
0
41
1
10
0.0172203400992714
20
5.90070449864473
30
0
41
1
10
-2.84E-14
20
5.91079133850454
30
0
0
LINE
5
70
100
AcDbEntity
8
80
62
256
6
ByLayer
370
18
48
1
60
0
100
AcDbLine
10
0
20
0
30
0
11
-7
21
0
31
0
39
0
210
0
220
0
230
1
0
LINE
5
71
100
AcDbEntity
8
81
62
256
6
ByLayer
370
18
48
1
60
0
100
AcDbLine
10
20.027135
20
6.539209
30
0
11
29.028298
21
6.539209
31
0
39
0
210
0
220
0
230
1
0
LINE
5
72
100
AcDbEntity
8
1
62
256
6
ByLayer
370
18
48
1
60
0
100
AcDbLine
10
9.22765
20
5.569436
30
0
11
8.605455
21
5.536828
31
0
39
0
210
0
220
0
230
1
0
LINE
5
74
100
AcDbEntity
8
1
62
256
6
ByLayer
370
18
48
1
60
0
100
AcDbLine
10
10.781294
20
-0.282717
30
0
11
10.902634
21
-0.607258
31
0
39
0
210
0
220
0
230
1
0
LINE
5
75
100
AcDbEntity
8
1
62
256
6
ByLayer
370
18
48
1
60
0
100
AcDbLine
10
10.908923
20
-0.624077
30
0
11
11.386528
21
-0.25093
31
0
39
0
210
0
220
0
230
1
0
LINE
5
76
100
AcDbEntity
8
1
62
256
6
ByLayer
370
18
48
1
60
0
100
AcDbLine
10
0.334066
20
-6.090791
30
0
11
0.334066
21
5.73176
31
0
39
0
210
0
220
0
230
1
0
LINE
5
77
100
AcDbEntity
8
1
62
256
6
ByLayer
370
18
48
1
60
0
100
AcDbLine
10
3.917426
20
-1.278952
30
0
11
4.794925
21
-0.596453
31
0
39
0
210
0
220
0
230
1
0
LINE
5
78
100
AcDbEntity
8
1
62
256
6
ByLayer
370
18
48
1
60
0
100
AcDbLine
10
5.013292
20
-0.585007
30
0
11
4.537914
21
-0.954745
31
0
39
0
210
0
220
0
230
1
0
LINE
5
79
100
AcDbEntity
8
1
62
256
6
ByLayer
370
18
48
1
60
0
100
AcDbLine
10
8.615307
20
5.510478
30
0
11
8.736648
21
5.185937
31
0
39
0
210
0
220
0
230
1
0
LINE
5
7A
100
AcDbEntity
8
SK1
62
256
6
ByLayer
370
18
48
1
60
0
100
AcDbLine
10
-49.722865
20
-3.410791
30
0
11
-49.972865
21
-3.160791
31
0
39
0
210
0
220
0
230
1
0
LINE
5
7C
100
AcDbEntity
8
1
62
256
6
ByLayer
370
18
48
1
60
0
100
AcDbLine
10
10.908923
20
-0.624077
30
0
11
10.902634
21
-0.607258
31
0
39
0
210
0
220
0
230
1
0
LINE
5
7D
100
AcDbEntity
8
SK1
62
256
6
ByLayer
370
18
48
1
60
0
100
AcDbLine
10
-46.972865
20
-6.160791
30
0
11
-47.222865
21
-5.910791
31
0
39
0
210
0
220
0
230
1
0
LINE
5
7E
100
AcDbEntity
8
SK1
62
256
6
ByLayer
370
18
48
1
60
0
100
AcDbLine
10
-47.222865
20
-5.910791
30
0
11
-49.722865
21
-3.410791
31
0
39
0
210
0
220
0
230
1
0
LINE
5
7F
100
AcDbEntity
8
SK1
62
256
6
ByLayer
370
18
48
1
60
0
100
AcDbLine
10
-49.722865
20
6.289209
30
0
11
-49.722865
21
-3.410791
31
0
39
0
210
0
220
0
230
1
0
LINE
5
80
100
AcDbEntity
8
1
62
256
6
ByLayer
370
18
48
1
60
0
100
AcDbLine
10
3.855048
20
-1.490663
30
0
11
4.544551
21
-0.954382
31
0
39
0
210
0
220
0
230
1
0
LINE
5
81
100
AcDbEntity
8
1
62
256
6
ByLayer
370
18
48
1
60
0
100
AcDbLine
10
3.822251
20
-6.160791
30
0
11
3.911847
21
-6.090791
31
0
39
0
210
0
220
0
230
1
0
LINE
5
82
100
AcDbEntity
8
SK1
62
256
6
ByLayer
370
18
48
1
60
0
100
AcDbLine
10
-49.972865
20
-3.160791
30
0
11
-49.972865
21
6.289209
31
0
39
0
210
0
220
0
230
1
0
LINE
5
83
100
AcDbEntity
8
1
62
256
6
ByLayer
370
18
48
1
60
0
100
AcDbLine
10
10.908923
20
-0.624077
30
0
11
3.911847
21
-6.090791
31
0
39
0
210
0
220
0
230
1
0
LINE
5
84
100
AcDbEntity
8
1
62
256
6
ByLayer
370
18
48
1
60
0
100
AcDbLine
10
0
20
5.910791
30
0
11
0
21
-5.910791
31
0
39
0
210
0
220
0
230
1
0
LINE
5
85
100
AcDbEntity
8
1
62
256
6
ByLayer
370
18
48
1
60
0
100
AcDbLine
10
8.615307
20
5.510478
30
0
11
2.193382
21
0.515645
31
0
39
0
210
0
220
0
230
1
0
LINE
5
86
100
AcDbEntity
8
1
62
256
6
ByLayer
370
18
48
1
60
0
100
AcDbLine
10
4.544551
20
-0.954382
30
0
11
4.537914
21
-0.954745
31
0
39
0
210
0
220
0
230
1
0
LINE
5
87
100
AcDbEntity
8
1
62
256
6
ByLayer
370
18
48
1
60
0
100
AcDbLine
10
0.334066
20
-6.090791
30
0
11
3.911847
21
-6.090791
31
0
39
0
210
0
220
0
230
1
0
LINE
5
88
100
AcDbEntity
8
SK1
62
256
6
ByLayer
370
18
48
1
60
0
100
AcDbLine
10
-47.222865
20
-5.910791
30
0
11
0
21
-5.910791
31
0
39
0
210
0
220
0
230
1
0
LINE
5
89
100
AcDbEntity
8
1
62
256
6
ByLayer
370
18
48
1
60
0
100
AcDbLine
10
19.874601
20
5.829592
30
0
11
12.24112
21
-0.134337
31
0
39
0
210
0
220
0
230
1
0
LINE
5
8A
100
AcDbEntity
8
1
62
256
6
ByLayer
370
18
48
1
60
0
100
AcDbLine
10
12.01755
20
-0.217926
30
0
11
2.3438
21
-0.724906
31
0
39
0
210
0
220
0
230
1
0
LINE
5
8B
100
AcDbEntity
8
1
62
256
6
ByLayer
370
18
48
1
60
0
100
AcDbLine
10
4.544551
20
-0.954382
30
0
11
10.902634
21
-0.607258
31
0
39
0
210
0
220
0
230
1
0
LINE
5
8C
100
AcDbEntity
8
1
62
256
6
ByLayer
370
18
48
1
60
0
100
AcDbLine
10
3.822251
20
-6.160791
30
0
11
0
21
-6.160791
31
0
39
0
210
0
220
0
230
1
0
LINE
5
8D
100
AcDbEntity
8
1
62
256
6
ByLayer
370
18
48
1
60
0
100
AcDbLine
10
9.935739
20
6.031685
30
0
11
19.609489
21
6.538665
31
0
39
0
210
0
220
0
230
1
0
LINE
5
8E
100
AcDbEntity
8
SK1
62
256
6
ByLayer
370
18
48
1
60
0
100
AcDbLine
10
-49.722865
20
6.539209
30
0
11
-0.851315
21
6.539209
31
0
39
0
210
0
220
0
230
1
0
LINE
5
8F
100
AcDbEntity
8
SK1
62
256
6
ByLayer
370
18
48
1
60
0
100
AcDbLine
10
-0.556444
20
6.289209
30
0
11
-49.722865
21
6.289209
31
0
39
0
210
0
220
0
230
1
0
LINE
5
90
100
AcDbEntity
8
1
62
256
6
ByLayer
370
18
48
1
60
0
100
AcDbLine
10
8.615307
20
5.510478
30
0
11
8.605455
21
5.536828
31
0
39
0
210
0
220
0
230
1
0
LINE
5
91
100
AcDbEntity
8
1
62
256
6
ByLayer
370
18
48
1
60
0
100
AcDbLine
10
2.788815
20
5.23199
30
0
11
8.605455
21
5.536828
31
0
39
0
210
0
220
0
230
1
0
LINE
5
92
100
AcDbEntity
8
SK1
62
256
6
ByLayer
370
18
48
1
60
0
100
AcDbLine
10
-49.972865
20
6.289209
30
0
11
-49.722865
21
6.539209
31
0
39
0
210
0
220
0
230
1
0
LINE
5
93
100
AcDbEntity
8
SK1
62
256
6
ByLayer
370
18
48
1
60
0
100
AcDbLine
10
-49.972865
20
6.289209
30
0
11
-49.722865
21
6.289209
31
0
39
0
210
0
220
0
230
1
0
LINE
5
94
100
AcDbEntity
8
SK1
62
256
6
ByLayer
370
18
48
1
60
0
100
AcDbLine
10
-49.722865
20
6.289209
30
0
11
-49.722865
21
6.539209
31
0
39
0
210
0
220
0
230
1
0
LINE
5
95
100
AcDbEntity
8
1
62
256
6
ByLayer
370
18
48
1
60
0
100
AcDbLine
10
2.078688
20
-0.015833
30
0
11
9.712169
21
5.948096
31
0
39
0
210
0
220
0
230
1
0
LINE
5
96
100
AcDbEntity
8
SK1
62
256
6
ByLayer
370
18
48
1
60
0
100
AcDbLine
10
0
20
-6.160791
30
0
11
-46.972865
21
-6.160791
31
0
39
0
210
0
220
0
230
1
0
MTEXT
5
CB
100
AcDbEntity
8
SK6
62
256
6
ByLayer
370
18
48
1
60
0
100
AcDbMText
10
-14.281171
20
-22.086331
30
0
210
0
220
0
230
1
1
\W0.8008;QS-SVJBR082X-B1
40
3
41
0
44
1.084337
50
0
71
8
72
5
7
iso_b_vert
0
DIMENSION
5
DD
100
AcDbEntity
8
SK2
62
256
6
ByLayer
370
13
48
1
60
0
100
AcDbDimension
2
DimnDraft3D1
10
20.027135
20
22.655283
30
0
11
-16.725497
21
22.655283
31
0
70
32
71
5
72
1
41
1
210
0
220
0
230
1
3
Standard
100
AcDbAlignedDimension
13
-49.972865
23
8.289209
33
0
14
20.027135
24
8.539209
34
0
50
0
100
AcDbRotatedDimension
1001
ACAD
1000
DSTYLE
1002
{
1070
   279
1070
     0
1070
   172
1070
     1
1070
   173
1070
     1
1070
   340
1005
CC
1070
    77
1070
     1
1070
    73
1070
     0
1070
   171
1070
     3
1070
   274
1070
     4
1070
   177
1070
   254
1070
   176
1070
   254
1070
   178
1070
   254
1070
    78
1070
     8
1070
    41
1041
3.175
1070
   147
1041
1.5
1070
    42
1041
2.0
1070
    44
1041
2.0
1070
   140
1041
3.0
1070
   343
1005
DE
1070
   344
1005
DE
1002
}
0
DIMENSION
5
F3
100
AcDbEntity
8
2
62
256
6
ByLayer
370
13
48
1
60
0
100
AcDbDimension
2
DimnDraft3D2
10
0
20
15.14826
30
0
11
8.260936
21
15.14826
31
0
70
32
71
5
72
1
41
1
210
0
220
0
230
1
3
Standard
100
AcDbAlignedDimension
13
20.027135
23
8.539209
33
0
14
0
24
7.910791
34
0
50
0
100
AcDbRotatedDimension
1001
ACAD
1000
DSTYLE
1002
{
1070
   279
1070
     0
1070
   172
1070
     1
1070
   173
1070
     1
1070
   340
1005
CC
1070
   271
1070
     1
1070
    77
1070
     1
1070
    73
1070
     0
1070
   171
1070
     3
1070
   274
1070
     4
1070
   177
1070
   254
1070
   176
1070
   254
1070
   178
1070
   254
1070
    78
1070
     8
1070
    41
1041
3.175
1070
   147
1041
1.5
1070
    42
1041
2.0
1070
    44
1041
2.0
1070
   140
1041
3.0
1070
   343
1005
DE
1070
   344
1005
DE
1002
}
0
DIMENSION
5
101
100
AcDbEntity
8
2
62
256
6
ByLayer
370
13
48
1
60
0
100
AcDbDimension
2
DimnDraft3D3
10
30.624923
20
6.539209
30
0
11
30.624923
21
-2.877897
31
0
70
32
71
5
72
1
41
1
210
0
220
0
230
1
3
Standard
100
AcDbAlignedDimension
13
5.822251
23
-6.160791
33
0
14
22.027135
24
6.539209
34
0
50
90
100
AcDbRotatedDimension
1001
ACAD
1000
DSTYLE
1002
{
1070
    74
1070
     0
1070
   279
1070
     0
1070
   172
1070
     1
1070
   173
1070
     1
1070
   340
1005
CC
1070
   271
1070
     1
1070
    77
1070
     1
1070
    73
1070
     0
1070
   171
1070
     3
1070
   274
1070
     4
1070
   177
1070
   254
1070
   176
1070
   254
1070
   178
1070
   254
1070
    78
1070
     8
1070
    41
1041
3.175
1070
   147
1041
1.5
1070
    42
1041
2.0
1070
    44
1041
2.0
1070
   140
1041
3.0
1070
   343
1005
DE
1070
   344
1005
DE
1002
}
0
DIMENSION
5
10F
100
AcDbEntity
8
SK2
62
256
6
ByLayer
370
13
48
1
60
0
100
AcDbDimension
2
DimnDraft3D4
10
-60.420652
20
-6.160791
30
0
11
-60.420652
21
-2.877897
31
0
70
32
71
5
72
1
41
1
210
0
220
0
230
1
3
Standard
100
AcDbAlignedDimension
13
-51.722865
23
6.539209
33
0
14
-48.972865
24
-6.160791
34
0
50
90
100
AcDbRotatedDimension
1001
ACAD
1000
DSTYLE
1002
{
1070
    74
1070
     0
1070
   279
1070
     0
1070
   172
1070
     1
1070
   173
1070
     1
1070
   340
1005
CC
1070
   271
1070
     1
1070
    77
1070
     1
1070
    73
1070
     0
1070
   171
1070
     3
1070
   274
1070
     4
1070
   177
1070
   254
1070
   176
1070
   254
1070
   178
1070
   254
1070
    78
1070
     8
1070
    41
1041
3.175
1070
   147
1041
1.5
1070
    42
1041
2.0
1070
    44
1041
2.0
1070
   140
1041
3.0
1070
   343
1005
DE
1070
   344
1005
DE
1002
}
0
ENDSEC
0
SECTION
2
OBJECTS
0
DICTIONARY
5
179
330
0
100
AcDbDictionary
280
0
281
1
3
ACAD_GROUP
350
17a
3
ACAD_MLINESTYLE
350
17b
0
DICTIONARY
5
17a
330
0
100
AcDbDictionary
280
0
281
1
0
DICTIONARY
5
17b
330
0
100
AcDbDictionary
280
0
281
1
3
Standard
350
18
0
MLINESTYLE
5
18
330
17b
100
AcDbMlineStyle
2
Standard
70
0
3

62
256
51
90
52
90
71
2
49
-0.5
62
256
6
ByLayer
49
0.5
62
256
6
ByLayer
0
RASTERVARIABLES
5
168
330

100
AcDbRasterVariables
90
0
70
1
71
1
72
1
0
ENDSEC
0
EOF
