0
SECTION
2
HEADER
9
$ACADVER
1
AC1015
9
$DWGCODEPAGE
3
ANSI_1252
9
$HANDSEED
5
17f
9
$ANGBASE
50
0
9
$ANGDIR
70
0
9
$ATTMODE
70
1
9
$AUNITS
70
0
9
$AUPREC
70
0
9
$CECOLOR
62
256
9
$CELTSCALE
40
1
9
$CELTYPE
6
ByLayer
9
$CELWEIGHT
370
18
9
$CLAYER
8
0
9
$CMLJUST
70
0
9
$CMLSCALE
40
1
9
$CMLSTYLE
2
Standard
9
$DIMSTYLE
2
Standard
9
$TEXTSIZE
40
0.2
9
$TEXTSTYLE
7
Standard
9
$LUNITS
70
2
9
$LUPREC
70
4
9
$EXTNAMES
290
1
9
$INSUNITS
70
4
9
$LTSCALE
40
1
9
$LWDISPLAY
290
1
9
$PDMODE
70
0
9
$PDSIZE
40
0
9
$PLINEGEN
70
0
0
ENDSEC
0
SECTION
2
CLASSES
0
CLASS
1
RASTERVARIABLES
2
AcDbRasterVariables
3
ISM
90
0
280
0
281
0
0
ENDSEC
0
SECTION
2
TABLES
0
TABLE
2
VPORT
5
175
100
AcDbSymbolTable
0
VPORT
5
1
100
AcDbSymbolTableRecord
100
AcDbViewportTableRecord
2
*Active
70
0
10
0
20
0
11
1
21
1
12
-1
22
1
13
0
23
0
14
0.5
24
0.5
15
10
25
10
16
0
26
0
36
1
17
0
27
0
37
0
0
ENDTAB
0
TABLE
2
LTYPE
5
176
100
AcDbSymbolTable
0
LTYPE
5
14
100
AcDbSymbolTableRecord
100
AcDbLinetypeTableRecord
70
0
2
ByBlock
3

72
65
73
0
40
0
0
LTYPE
5
15
100
AcDbSymbolTableRecord
100
AcDbLinetypeTableRecord
70
0
2
ByLayer
3

72
65
73
0
40
0
0
LTYPE
5
16
100
AcDbSymbolTableRecord
100
AcDbLinetypeTableRecord
70
0
2
CONTINUOUS
3
Solid line
72
65
73
0
40
0
0
LTYPE
5
6A
100
AcDbSymbolTableRecord
100
AcDbLinetypeTableRecord
70
0
2
CENTER
3
____ _ ____ _ ____ _ ____
72
65
73
4
40
47.5
49
22
74
0
49
-8.5
74
0
49
8.5
74
0
49
-8.5
74
0
0
LTYPE
5
6B
100
AcDbSymbolTableRecord
100
AcDbLinetypeTableRecord
70
0
2
DASHED
3
__ __ __ __ __ __ __ __ __
72
65
73
2
40
25.72
49
12.86
74
0
49
-12.86
74
0
0
ENDTAB
0
TABLE
2
LAYER
5
177
100
AcDbSymbolTable
0
LAYER
5
10
100
AcDbSymbolTableRecord
100
AcDbLayerTableRecord
2
0
70
0
62
7
6
CONTINUOUS
290
1
370
-3
390
0
0
LAYER
5
6D
100
AcDbSymbolTableRecord
100
AcDbLayerTableRecord
2
81
70
0
62
-3
6
CONTINUOUS
290
1
370
-3
390
0
0
LAYER
5
6F
100
AcDbSymbolTableRecord
100
AcDbLayerTableRecord
2
80
70
0
62
-6
6
CONTINUOUS
290
1
370
-3
390
0
0
LAYER
5
75
100
AcDbSymbolTableRecord
100
AcDbLayerTableRecord
2
1
70
0
62
4
6
CONTINUOUS
290
1
370
-3
390
0
0
LAYER
5
FC
100
AcDbSymbolTableRecord
100
AcDbLayerTableRecord
2
2
70
0
62
7
6
CONTINUOUS
290
1
370
-3
390
0
0
LAYER
5
162
100
AcDbSymbolTableRecord
100
AcDbLayerTableRecord
2
SK1
70
0
62
4
6
CONTINUOUS
290
1
370
-3
390
0
0
LAYER
5
163
100
AcDbSymbolTableRecord
100
AcDbLayerTableRecord
2
SK6
70
0
62
5
6
CONTINUOUS
290
1
370
-3
390
0
0
LAYER
5
164
100
AcDbSymbolTableRecord
100
AcDbLayerTableRecord
2
SK2
70
0
62
7
6
CONTINUOUS
290
1
370
-3
390
0
0
ENDTAB
0
TABLE
2
STYLE
5
178
100
AcDbSymbolTable
0
STYLE
5
11
100
AcDbSymbolTableRecord
100
AcDbTextStyleTableRecord
2
Standard
3
txt
70
0
71
0
40
0
41
1
42
0
50
0
0
STYLE
5
C5
100
AcDbSymbolTableRecord
100
AcDbTextStyleTableRecord
2
iso_b_vert
3
simplex.shx
70
0
71
0
40
0
41
1
42
0
50
0
0
STYLE
5
C6
100
AcDbSymbolTableRecord
100
AcDbTextStyleTableRecord
2
DWGDirectTextStyle
3
simplex
70
0
71
0
40
0
41
1
42
0
50
0
0
ENDTAB
0
TABLE
2
DIMSTYLE
5
179
100
AcDbSymbolTable
100
AcDbDimStyleTable
0
DIMSTYLE
105
27
100
AcDbSymbolTableRecord
100
AcDbDimStyleTableRecord
2
Standard
70
0
3
<>
41
0.18
42
0.0625
44
0.18
140
0.18
147
0.09
73
0
74
0
77
1
271
2
275
0
278
52
280
0
340
11
0
ENDTAB
0
TABLE
2
VIEW
5
17a
100
AcDbSymbolTable
0
ENDTAB
0
TABLE
2
UCS
5
17b
100
AcDbSymbolTable
0
ENDTAB
0
TABLE
2
APPID
5
17c
100
AcDbSymbolTable
0
APPID
5
12
100
AcDbSymbolTableRecord
100
AcDbRegAppTableRecord
2
ACAD
70
0
0
ENDTAB
0
TABLE
2
BLOCK_RECORD
5
17d
100
AcDbSymbolTable
0
BLOCK_RECORD
5
1F
100
AcDbSymbolTableRecord
100
AcDbBlockTableRecord
2
*Model_Space
340
0
70
0
0
BLOCK_RECORD
5
1B
100
AcDbSymbolTableRecord
100
AcDbBlockTableRecord
2
*Paper_Space
340
0
70
0
0
BLOCK_RECORD
5
23
100
AcDbSymbolTableRecord
100
AcDbBlockTableRecord
2
*Paper_Space0
340
0
70
0
0
BLOCK_RECORD
5
C8
100
AcDbSymbolTableRecord
100
AcDbBlockTableRecord
2
DimnDraft3D1
340
0
70
0
0
BLOCK_RECORD
5
D7
100
AcDbSymbolTableRecord
100
AcDbBlockTableRecord
2
_CLOSED
340
0
70
0
0
BLOCK_RECORD
5
DE
100
AcDbSymbolTableRecord
100
AcDbBlockTableRecord
2
DimnDraft3D2
340
0
70
0
0
BLOCK_RECORD
5
EC
100
AcDbSymbolTableRecord
100
AcDbBlockTableRecord
2
DimnDraft3D3
340
0
70
0
0
BLOCK_RECORD
5
FA
100
AcDbSymbolTableRecord
100
AcDbBlockTableRecord
2
DimnDraft3D4
340
0
70
0
0
ENDTAB
0
ENDSEC
0
SECTION
2
BLOCKS
0
BLOCK
5
20
100
AcDbEntity
8
0
100
AcDbBlockBegin
2
*Model_Space
70
0
10
0
20
0
30
0
3
*Model_Space
0
ENDBLK
5
21
100
AcDbEntity
8
0
100
AcDbBlockEnd
0
BLOCK
5
1C
100
AcDbEntity
8
0
100
AcDbBlockBegin
2
*Paper_Space
70
0
10
0
20
0
30
0
3
*Paper_Space
0
ENDBLK
5
1D
100
AcDbEntity
8
0
100
AcDbBlockEnd
0
BLOCK
5
24
100
AcDbEntity
8
0
100
AcDbBlockBegin
2
*Paper_Space0
70
0
10
0
20
0
30
0
3
*Paper_Space0
0
ENDBLK
5
25
100
AcDbEntity
8
0
100
AcDbBlockEnd
0
BLOCK
5
D4
100
AcDbEntity
8
0
100
AcDbBlockBegin
2
DimnDraft3D1
70
0
10
0
20
0
30
0
3
DimnDraft3D1
0
MTEXT
5
C9
100
AcDbEntity
8
SK2
62
256
6
ByLayer
370
18
48
1
60
0
100
AcDbMText
10
-13.900859
20
18.365139
30
0
210
0
220
0
230
1
1
\W0.6562;70
40
1.5
41
0
44
1.084337
50
0
71
8
72
5
7
iso_b_vert
0
LINE
5
CB
100
AcDbEntity
8
SK2
62
256
6
ByLayer
370
13
48
1
60
0
100
AcDbLine
10
21.099141
20
1.481811
30
0
11
21.099141
21
18.990139
31
0
39
0
210
0
220
0
230
1
0
LINE
5
CC
100
AcDbEntity
8
SK2
62
256
6
ByLayer
370
13
48
1
60
0
100
AcDbLine
10
-48.900859
20
8.75
30
0
11
-48.900859
21
18.990139
31
0
39
0
210
0
220
0
230
1
0
LINE
5
CD
100
AcDbEntity
8
SK2
62
256
6
ByLayer
370
13
48
1
60
0
100
AcDbLine
10
21.099141
20
17.990139
30
0
11
-48.900859
21
17.990139
31
0
39
0
210
0
220
0
230
1
0
LINE
5
CE
100
AcDbEntity
8
SK2
62
256
6
ByLayer
370
13
48
1
60
0
100
AcDbLine
10
21.099141
20
17.990139
30
0
11
19.511642
21
17.78114
31
0
39
0
210
0
220
0
230
1
0
LINE
5
CF
100
AcDbEntity
8
SK2
62
256
6
ByLayer
370
13
48
1
60
0
100
AcDbLine
10
21.099141
20
17.990139
30
0
11
19.51164
21
18.199137
31
0
39
0
210
0
220
0
230
1
0
LINE
5
D0
100
AcDbEntity
8
SK2
62
256
6
ByLayer
370
13
48
1
60
0
100
AcDbLine
10
19.511642
20
17.78114
30
0
11
19.51164
21
18.199137
31
0
39
0
210
0
220
0
230
1
0
LINE
5
D1
100
AcDbEntity
8
SK2
62
256
6
ByLayer
370
13
48
1
60
0
100
AcDbLine
10
-48.900859
20
17.990139
30
0
11
-47.31336
21
18.199137
31
0
39
0
210
0
220
0
230
1
0
LINE
5
D2
100
AcDbEntity
8
SK2
62
256
6
ByLayer
370
13
48
1
60
0
100
AcDbLine
10
-48.900859
20
17.990139
30
0
11
-47.313358
21
17.78114
31
0
39
0
210
0
220
0
230
1
0
LINE
5
D3
100
AcDbEntity
8
SK2
62
256
6
ByLayer
370
13
48
1
60
0
100
AcDbLine
10
-47.31336
20
18.199137
30
0
11
-47.313358
21
17.78114
31
0
39
0
210
0
220
0
230
1
0
ENDBLK
5
D5
100
AcDbEntity
8
0
100
AcDbBlockEnd
0
BLOCK
5
D8
100
AcDbEntity
8
0
100
AcDbBlockBegin
2
_CLOSED
70
0
10
0
20
0
30
0
3
_CLOSED
0
LINE
5
DA
100
AcDbEntity
8
0
62
256
6
ByLayer
370
-2
48
1
60
0
100
AcDbLine
10
-1
20
0.166667
30
0
11
0
21
0
31
0
39
0
210
0
220
0
230
1
0
LINE
5
DB
100
AcDbEntity
8
0
62
256
6
ByLayer
370
-2
48
1
60
0
100
AcDbLine
10
0
20
0
30
0
11
-1
21
-0.166667
31
0
39
0
210
0
220
0
230
1
0
LINE
5
DC
100
AcDbEntity
8
0
62
256
6
ByLayer
370
-2
48
1
60
0
100
AcDbLine
10
-1
20
0.166667
30
0
11
-1
21
-0.166667
31
0
39
0
210
0
220
0
230
1
0
LINE
5
DD
100
AcDbEntity
8
0
62
256
6
ByLayer
370
-2
48
1
60
0
100
AcDbLine
10
0
20
0
30
0
11
-1
21
0
31
0
39
0
210
0
220
0
230
1
0
ENDBLK
5
D9
100
AcDbEntity
8
0
100
AcDbBlockEnd
0
BLOCK
5
E9
100
AcDbEntity
8
0
100
AcDbBlockBegin
2
DimnDraft3D2
70
0
10
0
20
0
30
0
3
DimnDraft3D2
0
MTEXT
5
DF
100
AcDbEntity
8
SK2
62
256
6
ByLayer
370
18
48
1
60
0
100
AcDbMText
10
-53.47029
20
0
30
0
210
0
220
0
230
1
1
\W0.5144;16
40
1.5
41
0
44
1.084337
50
90
71
8
72
5
7
iso_b_vert
0
LINE
5
E0
100
AcDbEntity
8
SK2
62
256
6
ByLayer
370
13
48
1
60
0
100
AcDbLine
10
-49.650859
20
8
30
0
11
-54.09529
21
8
31
0
39
0
210
0
220
0
230
1
0
LINE
5
E1
100
AcDbEntity
8
SK2
62
256
6
ByLayer
370
13
48
1
60
0
100
AcDbLine
10
-46.900859
20
-8
30
0
11
-54.09529
21
-8
31
0
39
0
210
0
220
0
230
1
0
LINE
5
E2
100
AcDbEntity
8
SK2
62
256
6
ByLayer
370
13
48
1
60
0
100
AcDbLine
10
-53.09529
20
8
30
0
11
-53.09529
21
-8
31
0
39
0
210
0
220
0
230
1
0
LINE
5
E3
100
AcDbEntity
8
SK2
62
256
6
ByLayer
370
13
48
1
60
0
100
AcDbLine
10
-53.09529
20
8
30
0
11
-52.886291
21
6.412501
31
0
39
0
210
0
220
0
230
1
0
LINE
5
E4
100
AcDbEntity
8
SK2
62
256
6
ByLayer
370
13
48
1
60
0
100
AcDbLine
10
-53.09529
20
8
30
0
11
-53.304288
21
6.412499
31
0
39
0
210
0
220
0
230
1
0
LINE
5
E5
100
AcDbEntity
8
SK2
62
256
6
ByLayer
370
13
48
1
60
0
100
AcDbLine
10
-52.886291
20
6.412501
30
0
11
-53.304288
21
6.412499
31
0
39
0
210
0
220
0
230
1
0
LINE
5
E6
100
AcDbEntity
8
SK2
62
256
6
ByLayer
370
13
48
1
60
0
100
AcDbLine
10
-53.09529
20
-8
30
0
11
-53.304288
21
-6.412501
31
0
39
0
210
0
220
0
230
1
0
LINE
5
E7
100
AcDbEntity
8
SK2
62
256
6
ByLayer
370
13
48
1
60
0
100
AcDbLine
10
-53.09529
20
-8
30
0
11
-52.886291
21
-6.412499
31
0
39
0
210
0
220
0
230
1
0
LINE
5
E8
100
AcDbEntity
8
SK2
62
256
6
ByLayer
370
13
48
1
60
0
100
AcDbLine
10
-53.304288
20
-6.412501
30
0
11
-52.886291
21
-6.412499
31
0
39
0
210
0
220
0
230
1
0
ENDBLK
5
EA
100
AcDbEntity
8
0
100
AcDbBlockEnd
0
BLOCK
5
F7
100
AcDbEntity
8
0
100
AcDbBlockBegin
2
DimnDraft3D3
70
0
10
0
20
0
30
0
3
DimnDraft3D3
0
MTEXT
5
ED
100
AcDbEntity
8
SK2
62
256
6
ByLayer
370
18
48
1
60
0
100
AcDbMText
10
27.905846
20
4.240906
30
0
210
0
220
0
230
1
1
\W0.6912;7.5
40
1.5
41
0
44
1.084337
50
90
71
8
72
5
7
iso_b_vert
0
LINE
5
EE
100
AcDbEntity
8
SK2
62
256
6
ByLayer
370
13
48
1
60
0
100
AcDbLine
10
6.231284
20
8
30
0
11
29.280846
21
8
31
0
39
0
210
0
220
0
230
1
0
LINE
5
EF
100
AcDbEntity
8
SK2
62
256
6
ByLayer
370
13
48
1
60
0
100
AcDbLine
10
22.099141
20
0.481811
30
0
11
29.280846
21
0.481811
31
0
39
0
210
0
220
0
230
1
0
LINE
5
F0
100
AcDbEntity
8
SK2
62
256
6
ByLayer
370
13
48
1
60
0
100
AcDbLine
10
28.280846
20
8
30
0
11
28.280846
21
0.481811
31
0
39
0
210
0
220
0
230
1
0
LINE
5
F1
100
AcDbEntity
8
SK2
62
256
6
ByLayer
370
13
48
1
60
0
100
AcDbLine
10
28.280846
20
8
30
0
11
28.489844
21
6.412501
31
0
39
0
210
0
220
0
230
1
0
LINE
5
F2
100
AcDbEntity
8
SK2
62
256
6
ByLayer
370
13
48
1
60
0
100
AcDbLine
10
28.280846
20
8
30
0
11
28.071847
21
6.412499
31
0
39
0
210
0
220
0
230
1
0
LINE
5
F3
100
AcDbEntity
8
SK2
62
256
6
ByLayer
370
13
48
1
60
0
100
AcDbLine
10
28.489844
20
6.412501
30
0
11
28.071847
21
6.412499
31
0
39
0
210
0
220
0
230
1
0
LINE
5
F4
100
AcDbEntity
8
SK2
62
256
6
ByLayer
370
13
48
1
60
0
100
AcDbLine
10
28.280846
20
0.481811
30
0
11
28.071847
21
2.06931
31
0
39
0
210
0
220
0
230
1
0
LINE
5
F5
100
AcDbEntity
8
SK2
62
256
6
ByLayer
370
13
48
1
60
0
100
AcDbLine
10
28.280846
20
0.481811
30
0
11
28.489844
21
2.069312
31
0
39
0
210
0
220
0
230
1
0
LINE
5
F6
100
AcDbEntity
8
SK2
62
256
6
ByLayer
370
13
48
1
60
0
100
AcDbLine
10
28.071847
20
2.06931
30
0
11
28.489844
21
2.069312
31
0
39
0
210
0
220
0
230
1
0
ENDBLK
5
F8
100
AcDbEntity
8
0
100
AcDbBlockEnd
0
BLOCK
5
106
100
AcDbEntity
8
0
100
AcDbBlockBegin
2
DimnDraft3D4
70
0
10
0
20
0
30
0
3
DimnDraft3D4
0
MTEXT
5
FB
100
AcDbEntity
8
2
62
256
6
ByLayer
370
18
48
1
60
0
100
AcDbMText
10
10.549571
20
12.9735
30
0
210
0
220
0
230
1
1
\W0.6139;21
40
1.5
41
0
44
1.084337
50
0
71
8
72
5
7
iso_b_vert
0
LINE
5
FD
100
AcDbEntity
8
2
62
256
6
ByLayer
370
13
48
1
60
0
100
AcDbLine
10
21.099141
20
1.481811
30
0
11
21.099141
21
13.5985
31
0
39
0
210
0
220
0
230
1
0
LINE
5
FE
100
AcDbEntity
8
2
62
256
6
ByLayer
370
13
48
1
60
0
100
AcDbLine
10
0
20
8.75
30
0
11
0
21
13.5985
31
0
39
0
210
0
220
0
230
1
0
LINE
5
FF
100
AcDbEntity
8
2
62
256
6
ByLayer
370
13
48
1
60
0
100
AcDbLine
10
21.099141
20
12.5985
30
0
11
0
21
12.5985
31
0
39
0
210
0
220
0
230
1
0
LINE
5
100
100
AcDbEntity
8
2
62
256
6
ByLayer
370
13
48
1
60
0
100
AcDbLine
10
21.099141
20
12.5985
30
0
11
19.511642
21
12.389501
31
0
39
0
210
0
220
0
230
1
0
LINE
5
101
100
AcDbEntity
8
2
62
256
6
ByLayer
370
13
48
1
60
0
100
AcDbLine
10
21.099141
20
12.5985
30
0
11
19.51164
21
12.807498
31
0
39
0
210
0
220
0
230
1
0
LINE
5
102
100
AcDbEntity
8
2
62
256
6
ByLayer
370
13
48
1
60
0
100
AcDbLine
10
19.511642
20
12.389501
30
0
11
19.51164
21
12.807498
31
0
39
0
210
0
220
0
230
1
0
LINE
5
103
100
AcDbEntity
8
2
62
256
6
ByLayer
370
13
48
1
60
0
100
AcDbLine
10
0
20
12.5985
30
0
11
1.587499
21
12.807498
31
0
39
0
210
0
220
0
230
1
0
LINE
5
104
100
AcDbEntity
8
2
62
256
6
ByLayer
370
13
48
1
60
0
100
AcDbLine
10
0
20
12.5985
30
0
11
1.587501
21
12.389501
31
0
39
0
210
0
220
0
230
1
0
LINE
5
105
100
AcDbEntity
8
2
62
256
6
ByLayer
370
13
48
1
60
0
100
AcDbLine
10
1.587499
20
12.807498
30
0
11
1.587501
21
12.389501
31
0
39
0
210
0
220
0
230
1
0
ENDBLK
5
107
100
AcDbEntity
8
0
100
AcDbBlockEnd
0
ENDSEC
0
SECTION
2
ENTITIES
0
ARC
5
92
100
AcDbEntity
8
1
62
256
6
ByLayer
370
18
48
1
60
0
100
AcDbCircle
39
0
10
2.510638
20
0
30
0
40
1.49999999999666
210
0
220
0
230
1
100
AcDbArc
50
283.964752
51
312.444396
0
ARC
5
93
100
AcDbEntity
8
1
62
256
6
ByLayer
370
18
48
1
60
0
100
AcDbCircle
39
0
10
4.24109
20
-0.57935
30
0
40
1.78038590625639
210
0
220
0
230
1
100
AcDbArc
50
210.642782
51
297.5
0
ARC
5
94
100
AcDbEntity
8
1
62
256
6
ByLayer
370
18
48
1
60
0
100
AcDbCircle
39
0
10
0.406072
20
-7.72
30
0
40
0.399999999996152
210
0
220
0
230
1
100
AcDbArc
50
195
51
224.427004
0
ARC
5
95
100
AcDbEntity
8
1
62
256
6
ByLayer
370
18
48
1
60
0
100
AcDbCircle
39
0
10
2.510638
20
0
30
0
40
1.5
210
0
220
0
230
1
100
AcDbArc
50
47.557299
51
277.611228
0
ARC
5
96
100
AcDbEntity
8
1
62
256
6
ByLayer
370
18
48
1
60
0
100
AcDbCircle
39
0
10
0.406072
20
7.72
30
0
40
0.399999999995055
210
0
220
0
230
1
100
AcDbArc
50
135.572996
51
165
0
ARC
5
97
100
AcDbEntity
8
1
62
256
6
ByLayer
370
18
48
1
60
0
100
AcDbCircle
39
0
10
4.24109
20
-0.57935
30
0
40
1.62500000000001
210
0
220
0
230
1
100
AcDbArc
50
212.634066
51
297.5
0
ARC
5
98
100
AcDbEntity
8
1
62
256
6
ByLayer
370
18
48
1
60
0
100
AcDbCircle
39
0
10
11.710638
20
0
30
0
40
1.2065000000002
210
0
220
0
230
1
100
AcDbArc
50
29.920057
51
86.044721
0
ARC
5
9A
100
AcDbEntity
8
1
62
256
6
ByLayer
370
18
48
1
60
0
100
AcDbCircle
39
0
10
-11.710638
20
0
30
0
40
1.2065
210
0
220
0
230
-1
100
AcDbArc
50
266.044721
51
273.955279
0
ARC
5
9B
100
AcDbEntity
8
1
62
256
6
ByLayer
370
18
48
1
60
0
100
AcDbCircle
39
0
10
11.710638
20
0
30
0
40
1.67649999999996
210
0
220
0
230
1
100
AcDbArc
50
59.840113
51
120.159887
0
ARC
5
9C
100
AcDbEntity
8
1
62
256
6
ByLayer
370
18
48
1
60
0
100
AcDbCircle
39
0
10
11.710638
20
0
30
0
40
1.20649999999985
210
0
220
0
230
1
100
AcDbArc
50
209.920057
51
266.044721
0
ARC
5
9D
100
AcDbEntity
8
1
62
256
6
ByLayer
370
18
48
1
60
0
100
AcDbCircle
39
0
10
11.710638
20
0
30
0
40
1.20650000000008
210
0
220
0
230
1
100
AcDbArc
50
330.079943
51
29.920057
0
ARC
5
9E
100
AcDbEntity
8
1
62
256
6
ByLayer
370
18
48
1
60
0
100
AcDbCircle
39
0
10
11.710638
20
0
30
0
40
1.20649999999986
210
0
220
0
230
1
100
AcDbArc
50
150.079943
51
209.920057
0
ARC
5
9F
100
AcDbEntity
8
1
62
256
6
ByLayer
370
18
48
1
60
0
100
AcDbCircle
39
0
10
11.710638
20
0
30
0
40
1.20650000000001
210
0
220
0
230
1
100
AcDbArc
50
273.955279
51
330.079943
0
ARC
5
A0
100
AcDbEntity
8
1
62
256
6
ByLayer
370
18
48
1
60
0
100
AcDbCircle
39
0
10
11.710638
20
0
30
0
40
1.67650000000008
210
0
220
0
230
1
100
AcDbArc
50
0
51
59.840113
0
ARC
5
A1
100
AcDbEntity
8
1
62
256
6
ByLayer
370
18
48
1
60
0
100
AcDbCircle
39
0
10
11.710638
20
0
30
0
40
1.67650000000006
210
0
220
0
230
1
100
AcDbArc
50
300.159887
51
0
0
ARC
5
A2
100
AcDbEntity
8
1
62
256
6
ByLayer
370
18
48
1
60
0
100
AcDbCircle
39
0
10
11.710638
20
0
30
0
40
1.20649999999989
210
0
220
0
230
1
100
AcDbArc
50
93.955279
51
150.079943
0
ARC
5
A4
100
AcDbEntity
8
1
62
256
6
ByLayer
370
18
48
1
60
0
100
AcDbCircle
39
0
10
11.710638
20
0
30
0
40
1.67650000000002
210
0
220
0
230
1
100
AcDbArc
50
180
51
239.840113
0
ARC
5
A5
100
AcDbEntity
8
1
62
256
6
ByLayer
370
18
48
1
60
0
100
AcDbCircle
39
0
10
11.710638
20
0
30
0
40
1.67650000000007
210
0
220
0
230
1
100
AcDbArc
50
120.159887
51
180
0
ARC
5
A6
100
AcDbEntity
8
1
62
256
6
ByLayer
370
18
48
1
60
0
100
AcDbCircle
39
0
10
11.710638
20
0
30
0
40
1.67650000000002
210
0
220
0
230
1
100
AcDbArc
50
239.840113
51
300.159887
0
ARC
5
A7
100
AcDbEntity
8
1
62
256
6
ByLayer
370
18
48
1
60
0
100
AcDbCircle
39
0
10
-11.710638
20
0
30
0
40
1.2065
210
0
220
0
230
-1
100
AcDbArc
50
86.044721
51
93.955279
0
ARC
5
A8
100
AcDbEntity
8
1
62
256
6
ByLayer
370
18
48
1
60
0
100
AcDbCircle
39
0
10
11.710638
20
4.474015
30
0
40
0.793999999999865
210
0
220
0
230
1
100
AcDbArc
50
62.5
51
117.5
0
ARC
5
AB
100
AcDbEntity
8
1
62
256
6
ByLayer
370
18
48
1
60
0
100
AcDbCircle
39
0
10
20.305141
20
0
30
0
40
0.794000000000002
210
0
220
0
230
1
100
AcDbArc
50
297.5
51
62.5
0
ARC
5
AC
100
AcDbEntity
8
1
62
256
6
ByLayer
370
18
48
1
60
0
100
AcDbCircle
39
0
10
11.710638
20
-4.474015
30
0
40
0.793999999999494
210
0
220
0
230
1
100
AcDbArc
50
242.5
51
297.5
0
ARC
5
AE
100
AcDbEntity
8
1
62
256
6
ByLayer
370
18
48
1
60
0
100
AcDbCircle
39
0
10
3.116135
20
0
30
0
40
0.793999999999998
210
0
220
0
230
1
100
AcDbArc
50
117.5
51
242.5
0
CIRCLE
5
99
100
AcDbEntity
8
1
62
256
6
ByLayer
370
18
48
1
60
0
100
AcDbCircle
10
11.710638
20
0
30
0
40
1.8
39
0
210
0
220
0
230
1
0
CIRCLE
5
A3
100
AcDbEntity
8
1
62
256
6
ByLayer
370
18
48
1
60
0
100
AcDbCircle
10
11.710638
20
0
30
0
40
2.625
39
0
210
0
220
0
230
1
0
CIRCLE
5
A9
100
AcDbEntity
8
1
62
256
6
ByLayer
370
18
48
1
60
0
100
AcDbCircle
10
11.710638
20
0
30
0
40
3.07132534818238
39
0
210
0
220
0
230
1
0
CIRCLE
5
AA
100
AcDbEntity
8
1
62
256
6
ByLayer
370
13
48
1
60
0
100
AcDbCircle
10
11.710638
20
0
30
0
40
2.94486584643912
39
0
210
0
220
0
230
1
0
CIRCLE
5
AD
100
AcDbEntity
8
1
62
256
6
ByLayer
370
13
48
1
60
0
100
AcDbCircle
10
11.710638
20
0
30
0
40
3
39
0
210
0
220
0
230
1
0
POINT
5
6C
100
AcDbEntity
8
81
62
256
6
ByLayer
370
18
48
1
60
0
100
AcDbPoint
10
21.099141
20
0.481811
30
0
39
0
210
0
220
0
230
1
50
360
0
POINT
5
6E
100
AcDbEntity
8
80
62
256
6
ByLayer
370
18
48
1
60
0
100
AcDbPoint
10
0
20
0
30
0
39
0
210
0
220
0
230
1
50
360
0
SPLINE
5
AF
100
AcDbEntity
8
1
62
256
6
ByLayer
370
18
48
1
60
0
100
AcDbSpline
70
4
71
3
72
8
73
4
40
0
40
0
40
0
40
0
40
1
40
1
40
1
40
1
41
1
10
2.87262526360254
20
-1.45566655469099
30
0
41
1
10
2.81955923884952
20
-1.46886273107148
30
0
41
1
10
2.76508726195867
20
-1.47933151335565
30
0
41
1
10
2.70931379357246
20
-1.48678440695598
30
0
0
SPLINE
5
B0
100
AcDbEntity
8
1
62
256
6
ByLayer
370
18
48
1
60
0
100
AcDbSpline
70
4
71
3
72
14
73
10
40
0
40
0
40
0
40
0
40
0.283961749036713
40
0.283961749036713
40
0.570285189259025
40
0.570285189259025
40
0.829451094335679
40
0.829451094335679
40
1
40
1
40
1
40
1
41
1
10
10.7329933906512
20
-1.12150404177584
30
0
41
1
10
10.724316529956
20
-1.15388811302852
30
0
41
1
10
10.7210839985564
20
-1.18882554195891
30
0
41
1
10
10.7274314928758
20
-1.25850421461399
30
0
41
1
10
10.7372788406031
20
-1.29431482284193
30
0
41
1
10
10.7684232669903
20
-1.35690846987029
30
0
41
1
10
10.7890701097595
20
-1.38514373353327
30
0
41
1
10
10.8302356990233
20
-1.42427613243174
30
0
41
1
10
10.8486869075959
20
-1.4381270613534
30
0
41
1
10
10.8683395546997
20
-1.44954676283689
30
0
0
SPLINE
5
B1
100
AcDbEntity
8
1
62
256
6
ByLayer
370
18
48
1
60
0
100
AcDbSpline
70
4
71
3
72
16
73
12
40
0
40
0
40
0
40
0
40
0.0569446172824998
40
0.0569446172824998
40
0.279906644834072
40
0.279906644834072
40
0.505321967306685
40
0.505321967306685
40
0.744915047128813
40
0.744915047128813
40
1
40
1
40
1
40
1
41
1
10
10.8683395546997
20
1.44954676283692
30
0
41
1
10
10.8617482968677
20
1.44571673442168
30
0
41
1
10
10.8553011836413
20
1.44162442622114
30
0
41
1
10
10.8246742415209
20
1.42045865074911
30
0
41
1
10
10.8027101913539
20
1.39963106376159
30
0
41
1
10
10.7666302219667
20
1.35336102380356
30
0
41
1
10
10.7521253042768
20
1.3272953617156
30
0
41
1
10
10.7312009761388
20
1.27206196334281
30
0
41
1
10
10.7250556579736
20
1.24212170469319
30
0
41
1
10
10.7217849573706
20
1.18170391695379
30
0
41
1
10
10.7251973371357
20
1.15060073485468
30
0
41
1
10
10.7329933906512
20
1.12150404177589
30
0
0
SPLINE
5
B2
100
AcDbEntity
8
1
62
256
6
ByLayer
370
18
48
1
60
0
100
AcDbSpline
70
4
71
3
72
14
73
10
40
0
40
0
40
0
40
0
40
0.283961749036714
40
0.283961749036714
40
0.570285189259028
40
0.570285189259028
40
0.829451094335682
40
0.829451094335682
40
1
40
1
40
1
40
1
41
1
10
12.6882823260688
20
1.12150404177586
30
0
41
1
10
12.696959186764
20
1.15388811302854
30
0
41
1
10
12.7001917181636
20
1.18882554195893
30
0
41
1
10
12.6938442238442
20
1.25850421461402
30
0
41
1
10
12.6839968761169
20
1.29431482284195
30
0
41
1
10
12.6528524497297
20
1.35690846987032
30
0
41
1
10
12.6322056069604
20
1.3851437335333
30
0
41
1
10
12.5910400176967
20
1.42427613243177
30
0
41
1
10
12.5725888091241
20
1.43812706135343
30
0
41
1
10
12.5529361620203
20
1.44954676283692
30
0
0
SPLINE
5
B3
100
AcDbEntity
8
1
62
256
6
ByLayer
370
18
48
1
60
0
100
AcDbSpline
70
4
71
3
72
16
73
12
40
0
40
0
40
0
40
0
40
0.0569446172824982
40
0.0569446172824982
40
0.279906644834072
40
0.279906644834072
40
0.505321967306684
40
0.505321967306684
40
0.744915047128815
40
0.744915047128815
40
1
40
1
40
1
40
1
41
1
10
12.5529361620203
20
-1.44954676283689
30
0
41
1
10
12.5595274198523
20
-1.44571673442165
30
0
41
1
10
12.5659745330787
20
-1.44162442622111
30
0
41
1
10
12.596601475199
20
-1.42045865074908
30
0
41
1
10
12.6185655253661
20
-1.39963106376156
30
0
41
1
10
12.6546454947533
20
-1.35336102380353
30
0
41
1
10
12.6691504124432
20
-1.32729536171557
30
0
41
1
10
12.6900747405812
20
-1.27206196334278
30
0
41
1
10
12.6962200587464
20
-1.24212170469316
30
0
41
1
10
12.6994907593494
20
-1.18170391695377
30
0
41
1
10
12.6960783795843
20
-1.15060073485465
30
0
41
1
10
12.6882823260688
20
-1.12150404177586
30
0
0
SPLINE
5
B4
100
AcDbEntity
8
1
62
256
6
ByLayer
370
18
48
1
60
0
100
AcDbSpline
70
4
71
3
72
18
73
14
40
0
40
0
40
0
40
0
40
0.212491592102414
40
0.212491592102414
40
0.386618191488472
40
0.386618191488472
40
0.56242629505081
40
0.56242629505081
40
0.715388354469454
40
0.715388354469454
40
0.918249128147155
40
0.918249128147155
40
1
40
1
40
1
40
1
41
1
10
10.2497724661747
20
0.281837412130457
30
0
41
1
10
10.3182755818446
20
0.300398706936932
30
0
41
1
10
10.3861660276406
20
0.33038180891063
30
0
41
1
10
10.4999421243534
20
0.405596523651667
30
0
41
1
10
10.5487825651393
20
0.448080643418138
30
0
41
1
10
10.6332962796901
20
0.546545944412514
30
0
41
1
10
10.6699463225777
20
0.604236286893411
30
0
41
1
10
10.7201776411542
20
0.71670391071261
30
0
41
1
10
10.7368167135075
20
0.772190714037464
30
0
41
1
10
10.7587838684279
20
0.898862337758914
30
0
41
1
10
10.7592754039364
20
0.971419161560391
30
0
41
1
10
10.7457339722912
20
1.06750657274455
30
0
41
1
10
10.7401364579803
20
1.09484444569945
30
0
41
1
10
10.7329933906512
20
1.12150404177586
30
0
0
SPLINE
5
B5
100
AcDbEntity
8
1
62
256
6
ByLayer
370
18
48
1
60
0
100
AcDbSpline
70
4
71
3
72
12
73
8
40
0
40
0
40
0
40
0
40
0.495779676780359
40
0.495779676780359
40
0.900233025448797
40
0.900233025448797
40
1
40
1
40
1
40
1
41
1
10
11.222726880996
20
1.4023367876501
30
0
41
1
10
11.2728636560336
20
1.35160861736053
30
0
41
1
10
11.332707404271
20
1.30712442026973
30
0
41
1
10
11.454619073474
20
1.24516172567922
30
0
41
1
10
11.5156890917771
20
1.22366439055655
30
0
41
1
10
11.5951189091447
20
1.20816229487835
30
0
41
1
10
11.6112127262318
20
1.20560668398316
30
0
41
1
10
11.6274161218427
20
1.20362635089595
30
0
0
SPLINE
5
B6
100
AcDbEntity
8
1
62
256
6
ByLayer
370
18
48
1
60
0
100
AcDbSpline
70
4
71
3
72
16
73
12
40
0
40
0
40
0
40
0
40
0.0630415689509295
40
0.0630415689509295
40
0.285914332024976
40
0.285914332024976
40
0.511588305408905
40
0.511588305408905
40
0.751723061839371
40
0.751723061839371
40
1
40
1
40
1
40
1
41
1
10
10.03413785836
20
1.42E-14
30
0
41
1
10
10.03413785836
20
-0.0084336538328955
30
0
41
1
10
10.0345042296114
20
-0.0168769683504308
30
0
41
1
10
10.0377947149448
20
-0.054753792431498
30
0
41
1
10
10.045003967949
20
-0.0841216087705163
30
0
41
1
10
10.067313769667
20
-0.138367789843301
30
0
41
1
10
10.08277439244
20
-0.163884549643811
30
0
41
1
10
10.1204150235401
20
-0.209452916501775
30
0
41
1
10
10.1434088285798
20
-0.22964056825316
30
0
41
1
10
10.1935982401566
20
-0.261951448647636
30
0
41
1
10
10.2214591448431
20
-0.274165762468272
30
0
41
1
10
10.2497724661746
20
-0.281837412130415
30
0
0
SPLINE
5
B7
100
AcDbEntity
8
1
62
256
6
ByLayer
370
18
48
1
60
0
100
AcDbSpline
70
4
71
3
72
18
73
14
40
0
40
0
40
0
40
0
40
0.212491592102414
40
0.212491592102414
40
0.386618191488472
40
0.386618191488472
40
0.56242629505081
40
0.56242629505081
40
0.715388354469453
40
0.715388354469453
40
0.918249128147155
40
0.918249128147155
40
1
40
1
40
1
40
1
41
1
10
13.1715032505453
20
-0.281837412130429
30
0
41
1
10
13.1030001348754
20
-0.300398706936903
30
0
41
1
10
13.0351096890794
20
-0.330381808910602
30
0
41
1
10
12.9213335923666
20
-0.405596523651639
30
0
41
1
10
12.8724931515807
20
-0.448080643418109
30
0
41
1
10
12.7879794370299
20
-0.546545944412486
30
0
41
1
10
12.7513293941423
20
-0.604236286893382
30
0
41
1
10
12.7010980755657
20
-0.716703910712582
30
0
41
1
10
12.6844590032124
20
-0.772190714037436
30
0
41
1
10
12.6624918482921
20
-0.898862337758885
30
0
41
1
10
12.6620003127835
20
-0.971419161560362
30
0
41
1
10
12.6755417444288
20
-1.06750657274452
30
0
41
1
10
12.6811392587397
20
-1.09484444569944
30
0
41
1
10
12.6882823260688
20
-1.12150404177584
30
0
0
SPLINE
5
B8
100
AcDbEntity
8
1
62
256
6
ByLayer
370
18
48
1
60
0
100
AcDbSpline
70
4
71
3
72
12
73
8
40
0
40
0
40
0
40
0
40
0.49577967678036
40
0.49577967678036
40
0.900233025448792
40
0.900233025448792
40
1
40
1
40
1
40
1
41
1
10
12.1985488357239
20
-1.40233678765007
30
0
41
1
10
12.1484120606863
20
-1.3516086173605
30
0
41
1
10
12.088568312449
20
-1.3071244202697
30
0
41
1
10
11.966656643246
20
-1.2451617256792
30
0
41
1
10
11.9055866249429
20
-1.22366439055652
30
0
41
1
10
11.8261568075753
20
-1.20816229487832
30
0
41
1
10
11.8100629904882
20
-1.20560668398313
30
0
41
1
10
11.7938595948773
20
-1.20362635089592
30
0
0
SPLINE
5
B9
100
AcDbEntity
8
1
62
256
6
ByLayer
370
18
48
1
60
0
100
AcDbSpline
70
4
71
3
72
16
73
12
40
0
40
0
40
0
40
0
40
0.062445008261402
40
0.062445008261402
40
0.283207995985756
40
0.283207995985756
40
0.506745688833501
40
0.506745688833501
40
0.744607284736919
40
0.744607284736919
40
1
40
1
40
1
40
1
41
1
10
12.5529361620203
20
1.44954676283692
30
0
41
1
10
12.5456441751754
20
1.45378396877413
30
0
41
1
10
12.5381597638286
20
1.45770925194566
30
0
41
1
10
12.50375723064
20
1.47389408653598
30
0
41
1
10
12.4747429943431
20
1.48241558862864
30
0
41
1
10
12.4166315198792
20
1.49038000158147
30
0
41
1
10
12.3868014017863
20
1.48983232117914
30
0
41
1
10
12.3284905660046
20
1.48018142671813
30
0
41
1
10
12.2994833572834
20
1.4704429326038
30
0
41
1
10
12.245313216359
20
1.44276136963447
30
0
41
1
10
12.2199224727656
20
1.42396254037843
30
0
41
1
10
12.1985488357239
20
1.4023367876501
30
0
0
SPLINE
5
BA
100
AcDbEntity
8
1
62
256
6
ByLayer
370
18
48
1
60
0
100
AcDbSpline
70
4
71
3
72
16
73
12
40
0
40
0
40
0
40
0
40
0.0630415689509303
40
0.0630415689509303
40
0.285914332024977
40
0.285914332024977
40
0.511588305408906
40
0.511588305408906
40
0.751723061839373
40
0.751723061839373
40
1
40
1
40
1
40
1
41
1
10
13.38713785836
20
1.42E-14
30
0
41
1
10
13.38713785836
20
0.0084336538329239
30
0
41
1
10
13.3867714871086
20
0.0168769683504593
30
0
41
1
10
13.3834810017752
20
0.0547537924315264
30
0
41
1
10
13.376271748771
20
0.0841216087705448
30
0
41
1
10
13.3539619470529
20
0.138367789843329
30
0
41
1
10
13.33850132428
20
0.163884549643839
30
0
41
1
10
13.3008606931799
20
0.209452916501803
30
0
41
1
10
13.2778668881402
20
0.229640568253188
30
0
41
1
10
13.2276774765634
20
0.261951448647665
30
0
41
1
10
13.1998165718768
20
0.2741657624683
30
0
41
1
10
13.1715032505453
20
0.281837412130443
30
0
0
SPLINE
5
BB
100
AcDbEntity
8
1
62
256
6
ByLayer
370
18
48
1
60
0
100
AcDbSpline
70
4
71
3
72
18
73
14
40
0
40
0
40
0
40
0
40
0.212491695755302
40
0.212491695755302
40
0.386618276853805
40
0.386618276853805
40
0.562426360907933
40
0.562426360907933
40
0.715388416645937
40
0.715388416645937
40
0.918249208689863
40
0.918249208689863
40
1
40
1
40
1
40
1
41
1
10
10.7329933906512
20
-1.12150404177584
30
0
41
1
10
10.7513617821699
20
-1.05294891329882
30
0
41
1
10
10.7595467492068
20
-0.979185025511555
30
0
41
1
10
10.7516768575061
20
-0.8430221533728
30
0
41
1
10
10.7394820989163
20
-0.779448760081067
30
0
41
1
10
10.6968072867371
20
-0.656905539531152
30
0
41
1
10
10.6653401900207
20
-0.596232464322057
30
0
41
1
10
10.5933346220209
20
-0.496295746403689
30
0
41
1
10
10.5537189594705
20
-0.4540317777452
30
0
41
1
10
10.4552318958796
20
-0.371396705691581
30
0
41
1
10
10.392744270831
20
-0.334518098058552
30
0
41
1
10
10.302861126442
20
-0.297950670800873
30
0
41
1
10
10.2764118222804
20
-0.289055491735951
30
0
41
1
10
10.2497724661747
20
-0.281837412130429
30
0
0
SPLINE
5
BC
100
AcDbEntity
8
1
62
256
6
ByLayer
370
18
48
1
60
0
100
AcDbSpline
70
4
71
3
72
14
73
10
40
0
40
0
40
0
40
0
40
0.283961457856589
40
0.283961457856589
40
0.570284934646621
40
0.570284934646621
40
0.829450869060465
40
0.829450869060465
40
1
40
1
40
1
40
1
41
1
10
10.2497724661747
20
0.281837412130457
30
0
41
1
10
10.217412981995
20
0.273069432458712
30
0
41
1
10
10.1855811071476
20
0.258311308209173
30
0
41
1
10
10.1285241497863
20
0.217815543953677
30
0
41
1
10
10.1025087804479
20
0.191309493309788
30
0
41
1
10
10.0640360338379
20
0.13293322621611
30
0
41
1
10
10.0499963355787
20
0.100895602610379
30
0
41
1
10
10.036843590339
20
0.0456420108783249
30
0
41
1
10
10.03413785836
20
0.0227296607955907
30
0
41
1
10
10.03413785836
20
1.42E-14
30
0
0
SPLINE
5
BD
100
AcDbEntity
8
1
62
256
6
ByLayer
370
18
48
1
60
0
100
AcDbSpline
70
4
71
3
72
16
73
12
40
0
40
0
40
0
40
0
40
0.0624450082614032
40
0.0624450082614032
40
0.283207995985775
40
0.283207995985775
40
0.506745688833536
40
0.506745688833536
40
0.744607284736972
40
0.744607284736972
40
1
40
1
40
1
40
1
41
1
10
10.8683395546997
20
-1.44954676283689
30
0
41
1
10
10.8756315415445
20
-1.4537839687741
30
0
41
1
10
10.8831159528914
20
-1.45770925194563
30
0
41
1
10
10.91751848608
20
-1.47389408653595
30
0
41
1
10
10.9465327223769
20
-1.48241558862861
30
0
41
1
10
11.0046441968408
20
-1.49038000158144
30
0
41
1
10
11.0344743149337
20
-1.48983232117911
30
0
41
1
10
11.0927851507154
20
-1.4801814267181
30
0
41
1
10
11.1217923594366
20
-1.47044293260377
30
0
41
1
10
11.175962500361
20
-1.44276136963444
30
0
41
1
10
11.2013532439543
20
-1.4239625403784
30
0
41
1
10
11.222726880996
20
-1.40233678765009
30
0
0
SPLINE
5
BE
100
AcDbEntity
8
1
62
256
6
ByLayer
370
18
48
1
60
0
100
AcDbSpline
70
4
71
3
72
14
73
10
40
0
40
0
40
0
40
0
40
0.282169922576107
40
0.282169922576107
40
0.566902245317965
40
0.566902245317965
40
0.824523972080262
40
0.824523972080262
40
1
40
1
40
1
40
1
41
1
10
12.1985488357239
20
-1.40233678765007
30
0
41
1
10
12.2221623154923
20
-1.42622880347913
30
0
41
1
10
12.2507404867628
20
-1.44669095398491
30
0
41
1
10
12.3142344510573
20
-1.47642759952119
30
0
41
1
10
12.3502170751497
20
-1.48600316007276
30
0
41
1
10
12.4201536260634
20
-1.49063981766031
30
0
41
1
10
12.455036563188
20
-1.48700486817347
30
0
41
1
10
12.5104797005106
20
-1.47083834362884
30
0
41
1
10
12.532529967245
20
-1.46140433355076
30
0
41
1
10
12.5529361620203
20
-1.44954676283689
30
0
0
SPLINE
5
BF
100
AcDbEntity
8
1
62
256
6
ByLayer
370
18
48
1
60
0
100
AcDbSpline
70
4
71
3
72
12
73
8
40
0
40
0
40
0
40
0
40
0.422118633920707
40
0.422118633920707
40
0.843213619146828
40
0.843213619146828
40
1
40
1
40
1
40
1
41
1
10
11.7938595948773
20
1.20362635089595
30
0
41
1
10
11.8613070599112
20
1.21186958890993
30
0
41
1
10
11.9272962175037
20
1.23046260794132
30
0
41
1
10
12.0459106402533
20
1.28256908028122
30
0
41
1
10
12.1002802696481
20
1.3166093590427
30
0
41
1
10
12.1655648578014
20
1.37058295421389
30
0
41
1
10
12.1825195042618
20
1.38611837999565
30
0
41
1
10
12.1985488357239
20
1.4023367876501
30
0
0
SPLINE
5
C0
100
AcDbEntity
8
1
62
256
6
ByLayer
370
18
48
1
60
0
100
AcDbSpline
70
4
71
3
72
12
73
8
40
0
40
0
40
0
40
0
40
0.422118633920774
40
0.422118633920774
40
0.843213619146908
40
0.843213619146908
40
1
40
1
40
1
40
1
41
1
10
11.6274161218427
20
-1.20362635089592
30
0
41
1
10
11.5599686568088
20
-1.21186958890991
30
0
41
1
10
11.4939794992163
20
-1.23046260794129
30
0
41
1
10
11.3753650764666
20
-1.28256908028121
30
0
41
1
10
11.3209954470718
20
-1.3166093590427
30
0
41
1
10
11.2557108589186
20
-1.37058295421389
30
0
41
1
10
11.2387562124582
20
-1.38611837999562
30
0
41
1
10
11.222726880996
20
-1.40233678765007
30
0
0
SPLINE
5
C1
100
AcDbEntity
8
1
62
256
6
ByLayer
370
18
48
1
60
0
100
AcDbSpline
70
4
71
3
72
14
73
10
40
0
40
0
40
0
40
0
40
0.282169922576107
40
0.282169922576107
40
0.566902245317967
40
0.566902245317967
40
0.824523972080263
40
0.824523972080263
40
1
40
1
40
1
40
1
41
1
10
11.222726880996
20
1.4023367876501
30
0
41
1
10
11.1991134012277
20
1.42622880347916
30
0
41
1
10
11.1705352299572
20
1.44669095398494
30
0
41
1
10
11.1070412656627
20
1.47642759952122
30
0
41
1
10
11.0710586415703
20
1.48600316007278
30
0
41
1
10
11.0011220906565
20
1.49063981766034
30
0
41
1
10
10.966239153532
20
1.4870048681735
30
0
41
1
10
10.9107960162094
20
1.47083834362887
30
0
41
1
10
10.888745749475
20
1.46140433355079
30
0
41
1
10
10.8683395546997
20
1.44954676283692
30
0
0
SPLINE
5
C2
100
AcDbEntity
8
1
62
256
6
ByLayer
370
18
48
1
60
0
100
AcDbSpline
70
4
71
3
72
18
73
14
40
0
40
0
40
0
40
0
40
0.212491695755302
40
0.212491695755302
40
0.386618276853805
40
0.386618276853805
40
0.562426360907933
40
0.562426360907933
40
0.715388416645937
40
0.715388416645937
40
0.918249208689863
40
0.918249208689863
40
1
40
1
40
1
40
1
41
1
10
12.6882823260688
20
1.12150404177586
30
0
41
1
10
12.6699139345501
20
1.05294891329885
30
0
41
1
10
12.6617289675132
20
0.979185025511583
30
0
41
1
10
12.6695988592139
20
0.843022153372829
30
0
41
1
10
12.6817936178037
20
0.779448760081095
30
0
41
1
10
12.7244684299829
20
0.656905539531181
30
0
41
1
10
12.7559355266993
20
0.596232464322085
30
0
41
1
10
12.8279410946991
20
0.496295746403717
30
0
41
1
10
12.8675567572495
20
0.454031777745229
30
0
41
1
10
12.9660438208404
20
0.371396705691609
30
0
41
1
10
13.028531445889
20
0.334518098058581
30
0
41
1
10
13.118414590278
20
0.297950670800901
30
0
41
1
10
13.1448638944396
20
0.289055491735979
30
0
41
1
10
13.1715032505453
20
0.281837412130457
30
0
0
SPLINE
5
C3
100
AcDbEntity
8
1
62
256
6
ByLayer
370
18
48
1
60
0
100
AcDbSpline
70
4
71
3
72
14
73
10
40
0
40
0
40
0
40
0
40
0.283961457856589
40
0.283961457856589
40
0.570284934646621
40
0.570284934646621
40
0.829450869060465
40
0.829450869060465
40
1
40
1
40
1
40
1
41
1
10
13.1715032505453
20
-0.281837412130429
30
0
41
1
10
13.203862734725
20
-0.273069432458683
30
0
41
1
10
13.2356946095724
20
-0.258311308209144
30
0
41
1
10
13.2927515669337
20
-0.217815543953648
30
0
41
1
10
13.3187669362721
20
-0.19130949330976
30
0
41
1
10
13.357239682882
20
-0.132933226216082
30
0
41
1
10
13.3712793811413
20
-0.10089560261035
30
0
41
1
10
13.384432126381
20
-0.0456420108782964
30
0
41
1
10
13.38713785836
20
-0.0227296607955623
30
0
41
1
10
13.38713785836
20
1.42E-14
30
0
0
LINE
5
70
100
AcDbEntity
8
SK1
62
256
6
ByLayer
370
18
48
1
60
0
100
AcDbLine
10
-48.900859
20
-5
30
0
11
-48.900859
21
7.75
31
0
39
0
210
0
220
0
230
1
0
LINE
5
72
100
AcDbEntity
8
SK1
62
256
6
ByLayer
370
18
48
1
60
0
100
AcDbLine
10
-48.650859
20
8
30
0
11
0.120415
21
8
31
0
39
0
210
0
220
0
230
1
0
LINE
5
73
100
AcDbEntity
8
SK1
62
256
6
ByLayer
370
18
48
1
60
0
100
AcDbLine
10
0.120415
20
-8
30
0
11
-45.900859
21
-8
31
0
39
0
210
0
220
0
230
1
0
LINE
5
74
100
AcDbEntity
8
1
62
256
6
ByLayer
370
18
48
1
60
0
100
AcDbLine
10
5.231284
20
8
30
0
11
0.406072
21
8
31
0
39
0
210
0
220
0
230
1
0
LINE
5
76
100
AcDbEntity
8
1
62
256
6
ByLayer
370
18
48
1
60
0
100
AcDbLine
10
0
20
7.75
30
0
11
0
21
-7.75
31
0
39
0
210
0
220
0
230
1
0
LINE
5
77
100
AcDbEntity
8
80
62
256
6
ByLayer
370
18
48
1
60
0
100
AcDbLine
10
0
20
0
30
0
11
-3.5
21
0
31
0
39
0
210
0
220
0
230
1
0
LINE
5
78
100
AcDbEntity
8
81
62
256
6
ByLayer
370
18
48
1
60
0
100
AcDbLine
10
21.099141
20
0.481811
30
0
11
24.599141
21
0.481811
31
0
39
0
210
0
220
0
230
1
0
LINE
5
79
100
AcDbEntity
8
1
62
256
6
ByLayer
370
13
48
1
60
0
100
AcDbLine
10
5.06318
20
-2.158572
30
0
11
4.991431
21
-2.020743
31
0
39
0
210
0
220
0
230
1
0
LINE
5
7A
100
AcDbEntity
8
1
62
256
6
ByLayer
370
18
48
1
60
0
100
AcDbLine
10
0
20
-7.75
30
0
11
0.019702
21
-7.823528
31
0
39
0
210
0
220
0
230
1
0
LINE
5
7B
100
AcDbEntity
8
SK1
62
256
6
ByLayer
370
18
48
1
60
0
100
AcDbLine
10
-48.900859
20
7.75
30
0
11
-48.650859
21
7.75
31
0
39
0
210
0
220
0
230
1
0
LINE
5
7C
100
AcDbEntity
8
SK1
62
256
6
ByLayer
370
18
48
1
60
0
100
AcDbLine
10
0
20
7.75
30
0
11
-48.650859
21
7.75
31
0
39
0
210
0
220
0
230
1
0
LINE
5
7D
100
AcDbEntity
8
1
62
256
6
ByLayer
370
18
48
1
60
0
100
AcDbLine
10
0.019702
20
7.823528
30
0
11
0
21
7.75
31
0
39
0
210
0
220
0
230
1
0
LINE
5
7E
100
AcDbEntity
8
SK1
62
256
6
ByLayer
370
18
48
1
60
0
100
AcDbLine
10
-48.650859
20
7.75
30
0
11
-48.650859
21
-5.25
31
0
39
0
210
0
220
0
230
1
0
LINE
5
7F
100
AcDbEntity
8
1
62
256
6
ByLayer
370
13
48
1
60
0
100
AcDbLine
10
0.019702
20
7.823528
30
0
11
0.019702
21
-7.823528
31
0
39
0
210
0
220
0
230
1
0
LINE
5
80
100
AcDbEntity
8
1
62
256
6
ByLayer
370
13
48
1
60
0
100
AcDbLine
10
0.406072
20
-8
30
0
11
0.406072
21
8
31
0
39
0
210
0
220
0
230
1
0
LINE
5
81
100
AcDbEntity
8
SK1
62
256
6
ByLayer
370
18
48
1
60
0
100
AcDbLine
10
-46.150859
20
-7.75
30
0
11
0
21
-7.75
31
0
39
0
210
0
220
0
230
1
0
LINE
5
82
100
AcDbEntity
8
1
62
256
6
ByLayer
370
18
48
1
60
0
100
AcDbLine
10
4.991431
20
-2.020743
30
0
11
5.134915
21
-1.94605
31
0
39
0
210
0
220
0
230
1
0
LINE
5
83
100
AcDbEntity
8
1
62
256
6
ByLayer
370
18
48
1
60
0
100
AcDbLine
10
0.406072
20
8
30
0
11
0.120415
21
8
31
0
39
0
210
0
220
0
230
1
0
LINE
5
84
100
AcDbEntity
8
SK1
62
256
6
ByLayer
370
18
48
1
60
0
100
AcDbLine
10
-48.900859
20
7.75
30
0
11
-48.650859
21
8
31
0
39
0
210
0
220
0
230
1
0
LINE
5
85
100
AcDbEntity
8
1
62
256
6
ByLayer
370
18
48
1
60
0
100
AcDbLine
10
5.06318
20
-2.158572
30
0
11
5.303168
21
-2.033642
31
0
39
0
210
0
220
0
230
1
0
LINE
5
86
100
AcDbEntity
8
1
62
256
6
ByLayer
370
18
48
1
60
0
100
AcDbLine
10
0.120415
20
-8
30
0
11
0.406072
21
-8
31
0
39
0
210
0
220
0
230
1
0
LINE
5
87
100
AcDbEntity
8
SK1
62
256
6
ByLayer
370
18
48
1
60
0
100
AcDbLine
10
-48.650859
20
-5.25
30
0
11
-48.900859
21
-5
31
0
39
0
210
0
220
0
230
1
0
LINE
5
88
100
AcDbEntity
8
1
62
256
6
ByLayer
370
18
48
1
60
0
100
AcDbLine
10
10.997859
20
-4.998111
30
0
11
5.231284
21
-8
31
0
39
0
210
0
220
0
230
1
0
LINE
5
89
100
AcDbEntity
8
SK1
62
256
6
ByLayer
370
18
48
1
60
0
100
AcDbLine
10
-45.900859
20
-8
30
0
11
-46.150859
21
-7.75
31
0
39
0
210
0
220
0
230
1
0
LINE
5
8A
100
AcDbEntity
8
1
62
256
6
ByLayer
370
18
48
1
60
0
100
AcDbLine
10
5.231284
20
8
30
0
11
10.9978
21
4.998142
31
0
39
0
210
0
220
0
230
1
0
LINE
5
8B
100
AcDbEntity
8
SK1
62
256
6
ByLayer
370
18
48
1
60
0
100
AcDbLine
10
-48.650859
20
7.75
30
0
11
-48.650859
21
8
31
0
39
0
210
0
220
0
230
1
0
LINE
5
8C
100
AcDbEntity
8
1
62
256
6
ByLayer
370
18
48
1
60
0
100
AcDbLine
10
0.406072
20
-8
30
0
11
5.231284
21
-8
31
0
39
0
210
0
220
0
230
1
0
LINE
5
8D
100
AcDbEntity
8
SK1
62
256
6
ByLayer
370
18
48
1
60
0
100
AcDbLine
10
-46.150859
20
-7.75
30
0
11
-48.650859
21
-5.25
31
0
39
0
210
0
220
0
230
1
0
LINE
5
8E
100
AcDbEntity
8
1
62
256
6
ByLayer
370
18
48
1
60
0
100
AcDbLine
10
12.077266
20
-5.178302
30
0
11
20.67177
21
-0.704287
31
0
39
0
210
0
220
0
230
1
0
LINE
5
8F
100
AcDbEntity
8
1
62
256
6
ByLayer
370
18
48
1
60
0
100
AcDbLine
10
2.749506
20
-0.704287
30
0
11
11.344009
21
-5.178302
31
0
39
0
210
0
220
0
230
1
0
LINE
5
90
100
AcDbEntity
8
1
62
256
6
ByLayer
370
18
48
1
60
0
100
AcDbLine
10
11.344009
20
5.178302
30
0
11
2.749506
21
0.704287
31
0
39
0
210
0
220
0
230
1
0
LINE
5
91
100
AcDbEntity
8
1
62
256
6
ByLayer
370
18
48
1
60
0
100
AcDbLine
10
20.67177
20
0.704287
30
0
11
12.077266
21
5.178302
31
0
39
0
210
0
220
0
230
1
0
MTEXT
5
C4
100
AcDbEntity
8
SK6
62
256
6
ByLayer
370
18
48
1
60
0
100
AcDbMText
10
-13.159125
20
-15.958623
30
0
210
0
220
0
230
1
1
\W0.7210;QS-SDNCN1616E11
40
1.5
41
0
44
1.084337
50
0
71
8
72
5
7
iso_b_vert
0
DIMENSION
5
D6
100
AcDbEntity
8
SK2
62
256
6
ByLayer
370
13
48
1
60
0
100
AcDbDimension
2
DimnDraft3D1
10
-48.900859
20
17.990139
30
0
11
-14.777175
21
17.990139
31
0
70
32
71
5
72
1
41
1
210
0
220
0
230
1
3
Standard
100
AcDbAlignedDimension
13
21.099141
23
1.481811
33
0
14
-48.900859
24
8.75
34
0
50
0
100
AcDbRotatedDimension
1001
ACAD
1000
DSTYLE
1002
{
1070
   279
1070
     0
1070
   172
1070
     1
1070
   173
1070
     1
1070
   340
1005
C5
1070
   271
1070
     1
1070
    77
1070
     1
1070
    73
1070
     0
1070
   171
1070
     3
1070
   274
1070
     4
1070
   177
1070
   254
1070
   176
1070
   254
1070
   178
1070
   254
1070
    78
1070
     8
1070
    41
1041
1.5875
1070
   147
1041
0.75
1070
    42
1041
1.0
1070
    44
1041
1.0
1070
   140
1041
1.5
1070
   343
1005
D7
1070
   344
1005
D7
1002
}
0
DIMENSION
5
EB
100
AcDbEntity
8
SK2
62
256
6
ByLayer
370
13
48
1
60
0
100
AcDbDimension
2
DimnDraft3D2
10
-53.09529
20
-8
30
0
11
-53.09529
21
-0.688816
31
0
70
32
71
5
72
1
41
1
210
0
220
0
230
1
3
Standard
100
AcDbAlignedDimension
13
-49.650859
23
8
33
0
14
-46.900859
24
-8
34
0
50
90
100
AcDbRotatedDimension
1001
ACAD
1000
DSTYLE
1002
{
1070
    74
1070
     0
1070
   279
1070
     0
1070
   172
1070
     1
1070
   173
1070
     1
1070
   340
1005
C5
1070
   271
1070
     1
1070
    77
1070
     1
1070
    73
1070
     0
1070
   171
1070
     3
1070
   274
1070
     4
1070
   177
1070
   254
1070
   176
1070
   254
1070
   178
1070
   254
1070
    78
1070
     8
1070
    41
1041
1.5875
1070
   147
1041
0.75
1070
    42
1041
1.0
1070
    44
1041
1.0
1070
   140
1041
1.5
1070
   343
1005
D7
1070
   344
1005
D7
1002
}
0
DIMENSION
5
F9
100
AcDbEntity
8
SK2
62
256
6
ByLayer
370
13
48
1
60
0
100
AcDbDimension
2
DimnDraft3D3
10
28.280846
20
0.481811
30
0
11
28.280846
21
3.070511
31
0
70
32
71
5
72
1
41
1
210
0
220
0
230
1
3
Standard
100
AcDbAlignedDimension
13
6.231284
23
8
33
0
14
22.099141
24
0.481811
34
0
50
90
100
AcDbRotatedDimension
1001
ACAD
1000
DSTYLE
1002
{
1070
    74
1070
     0
1070
   279
1070
     0
1070
   172
1070
     1
1070
   173
1070
     1
1070
   340
1005
C5
1070
   271
1070
     1
1070
    77
1070
     1
1070
    73
1070
     0
1070
   171
1070
     3
1070
   274
1070
     4
1070
   177
1070
   254
1070
   176
1070
   254
1070
   178
1070
   254
1070
    78
1070
     8
1070
    41
1041
1.5875
1070
   147
1041
0.75
1070
    42
1041
1.0
1070
    44
1041
1.0
1070
   140
1041
1.5
1070
   343
1005
D7
1070
   344
1005
D7
1002
}
0
DIMENSION
5
108
100
AcDbEntity
8
2
62
256
6
ByLayer
370
13
48
1
60
0
100
AcDbDimension
2
DimnDraft3D4
10
0
20
12.5985
30
0
11
9.860755
21
12.5985
31
0
70
32
71
5
72
1
41
1
210
0
220
0
230
1
3
Standard
100
AcDbAlignedDimension
13
21.099141
23
1.481811
33
0
14
0
24
8.75
34
0
50
0
100
AcDbRotatedDimension
1001
ACAD
1000
DSTYLE
1002
{
1070
   279
1070
     0
1070
   172
1070
     1
1070
   173
1070
     1
1070
   340
1005
C5
1070
   271
1070
     0
1070
    77
1070
     1
1070
    73
1070
     0
1070
   171
1070
     3
1070
   274
1070
     4
1070
   177
1070
   254
1070
   176
1070
   254
1070
   178
1070
   254
1070
    78
1070
     8
1070
    41
1041
1.5875
1070
   147
1041
0.75
1070
    42
1041
1.0
1070
    44
1041
1.0
1070
   140
1041
1.5
1070
   343
1005
D7
1070
   344
1005
D7
1002
}
0
ENDSEC
0
SECTION
2
OBJECTS
0
DICTIONARY
5
172
330
0
100
AcDbDictionary
280
0
281
1
3
ACAD_GROUP
350
173
3
ACAD_MLINESTYLE
350
174
0
DICTIONARY
5
173
330
0
100
AcDbDictionary
280
0
281
1
0
DICTIONARY
5
174
330
0
100
AcDbDictionary
280
0
281
1
3
Standard
350
18
0
MLINESTYLE
5
18
330
174
100
AcDbMlineStyle
2
Standard
70
0
3

62
256
51
90
52
90
71
2
49
-0.5
62
256
6
ByLayer
49
0.5
62
256
6
ByLayer
0
RASTERVARIABLES
5
161
330

100
AcDbRasterVariables
90
0
70
1
71
1
72
1
0
ENDSEC
0
EOF
