0
SECTION
2
HEADER
9
$ACADVER
1
AC1015
9
$DWGCODEPAGE
3
ANSI_1252
9
$HANDSEED
5
201
9
$ANGBASE
50
0
9
$ANGDIR
70
0
9
$ATTMODE
70
1
9
$AUNITS
70
0
9
$AUPREC
70
0
9
$CECOLOR
62
256
9
$CELTSCALE
40
1
9
$CELTYPE
6
ByLayer
9
$CELWEIGHT
370
18
9
$CLAYER
8
0
9
$CMLJUST
70
0
9
$CMLSCALE
40
1
9
$CMLSTYLE
2
Standard
9
$DIMSTYLE
2
Standard
9
$TEXTSIZE
40
0.2
9
$TEXTSTYLE
7
Standard
9
$LUNITS
70
2
9
$LUPREC
70
4
9
$EXTNAMES
290
1
9
$INSUNITS
70
4
9
$LTSCALE
40
1
9
$LWDISPLAY
290
1
9
$PDMODE
70
0
9
$PDSIZE
40
0
9
$PLINEGEN
70
0
0
ENDSEC
0
SECTION
2
CLASSES
0
CLASS
1
RASTERVARIABLES
2
AcDbRasterVariables
3
ISM
90
0
280
0
281
0
0
ENDSEC
0
SECTION
2
TABLES
0
TABLE
2
VPORT
5
1f7
100
AcDbSymbolTable
0
VPORT
5
1
100
AcDbSymbolTableRecord
100
AcDbViewportTableRecord
2
*Active
70
0
10
0
20
0
11
1
21
1
12
-1
22
1
13
0
23
0
14
0.5
24
0.5
15
10
25
10
16
0
26
0
36
1
17
0
27
0
37
0
0
ENDTAB
0
TABLE
2
LTYPE
5
1f8
100
AcDbSymbolTable
0
LTYPE
5
14
100
AcDbSymbolTableRecord
100
AcDbLinetypeTableRecord
70
0
2
ByBlock
3

72
65
73
0
40
0
0
LTYPE
5
15
100
AcDbSymbolTableRecord
100
AcDbLinetypeTableRecord
70
0
2
ByLayer
3

72
65
73
0
40
0
0
LTYPE
5
16
100
AcDbSymbolTableRecord
100
AcDbLinetypeTableRecord
70
0
2
CONTINUOUS
3
Solid line
72
65
73
0
40
0
0
LTYPE
5
6A
100
AcDbSymbolTableRecord
100
AcDbLinetypeTableRecord
70
0
2
CENTER
3
____ _ ____ _ ____ _ ____
72
65
73
4
40
47.5
49
22
74
0
49
-8.5
74
0
49
8.5
74
0
49
-8.5
74
0
0
LTYPE
5
6B
100
AcDbSymbolTableRecord
100
AcDbLinetypeTableRecord
70
0
2
DASHED
3
__ __ __ __ __ __ __ __ __
72
65
73
2
40
25.72
49
12.86
74
0
49
-12.86
74
0
0
ENDTAB
0
TABLE
2
LAYER
5
1f9
100
AcDbSymbolTable
0
LAYER
5
10
100
AcDbSymbolTableRecord
100
AcDbLayerTableRecord
2
0
70
0
62
7
6
CONTINUOUS
290
1
370
-3
390
0
0
LAYER
5
72
100
AcDbSymbolTableRecord
100
AcDbLayerTableRecord
2
80
70
0
62
-6
6
CONTINUOUS
290
1
370
-3
390
0
0
LAYER
5
74
100
AcDbSymbolTableRecord
100
AcDbLayerTableRecord
2
81
70
0
62
-3
6
CONTINUOUS
290
1
370
-3
390
0
0
LAYER
5
7B
100
AcDbSymbolTableRecord
100
AcDbLayerTableRecord
2
1
70
0
62
4
6
CONTINUOUS
290
1
370
-3
390
0
0
LAYER
5
88
100
AcDbSymbolTableRecord
100
AcDbLayerTableRecord
2
4
70
0
62
-2
6
CENTER
290
1
370
-3
390
0
0
LAYER
5
178
100
AcDbSymbolTableRecord
100
AcDbLayerTableRecord
2
2
70
0
62
7
6
CONTINUOUS
290
1
370
-3
390
0
0
LAYER
5
1e4
100
AcDbSymbolTableRecord
100
AcDbLayerTableRecord
2
SK1
70
0
62
4
6
CONTINUOUS
290
1
370
-3
390
0
0
LAYER
5
1e5
100
AcDbSymbolTableRecord
100
AcDbLayerTableRecord
2
SK6
70
0
62
5
6
CONTINUOUS
290
1
370
-3
390
0
0
LAYER
5
1e6
100
AcDbSymbolTableRecord
100
AcDbLayerTableRecord
2
SK2
70
0
62
7
6
CONTINUOUS
290
1
370
-3
390
0
0
ENDTAB
0
TABLE
2
STYLE
5
1fa
100
AcDbSymbolTable
0
STYLE
5
11
100
AcDbSymbolTableRecord
100
AcDbTextStyleTableRecord
2
Standard
3
txt
70
0
71
0
40
0
41
1
42
0
50
0
0
STYLE
5
15E
100
AcDbSymbolTableRecord
100
AcDbTextStyleTableRecord
2
iso_b_vert
3
simplex.shx
70
0
71
0
40
0
41
1
42
0
50
0
0
STYLE
5
15F
100
AcDbSymbolTableRecord
100
AcDbTextStyleTableRecord
2
DWGDirectTextStyle
3
simplex
70
0
71
0
40
0
41
1
42
0
50
0
0
ENDTAB
0
TABLE
2
DIMSTYLE
5
1fb
100
AcDbSymbolTable
100
AcDbDimStyleTable
0
DIMSTYLE
105
27
100
AcDbSymbolTableRecord
100
AcDbDimStyleTableRecord
2
Standard
70
0
3
<>
41
0.18
42
0.0625
44
0.18
140
0.18
147
0.09
73
0
74
0
77
1
271
2
275
0
278
52
280
0
340
11
0
ENDTAB
0
TABLE
2
VIEW
5
1fc
100
AcDbSymbolTable
0
ENDTAB
0
TABLE
2
UCS
5
1fd
100
AcDbSymbolTable
0
ENDTAB
0
TABLE
2
APPID
5
1fe
100
AcDbSymbolTable
0
APPID
5
12
100
AcDbSymbolTableRecord
100
AcDbRegAppTableRecord
2
ACAD
70
0
0
ENDTAB
0
TABLE
2
BLOCK_RECORD
5
1ff
100
AcDbSymbolTable
0
BLOCK_RECORD
5
1F
100
AcDbSymbolTableRecord
100
AcDbBlockTableRecord
2
*Model_Space
340
0
70
0
0
BLOCK_RECORD
5
1B
100
AcDbSymbolTableRecord
100
AcDbBlockTableRecord
2
*Paper_Space
340
0
70
0
0
BLOCK_RECORD
5
23
100
AcDbSymbolTableRecord
100
AcDbBlockTableRecord
2
*Paper_Space0
340
0
70
0
0
BLOCK_RECORD
5
161
100
AcDbSymbolTableRecord
100
AcDbBlockTableRecord
2
DimnDraft3D1
340
0
70
0
0
BLOCK_RECORD
5
16C
100
AcDbSymbolTableRecord
100
AcDbBlockTableRecord
2
DimnDraft3D22
340
0
70
0
0
BLOCK_RECORD
5
176
100
AcDbSymbolTableRecord
100
AcDbBlockTableRecord
2
DimnDraft3D3
340
0
70
0
0
BLOCK_RECORD
5
181
100
AcDbSymbolTableRecord
100
AcDbBlockTableRecord
2
DimnDraft3D4
340
0
70
0
0
ENDTAB
0
ENDSEC
0
SECTION
2
BLOCKS
0
BLOCK
5
20
100
AcDbEntity
8
0
100
AcDbBlockBegin
2
*Model_Space
70
0
10
0
20
0
30
0
3
*Model_Space
0
ENDBLK
5
21
100
AcDbEntity
8
0
100
AcDbBlockEnd
0
BLOCK
5
1C
100
AcDbEntity
8
0
100
AcDbBlockBegin
2
*Paper_Space
70
0
10
0
20
0
30
0
3
*Paper_Space
0
ENDBLK
5
1D
100
AcDbEntity
8
0
100
AcDbBlockEnd
0
BLOCK
5
24
100
AcDbEntity
8
0
100
AcDbBlockBegin
2
*Paper_Space0
70
0
10
0
20
0
30
0
3
*Paper_Space0
0
ENDBLK
5
25
100
AcDbEntity
8
0
100
AcDbBlockEnd
0
BLOCK
5
169
100
AcDbEntity
8
0
100
AcDbBlockBegin
2
DimnDraft3D1
70
0
10
0
20
0
30
0
3
DimnDraft3D1
0
MTEXT
5
162
100
AcDbEntity
8
SK2
62
256
6
ByLayer
370
18
48
1
60
0
100
AcDbMText
10
-199.876043
20
-176.67473
30
0
210
0
220
0
230
1
1
\W0.5144;16
40
3.5
41
0
44
1.084337
50
90
71
7
72
5
7
iso_b_vert
0
LINE
5
164
100
AcDbEntity
8
SK2
62
256
6
ByLayer
370
13
48
1
60
0
100
AcDbLine
10
-234.180483
20
-183.929993
30
0
11
-197.001043
21
-183.929993
31
0
39
0
210
0
220
0
230
1
0
LINE
5
165
100
AcDbEntity
8
SK2
62
256
6
ByLayer
370
13
48
1
60
0
100
AcDbLine
10
-236.680483
20
-167.954993
30
0
11
-197.001043
21
-167.954993
31
0
39
0
210
0
220
0
230
1
0
LINE
5
166
100
AcDbEntity
8
SK2
62
256
6
ByLayer
370
13
48
1
60
0
100
AcDbLine
10
-199.001043
20
-183.929993
30
0
11
-199.001043
21
-167.954993
31
0
39
0
210
0
220
0
230
1
0
SOLID
5
167
100
AcDbEntity
8
SK2
62
256
6
ByLayer
370
13
48
1
60
0
100
AcDbTrace
10
-199.001043
20
-183.929993
30
0
11
-199.41904
21
-180.754995
31
0
12
-198.583047
22
-180.754992
32
0
13
-199.001043
23
-183.929993
33
0
39
0
210
0
220
0
230
1
0
SOLID
5
168
100
AcDbEntity
8
SK2
62
256
6
ByLayer
370
13
48
1
60
0
100
AcDbTrace
10
-199.001043
20
-167.954993
30
0
11
-198.583047
21
-171.129992
31
0
12
-199.41904
22
-171.129995
32
0
13
-199.001043
23
-167.954993
33
0
39
0
210
0
220
0
230
1
0
ENDBLK
5
16A
100
AcDbEntity
8
0
100
AcDbBlockEnd
0
BLOCK
5
16D
100
AcDbEntity
8
0
100
AcDbBlockBegin
2
DimnDraft3D22
70
0
10
0
20
0
30
0
3
DimnDraft3D22
0
LINE
5
16F
100
AcDbEntity
8
SK2
62
256
6
ByLayer
370
25
48
1
60
0
100
AcDbLine
10
-305.680483
20
-185.879993
30
0
11
-305.680483
21
-199.753315
31
0
39
0
210
0
220
0
230
1
0
LINE
5
170
100
AcDbEntity
8
SK2
62
256
6
ByLayer
370
25
48
1
60
0
100
AcDbLine
10
-278.180483
20
-185.929993
30
0
11
-278.180483
21
-199.753315
31
0
39
0
210
0
220
0
230
1
0
LINE
5
171
100
AcDbEntity
8
SK2
62
256
6
ByLayer
370
25
48
1
60
0
100
AcDbLine
10
-305.680483
20
-197.753315
30
0
11
-278.180483
21
-197.753315
31
0
39
0
210
0
220
0
230
1
0
SOLID
5
172
100
AcDbEntity
8
SK2
62
256
6
ByLayer
370
25
48
1
60
0
100
AcDbTrace
10
-305.680483
20
-197.753315
30
0
11
-302.505485
21
-197.335318
31
0
12
-302.505482
22
-198.171311
32
0
13
-305.680483
23
-197.753315
33
0
39
0
210
0
220
0
230
1
0
SOLID
5
173
100
AcDbEntity
8
SK2
62
256
6
ByLayer
370
25
48
1
60
0
100
AcDbTrace
10
-278.180483
20
-197.753315
30
0
11
-281.355482
21
-198.171311
31
0
12
-281.355485
22
-197.335318
32
0
13
-278.180483
23
-197.753315
33
0
39
0
210
0
220
0
230
1
0
MTEXT
5
174
100
AcDbEntity
8
SK2
62
256
6
ByLayer
370
18
48
1
60
0
100
AcDbMText
10
-295.071273
20
-196.878315
30
0
210
0
220
0
230
1
1
\W0.7150;27.5
40
3.5
41
0
44
1.084337
50
0
71
7
72
5
7
iso_b_vert
0
ENDBLK
5
16E
100
AcDbEntity
8
0
100
AcDbBlockEnd
0
BLOCK
5
17E
100
AcDbEntity
8
0
100
AcDbBlockBegin
2
DimnDraft3D3
70
0
10
0
20
0
30
0
3
DimnDraft3D3
0
MTEXT
5
177
100
AcDbEntity
8
2
62
256
6
ByLayer
370
18
48
1
60
0
100
AcDbMText
10
-314.506796
20
-176.329993
30
0
210
0
220
0
230
1
1
\W0.7150;0.05
40
3.5
41
0
44
1.084337
50
90
71
7
72
5
7
iso_b_vert
0
LINE
5
179
100
AcDbEntity
8
2
62
256
6
ByLayer
370
13
48
1
60
0
100
AcDbLine
10
-279.780483
20
-183.929993
30
0
11
-315.631796
21
-183.929993
31
0
39
0
210
0
220
0
230
1
0
LINE
5
17A
100
AcDbEntity
8
2
62
256
6
ByLayer
370
13
48
1
60
0
100
AcDbLine
10
-307.680483
20
-183.879993
30
0
11
-315.631796
21
-183.879993
31
0
39
0
210
0
220
0
230
1
0
LINE
5
17B
100
AcDbEntity
8
2
62
256
6
ByLayer
370
13
48
1
60
0
100
AcDbLine
10
-313.631796
20
-169.173414
30
0
11
-313.631796
21
-192.679993
31
0
39
0
210
0
220
0
230
1
0
SOLID
5
17C
100
AcDbEntity
8
2
62
256
6
ByLayer
370
13
48
1
60
0
100
AcDbTrace
10
-313.631796
20
-183.929993
30
0
11
-313.213799
21
-187.104992
31
0
12
-314.049793
22
-187.104995
32
0
13
-313.631796
23
-183.929993
33
0
39
0
210
0
220
0
230
1
0
SOLID
5
17D
100
AcDbEntity
8
2
62
256
6
ByLayer
370
13
48
1
60
0
100
AcDbTrace
10
-313.631796
20
-183.879993
30
0
11
-314.049793
21
-180.704995
31
0
12
-313.213799
22
-180.704992
32
0
13
-313.631796
23
-183.879993
33
0
39
0
210
0
220
0
230
1
0
ENDBLK
5
17F
100
AcDbEntity
8
0
100
AcDbBlockEnd
0
BLOCK
5
188
100
AcDbEntity
8
0
100
AcDbBlockBegin
2
DimnDraft3D4
70
0
10
0
20
0
30
0
3
DimnDraft3D4
0
MTEXT
5
182
100
AcDbEntity
8
SK2
62
256
6
ByLayer
370
18
48
1
60
0
100
AcDbMText
10
-273.372589
20
-205.660842
30
0
210
0
220
0
230
1
1
\W0.7150;70.0
40
3
41
0
44
1.084337
50
0
71
7
72
5
7
iso_b_vert
0
LINE
5
183
100
AcDbEntity
8
SK2
62
256
6
ByLayer
370
13
48
1
60
0
100
AcDbLine
10
-305.680483
20
-185.879993
30
0
11
-305.680483
21
-208.410842
31
0
39
0
210
0
220
0
230
1
0
LINE
5
184
100
AcDbEntity
8
SK2
62
256
6
ByLayer
370
13
48
1
60
0
100
AcDbLine
10
-235.680483
20
-185.429993
30
0
11
-235.680483
21
-208.410842
31
0
39
0
210
0
220
0
230
1
0
LINE
5
185
100
AcDbEntity
8
SK2
62
256
6
ByLayer
370
13
48
1
60
0
100
AcDbLine
10
-305.680483
20
-206.410842
30
0
11
-235.680483
21
-206.410842
31
0
39
0
210
0
220
0
230
1
0
SOLID
5
186
100
AcDbEntity
8
SK2
62
256
6
ByLayer
370
13
48
1
60
0
100
AcDbTrace
10
-305.680483
20
-206.410842
30
0
11
-302.505485
21
-205.992845
31
0
12
-302.505482
22
-206.828839
32
0
13
-305.680483
23
-206.410842
33
0
39
0
210
0
220
0
230
1
0
SOLID
5
187
100
AcDbEntity
8
SK2
62
256
6
ByLayer
370
13
48
1
60
0
100
AcDbTrace
10
-235.680483
20
-206.410842
30
0
11
-238.855482
21
-206.828839
31
0
12
-238.855485
22
-205.992845
32
0
13
-235.680483
23
-206.410842
33
0
39
0
210
0
220
0
230
1
0
ENDBLK
5
189
100
AcDbEntity
8
0
100
AcDbBlockEnd
0
ENDSEC
0
SECTION
2
ENTITIES
0
ARC
5
F9
100
AcDbEntity
8
SK1
62
256
6
ByLayer
370
18
48
1
60
0
100
AcDbCircle
39
0
10
-229.280483
20
-178.342493
30
0
40
0.4
210
0
220
0
230
1
100
AcDbArc
50
90
51
180
0
ARC
5
FA
100
AcDbEntity
8
SK1
62
256
6
ByLayer
370
18
48
1
60
0
100
AcDbCircle
39
0
10
-229.280483
20
-173.542493
30
0
40
0.4
210
0
220
0
230
1
100
AcDbArc
50
180
51
270
0
ARC
5
FE
100
AcDbEntity
8
1
62
256
6
ByLayer
370
18
48
1
60
0
100
AcDbCircle
39
0
10
-291.339271
20
-174.433686
30
0
40
1.625
210
0
220
0
230
1
100
AcDbArc
50
63.134066
51
148
0
ARC
5
FF
100
AcDbEntity
8
1
62
256
6
ByLayer
370
18
48
1
60
0
100
AcDbCircle
39
0
10
291.339271
20
-174.433686
30
0
40
1.77483640960441
210
0
220
0
230
-1
100
AcDbArc
50
32
51
118.78146
0
ARC
5
100
100
AcDbEntity
8
1
62
256
6
ByLayer
370
18
48
1
60
0
100
AcDbCircle
39
0
10
-291.339271
20
-174.433686
30
0
40
1.625
210
0
220
0
230
1
100
AcDbArc
50
63.134066
51
148
0
ARC
5
101
100
AcDbEntity
8
1
62
256
6
ByLayer
370
18
48
1
60
0
100
AcDbCircle
39
0
10
299.751943
20
-174.869011
30
0
40
0.794
210
0
220
0
230
-1
100
AcDbArc
50
32
51
87
0
ARC
5
103
100
AcDbEntity
8
1
62
256
6
ByLayer
370
18
48
1
60
0
100
AcDbCircle
39
0
10
295.210474
20
-182.578895
30
0
40
0.794
210
0
220
0
230
-1
100
AcDbArc
50
212
51
267
0
ARC
5
104
100
AcDbEntity
8
1
62
256
6
ByLayer
370
18
48
1
60
0
100
AcDbCircle
39
0
10
-299.751943
20
-174.869011
30
0
40
0.30654529321547
210
0
220
0
230
1
100
AcDbArc
50
93
51
148
0
ARC
5
105
100
AcDbEntity
8
1
62
256
6
ByLayer
370
18
48
1
60
0
100
AcDbCircle
39
0
10
304.886483
20
-183.085993
30
0
40
0.306545293215475
210
0
220
0
230
-1
100
AcDbArc
50
267
51
32
0
ARC
5
107
100
AcDbEntity
8
1
62
256
6
ByLayer
370
18
48
1
60
0
100
AcDbCircle
39
0
10
-296.524722
20
-180.347745
30
0
40
0.686
210
0
220
0
230
1
100
AcDbArc
50
127.467971
51
165.835935
0
ARC
5
109
100
AcDbEntity
8
1
62
256
6
ByLayer
370
18
48
1
60
0
100
AcDbCircle
39
0
10
297.481209
20
-178.723953
30
0
40
1.6765
210
0
220
0
230
-1
100
AcDbArc
50
269.659887
51
329.5
0
ARC
5
10C
100
AcDbEntity
8
1
62
256
6
ByLayer
370
18
48
1
60
0
100
AcDbCircle
39
0
10
-297.489427
20
-177.339478
30
0
40
0.292
210
0
220
0
230
1
100
AcDbArc
50
15.500702
51
165.835935
0
ARC
5
10E
100
AcDbEntity
8
1
62
256
6
ByLayer
370
18
48
1
60
0
100
AcDbCircle
39
0
10
-296.288283
20
-178.021266
30
0
40
0.292
210
0
220
0
230
1
100
AcDbArc
50
315.660588
51
105.339412
0
ARC
5
10F
100
AcDbEntity
8
1
62
256
6
ByLayer
370
18
48
1
60
0
100
AcDbCircle
39
0
10
-297.47299
20
-180.108429
30
0
40
0.292
210
0
220
0
230
1
100
AcDbArc
50
195.500702
51
345.835935
0
ARC
5
110
100
AcDbEntity
8
1
62
256
6
ByLayer
370
18
48
1
60
0
100
AcDbCircle
39
0
10
-297.481209
20
-178.723953
30
0
40
1.2065
210
0
220
0
230
1
100
AcDbArc
50
180.579943
51
240.420057
0
ARC
5
111
100
AcDbEntity
8
1
62
256
6
ByLayer
370
18
48
1
60
0
100
AcDbCircle
39
0
10
297.481209
20
-178.723953
30
0
40
1.2065
210
0
220
0
230
-1
100
AcDbArc
50
55.544721
51
63.455279
0
ARC
5
113
100
AcDbEntity
8
1
62
256
6
ByLayer
370
18
48
1
60
0
100
AcDbCircle
39
0
10
297.481209
20
-178.723953
30
0
40
1.6765
210
0
220
0
230
-1
100
AcDbArc
50
89.659887
51
149.5
0
ARC
5
114
100
AcDbEntity
8
1
62
256
6
ByLayer
370
18
48
1
60
0
100
AcDbCircle
39
0
10
-297.481209
20
-178.723953
30
0
40
1.2065
210
0
220
0
230
1
100
AcDbArc
50
0.579943
51
60.420057
0
ARC
5
116
100
AcDbEntity
8
1
62
256
6
ByLayer
370
18
48
1
60
0
100
AcDbCircle
39
0
10
-296.547
20
-177.078107
30
0
40
0.686
210
0
220
0
230
1
100
AcDbArc
50
195.500702
51
240.420057
0
ARC
5
117
100
AcDbEntity
8
1
62
256
6
ByLayer
370
18
48
1
60
0
100
AcDbCircle
39
0
10
297.481209
20
-178.723953
30
0
40
1.2065
210
0
220
0
230
-1
100
AcDbArc
50
235.544721
51
243.455279
0
ARC
5
118
100
AcDbEntity
8
1
62
256
6
ByLayer
370
18
48
1
60
0
100
AcDbCircle
39
0
10
-296.274304
20
-179.402348
30
0
40
0.292
210
0
220
0
230
1
100
AcDbArc
50
255.164065
51
45.499298
0
ARC
5
11A
100
AcDbEntity
8
1
62
256
6
ByLayer
370
18
48
1
60
0
100
AcDbCircle
39
0
10
-299.373612
20
-178.743109
30
0
40
0.686
210
0
220
0
230
1
100
AcDbArc
50
0.579943
51
45.499298
0
ARC
5
11B
100
AcDbEntity
8
1
62
256
6
ByLayer
370
18
48
1
60
0
100
AcDbCircle
39
0
10
297.481209
20
-178.723953
30
0
40
1.2065
210
0
220
0
230
-1
100
AcDbArc
50
55.544721
51
63.455279
0
ARC
5
11C
100
AcDbEntity
8
1
62
256
6
ByLayer
370
18
48
1
60
0
100
AcDbCircle
39
0
10
289.55422
20
-174.0546
30
0
40
1.5
210
0
220
0
230
-1
100
AcDbArc
50
51.658569
51
284.06476
0
ARC
5
11D
100
AcDbEntity
8
1
62
256
6
ByLayer
370
18
48
1
60
0
100
AcDbCircle
39
0
10
-295.588806
20
-178.704798
30
0
40
0.686
210
0
220
0
230
1
100
AcDbArc
50
180.579943
51
225.499298
0
ARC
5
11E
100
AcDbEntity
8
1
62
256
6
ByLayer
370
18
48
1
60
0
100
AcDbCircle
39
0
10
-298.415418
20
-180.369799
30
0
40
0.686
210
0
220
0
230
1
100
AcDbArc
50
60.420057
51
105.339412
0
ARC
5
11F
100
AcDbEntity
8
1
62
256
6
ByLayer
370
18
48
1
60
0
100
AcDbCircle
39
0
10
290.548947
20
-187.526935
30
0
40
4.99999999934542
210
0
220
0
230
-1
100
AcDbArc
50
124.976396
51
133.996002
0
ARC
5
120
100
AcDbEntity
8
1
62
256
6
ByLayer
370
18
48
1
60
0
100
AcDbCircle
39
0
10
290.548947
20
-187.526935
30
0
40
5
210
0
220
0
230
-1
100
AcDbArc
50
87
51
133.996002
0
ARC
5
122
100
AcDbEntity
8
1
62
256
6
ByLayer
370
18
48
1
60
0
100
AcDbCircle
39
0
10
289.55422
20
-174.0546
30
0
40
1.5
210
0
220
0
230
-1
100
AcDbArc
50
289.991846
51
45.535248
0
ARC
5
125
100
AcDbEntity
8
1
62
256
6
ByLayer
370
18
48
1
60
0
100
AcDbCircle
39
0
10
304.886483
20
-183.085993
30
0
40
0.794000000000003
210
0
220
0
230
-1
100
AcDbArc
50
267
51
32
0
ARC
5
127
100
AcDbEntity
8
1
62
256
6
ByLayer
370
18
48
1
60
0
100
AcDbCircle
39
0
10
-295.210474
20
-182.578895
30
0
40
0.30654529321547
210
0
220
0
230
1
100
AcDbArc
50
273
51
328
0
ARC
5
128
100
AcDbEntity
8
1
62
256
6
ByLayer
370
18
48
1
60
0
100
AcDbCircle
39
0
10
290.075934
20
-174.361913
30
0
40
0.794000000000003
210
0
220
0
230
-1
100
AcDbArc
50
87
51
212
0
ARC
5
129
100
AcDbEntity
8
1
62
256
6
ByLayer
370
18
48
1
60
0
100
AcDbCircle
39
0
10
290.075934
20
-174.361913
30
0
40
0.306545293215475
210
0
220
0
230
-1
100
AcDbArc
50
87
51
212
0
ARC
5
12A
100
AcDbEntity
8
1
62
256
6
ByLayer
370
18
48
1
60
0
100
AcDbCircle
39
0
10
297.481209
20
-178.723953
30
0
40
1.6765
210
0
220
0
230
-1
100
AcDbArc
50
149.5
51
209.340113
0
ARC
5
12B
100
AcDbEntity
8
1
62
256
6
ByLayer
370
18
48
1
60
0
100
AcDbCircle
39
0
10
-298.674134
20
-179.42664
30
0
40
0.292
210
0
220
0
230
1
100
AcDbArc
50
135.660588
51
285.339412
0
ARC
5
12C
100
AcDbEntity
8
1
62
256
6
ByLayer
370
18
48
1
60
0
100
AcDbCircle
39
0
10
297.481209
20
-178.723953
30
0
40
1.2065
210
0
220
0
230
-1
100
AcDbArc
50
179.420057
51
235.544721
0
ARC
5
12D
100
AcDbEntity
8
1
62
256
6
ByLayer
370
18
48
1
60
0
100
AcDbCircle
39
0
10
297.481209
20
-178.723953
30
0
40
1.6765
210
0
220
0
230
-1
100
AcDbArc
50
29.340113
51
89.659887
0
ARC
5
12E
100
AcDbEntity
8
1
62
256
6
ByLayer
370
18
48
1
60
0
100
AcDbCircle
39
0
10
-298.437695
20
-177.100162
30
0
40
0.686
210
0
220
0
230
1
100
AcDbArc
50
255.164065
51
293.532029
0
ARC
5
12F
100
AcDbEntity
8
1
62
256
6
ByLayer
370
18
48
1
60
0
100
AcDbCircle
39
0
10
297.481209
20
-178.723953
30
0
40
1.2065
210
0
220
0
230
-1
100
AcDbArc
50
235.544721
51
243.455279
0
ARC
5
130
100
AcDbEntity
8
1
62
256
6
ByLayer
370
18
48
1
60
0
100
AcDbCircle
39
0
10
-297.481209
20
-178.723953
30
0
40
1.2065
210
0
220
0
230
1
100
AcDbArc
50
60.420057
51
116.544721
0
ARC
5
131
100
AcDbEntity
8
1
62
256
6
ByLayer
370
18
48
1
60
0
100
AcDbCircle
39
0
10
-296.547
20
-177.078107
30
0
40
0.686
210
0
220
0
230
1
100
AcDbArc
50
240.420057
51
285.339412
0
ARC
5
132
100
AcDbEntity
8
1
62
256
6
ByLayer
370
18
48
1
60
0
100
AcDbCircle
39
0
10
-296.524722
20
-180.347745
30
0
40
0.686
210
0
220
0
230
1
100
AcDbArc
50
75.164065
51
113.532029
0
ARC
5
133
100
AcDbEntity
8
1
62
256
6
ByLayer
370
18
48
1
60
0
100
AcDbCircle
39
0
10
-295.588806
20
-178.704798
30
0
40
0.686
210
0
220
0
230
1
100
AcDbArc
50
135.660588
51
180.579943
0
ARC
5
134
100
AcDbEntity
8
1
62
256
6
ByLayer
370
18
48
1
60
0
100
AcDbCircle
39
0
10
297.481209
20
-178.723953
30
0
40
1.6765
210
0
220
0
230
-1
100
AcDbArc
50
209.340113
51
269.659887
0
ARC
5
135
100
AcDbEntity
8
1
62
256
6
ByLayer
370
18
48
1
60
0
100
AcDbCircle
39
0
10
-298.415418
20
-180.369799
30
0
40
0.686
210
0
220
0
230
1
100
AcDbArc
50
15.500702
51
60.420057
0
ARC
5
136
100
AcDbEntity
8
1
62
256
6
ByLayer
370
18
48
1
60
0
100
AcDbCircle
39
0
10
-297.481209
20
-178.723953
30
0
40
1.2065
210
0
220
0
230
1
100
AcDbArc
50
124.455279
51
180.579943
0
ARC
5
137
100
AcDbEntity
8
1
62
256
6
ByLayer
370
18
48
1
60
0
100
AcDbCircle
39
0
10
-298.437695
20
-177.100162
30
0
40
0.686
210
0
220
0
230
1
100
AcDbArc
50
307.467971
51
345.835935
0
ARC
5
139
100
AcDbEntity
8
1
62
256
6
ByLayer
370
18
48
1
60
0
100
AcDbCircle
39
0
10
297.481209
20
-178.723953
30
0
40
1.6765
210
0
220
0
230
-1
100
AcDbArc
50
329.5
51
29.340113
0
ARC
5
13C
100
AcDbEntity
8
1
62
256
6
ByLayer
370
18
48
1
60
0
100
AcDbCircle
39
0
10
-297.481209
20
-178.723953
30
0
40
1.2065
210
0
220
0
230
1
100
AcDbArc
50
240.420057
51
296.544721
0
ARC
5
13D
100
AcDbEntity
8
1
62
256
6
ByLayer
370
18
48
1
60
0
100
AcDbCircle
39
0
10
-299.373612
20
-178.743109
30
0
40
0.686
210
0
220
0
230
1
100
AcDbArc
50
315.660588
51
0.579943
0
ARC
5
13E
100
AcDbEntity
8
1
62
256
6
ByLayer
370
18
48
1
60
0
100
AcDbCircle
39
0
10
290.548947
20
-187.526935
30
0
40
5
210
0
220
0
230
-1
100
AcDbArc
50
87
51
124.976396
0
ARC
5
13F
100
AcDbEntity
8
1
62
256
6
ByLayer
370
18
48
1
60
0
100
AcDbCircle
39
0
10
-298.688114
20
-178.045558
30
0
40
0.292
210
0
220
0
230
1
100
AcDbArc
50
75.164065
51
225.499298
0
CIRCLE
5
FB
100
AcDbEntity
8
1
62
256
6
ByLayer
370
18
48
1
60
0
100
AcDbCircle
10
297.154262
20
-178.589396
30
0
40
2.25
39
0
210
0
220
0
230
-1
0
CIRCLE
5
FC
100
AcDbEntity
8
1
62
256
6
ByLayer
370
18
48
1
60
0
100
AcDbCircle
10
297.481209
20
-178.723953
30
0
40
3
39
0
210
0
220
0
230
-1
0
CIRCLE
5
FD
100
AcDbEntity
8
1
62
256
6
ByLayer
370
18
48
1
60
0
100
AcDbCircle
10
297.154262
20
-178.589396
30
0
40
2.25
39
0
210
0
220
0
230
-1
0
CIRCLE
5
102
100
AcDbEntity
8
1
62
256
6
ByLayer
370
18
48
1
60
0
100
AcDbCircle
10
297.481209
20
-178.723953
30
0
40
2.2
39
0
210
0
220
0
230
-1
0
CIRCLE
5
106
100
AcDbEntity
8
1
62
256
6
ByLayer
370
18
48
1
60
0
100
AcDbCircle
10
297.481209
20
-178.723953
30
0
40
2.2
39
0
210
0
220
0
230
-1
0
CIRCLE
5
108
100
AcDbEntity
8
1
62
256
6
ByLayer
370
18
48
1
60
0
100
AcDbCircle
10
297.481209
20
-178.723953
30
0
40
1.75
39
0
210
0
220
0
230
-1
0
CIRCLE
5
10A
100
AcDbEntity
8
1
62
256
6
ByLayer
370
18
48
1
60
0
100
AcDbCircle
10
297.481209
20
-178.723953
30
0
40
1.35
39
0
210
0
220
0
230
-1
0
CIRCLE
5
10B
100
AcDbEntity
8
1
62
256
6
ByLayer
370
18
48
1
60
0
100
AcDbCircle
10
297.481209
20
-178.723953
30
0
40
2.625
39
0
210
0
220
0
230
-1
0
CIRCLE
5
10D
100
AcDbEntity
8
1
62
256
6
ByLayer
370
18
48
1
60
0
100
AcDbCircle
10
297.481209
20
-178.723953
30
0
40
1.55
39
0
210
0
220
0
230
-1
0
CIRCLE
5
112
100
AcDbEntity
8
1
62
256
6
ByLayer
370
18
48
1
60
0
100
AcDbCircle
10
297.481209
20
-178.723953
30
0
40
3.07132534818238
39
0
210
0
220
0
230
-1
0
CIRCLE
5
115
100
AcDbEntity
8
1
62
256
6
ByLayer
370
18
48
1
60
0
100
AcDbCircle
10
297.481209
20
-178.723953
30
0
40
1.81794919243112
39
0
210
0
220
0
230
-1
0
CIRCLE
5
119
100
AcDbEntity
8
1
62
256
6
ByLayer
370
18
48
1
60
0
100
AcDbCircle
10
297.481209
20
-178.723953
30
0
40
2.625
39
0
210
0
220
0
230
-1
0
CIRCLE
5
121
100
AcDbEntity
8
1
62
256
6
ByLayer
370
18
48
1
60
0
100
AcDbCircle
10
-289.55422
20
-174.0546
30
0
40
1.5
39
0
210
0
220
0
230
1
0
CIRCLE
5
123
100
AcDbEntity
8
1
62
256
6
ByLayer
370
18
48
1
60
0
100
AcDbCircle
10
297.154262
20
-178.589396
30
0
40
1.45
39
0
210
0
220
0
230
-1
0
CIRCLE
5
124
100
AcDbEntity
8
1
62
256
6
ByLayer
370
18
48
1
60
0
100
AcDbCircle
10
-297.154262
20
-178.589396
30
0
40
1.45
39
0
210
0
220
0
230
1
0
CIRCLE
5
126
100
AcDbEntity
8
1
62
256
6
ByLayer
370
18
48
1
60
0
100
AcDbCircle
10
297.481209
20
-178.723953
30
0
40
2.94486584643912
39
0
210
0
220
0
230
-1
0
CIRCLE
5
138
100
AcDbEntity
8
1
62
256
6
ByLayer
370
18
48
1
60
0
100
AcDbCircle
10
297.481209
20
-178.723953
30
0
40
1.55
39
0
210
0
220
0
230
-1
0
CIRCLE
5
13A
100
AcDbEntity
8
1
62
256
6
ByLayer
370
18
48
1
60
0
100
AcDbCircle
10
297.481209
20
-178.723953
30
0
40
1.8
39
0
210
0
220
0
230
-1
0
CIRCLE
5
13B
100
AcDbEntity
8
1
62
256
6
ByLayer
370
18
48
1
60
0
100
AcDbCircle
10
297.481209
20
-178.723953
30
0
40
1.75
39
0
210
0
220
0
230
-1
0
ELLIPSE
5
140
100
AcDbEntity
8
1
62
256
6
ByLayer
370
18
48
1
60
0
100
AcDbEllipse
10
-294.07803
20
-182.487315
30
0
11
-1.01779133852867
21
-1.57822563890342
31
0
210
0
220
0
230
-1
40
0.090086
41
1.36291705665368
42
1.51802486300052
0
ELLIPSE
5
141
100
AcDbEntity
8
1
62
256
6
ByLayer
370
18
48
1
60
0
100
AcDbEllipse
10
-304.517213
20
-182.318957
30
0
11
-0.198808118603732
21
0.458775906055717
31
0
210
0
220
0
230
1
40
0.109762
41
0
42
6.28318530717959
0
ELLIPSE
5
142
100
AcDbEntity
8
1
62
256
6
ByLayer
370
18
48
1
60
0
100
AcDbEllipse
10
-303.37801
20
-183.194473
30
0
11
-0.0379098870555484
21
0.498560769077788
31
0
210
0
220
0
230
1
40
0.121208
41
0
42
6.28318530717959
0
ELLIPSE
5
143
100
AcDbEntity
8
1
62
256
6
ByLayer
370
18
48
1
60
0
100
AcDbEllipse
10
-289.55422
20
-174.0546
30
0
11
-0.443404371096236
21
-1.4329663598405
31
0
210
0
220
0
230
-1
40
1
41
-0.0546101999957273
42
0.0488369562802629
0
ELLIPSE
5
144
100
AcDbEntity
8
1
62
256
6
ByLayer
370
18
48
1
60
0
100
AcDbEllipse
10
-306.610257
20
-183.440249
30
0
11
-12.339783636431
21
-0.938300469995449
31
0
210
0
220
0
230
1
40
0.121208
41
3.0010922232131
42
-3.12617527052493
0
ELLIPSE
5
145
100
AcDbEntity
8
1
62
256
6
ByLayer
370
18
48
1
60
0
100
AcDbEllipse
10
-305.115998
20
-183.242256
30
0
11
-0.128868441292023
21
0.483107570670306
31
0
210
0
220
0
230
1
40
0.108372
41
0
42
6.28318530717959
0
POINT
5
6C
100
AcDbEntity
8
SK1
62
256
6
ByLayer
370
18
48
1
60
1
100
AcDbPoint
10
150.034998
20
-21.613417
30
0
39
0
210
0
220
0
230
1
50
360
0
POINT
5
6E
100
AcDbEntity
8
SK1
62
256
6
ByLayer
370
18
48
1
60
1
100
AcDbPoint
10
139.744245
20
-22.152733
30
0
39
0
210
0
220
0
230
1
50
360
0
POINT
5
6F
100
AcDbEntity
8
SK1
62
256
6
ByLayer
370
18
48
1
60
1
100
AcDbPoint
10
211.497973
20
-17.937842
30
0
39
0
210
0
220
0
230
1
50
360
0
POINT
5
70
100
AcDbEntity
8
SK1
62
256
6
ByLayer
370
18
48
1
60
1
100
AcDbPoint
10
223.297973
20
-17.937842
30
0
39
0
210
0
220
0
230
1
50
360
0
POINT
5
71
100
AcDbEntity
8
80
62
256
6
ByLayer
370
18
48
0.05
60
0
100
AcDbPoint
10
-238.680483
20
-167.954993
30
0
39
0
210
0
220
0
230
1
50
360
0
POINT
5
73
100
AcDbEntity
8
81
62
256
6
ByLayer
370
18
48
1
60
0
100
AcDbPoint
10
-305.680483
20
-183.879993
30
0
39
0
210
0
220
0
230
1
50
360
0
POINT
5
75
100
AcDbEntity
8
SK1
62
256
6
ByLayer
370
18
48
1
60
0
100
AcDbPoint
10
-305.680483
20
-183.879993
30
0
39
0
210
0
220
0
230
1
50
360
0
SPLINE
5
146
100
AcDbEntity
8
SK1
62
256
6
ByLayer
370
18
48
1
60
0
100
AcDbSpline
70
4
71
3
72
24
73
20
40
0
40
0
40
0
40
0
40
0.0007177427479104
40
0.0007177427479104
40
0.250538307060931
40
0.250538307060931
40
0.500358871373951
40
0.500358871373951
40
0.625269153530463
40
0.625269153530463
40
0.750179435686975
40
0.750179435686975
40
0.812634576765231
40
0.812634576765231
40
0.875089717843487
40
0.875089717843487
40
0.937544858921744
40
0.937544858921744
40
1
40
1
40
1
40
1
41
1
10
-234.680483508291
20
-172.542494498819
30
0
41
1
10
-234.680483477545
20
-172.542493499189
30
0
41
1
10
-234.680483473152
20
-172.542492499096
30
0
41
1
10
-234.680483473347
20
-172.542481773325
30
0
41
1
10
-234.680856204838
20
-172.552694955439
30
0
41
1
10
-234.677826740257
20
-172.592700131637
30
0
41
1
10
-234.674584865808
20
-172.622500102738
30
0
41
1
10
-234.656008372736
20
-172.681814146855
30
0
41
1
10
-234.647475633241
20
-172.704027064823
30
0
41
1
10
-234.621534939297
20
-172.753349411927
30
0
41
1
10
-234.604329962935
20
-172.780243873349
30
0
41
1
10
-234.567018919279
20
-172.822221575559
30
0
41
1
10
-234.552725275899
20
-172.836381362666
30
0
41
1
10
-234.518787610459
20
-172.864513377844
30
0
41
1
10
-234.499230556896
20
-172.87850756083
30
0
41
1
10
-234.45120024998
20
-172.905276502601
30
0
41
1
10
-234.422915108218
20
-172.917826109364
30
0
41
1
10
-234.357365126976
20
-172.936511953927
30
0
41
1
10
-234.319584438281
20
-172.942493297587
30
0
41
1
10
-234.280483473346
20
-172.942493297587
30
0
0
SPLINE
5
147
100
AcDbEntity
8
SK1
62
256
6
ByLayer
370
18
48
1
60
0
100
AcDbSpline
70
4
71
3
72
24
73
20
40
0
40
0
40
0
40
0
40
0.0624745580107198
40
0.0624745580107198
40
0.12494911602144
40
0.12494911602144
40
0.187423674032159
40
0.187423674032159
40
0.249898232042879
40
0.249898232042879
40
0.374847348064316
40
0.374847348064316
40
0.499796464085753
40
0.499796464085753
40
0.749694696128627
40
0.749694696128627
40
0.999592928171502
40
0.999592928171502
40
1
40
1
40
1
40
1
41
1
10
-234.280483473346
20
-178.942493297587
30
0
41
1
10
-234.319341697796
20
-178.942493297587
30
0
41
1
10
-234.356878685493
20
-178.948380325952
30
0
41
1
10
-234.422445416212
20
-178.966982885445
30
0
41
1
10
-234.450307686662
20
-178.979301038269
30
0
41
1
10
-234.498188875494
20
-179.005813570647
30
0
41
1
10
-234.518156711364
20
-179.019996469213
30
0
41
1
10
-234.552382010398
20
-179.048275762538
30
0
41
1
10
-234.566819943798
20
-179.062556526335
30
0
41
1
10
-234.604297133614
20
-179.104675312028
30
0
41
1
10
-234.621225920335
20
-179.1311701734
30
0
41
1
10
-234.647037523008
20
-179.180009431703
30
0
41
1
10
-234.655746725821
20
-179.202434397501
30
0
41
1
10
-234.674615342657
20
-179.262392821937
30
0
41
1
10
-234.677828222481
20
-179.292290939113
30
0
41
1
10
-234.68085815329
20
-179.332332484586
30
0
41
1
10
-234.680483473346
20
-179.342481753726
30
0
41
1
10
-234.680483414577
20
-179.342494298063
30
0
41
1
10
-234.680483475091
20
-179.342493284692
30
0
41
1
10
-234.680483530495
20
-179.342492286128
30
0
0
SPLINE
5
148
100
AcDbEntity
8
1
62
256
6
ByLayer
370
18
48
1
60
0
100
AcDbSpline
70
4
71
3
72
18
73
14
40
0
40
0
40
0
40
0
40
0.125000000000001
40
0.125000000000001
40
0.250000000000001
40
0.250000000000001
40
0.375000000000002
40
0.375000000000002
40
0.500000000000002
40
0.500000000000002
40
0.750000000000001
40
0.750000000000001
40
1
40
1
40
1
40
1
41
1
10
-296.036687486163
20
-177.873065074998
30
0
41
1
10
-296.045131735518
20
-177.858729584299
30
0
41
1
10
-296.054967937388
20
-177.844904184876
30
0
41
1
10
-296.076460337619
20
-177.81959656107
30
0
41
1
10
-296.088169382367
20
-177.807980428369
30
0
41
1
10
-296.113477720407
20
-177.786789332313
30
0
41
1
10
-296.127057303737
20
-177.777274159575
30
0
41
1
10
-296.155009515673
20
-177.760950952606
30
0
41
1
10
-296.169506004339
20
-177.75403330696
30
0
41
1
10
-296.214501923118
20
-177.736924486353
30
0
41
1
10
-296.245202641902
20
-177.730814400138
30
0
41
1
10
-296.306929684459
20
-177.728229528449
30
0
41
1
10
-296.336757665971
20
-177.731776670964
30
0
41
1
10
-296.365527851031
20
-177.739668578051
30
0
0
SPLINE
5
149
100
AcDbEntity
8
1
62
256
6
ByLayer
370
18
48
1
60
0
100
AcDbSpline
70
4
71
3
72
28
73
24
40
0
40
0
40
0
40
0
40
0.125000000000009
40
0.125000000000009
40
0.187500000000014
40
0.187500000000014
40
0.250000000000018
40
0.250000000000018
40
0.375000000000016
40
0.375000000000016
40
0.437500000000015
40
0.437500000000015
40
0.500000000000014
40
0.500000000000014
40
0.625000000000011
40
0.625000000000011
40
0.68750000000001
40
0.68750000000001
40
0.750000000000008
40
0.750000000000008
40
0.875000000000004
40
0.875000000000004
40
1
40
1
40
1
40
1
41
1
10
-297.754369430149
20
-180.186465799148
30
0
41
1
10
-297.765657773562
20
-180.145763283348
30
0
41
1
10
-297.780645789382
20
-180.106157397667
30
0
41
1
10
-297.80904182233
20
-180.048293681455
30
0
41
1
10
-297.819500334782
20
-180.029264491684
30
0
41
1
10
-297.842582192554
20
-179.99172399915
30
0
41
1
10
-297.855249112379
20
-179.973176253176
30
0
41
1
10
-297.895892481426
20
-179.91957658912
30
0
41
1
10
-297.926696488842
20
-179.886126827647
30
0
41
1
10
-297.979375586918
20
-179.839694534023
30
0
41
1
10
-297.997888877033
20
-179.82499258181
30
0
41
1
10
-298.036027486951
20
-179.797778552074
30
0
41
1
10
-298.055765579267
20
-179.785164563066
30
0
41
1
10
-298.117002846491
20
-179.750323208102
30
0
41
1
10
-298.161093350394
20
-179.730994228708
30
0
41
1
10
-298.22740943768
20
-179.709656908287
30
0
41
1
10
-298.249672511337
20
-179.703728547769
30
0
41
1
10
-298.294523997301
20
-179.694146709734
30
0
41
1
10
-298.317188087626
20
-179.69049806582
30
0
41
1
10
-298.384083042223
20
-179.683047886144
30
0
41
1
10
-298.42775714199
20
-179.682554253975
30
0
41
1
10
-298.513781727434
20
-179.689518085524
30
0
41
1
10
-298.556126634083
20
-179.697056047409
30
0
41
1
10
-298.596889696257
20
-179.708237702953
30
0
0
SPLINE
5
14A
100
AcDbEntity
8
1
62
256
6
ByLayer
370
18
48
1
60
0
100
AcDbSpline
70
4
71
3
72
16
73
12
40
0
40
0
40
0
40
0
40
0.250000000000001
40
0.250000000000001
40
0.375000000000002
40
0.375000000000002
40
0.500000000000004
40
0.500000000000004
40
0.750000000000002
40
0.750000000000002
40
1
40
1
40
1
40
1
41
1
10
-298.020389046428
20
-177.644635354379
30
0
41
1
10
-297.987897053768
20
-177.619732216724
30
0
41
1
10
-297.958597291462
20
-177.592708135792
30
0
41
1
10
-297.9188053041
20
-177.549310339665
30
0
41
1
10
-297.90624014611
20
-177.534363045048
30
0
41
1
10
-297.882463494959
20
-177.503513962307
30
0
41
1
10
-297.871249079262
20
-177.487589674074
30
0
41
1
10
-297.840197723142
20
-177.439359578441
30
0
41
1
10
-297.822670178756
20
-177.406286095825
30
0
41
1
10
-297.793285117149
20
-177.338286851228
30
0
41
1
10
-297.78145696835
20
-177.303317737619
30
0
41
1
10
-297.772550165371
20
-177.268025332781
30
0
0
SPLINE
5
14B
100
AcDbEntity
8
1
62
256
6
ByLayer
370
18
48
1
60
0
100
AcDbSpline
70
4
71
3
72
18
73
14
40
0
40
0
40
0
40
0
40
0.124999999999999
40
0.124999999999999
40
0.249999999999999
40
0.249999999999999
40
0.374999999999998
40
0.374999999999998
40
0.499999999999998
40
0.499999999999998
40
0.749999999999999
40
0.749999999999999
40
1
40
1
40
1
40
1
41
1
10
-298.925730061124
20
-179.574841206006
30
0
41
1
10
-298.91728581177
20
-179.589176696705
30
0
41
1
10
-298.907449609899
20
-179.603002096128
30
0
41
1
10
-298.885957209668
20
-179.628309719934
30
0
41
1
10
-298.87424816492
20
-179.639925852634
30
0
41
1
10
-298.848939826881
20
-179.661116948691
30
0
41
1
10
-298.83536024355
20
-179.670632121429
30
0
41
1
10
-298.807408031614
20
-179.686955328398
30
0
41
1
10
-298.792911542948
20
-179.693872974044
30
0
41
1
10
-298.74791562417
20
-179.710981794651
30
0
41
1
10
-298.717214905385
20
-179.717091880866
30
0
41
1
10
-298.655487862828
20
-179.719676752555
30
0
41
1
10
-298.625659881316
20
-179.71612961004
30
0
41
1
10
-298.596889696257
20
-179.708237702953
30
0
0
SPLINE
5
14C
100
AcDbEntity
8
1
62
256
6
ByLayer
370
18
48
1
60
0
100
AcDbSpline
70
4
71
3
72
20
73
16
40
0
40
0
40
0
40
0
40
0.250000000000029
40
0.250000000000029
40
0.375000000000024
40
0.375000000000024
40
0.500000000000019
40
0.500000000000019
40
0.625000000000014
40
0.625000000000014
40
0.75000000000001
40
0.75000000000001
40
0.875000000000005
40
0.875000000000005
40
1
40
1
40
1
40
1
41
1
10
-297.754369430149
20
-180.186465799148
30
0
41
1
10
-297.746376632298
20
-180.215285526624
30
0
41
1
10
-297.734121672741
20
-180.242677874925
30
0
41
1
10
-297.708807861193
20
-180.281319409838
30
0
41
1
10
-297.699200404003
20
-180.293727440274
30
0
41
1
10
-297.678203884367
20
-180.316741017343
30
0
41
1
10
-297.666744826532
20
-180.327464190162
30
0
41
1
10
-297.641788527447
20
-180.34722678023
30
0
41
1
10
-297.628134675953
20
-180.356336345279
30
0
41
1
10
-297.599675288499
20
-180.372017192793
30
0
41
1
10
-297.584814544485
20
-180.378668025271
30
0
41
1
10
-297.55379436523
20
-180.389506374422
30
0
41
1
10
-297.537437284036
20
-180.393716098854
30
0
41
1
10
-297.504527099221
20
-180.39919964928
30
0
41
1
10
-297.48795206982
20
-180.400522707915
30
0
41
1
10
-297.471256962823
20
-180.40042360295
30
0
0
SPLINE
5
14D
100
AcDbEntity
8
1
62
256
6
ByLayer
370
18
48
1
60
0
100
AcDbSpline
70
4
71
3
72
28
73
24
40
0
40
0
40
0
40
0
40
0.12499999999999
40
0.12499999999999
40
0.187499999999987
40
0.187499999999987
40
0.249999999999983
40
0.249999999999983
40
0.374999999999978
40
0.374999999999978
40
0.437499999999976
40
0.437499999999976
40
0.499999999999974
40
0.499999999999974
40
0.62499999999997
40
0.62499999999997
40
0.687499999999969
40
0.687499999999969
40
0.749999999999968
40
0.749999999999968
40
0.874999999999984
40
0.874999999999984
40
1
40
1
40
1
40
1
41
1
10
-297.208048117138
20
-177.261440481856
30
0
41
1
10
-297.196759773725
20
-177.302142997656
30
0
41
1
10
-297.181771757905
20
-177.341748883337
30
0
41
1
10
-297.153375724958
20
-177.399612599549
30
0
41
1
10
-297.142917212506
20
-177.41864178932
30
0
41
1
10
-297.119835354733
20
-177.456182281854
30
0
41
1
10
-297.107168434908
20
-177.474730027828
30
0
41
1
10
-297.066525065861
20
-177.528329691884
30
0
41
1
10
-297.035721058445
20
-177.561779453357
30
0
41
1
10
-296.98304196037
20
-177.60821174698
30
0
41
1
10
-296.964528670254
20
-177.622913699194
30
0
41
1
10
-296.926390060336
20
-177.65012772893
30
0
41
1
10
-296.906651968021
20
-177.662741717938
30
0
41
1
10
-296.845414700796
20
-177.697583072902
30
0
41
1
10
-296.801324196894
20
-177.716912052296
30
0
41
1
10
-296.735008109607
20
-177.738249372717
30
0
41
1
10
-296.712745035951
20
-177.744177733235
30
0
41
1
10
-296.667893549986
20
-177.75375957127
30
0
41
1
10
-296.645229459661
20
-177.757408215183
30
0
41
1
10
-296.578334505065
20
-177.76485839486
30
0
41
1
10
-296.534660405298
20
-177.765352027029
30
0
41
1
10
-296.448635819854
20
-177.75838819548
30
0
41
1
10
-296.406290913204
20
-177.750850233595
30
0
41
1
10
-296.365527851031
20
-177.739668578051
30
0
0
SPLINE
5
14E
100
AcDbEntity
8
1
62
256
6
ByLayer
370
18
48
1
60
0
100
AcDbSpline
70
4
71
3
72
8
73
4
40
0
40
0
40
0
40
0
40
1
40
1
40
1
40
1
41
1
10
-290.604926021836
20
-172.984077944931
30
0
41
1
10
-290.56729240761
20
-172.947140976895
30
0
41
1
10
-290.5272487244
20
-172.911729495305
30
0
41
1
10
-290.484740023031
20
-172.878108206919
30
0
0
SPLINE
5
14F
100
AcDbEntity
8
1
62
256
6
ByLayer
370
18
48
1
60
0
100
AcDbSpline
70
4
71
3
72
28
73
24
40
0
40
0
40
0
40
0
40
0.125000000000005
40
0.125000000000005
40
0.187500000000004
40
0.187500000000004
40
0.250000000000002
40
0.250000000000002
40
0.375000000000001
40
0.375000000000001
40
0.437500000000002
40
0.437500000000002
40
0.500000000000002
40
0.500000000000002
40
0.625000000000004
40
0.625000000000004
40
0.687500000000006
40
0.687500000000006
40
0.750000000000008
40
0.750000000000008
40
0.875000000000004
40
0.875000000000004
40
1
40
1
40
1
40
1
41
1
10
-296.079441253483
20
-178.225347243641
30
0
41
1
10
-296.108962306914
20
-178.255556990256
30
0
41
1
10
-296.135676415289
20
-178.288414609816
30
0
41
1
10
-296.171440347606
20
-178.342038163503
30
0
41
1
10
-296.18263898371
20
-178.360641418753
30
0
41
1
10
-296.203500833153
20
-178.399459508041
30
0
41
1
10
-296.213173663336
20
-178.419730326469
30
0
41
1
10
-296.239097539369
20
-178.4818009309
30
0
41
1
10
-296.25254271129
20
-178.525240553087
30
0
41
1
10
-296.266222560187
20
-178.594116581293
30
0
41
1
10
-296.269632911536
20
-178.617510143451
30
0
41
1
10
-296.274001490327
20
-178.664158534947
30
0
41
1
10
-296.274991174432
20
-178.687562071582
30
0
41
1
10
-296.274349437084
20
-178.758014262128
30
0
41
1
10
-296.268910071108
20
-178.805847256011
30
0
41
1
10
-296.2540407101
20
-178.873906103667
30
0
41
1
10
-296.247981233023
20
-178.896133848715
30
0
41
1
10
-296.233731899046
20
-178.939727700903
30
0
41
1
10
-296.225499841319
20
-178.961156812271
30
0
41
1
10
-296.198332455527
20
-179.022739059574
30
0
41
1
10
-296.17681675193
20
-179.060748863208
30
0
41
1
10
-296.12757561697
20
-179.131629291203
30
0
41
1
10
-296.099783388376
20
-179.164454647521
30
0
41
1
10
-296.069635466305
20
-179.194081653751
30
0
0
SPLINE
5
150
100
AcDbEntity
8
1
62
256
6
ByLayer
370
18
48
1
60
0
100
AcDbSpline
70
4
71
3
72
20
73
16
40
0
40
0
40
0
40
0
40
0.249999999999937
40
0.249999999999937
40
0.374999999999948
40
0.374999999999948
40
0.499999999999958
40
0.499999999999958
40
0.624999999999969
40
0.624999999999969
40
0.749999999999979
40
0.749999999999979
40
0.87499999999999
40
0.87499999999999
40
1
40
1
40
1
40
1
41
1
10
-298.613346816963
20
-177.763292410225
30
0
41
1
10
-298.642497130314
20
-177.755571003105
30
0
41
1
10
-298.672578237104
20
-177.752321932954
30
0
41
1
10
-298.719103425879
20
-177.754792039252
30
0
41
1
10
-298.734781532672
20
-177.756883814629
30
0
41
1
10
-298.765474747019
20
-177.763554524284
30
0
41
1
10
-298.780626205831
20
-177.768135112805
30
0
41
1
10
-298.810494916313
20
-177.779955139581
30
0
41
1
10
-298.82534395336
20
-177.78729391333
30
0
41
1
10
-298.853371671204
20
-177.804265020044
30
0
41
1
10
-298.866665217918
20
-177.813914652677
30
0
41
1
10
-298.891750674923
20
-177.835626383077
30
0
41
1
10
-298.903655963214
20
-177.847849325128
30
0
41
1
10
-298.924936845967
20
-177.87391302087
30
0
41
1
10
-298.934393773735
20
-177.887777275099
30
0
41
1
10
-298.942658144913
20
-177.902480082382
30
0
0
SPLINE
5
151
100
AcDbEntity
8
1
62
256
6
ByLayer
370
18
48
1
60
0
100
AcDbSpline
70
4
71
3
72
20
73
16
40
0
40
0
40
0
40
0
40
0.250000000000012
40
0.250000000000012
40
0.37500000000001
40
0.37500000000001
40
0.500000000000008
40
0.500000000000008
40
0.625000000000006
40
0.625000000000006
40
0.750000000000004
40
0.750000000000004
40
0.875000000000002
40
0.875000000000002
40
1
40
1
40
1
40
1
41
1
10
-297.208048117138
20
-177.261440481856
30
0
41
1
10
-297.216040914989
20
-177.23262075438
30
0
41
1
10
-297.228295874547
20
-177.205228406079
30
0
41
1
10
-297.253609686094
20
-177.166586871166
30
0
41
1
10
-297.263217143285
20
-177.15417884073
30
0
41
1
10
-297.28421366292
20
-177.131165263661
30
0
41
1
10
-297.295672720755
20
-177.120442090841
30
0
41
1
10
-297.32062901984
20
-177.100679500774
30
0
41
1
10
-297.334282871334
20
-177.091569935724
30
0
41
1
10
-297.362742258788
20
-177.075889088211
30
0
41
1
10
-297.377603002803
20
-177.069238255733
30
0
41
1
10
-297.408623182057
20
-177.058399906582
30
0
41
1
10
-297.424980263251
20
-177.05419018215
30
0
41
1
10
-297.457890448067
20
-177.048706631724
30
0
41
1
10
-297.474465477467
20
-177.047383573089
30
0
41
1
10
-297.491160584465
20
-177.047482678054
30
0
0
SPLINE
5
152
100
AcDbEntity
8
1
62
256
6
ByLayer
370
18
48
1
60
0
100
AcDbSpline
70
4
71
3
72
20
73
16
40
0
40
0
40
0
40
0
40
0.250000000000008
40
0.250000000000008
40
0.375000000000006
40
0.375000000000006
40
0.500000000000005
40
0.500000000000005
40
0.625000000000004
40
0.625000000000004
40
0.750000000000003
40
0.750000000000003
40
0.875000000000001
40
0.875000000000001
40
1
40
1
40
1
40
1
41
1
10
-296.349070730324
20
-179.684613870779
30
0
41
1
10
-296.319920416974
20
-179.692335277899
30
0
41
1
10
-296.289839310183
20
-179.69558434805
30
0
41
1
10
-296.243314121408
20
-179.693114241752
30
0
41
1
10
-296.227636014616
20
-179.691022466375
30
0
41
1
10
-296.196942800269
20
-179.68435175672
30
0
41
1
10
-296.181791341457
20
-179.679771168199
30
0
41
1
10
-296.151922630975
20
-179.667951141423
30
0
41
1
10
-296.137073593928
20
-179.660612367674
30
0
41
1
10
-296.109045876084
20
-179.64364126096
30
0
41
1
10
-296.095752329369
20
-179.633991628327
30
0
41
1
10
-296.070666872364
20
-179.612279897927
30
0
41
1
10
-296.058761584074
20
-179.600056955876
30
0
41
1
10
-296.03748070132
20
-179.573993260134
30
0
41
1
10
-296.028023773552
20
-179.560129005905
30
0
41
1
10
-296.019759402374
20
-179.545426198621
30
0
0
SPLINE
5
153
100
AcDbEntity
8
1
62
256
6
ByLayer
370
18
48
1
60
0
100
AcDbSpline
70
4
71
3
72
18
73
14
40
0
40
0
40
0
40
0
40
0.125
40
0.125
40
0.25
40
0.25
40
0.375
40
0.375
40
0.5
40
0.5
40
0.75
40
0.75
40
1
40
1
40
1
40
1
41
1
10
-296.019759402374
20
-179.545426198621
30
0
41
1
10
-296.011600089508
20
-179.530910296315
30
0
41
1
10
-296.004590098057
20
-179.515458650101
30
0
41
1
10
-295.993513352644
20
-179.484178395264
30
0
41
1
10
-295.989349721239
20
-179.468214292331
30
0
41
1
10
-295.983738419416
20
-179.435648751516
30
0
41
1
10
-295.982338614134
20
-179.419151549668
30
0
41
1
10
-295.982269751673
20
-179.38678761234
30
0
41
1
10
-295.983571882149
20
-179.370768545884
30
0
41
1
10
-295.991402143933
20
-179.323206166855
30
0
41
1
10
-296.001551848641
20
-179.293611104747
30
0
41
1
10
-296.030323611424
20
-179.23897431638
30
0
41
1
10
-296.048356302664
20
-179.214993141855
30
0
41
1
10
-296.069635466305
20
-179.194081653751
30
0
0
SPLINE
5
154
100
AcDbEntity
8
1
62
256
6
ByLayer
370
18
48
1
60
0
100
AcDbSpline
70
4
71
3
72
14
73
10
40
0
40
0
40
0
40
0
40
0.249999999999998
40
0.249999999999998
40
0.499999999999996
40
0.499999999999996
40
0.749999999999998
40
0.749999999999998
40
1
40
1
40
1
40
1
41
1
10
-298.613346816963
20
-177.763292410225
30
0
41
1
10
-298.578173127217
20
-177.772609304187
30
0
41
1
10
-298.542318744133
20
-177.779135580822
30
0
41
1
10
-298.469039573063
20
-177.786433630163
30
0
41
1
10
-298.431582044752
20
-177.78721284743
30
0
41
1
10
-298.354782314421
20
-177.782218971427
30
0
41
1
10
-298.316484170063
20
-177.776514350759
30
0
41
1
10
-298.239923286573
20
-177.758212847749
30
0
41
1
10
-298.201342865909
20
-177.745460170276
30
0
41
1
10
-298.16380159636
20
-177.729111802209
30
0
0
SPLINE
5
155
100
AcDbEntity
8
1
62
256
6
ByLayer
370
18
48
1
60
0
100
AcDbSpline
70
4
71
3
72
18
73
14
40
0
40
0
40
0
40
0
40
0.125
40
0.125
40
0.25
40
0.25
40
0.375
40
0.375
40
0.5
40
0.5
40
0.75
40
0.75
40
1
40
1
40
1
40
1
41
1
10
-297.491160584465
20
-177.047482678054
30
0
41
1
10
-297.507956946987
20
-177.047582384089
30
0
41
1
10
-297.525013843451
20
-177.049170146745
30
0
41
1
10
-297.557989833332
20
-177.055146816098
30
0
41
1
10
-297.574056721314
20
-177.059514016333
30
0
41
1
10
-297.605359309665
20
-177.070960353153
30
0
41
1
10
-297.620508846903
20
-177.078042537359
30
0
41
1
10
-297.648840206766
20
-177.094287501717
30
0
41
1
10
-297.662177651176
20
-177.103503313168
30
0
41
1
10
-297.699748320777
20
-177.134345433523
30
0
41
1
10
-297.720444422406
20
-177.158192795529
30
0
41
1
10
-297.753471297281
20
-177.210971379911
30
0
41
1
10
-297.765189042848
20
-177.238857547581
30
0
41
1
10
-297.772550165371
20
-177.268025332781
30
0
0
SPLINE
5
156
100
AcDbEntity
8
1
62
256
6
ByLayer
370
18
48
1
60
0
100
AcDbSpline
70
4
71
3
72
14
73
10
40
0
40
0
40
0
40
0
40
0.25
40
0.25
40
0.5
40
0.5
40
0.75
40
0.75
40
1
40
1
40
1
40
1
41
1
10
-296.349070730324
20
-179.684613870779
30
0
41
1
10
-296.38424442007
20
-179.675296976817
30
0
41
1
10
-296.420098803154
20
-179.668770700182
30
0
41
1
10
-296.493377974225
20
-179.661472650841
30
0
41
1
10
-296.530835502535
20
-179.660693433574
30
0
41
1
10
-296.607635232867
20
-179.665687309577
30
0
41
1
10
-296.645933377224
20
-179.671391930245
30
0
41
1
10
-296.722494260714
20
-179.689693433255
30
0
41
1
10
-296.761074681378
20
-179.702446110728
30
0
41
1
10
-296.798615950928
20
-179.718794478795
30
0
0
SPLINE
5
157
100
AcDbEntity
8
1
62
256
6
ByLayer
370
18
48
1
60
0
100
AcDbSpline
70
4
71
3
72
18
73
14
40
0
40
0
40
0
40
0
40
0.125000000000012
40
0.125000000000012
40
0.250000000000024
40
0.250000000000024
40
0.375000000000036
40
0.375000000000036
40
0.500000000000047
40
0.500000000000047
40
0.750000000000024
40
0.750000000000024
40
1
40
1
40
1
40
1
41
1
10
-297.471256962823
20
-180.40042360295
30
0
41
1
10
-297.4544606003
20
-180.400323896915
30
0
41
1
10
-297.437403703837
20
-180.398736134259
30
0
41
1
10
-297.404427713955
20
-180.392759464906
30
0
41
1
10
-297.388360825974
20
-180.388392264671
30
0
41
1
10
-297.357058237623
20
-180.376945927851
30
0
41
1
10
-297.341908700384
20
-180.369863743645
30
0
41
1
10
-297.313577340522
20
-180.353618779287
30
0
41
1
10
-297.300239896111
20
-180.344402967836
30
0
41
1
10
-297.26266922651
20
-180.313560847481
30
0
41
1
10
-297.241973124881
20
-180.289713485474
30
0
41
1
10
-297.208946250006
20
-180.236934901093
30
0
41
1
10
-297.197228504439
20
-180.209048733423
30
0
41
1
10
-297.189867381916
20
-180.179880948223
30
0
0
SPLINE
5
158
100
AcDbEntity
8
1
62
256
6
ByLayer
370
18
48
1
60
0
100
AcDbSpline
70
4
71
3
72
20
73
16
40
0
40
0
40
0
40
0
40
0.249999999999996
40
0.249999999999996
40
0.374999999999997
40
0.374999999999997
40
0.499999999999997
40
0.499999999999997
40
0.624999999999998
40
0.624999999999998
40
0.749999999999999
40
0.749999999999999
40
0.874999999999999
40
0.874999999999999
40
1
40
1
40
1
40
1
41
1
10
-298.882976293804
20
-179.222559037363
30
0
41
1
10
-298.903878900798
20
-179.243949278817
30
0
41
1
10
-298.921405986181
20
-179.268307563737
30
0
41
1
10
-298.942098460445
20
-179.309608641113
30
0
41
1
10
-298.947999847063
20
-179.324149481975
30
0
41
1
10
-298.95734904069
20
-179.353865994249
30
0
41
1
10
-298.960863383494
20
-179.369161282383
30
0
41
1
10
-298.965412235565
20
-179.400668183978
30
0
41
1
10
-298.966428713059
20
-179.41705044949
30
0
41
1
10
-298.965688377894
20
-179.449535485153
30
0
41
1
10
-298.963972608981
20
-179.465725958269
30
0
41
1
10
-298.957758740443
20
-179.497992182548
30
0
41
1
10
-298.953180541933
20
-179.514249981011
30
0
41
1
10
-298.941387204958
20
-179.545460022978
30
0
41
1
10
-298.934203617941
20
-179.560455961108
30
0
41
1
10
-298.925730061124
20
-179.574841206006
30
0
0
SPLINE
5
159
100
AcDbEntity
8
1
62
256
6
ByLayer
370
18
48
1
60
0
100
AcDbSpline
70
4
71
3
72
20
73
16
40
0
40
0
40
0
40
0
40
0.25
40
0.25
40
0.375
40
0.375
40
0.5
40
0.5
40
0.625
40
0.625
40
0.75
40
0.75
40
0.875
40
0.875
40
1
40
1
40
1
40
1
41
1
10
-296.079441253483
20
-178.225347243641
30
0
41
1
10
-296.058538646489
20
-178.203957002187
30
0
41
1
10
-296.041011561106
20
-178.179598717267
30
0
41
1
10
-296.020319086843
20
-178.138297639891
30
0
41
1
10
-296.014417700225
20
-178.123756799029
30
0
41
1
10
-296.005068506597
20
-178.094040286755
30
0
41
1
10
-296.001554163793
20
-178.078744998621
30
0
41
1
10
-295.997005311722
20
-178.047238097026
30
0
41
1
10
-295.995988834229
20
-178.030855831513
30
0
41
1
10
-295.996729169393
20
-177.998370795851
30
0
41
1
10
-295.998444938306
20
-177.982180322735
30
0
41
1
10
-296.004658806844
20
-177.949914098456
30
0
41
1
10
-296.009237005355
20
-177.933656299993
30
0
41
1
10
-296.021030342329
20
-177.902446258026
30
0
41
1
10
-296.028213929346
20
-177.887450319896
30
0
41
1
10
-296.036687486163
20
-177.873065074998
30
0
0
SPLINE
5
15A
100
AcDbEntity
8
1
62
256
6
ByLayer
370
18
48
1
60
0
100
AcDbSpline
70
4
71
3
72
28
73
24
40
0
40
0
40
0
40
0
40
0.124999999999995
40
0.124999999999995
40
0.187499999999999
40
0.187499999999999
40
0.250000000000002
40
0.250000000000002
40
0.375000000000004
40
0.375000000000004
40
0.437500000000005
40
0.437500000000005
40
0.500000000000006
40
0.500000000000006
40
0.62500000000001
40
0.62500000000001
40
0.687500000000013
40
0.687500000000013
40
0.750000000000016
40
0.750000000000016
40
0.875000000000008
40
0.875000000000008
40
1
40
1
40
1
40
1
41
1
10
-298.882976293804
20
-179.222559037363
30
0
41
1
10
-298.853455240373
20
-179.192349290748
30
0
41
1
10
-298.826741131998
20
-179.159491671188
30
0
41
1
10
-298.790977199681
20
-179.105868117501
30
0
41
1
10
-298.779778563577
20
-179.087264862251
30
0
41
1
10
-298.758916714134
20
-179.048446772963
30
0
41
1
10
-298.749243883952
20
-179.028175954535
30
0
41
1
10
-298.723320007918
20
-178.966105350104
30
0
41
1
10
-298.709874835997
20
-178.922665727917
30
0
41
1
10
-298.696194987101
20
-178.853789699711
30
0
41
1
10
-298.692784635751
20
-178.830396137553
30
0
41
1
10
-298.68841605696
20
-178.783747746057
30
0
41
1
10
-298.687426372855
20
-178.760344209422
30
0
41
1
10
-298.688068110203
20
-178.689892018876
30
0
41
1
10
-298.693507476179
20
-178.642059024994
30
0
41
1
10
-298.708376837187
20
-178.574000177337
30
0
41
1
10
-298.714436314265
20
-178.551772432289
30
0
41
1
10
-298.728685648241
20
-178.508178580101
30
0
41
1
10
-298.736917705968
20
-178.486749468733
30
0
41
1
10
-298.76408509176
20
-178.42516722143
30
0
41
1
10
-298.785600795357
20
-178.387157417796
30
0
41
1
10
-298.834841930317
20
-178.316276989801
30
0
41
1
10
-298.862634158912
20
-178.283451633484
30
0
41
1
10
-298.892782080983
20
-178.253824627253
30
0
0
SPLINE
5
15B
100
AcDbEntity
8
1
62
256
6
ByLayer
370
18
48
1
60
0
100
AcDbSpline
70
4
71
3
72
18
73
14
40
0
40
0
40
0
40
0
40
0.124999999999999
40
0.124999999999999
40
0.249999999999999
40
0.249999999999999
40
0.374999999999998
40
0.374999999999998
40
0.499999999999998
40
0.499999999999998
40
0.749999999999999
40
0.749999999999999
40
1
40
1
40
1
40
1
41
1
10
-298.942658144913
20
-177.902480082382
30
0
41
1
10
-298.95081745778
20
-177.916995984689
30
0
41
1
10
-298.95782744923
20
-177.932447630902
30
0
41
1
10
-298.968904194643
20
-177.96372788574
30
0
41
1
10
-298.973067826049
20
-177.979691988673
30
0
41
1
10
-298.978679127871
20
-178.012257529488
30
0
41
1
10
-298.980078933153
20
-178.028754731336
30
0
41
1
10
-298.980147795614
20
-178.061118668664
30
0
41
1
10
-298.978845665138
20
-178.07713773512
30
0
41
1
10
-298.971015403354
20
-178.124700114149
30
0
41
1
10
-298.960865698646
20
-178.154295176257
30
0
41
1
10
-298.932093935863
20
-178.208931964624
30
0
41
1
10
-298.914061244623
20
-178.232913139149
30
0
41
1
10
-298.892782080983
20
-178.253824627253
30
0
0
SPLINE
5
15C
100
AcDbEntity
8
1
62
256
6
ByLayer
370
18
48
1
60
0
100
AcDbSpline
70
4
71
3
72
16
73
12
40
0
40
0
40
0
40
0
40
0.250000000000004
40
0.250000000000004
40
0.375000000000004
40
0.375000000000004
40
0.500000000000005
40
0.500000000000005
40
0.750000000000002
40
0.750000000000002
40
1
40
1
40
1
40
1
41
1
10
-296.942028500859
20
-179.803270926624
30
0
41
1
10
-296.974520493519
20
-179.82817406428
30
0
41
1
10
-297.003820255825
20
-179.855198145212
30
0
41
1
10
-297.043612243188
20
-179.898595941339
30
0
41
1
10
-297.056177401177
20
-179.913543235956
30
0
41
1
10
-297.079954052328
20
-179.944392318697
30
0
41
1
10
-297.091168468025
20
-179.96031660693
30
0
41
1
10
-297.122219824146
20
-180.008546702562
30
0
41
1
10
-297.139747368531
20
-180.041620185179
30
0
41
1
10
-297.169132430138
20
-180.109619429776
30
0
41
1
10
-297.180960578937
20
-180.144588543385
30
0
41
1
10
-297.189867381916
20
-180.179880948223
30
0
0
INSERT
5
175
100
AcDbEntity
8
SK2
62
256
6
ByLayer
370
25
48
1
60
0
100
AcDbBlockReference
2
DimnDraft3D22
10
0
20
0
30
0
41
1
42
1
43
1
50
0
210
0
220
0
230
1
0
LINE
5
76
100
AcDbEntity
8
SK1
62
256
6
ByLayer
370
18
48
1
60
1
100
AcDbLine
10
-38.680483
20
-199.904993
30
0
11
-38.680483
21
97.095007
31
0
39
0
210
0
220
0
230
1
0
LINE
5
77
100
AcDbEntity
8
SK1
62
256
6
ByLayer
370
18
48
1
60
1
100
AcDbLine
10
381.319517
20
97.095007
30
0
11
-38.680483
21
97.095007
31
0
39
0
210
0
220
0
230
1
0
LINE
5
78
100
AcDbEntity
8
SK1
62
256
6
ByLayer
370
18
48
1
60
1
100
AcDbLine
10
381.319517
20
97.095007
30
0
11
381.319517
21
-199.904993
31
0
39
0
210
0
220
0
230
1
0
LINE
5
79
100
AcDbEntity
8
SK1
62
256
6
ByLayer
370
18
48
1
60
1
100
AcDbLine
10
-38.680483
20
-199.904993
30
0
11
381.319517
21
-199.904993
31
0
39
0
210
0
220
0
230
1
0
LINE
5
7A
100
AcDbEntity
8
1
62
256
6
ByLayer
370
18
48
1
60
1
100
AcDbLine
10
-238.680483
20
-199.904993
30
0
11
-238.680483
21
97.095007
31
0
39
0
210
0
220
0
230
1
0
LINE
5
7C
100
AcDbEntity
8
1
62
256
6
ByLayer
370
18
48
1
60
1
100
AcDbLine
10
181.319517
20
97.095007
30
0
11
-238.680483
21
97.095007
31
0
39
0
210
0
220
0
230
1
0
LINE
5
7D
100
AcDbEntity
8
1
62
256
6
ByLayer
370
18
48
1
60
1
100
AcDbLine
10
181.319517
20
97.095007
30
0
11
181.319517
21
-199.904993
31
0
39
0
210
0
220
0
230
1
0
LINE
5
7E
100
AcDbEntity
8
1
62
256
6
ByLayer
370
18
48
1
60
1
100
AcDbLine
10
-238.680483
20
-199.904993
30
0
11
181.319517
21
-199.904993
31
0
39
0
210
0
220
0
230
1
0
LINE
5
7F
100
AcDbEntity
8
1
62
256
6
ByLayer
370
18
48
1
60
1
100
AcDbLine
10
-238.680483
20
-199.904993
30
0
11
-238.680483
21
97.095007
31
0
39
0
210
0
220
0
230
1
0
LINE
5
80
100
AcDbEntity
8
1
62
256
6
ByLayer
370
18
48
1
60
1
100
AcDbLine
10
181.319517
20
97.095007
30
0
11
-238.680483
21
97.095007
31
0
39
0
210
0
220
0
230
1
0
LINE
5
81
100
AcDbEntity
8
1
62
256
6
ByLayer
370
18
48
1
60
1
100
AcDbLine
10
181.319517
20
97.095007
30
0
11
181.319517
21
-199.904993
31
0
39
0
210
0
220
0
230
1
0
LINE
5
82
100
AcDbEntity
8
1
62
256
6
ByLayer
370
18
48
1
60
1
100
AcDbLine
10
-238.680483
20
-199.904993
30
0
11
181.319517
21
-199.904993
31
0
39
0
210
0
220
0
230
1
0
LINE
5
83
100
AcDbEntity
8
1
62
256
6
ByLayer
370
18
48
1
60
1
100
AcDbLine
10
-238.680483
20
-199.904993
30
0
11
-238.680483
21
97.095007
31
0
39
0
210
0
220
0
230
1
0
LINE
5
84
100
AcDbEntity
8
1
62
256
6
ByLayer
370
18
48
1
60
1
100
AcDbLine
10
181.319517
20
97.095007
30
0
11
-238.680483
21
97.095007
31
0
39
0
210
0
220
0
230
1
0
LINE
5
85
100
AcDbEntity
8
1
62
256
6
ByLayer
370
18
48
1
60
1
100
AcDbLine
10
181.319517
20
97.095007
30
0
11
181.319517
21
-199.904993
31
0
39
0
210
0
220
0
230
1
0
LINE
5
86
100
AcDbEntity
8
1
62
256
6
ByLayer
370
18
48
1
60
1
100
AcDbLine
10
-238.680483
20
-199.904993
30
0
11
181.319517
21
-199.904993
31
0
39
0
210
0
220
0
230
1
0
LINE
5
87
100
AcDbEntity
8
4
62
256
6
ByLayer
370
13
48
0.05
60
0
100
AcDbLine
10
-211.680483
20
-175.942493
30
0
11
-228.680483
21
-175.942493
31
0
39
0
210
0
220
0
230
1
0
LINE
5
89
100
AcDbEntity
8
80
62
256
6
ByLayer
370
18
48
0.05
60
0
100
AcDbLine
10
-238.680483
20
-167.954993
30
0
11
-226.278381
21
-167.954993
31
0
39
0
210
0
220
0
230
1
0
LINE
5
8A
100
AcDbEntity
8
1
62
256
6
ByLayer
370
18
48
1
60
1
100
AcDbLine
10
-238.680483
20
-199.904993
30
0
11
-238.680483
21
97.095007
31
0
39
0
210
0
220
0
230
1
0
LINE
5
8B
100
AcDbEntity
8
1
62
256
6
ByLayer
370
18
48
1
60
1
100
AcDbLine
10
181.319517
20
97.095007
30
0
11
-238.680483
21
97.095007
31
0
39
0
210
0
220
0
230
1
0
LINE
5
8C
100
AcDbEntity
8
1
62
256
6
ByLayer
370
18
48
1
60
1
100
AcDbLine
10
181.319517
20
97.095007
30
0
11
181.319517
21
-199.904993
31
0
39
0
210
0
220
0
230
1
0
LINE
5
8D
100
AcDbEntity
8
1
62
256
6
ByLayer
370
18
48
1
60
1
100
AcDbLine
10
-238.680483
20
-199.904993
30
0
11
181.319517
21
-199.904993
31
0
39
0
210
0
220
0
230
1
0
LINE
5
8E
100
AcDbEntity
8
1
62
256
6
ByLayer
370
18
48
1
60
1
100
AcDbLine
10
-238.680483
20
-199.904993
30
0
11
-238.680483
21
97.095007
31
0
39
0
210
0
220
0
230
1
0
LINE
5
8F
100
AcDbEntity
8
1
62
256
6
ByLayer
370
18
48
1
60
1
100
AcDbLine
10
181.319517
20
97.095007
30
0
11
-238.680483
21
97.095007
31
0
39
0
210
0
220
0
230
1
0
LINE
5
90
100
AcDbEntity
8
1
62
256
6
ByLayer
370
18
48
1
60
1
100
AcDbLine
10
181.319517
20
97.095007
30
0
11
181.319517
21
-199.904993
31
0
39
0
210
0
220
0
230
1
0
LINE
5
91
100
AcDbEntity
8
1
62
256
6
ByLayer
370
18
48
1
60
1
100
AcDbLine
10
-238.680483
20
-199.904993
30
0
11
181.319517
21
-199.904993
31
0
39
0
210
0
220
0
230
1
0
LINE
5
92
100
AcDbEntity
8
1
62
256
6
ByLayer
370
18
48
1
60
1
100
AcDbLine
10
0
20
-31.95
30
0
11
0
21
265.05
31
0
39
0
210
0
220
0
230
1
0
LINE
5
93
100
AcDbEntity
8
1
62
256
6
ByLayer
370
18
48
1
60
1
100
AcDbLine
10
420
20
265.05
30
0
11
0
21
265.05
31
0
39
0
210
0
220
0
230
1
0
LINE
5
94
100
AcDbEntity
8
1
62
256
6
ByLayer
370
18
48
1
60
1
100
AcDbLine
10
420
20
265.05
30
0
11
420
21
-31.95
31
0
39
0
210
0
220
0
230
1
0
LINE
5
95
100
AcDbEntity
8
1
62
256
6
ByLayer
370
18
48
1
60
1
100
AcDbLine
10
0
20
-31.95
30
0
11
420
21
-31.95
31
0
39
0
210
0
220
0
230
1
0
LINE
5
96
100
AcDbEntity
8
81
62
256
6
ByLayer
370
18
48
1
60
0
100
AcDbLine
10
-305.680483
20
-183.879993
30
0
11
-312.511638
21
-183.879993
31
0
39
0
210
0
220
0
230
1
0
LINE
5
97
100
AcDbEntity
8
SK1
62
256
6
ByLayer
370
18
48
1
60
1
100
AcDbLine
10
0
20
-31.95
30
0
11
0
21
265.05
31
0
39
0
210
0
220
0
230
1
0
LINE
5
98
100
AcDbEntity
8
SK1
62
256
6
ByLayer
370
18
48
1
60
1
100
AcDbLine
10
420
20
265.05
30
0
11
0
21
265.05
31
0
39
0
210
0
220
0
230
1
0
LINE
5
99
100
AcDbEntity
8
SK1
62
256
6
ByLayer
370
18
48
1
60
1
100
AcDbLine
10
420
20
265.05
30
0
11
420
21
-31.95
31
0
39
0
210
0
220
0
230
1
0
LINE
5
9A
100
AcDbEntity
8
SK1
62
256
6
ByLayer
370
18
48
1
60
1
100
AcDbLine
10
0
20
-31.95
30
0
11
420
21
-31.95
31
0
39
0
210
0
220
0
230
1
0
LINE
5
9B
100
AcDbEntity
8
SK1
62
256
6
ByLayer
370
18
48
1
60
0
100
AcDbLine
10
-277.780483
20
-167.954993
30
0
11
-238.680483
21
-167.954993
31
0
39
0
210
0
220
0
230
1
0
LINE
5
9C
100
AcDbEntity
8
SK1
62
256
6
ByLayer
370
18
48
1
60
0
100
AcDbLine
10
-235.68049
20
-172.542493
30
0
11
-234.680367
21
-172.542493
31
0
39
0
210
0
220
0
230
1
0
LINE
5
9D
100
AcDbEntity
8
SK1
62
256
6
ByLayer
370
18
48
1
60
0
100
AcDbLine
10
-234.680367
20
-179.342493
30
0
11
-235.68049
21
-179.342493
31
0
39
0
210
0
220
0
230
1
0
LINE
5
9E
100
AcDbEntity
8
SK1
62
256
6
ByLayer
370
18
48
1
60
0
100
AcDbLine
10
-214.680483
20
-173.942493
30
0
11
-213.680483
21
-174.210442
31
0
39
0
210
0
220
0
230
1
0
LINE
5
9F
100
AcDbEntity
8
SK1
62
256
6
ByLayer
370
18
48
1
60
0
100
AcDbLine
10
-213.680483
20
-177.674544
30
0
11
-214.680483
21
-177.942493
31
0
39
0
210
0
220
0
230
1
0
LINE
5
A0
100
AcDbEntity
8
SK1
62
256
6
ByLayer
370
18
48
1
60
0
100
AcDbLine
10
-229.280483
20
-173.942493
30
0
11
-214.680483
21
-173.942493
31
0
39
0
210
0
220
0
230
1
0
LINE
5
A1
100
AcDbEntity
8
SK1
62
256
6
ByLayer
370
18
48
1
60
0
100
AcDbLine
10
-214.680483
20
-177.942493
30
0
11
-228.605444
21
-177.942493
31
0
39
0
210
0
220
0
230
1
0
LINE
5
A2
100
AcDbEntity
8
SK1
62
256
6
ByLayer
370
18
48
1
60
0
100
AcDbLine
10
-213.680483
20
-174.210442
30
0
11
-213.680483
21
-177.674544
31
0
39
0
210
0
220
0
230
1
0
LINE
5
A3
100
AcDbEntity
8
SK1
62
256
6
ByLayer
370
18
48
1
60
0
100
AcDbLine
10
-229.280483
20
-173.942493
30
0
11
-229.280483
21
-177.273319
31
0
39
0
210
0
220
0
230
1
0
LINE
5
A4
100
AcDbEntity
8
SK1
62
256
6
ByLayer
370
18
48
1
60
0
100
AcDbLine
10
-229.680483
20
-172.942493
30
0
11
-233.649268
21
-172.942493
31
0
39
0
210
0
220
0
230
1
0
LINE
5
A5
100
AcDbEntity
8
SK1
62
256
6
ByLayer
370
18
48
1
60
0
100
AcDbLine
10
-229.680483
20
-178.942493
30
0
11
-229.680483
21
-176.876794
31
0
39
0
210
0
220
0
230
1
0
LINE
5
A6
100
AcDbEntity
8
SK1
62
256
6
ByLayer
370
18
48
1
60
0
100
AcDbLine
10
-214.680483
20
-177.942493
30
0
11
-214.680483
21
-173.942493
31
0
39
0
210
0
220
0
230
1
0
LINE
5
A7
100
AcDbEntity
8
SK1
62
256
6
ByLayer
370
18
48
1
60
0
100
AcDbLine
10
-234.280483
20
-178.942493
30
0
11
-229.680483
21
-178.942493
31
0
39
0
210
0
220
0
230
1
0
LINE
5
A8
100
AcDbEntity
8
SK1
62
256
6
ByLayer
370
18
48
1
60
0
100
AcDbLine
10
-235.680483
20
-170.928927
30
0
11
-235.680483
21
-183.429993
31
0
39
0
210
0
220
0
230
1
0
LINE
5
A9
100
AcDbEntity
8
SK1
62
256
6
ByLayer
370
18
48
1
60
0
100
AcDbLine
10
-236.180483
20
-183.929993
30
0
11
-277.780483
21
-183.929993
31
0
39
0
210
0
220
0
230
1
0
LINE
5
AA
100
AcDbEntity
8
SK1
62
256
6
ByLayer
370
18
48
1
60
0
100
AcDbLine
10
-236.180483
20
-183.929993
30
0
11
-236.180483
21
-170.433271
31
0
39
0
210
0
220
0
230
1
0
LINE
5
AB
100
AcDbEntity
8
SK1
62
256
6
ByLayer
370
18
48
1
60
0
100
AcDbLine
10
-238.680483
20
-167.954993
30
0
11
-236.180483
21
-170.433271
31
0
39
0
210
0
220
0
230
1
0
LINE
5
AC
100
AcDbEntity
8
SK1
62
256
6
ByLayer
370
18
48
1
60
0
100
AcDbLine
10
-236.180483
20
-170.433271
30
0
11
-235.680483
21
-170.928927
31
0
39
0
210
0
220
0
230
1
0
LINE
5
AD
100
AcDbEntity
8
SK1
62
256
6
ByLayer
370
18
48
1
60
0
100
AcDbLine
10
-235.680483
20
-183.429993
30
0
11
-236.180483
21
-183.929993
31
0
39
0
210
0
220
0
230
1
0
LINE
5
AE
100
AcDbEntity
8
SK1
62
256
6
ByLayer
370
18
48
1
60
0
100
AcDbLine
10
-233.649268
20
-172.942493
30
0
11
-234.280483
21
-172.942493
31
0
39
0
210
0
220
0
230
1
0
LINE
5
AF
100
AcDbEntity
8
SK1
62
256
6
ByLayer
370
18
48
1
60
0
100
AcDbLine
10
-229.680483
20
-176.876794
30
0
11
-229.680483
21
-172.942493
31
0
39
0
210
0
220
0
230
1
0
LINE
5
B0
100
AcDbEntity
8
SK1
62
256
6
ByLayer
370
18
48
1
60
0
100
AcDbLine
10
-229.280483
20
-177.273319
30
0
11
-229.280483
21
-177.942493
31
0
39
0
210
0
220
0
230
1
0
LINE
5
B1
100
AcDbEntity
8
SK1
62
256
6
ByLayer
370
18
48
1
60
0
100
AcDbLine
10
-228.605444
20
-177.942493
30
0
11
-229.280483
21
-177.942493
31
0
39
0
210
0
220
0
230
1
0
LINE
5
B2
100
AcDbEntity
8
1
62
256
6
ByLayer
370
18
48
1
60
0
100
AcDbLine
10
-294.427202
20
-182.723324
30
0
11
-294.376142
21
-182.720648
31
0
39
0
210
0
220
0
230
1
0
LINE
5
B3
100
AcDbEntity
8
1
62
256
6
ByLayer
370
18
48
0.05
60
1
100
AcDbLine
10
-304.318405
20
-182.777733
30
0
11
-284.254231
21
-174.083029
31
0
39
0
210
0
220
0
230
1
0
LINE
5
B4
100
AcDbEntity
8
1
62
256
6
ByLayer
370
18
48
1
60
0
100
AcDbLine
10
-277.780483
20
-167.954993
30
0
11
-278.180483
21
-167.954993
31
0
39
0
210
0
220
0
230
1
0
LINE
5
B5
100
AcDbEntity
8
1
62
256
6
ByLayer
370
18
48
1
60
0
100
AcDbLine
10
-304.844929
20
-183.878905
30
0
11
-295.16892
21
-183.371807
31
0
39
0
210
0
220
0
230
1
0
LINE
5
B6
100
AcDbEntity
8
1
62
256
6
ByLayer
370
18
48
1
60
0
100
AcDbLine
10
-300.425293
20
-174.448255
30
0
11
-305.559834
21
-182.665237
31
0
39
0
210
0
220
0
230
1
0
LINE
5
B7
100
AcDbEntity
8
1
62
256
6
ByLayer
370
18
48
0.05
60
1
100
AcDbLine
10
-303.3401
20
-183.693034
30
0
11
-283.544703
21
-182.187819
31
0
39
0
210
0
220
0
230
1
0
LINE
5
B8
100
AcDbEntity
8
1
62
256
6
ByLayer
370
18
48
1
60
0
100
AcDbLine
10
-295.668367
20
-168.454993
30
0
11
-304.663133
21
-182.849628
31
0
39
0
210
0
220
0
230
1
0
LINE
5
B9
100
AcDbEntity
8
1
62
256
6
ByLayer
370
18
48
1
60
0
100
AcDbLine
10
-288.474883
20
-167.954993
30
0
11
-288.073352
21
-167.954993
31
0
39
0
210
0
220
0
230
1
0
LINE
5
BA
100
AcDbEntity
8
1
62
256
6
ByLayer
370
18
48
1
60
0
100
AcDbLine
10
-294.609
20
-182.732851
30
0
11
-290.06705
21
-175.464212
31
0
39
0
210
0
220
0
230
1
0
LINE
5
BB
100
AcDbEntity
8
1
62
256
6
ByLayer
370
18
48
1
60
0
100
AcDbLine
10
-278.680483
20
-167.954993
30
0
11
-287.571438
21
-167.954993
31
0
39
0
210
0
220
0
230
1
0
LINE
5
BC
100
AcDbEntity
8
1
62
256
6
ByLayer
370
18
48
1
60
0
100
AcDbLine
10
-292.920365
20
-173.89746
30
0
11
-299.295401
21
-174.259461
31
0
39
0
210
0
220
0
230
1
0
LINE
5
BD
100
AcDbEntity
8
1
62
256
6
ByLayer
370
18
48
1
60
0
100
AcDbLine
10
-293.006319
20
-173.752263
30
0
11
-292.920365
21
-173.89746
31
0
39
0
210
0
220
0
230
1
0
LINE
5
BE
100
AcDbEntity
8
1
62
256
6
ByLayer
370
18
48
1
60
0
100
AcDbLine
10
-278.180483
20
-167.954993
30
0
11
-278.180483
21
-183.929993
31
0
39
0
210
0
220
0
230
1
0
LINE
5
BF
100
AcDbEntity
8
1
62
256
6
ByLayer
370
18
48
1
60
0
100
AcDbLine
10
-304.428778
20
-183.247484
30
0
11
-304.663133
21
-182.849628
31
0
39
0
210
0
220
0
230
1
0
LINE
5
C0
100
AcDbEntity
8
1
62
256
6
ByLayer
370
18
48
1
60
0
100
AcDbLine
10
-288.474883
20
-167.954993
30
0
11
-287.075906
21
-183.929993
31
0
39
0
210
0
220
0
230
1
0
LINE
5
C1
100
AcDbEntity
8
1
62
256
6
ByLayer
370
18
48
1
60
0
100
AcDbLine
10
-294.609
20
-182.732851
30
0
11
-294.427202
21
-182.723324
31
0
39
0
210
0
220
0
230
1
0
LINE
5
C2
100
AcDbEntity
8
1
62
256
6
ByLayer
370
18
48
1
60
0
100
AcDbLine
10
-286.674375
20
-183.929993
30
0
11
-288.073352
21
-167.954993
31
0
39
0
210
0
220
0
230
1
0
LINE
5
C3
100
AcDbEntity
8
1
62
256
6
ByLayer
370
18
48
1
60
0
100
AcDbLine
10
-278.180483
20
-167.954993
30
0
11
-278.180483
21
-183.929993
31
0
39
0
210
0
220
0
230
1
0
LINE
5
C4
100
AcDbEntity
8
1
62
256
6
ByLayer
370
18
48
1
60
0
100
AcDbLine
10
-277.780483
20
-183.929993
30
0
11
-277.780483
21
-167.954993
31
0
39
0
210
0
220
0
230
1
0
LINE
5
C5
100
AcDbEntity
8
1
62
256
6
ByLayer
370
18
48
1
60
0
100
AcDbLine
10
-304.663133
20
-182.849628
30
0
11
-304.428778
21
-183.247484
31
0
39
0
210
0
220
0
230
1
0
LINE
5
C6
100
AcDbEntity
8
1
62
256
6
ByLayer
370
18
48
1
60
0
100
AcDbLine
10
-286.674375
20
-183.929993
30
0
11
-286.216248
21
-183.429993
31
0
39
0
210
0
220
0
230
1
0
LINE
5
C7
100
AcDbEntity
8
1
62
256
6
ByLayer
370
18
48
1
60
0
100
AcDbLine
10
-304.428778
20
-183.247484
30
0
11
-290.810627
21
-182.533787
31
0
39
0
210
0
220
0
230
1
0
LINE
5
C8
100
AcDbEntity
8
1
62
256
6
ByLayer
370
18
48
1
60
0
100
AcDbLine
10
-299.295401
20
-174.259461
30
0
11
-304.663133
21
-182.849628
31
0
39
0
210
0
220
0
230
1
0
LINE
5
C9
100
AcDbEntity
8
1
62
256
6
ByLayer
370
18
48
1
60
0
100
AcDbLine
10
-294.609
20
-182.732851
30
0
11
-290.06705
21
-175.464212
31
0
39
0
210
0
220
0
230
1
0
LINE
5
CA
100
AcDbEntity
8
1
62
256
6
ByLayer
370
18
48
1
60
0
100
AcDbLine
10
-288.474883
20
-167.954993
30
0
11
-295.355932
21
-167.954993
31
0
39
0
210
0
220
0
230
1
0
LINE
5
CB
100
AcDbEntity
8
1
62
256
6
ByLayer
370
18
48
1
60
0
100
AcDbLine
10
-293.006319
20
-173.752263
30
0
11
-292.844417
21
-173.493166
31
0
39
0
210
0
220
0
230
1
0
LINE
5
CC
100
AcDbEntity
8
1
62
256
6
ByLayer
370
18
48
0.05
60
1
100
AcDbLine
10
-283.620523
20
-181.190697
30
0
11
-303.41592
21
-182.695912
31
0
39
0
210
0
220
0
230
1
0
LINE
5
CD
100
AcDbEntity
8
1
62
256
6
ByLayer
370
18
48
1
60
0
100
AcDbLine
10
-287.571438
20
-167.954993
30
0
11
-286.216248
21
-183.429993
31
0
39
0
210
0
220
0
230
1
0
LINE
5
CE
100
AcDbEntity
8
1
62
256
6
ByLayer
370
18
48
1
60
0
100
AcDbLine
10
-278.680483
20
-183.429993
30
0
11
-278.680483
21
-167.954993
31
0
39
0
210
0
220
0
230
1
0
LINE
5
CF
100
AcDbEntity
8
1
62
256
6
ByLayer
370
18
48
1
60
0
100
AcDbLine
10
-300.011908
20
-174.706567
30
0
11
-305.146449
21
-182.923549
31
0
39
0
210
0
220
0
230
1
0
LINE
5
D0
100
AcDbEntity
8
1
62
256
6
ByLayer
370
18
48
1
60
0
100
AcDbLine
10
-300.011908
20
-174.706567
30
0
11
-300.425293
21
-174.448255
31
0
39
0
210
0
220
0
230
1
0
LINE
5
D1
100
AcDbEntity
8
1
62
256
6
ByLayer
370
18
48
1
60
0
100
AcDbLine
10
-290.117489
20
-173.569001
30
0
11
-290.091977
21
-174.055788
31
0
39
0
210
0
220
0
230
1
0
LINE
5
D2
100
AcDbEntity
8
1
62
256
6
ByLayer
370
18
48
1
60
0
100
AcDbLine
10
-294.537124
20
-182.999651
30
0
11
-289.402584
21
-174.782669
31
0
39
0
210
0
220
0
230
1
0
LINE
5
D3
100
AcDbEntity
8
1
62
256
6
ByLayer
370
18
48
1
60
0
100
AcDbLine
10
-295.194431
20
-182.88502
30
0
11
-295.16892
21
-183.371807
31
0
39
0
210
0
220
0
230
1
0
LINE
5
D4
100
AcDbEntity
8
1
62
256
6
ByLayer
370
18
48
1
60
0
100
AcDbLine
10
-290.117489
20
-173.569001
30
0
11
-299.793498
21
-174.076099
31
0
39
0
210
0
220
0
230
1
0
LINE
5
D5
100
AcDbEntity
8
1
62
256
6
ByLayer
370
18
48
1
60
0
100
AcDbLine
10
-294.950509
20
-182.741339
30
0
11
-294.537124
21
-182.999651
31
0
39
0
210
0
220
0
230
1
0
LINE
5
D6
100
AcDbEntity
8
1
62
256
6
ByLayer
370
18
48
1
60
0
100
AcDbLine
10
-278.180483
20
-183.929993
30
0
11
-278.680483
21
-183.429993
31
0
39
0
210
0
220
0
230
1
0
LINE
5
D7
100
AcDbEntity
8
1
62
256
6
ByLayer
370
18
48
1
60
0
100
AcDbLine
10
-278.180483
20
-183.929993
30
0
11
-277.780483
21
-183.929993
31
0
39
0
210
0
220
0
230
1
0
LINE
5
D8
100
AcDbEntity
8
1
62
256
6
ByLayer
370
18
48
0.05
60
1
100
AcDbLine
10
-284.651848
20
-173.165477
30
0
11
-304.716021
21
-181.860181
31
0
39
0
210
0
220
0
230
1
0
LINE
5
D9
100
AcDbEntity
8
1
62
256
6
ByLayer
370
18
48
1
60
0
100
AcDbLine
10
-286.216248
20
-183.429993
30
0
11
-278.680483
21
-183.429993
31
0
39
0
210
0
220
0
230
1
0
LINE
5
DA
100
AcDbEntity
8
1
62
256
6
ByLayer
370
18
48
0.05
60
1
100
AcDbLine
10
-304.98713
20
-183.725364
30
0
11
-283.85559
21
-178.088548
31
0
39
0
210
0
220
0
230
1
0
LINE
5
DB
100
AcDbEntity
8
1
62
256
6
ByLayer
370
18
48
0.05
60
1
100
AcDbLine
10
-284.113327
20
-177.122333
30
0
11
-305.244867
21
-182.759149
31
0
39
0
210
0
220
0
230
1
0
LINE
5
DC
100
AcDbEntity
8
1
62
256
6
ByLayer
370
18
48
1
60
0
100
AcDbLine
10
-286.674375
20
-183.929993
30
0
11
-288.073352
21
-167.954993
31
0
39
0
210
0
220
0
230
1
0
LINE
5
DD
100
AcDbEntity
8
1
62
256
6
ByLayer
370
18
48
1
60
0
100
AcDbLine
10
-278.680483
20
-167.954993
30
0
11
-278.180483
21
-167.954993
31
0
39
0
210
0
220
0
230
1
0
LINE
5
DE
100
AcDbEntity
8
1
62
256
6
ByLayer
370
18
48
1
60
0
100
AcDbLine
10
-299.198172
20
-174.103862
30
0
11
-293.006319
21
-173.752263
31
0
39
0
210
0
220
0
230
1
0
LINE
5
DF
100
AcDbEntity
8
1
62
256
6
ByLayer
370
18
48
1
60
0
100
AcDbLine
10
-292.920365
20
-173.89746
30
0
11
-299.295401
21
-174.259461
31
0
39
0
210
0
220
0
230
1
0
LINE
5
E0
100
AcDbEntity
8
1
62
256
6
ByLayer
370
18
48
1
60
0
100
AcDbLine
10
-278.180483
20
-183.929993
30
0
11
-286.674375
21
-183.929993
31
0
39
0
210
0
220
0
230
1
0
LINE
5
E1
100
AcDbEntity
8
1
62
256
6
ByLayer
370
18
48
1
60
0
100
AcDbLine
10
-295.355932
20
-167.954993
30
0
11
-299.198172
21
-174.103862
31
0
39
0
210
0
220
0
230
1
0
LINE
5
E2
100
AcDbEntity
8
1
62
256
6
ByLayer
370
18
48
1
60
0
100
AcDbLine
10
-286.674375
20
-183.929993
30
0
11
-287.075906
21
-183.929993
31
0
39
0
210
0
220
0
230
1
0
LINE
5
E3
100
AcDbEntity
8
1
62
256
6
ByLayer
370
18
48
1
60
0
100
AcDbLine
10
-292.717349
20
-173.572567
30
0
11
-292.920365
21
-173.89746
31
0
39
0
210
0
220
0
230
1
0
LINE
5
E4
100
AcDbEntity
8
1
62
256
6
ByLayer
370
18
48
1
60
0
100
AcDbLine
10
-304.428778
20
-183.247484
30
0
11
-294.609
21
-182.732851
31
0
39
0
210
0
220
0
230
1
0
LINE
5
E5
100
AcDbEntity
8
1
62
256
6
ByLayer
370
18
48
1
60
0
100
AcDbLine
10
-294.376142
20
-182.720648
30
0
11
-290.810627
21
-182.533787
31
0
39
0
210
0
220
0
230
1
0
LINE
5
E6
100
AcDbEntity
8
1
62
256
6
ByLayer
370
18
48
1
60
0
100
AcDbLine
10
-288.073352
20
-167.954993
30
0
11
-287.571438
21
-167.954993
31
0
39
0
210
0
220
0
230
1
0
LINE
5
E7
100
AcDbEntity
8
1
62
256
6
ByLayer
370
18
48
1
60
0
100
AcDbLine
10
-299.198172
20
-174.103862
30
0
11
-299.295401
21
-174.259461
31
0
39
0
210
0
220
0
230
1
0
LINE
5
E8
100
AcDbEntity
8
1
62
256
6
ByLayer
370
18
48
1
60
0
100
AcDbLine
10
-295.668367
20
-168.454993
30
0
11
-295.355932
21
-167.954993
31
0
39
0
210
0
220
0
230
1
0
LINE
5
E9
100
AcDbEntity
8
1
62
256
6
ByLayer
370
18
48
1
60
0
100
AcDbLine
10
-299.767986
20
-174.562886
30
0
11
-299.793498
21
-174.076099
31
0
39
0
210
0
220
0
230
1
0
LINE
5
EA
100
AcDbEntity
8
1
62
256
6
ByLayer
370
18
48
1
60
0
100
AcDbLine
10
-304.844929
20
-183.878905
30
0
11
-304.87044
21
-183.392118
31
0
39
0
210
0
220
0
230
1
0
LINE
5
EB
100
AcDbEntity
8
1
62
256
6
ByLayer
370
18
48
1
60
0
100
AcDbLine
10
-305.559834
20
-182.665237
30
0
11
-305.146449
21
-182.923549
31
0
39
0
210
0
220
0
230
1
0
LINE
5
EC
100
AcDbEntity
8
1
62
256
6
ByLayer
370
18
48
1
60
0
100
AcDbLine
10
-289.402584
20
-174.782669
30
0
11
-289.815969
21
-174.524357
31
0
39
0
210
0
220
0
230
1
0
LINE
5
ED
100
AcDbEntity
8
1
62
256
6
ByLayer
370
18
48
1
60
0
100
AcDbLine
10
-304.87044
20
-183.392118
30
0
11
-295.194431
21
-182.88502
31
0
39
0
210
0
220
0
230
1
0
LINE
5
EE
100
AcDbEntity
8
1
62
256
6
ByLayer
370
18
48
1
60
0
100
AcDbLine
10
-294.950509
20
-182.741339
30
0
11
-289.815969
21
-174.524357
31
0
39
0
210
0
220
0
230
1
0
LINE
5
EF
100
AcDbEntity
8
1
62
256
6
ByLayer
370
18
48
1
60
0
100
AcDbLine
10
-290.091977
20
-174.055788
30
0
11
-299.767986
21
-174.562886
31
0
39
0
210
0
220
0
230
1
0
LINE
5
F0
100
AcDbEntity
8
1
62
256
6
ByLayer
370
18
48
1
60
0
100
AcDbLine
10
-289.918748
20
-175.509633
30
0
11
-294.273693
21
-182.479001
31
0
39
0
210
0
220
0
230
1
0
LINE
5
F1
100
AcDbEntity
8
1
62
256
6
ByLayer
370
18
48
1
60
0
100
AcDbLine
10
-292.844417
20
-173.493166
30
0
11
-292.717349
21
-173.572567
31
0
39
0
210
0
220
0
230
1
0
LINE
5
F2
100
AcDbEntity
8
1
62
256
6
ByLayer
370
18
48
1
60
0
100
AcDbLine
10
-292.717349
20
-173.572567
30
0
11
-292.920365
21
-173.89746
31
0
39
0
210
0
220
0
230
1
0
LINE
5
F3
100
AcDbEntity
8
1
62
256
6
ByLayer
370
18
48
1
60
0
100
AcDbLine
10
-287.025079
20
-174.193904
30
0
11
-304.716021
21
-181.860181
31
0
39
0
210
0
220
0
230
1
0
LINE
5
F4
100
AcDbEntity
8
1
62
256
6
ByLayer
370
18
48
1
60
0
100
AcDbLine
10
-286.933127
20
-175.243914
30
0
11
-304.318405
21
-182.777733
31
0
39
0
210
0
220
0
230
1
0
LINE
5
F5
100
AcDbEntity
8
1
62
256
6
ByLayer
370
18
48
1
60
0
100
AcDbLine
10
-286.708016
20
-177.814463
30
0
11
-305.244867
21
-182.759149
31
0
39
0
210
0
220
0
230
1
0
LINE
5
F6
100
AcDbEntity
8
1
62
256
6
ByLayer
370
18
48
1
60
0
100
AcDbLine
10
-286.61945
20
-178.825804
30
0
11
-304.98713
21
-183.725364
31
0
39
0
210
0
220
0
230
1
0
LINE
5
F7
100
AcDbEntity
8
1
62
256
6
ByLayer
370
18
48
1
60
0
100
AcDbLine
10
-286.393882
20
-181.40158
30
0
11
-303.41592
21
-182.695912
31
0
39
0
210
0
220
0
230
1
0
LINE
5
F8
100
AcDbEntity
8
1
62
256
6
ByLayer
370
18
48
1
60
0
100
AcDbLine
10
-286.306637
20
-182.397832
30
0
11
-303.3401
21
-183.693034
31
0
39
0
210
0
220
0
230
1
0
MTEXT
5
15D
100
AcDbEntity
8
SK6
62
256
6
ByLayer
370
18
48
1
60
0
100
AcDbMText
10
-280.449963
20
-160.967808
30
0
210
0
220
0
230
1
1
\W0.7217;QS-SDJCR1616E11HP
40
3
41
0
44
1.084337
50
0
71
7
72
5
7
iso_b_vert
0
DIMENSION
5
16B
100
AcDbEntity
8
SK2
62
256
6
ByLayer
370
13
48
1
60
0
100
AcDbDimension
2
DimnDraft3D1
10
-199.001043
20
-167.954993
30
0
11
-199.001043
21
-177.54973
31
0
70
32
71
5
72
1
41
1
210
0
220
0
230
1
3
Standard
100
AcDbAlignedDimension
13
-234.180483
23
-183.929993
33
0
14
-236.680483
24
-167.954993
34
0
50
90
100
AcDbRotatedDimension
1001
ACAD
1000
DSTYLE
1002
{
1070
    74
1070
     0
1070
   279
1070
     0
1070
   172
1070
     1
1070
   173
1070
     1
1070
   340
1005
15E
1070
   271
1070
     1
1070
    77
1070
     1
1070
    73
1070
     0
1070
   171
1070
     4
1070
   274
1070
     4
1070
   177
1070
     7
1070
   176
1070
     7
1070
   178
1070
     7
1070
    78
1070
     8
1070
    41
1041
3.175
1070
   147
1041
1.75
1070
    42
1041
2.0
1070
    44
1041
2.0
1070
   140
1041
3.5
1070
   343
1005
0
1070
   344
1005
0
1002
}
0
DIMENSION
5
180
100
AcDbEntity
8
2
62
256
6
ByLayer
370
13
48
1
60
0
100
AcDbDimension
2
DimnDraft3D3
10
-313.631796
20
-183.879993
30
0
11
-313.631796
21
-177.204993
31
0
70
32
71
5
72
1
41
1
210
0
220
0
230
1
3
Standard
100
AcDbAlignedDimension
13
-279.780483
23
-183.929993
33
0
14
-307.680483
24
-183.879993
34
0
50
90
100
AcDbRotatedDimension
1001
ACAD
1000
DSTYLE
1002
{
1070
    74
1070
     0
1070
   279
1070
     0
1070
   172
1070
     1
1070
   173
1070
     1
1070
   340
1005
15E
1070
   271
1070
     2
1070
    77
1070
     1
1070
    73
1070
     0
1070
   171
1070
     4
1070
   274
1070
     4
1070
   177
1070
     7
1070
   176
1070
     7
1070
   178
1070
     7
1070
    78
1070
     8
1070
    41
1041
3.175
1070
   147
1041
1.75
1070
    42
1041
2.0
1070
    44
1041
2.0
1070
   140
1041
3.5
1070
   343
1005
0
1070
   344
1005
0
1002
}
0
DIMENSION
5
18A
100
AcDbEntity
8
SK2
62
256
6
ByLayer
370
13
48
1
60
0
100
AcDbDimension
2
DimnDraft3D4
10
-235.680483
20
-206.410842
30
0
11
-274.122589
21
-206.410842
31
0
70
32
71
5
72
1
41
1
210
0
220
0
230
1
3
Standard
100
AcDbAlignedDimension
13
-305.680483
23
-185.879993
33
0
14
-235.680483
24
-185.429993
34
0
50
0
100
AcDbRotatedDimension
1001
ACAD
1000
DSTYLE
1002
{
1070
   279
1070
     0
1070
   172
1070
     1
1070
   173
1070
     1
1070
   340
1005
15E
1070
   271
1070
     1
1070
    77
1070
     1
1070
    73
1070
     0
1070
   171
1070
     4
1070
   274
1070
     4
1070
   177
1070
     7
1070
   176
1070
     7
1070
   178
1070
     7
1070
    41
1041
3.175
1070
   147
1041
1.5
1070
    42
1041
2.0
1070
    44
1041
2.0
1070
   140
1041
3.0
1070
   343
1005
0
1070
   344
1005
0
1002
}
0
ENDSEC
0
SECTION
2
OBJECTS
0
DICTIONARY
5
1f4
330
0
100
AcDbDictionary
280
0
281
1
3
ACAD_GROUP
350
1f5
3
ACAD_MLINESTYLE
350
1f6
0
DICTIONARY
5
1f5
330
0
100
AcDbDictionary
280
0
281
1
0
DICTIONARY
5
1f6
330
0
100
AcDbDictionary
280
0
281
1
3
Standard
350
18
0
MLINESTYLE
5
18
330
1f6
100
AcDbMlineStyle
2
Standard
70
0
3

62
256
51
90
52
90
71
2
49
-0.5
62
256
6
ByLayer
49
0.5
62
256
6
ByLayer
0
RASTERVARIABLES
5
1e3
330

100
AcDbRasterVariables
90
0
70
1
71
1
72
1
0
ENDSEC
0
EOF
