  0
SECTION
  2
HEADER
  9
$ACADVER
  1
AC1015
  9
$ACADMAINTVER
 70
    20
  9
$DWGCODEPAGE
  3
ANSI_1252
  9
$INSBASE
 10
0.0
 20
0.0
 30
0.0
  9
$EXTMIN
 10
-81.98868299999999
 20
-43.214341
 30
0.0
  9
$EXTMAX
 10
44.260219
 20
8.181882999999999
 30
0.0
  9
$LIMMIN
 10
0.0
 20
0.0
  9
$LIMMAX
 10
12.0
 20
9.0
  9
$ORTHOMODE
 70
     0
  9
$REGENMODE
 70
     1
  9
$FILLMODE
 70
     1
  9
$QTEXTMODE
 70
     0
  9
$MIRRTEXT
 70
     1
  9
$LTSCALE
 40
1.0
  9
$ATTMODE
 70
     1
  9
$TEXTSIZE
 40
3.0
  9
$TRACEWID
 40
10.0
  9
$TEXTSTYLE
  7
SANDVIK_STYLE
  9
$CLAYER
  8
1
  9
$CELTYPE
  6
ByLayer
  9
$CECOLOR
 62
   256
  9
$CELTSCALE
 40
1.0
  9
$DISPSILH
 70
     0
  9
$DIMSCALE
 40
1.0
  9
$DIMASZ
 40
0.18
  9
$DIMEXO
 40
0.0625
  9
$DIMDLI
 40
0.38
  9
$DIMRND
 40
0.0
  9
$DIMDLE
 40
0.0
  9
$DIMEXE
 40
0.18
  9
$DIMTP
 40
0.0
  9
$DIMTM
 40
0.0
  9
$DIMTXT
 40
0.18
  9
$DIMCEN
 40
0.09
  9
$DIMTSZ
 40
0.0
  9
$DIMTOL
 70
     0
  9
$DIMLIM
 70
     0
  9
$DIMTIH
 70
     1
  9
$DIMTOH
 70
     1
  9
$DIMSE1
 70
     0
  9
$DIMSE2
 70
     0
  9
$DIMTAD
 70
     0
  9
$DIMZIN
 70
     0
  9
$DIMBLK
  1

  9
$DIMASO
 70
     1
  9
$DIMSHO
 70
     1
  9
$DIMPOST
  1

  9
$DIMAPOST
  1

  9
$DIMALT
 70
     0
  9
$DIMALTD
 70
     2
  9
$DIMALTF
 40
25.4
  9
$DIMLFAC
 40
1.0
  9
$DIMTOFL
 70
     0
  9
$DIMTVP
 40
0.0
  9
$DIMTIX
 70
     0
  9
$DIMSOXD
 70
     0
  9
$DIMSAH
 70
     0
  9
$DIMBLK1
  1

  9
$DIMBLK2
  1

  9
$DIMSTYLE
  2
STANDARD
  9
$DIMCLRD
 70
     0
  9
$DIMCLRE
 70
     0
  9
$DIMCLRT
 70
     0
  9
$DIMTFAC
 40
1.0
  9
$DIMGAP
 40
0.09
  9
$DIMJUST
 70
     0
  9
$DIMSD1
 70
     0
  9
$DIMSD2
 70
     0
  9
$DIMTOLJ
 70
     1
  9
$DIMTZIN
 70
     0
  9
$DIMALTZ
 70
     0
  9
$DIMALTTZ
 70
     0
  9
$DIMUPT
 70
     0
  9
$DIMDEC
 70
     4
  9
$DIMTDEC
 70
     4
  9
$DIMALTU
 70
     2
  9
$DIMALTTD
 70
     2
  9
$DIMTXSTY
  7
STANDARD
  9
$DIMAUNIT
 70
     0
  9
$DIMADEC
 70
     0
  9
$DIMALTRND
 40
0.0
  9
$DIMAZIN
 70
     0
  9
$DIMDSEP
 70
    46
  9
$DIMATFIT
 70
     3
  9
$DIMFRAC
 70
     0
  9
$DIMLDRBLK
  1

  9
$DIMLUNIT
 70
     2
  9
$DIMLWD
 70
    -2
  9
$DIMLWE
 70
    -2
  9
$DIMTMOVE
 70
     0
  9
$LUNITS
 70
     2
  9
$LUPREC
 70
     2
  9
$SKETCHINC
 40
0.0
  9
$FILLETRAD
 40
0.0
  9
$AUNITS
 70
     0
  9
$AUPREC
 70
     2
  9
$MENU
  1
acad
  9
$ELEVATION
 40
0.0
  9
$PELEVATION
 40
0.0
  9
$THICKNESS
 40
0.0
  9
$LIMCHECK
 70
     0
  9
$CHAMFERA
 40
0.0
  9
$CHAMFERB
 40
0.0
  9
$CHAMFERC
 40
0.0
  9
$CHAMFERD
 40
0.0
  9
$SKPOLY
 70
     0
  9
$TDCREATE
 40
2456818.501248090
  9
$TDUCREATE
 40
2456818.417914757
  9
$TDUPDATE
 40
2456818.501255312
  9
$TDUUPDATE
 40
2456818.417921979
  9
$TDINDWG
 40
0.0000079398
  9
$TDUSRTIMER
 40
0.0000079398
  9
$USRTIMER
 70
     1
  9
$ANGBASE
 50
0.0
  9
$ANGDIR
 70
     0
  9
$PDMODE
 70
     0
  9
$PDSIZE
 40
0.0
  9
$PLINEWID
 40
0.0
  9
$SPLFRAME
 70
     0
  9
$SPLINETYPE
 70
     6
  9
$SPLINESEGS
 70
     8
  9
$HANDSEED
  5
697
  9
$SURFTAB1
 70
     6
  9
$SURFTAB2
 70
     6
  9
$SURFTYPE
 70
     6
  9
$SURFU
 70
     6
  9
$SURFV
 70
     6
  9
$UCSBASE
  2

  9
$UCSNAME
  2

  9
$UCSORG
 10
0.0
 20
0.0
 30
0.0
  9
$UCSXDIR
 10
1.0
 20
0.0
 30
0.0
  9
$UCSYDIR
 10
0.0
 20
1.0
 30
0.0
  9
$UCSORTHOREF
  2

  9
$UCSORTHOVIEW
 70
     0
  9
$UCSORGTOP
 10
0.0
 20
0.0
 30
0.0
  9
$UCSORGBOTTOM
 10
0.0
 20
0.0
 30
0.0
  9
$UCSORGLEFT
 10
0.0
 20
0.0
 30
0.0
  9
$UCSORGRIGHT
 10
0.0
 20
0.0
 30
0.0
  9
$UCSORGFRONT
 10
0.0
 20
0.0
 30
0.0
  9
$UCSORGBACK
 10
0.0
 20
0.0
 30
0.0
  9
$PUCSBASE
  2

  9
$PUCSNAME
  2

  9
$PUCSORG
 10
0.0
 20
0.0
 30
0.0
  9
$PUCSXDIR
 10
1.0
 20
0.0
 30
0.0
  9
$PUCSYDIR
 10
0.0
 20
1.0
 30
0.0
  9
$PUCSORTHOREF
  2

  9
$PUCSORTHOVIEW
 70
     0
  9
$PUCSORGTOP
 10
0.0
 20
0.0
 30
0.0
  9
$PUCSORGBOTTOM
 10
0.0
 20
0.0
 30
0.0
  9
$PUCSORGLEFT
 10
0.0
 20
0.0
 30
0.0
  9
$PUCSORGRIGHT
 10
0.0
 20
0.0
 30
0.0
  9
$PUCSORGFRONT
 10
0.0
 20
0.0
 30
0.0
  9
$PUCSORGBACK
 10
0.0
 20
0.0
 30
0.0
  9
$USERI1
 70
     0
  9
$USERI2
 70
     0
  9
$USERI3
 70
     0
  9
$USERI4
 70
     0
  9
$USERI5
 70
     0
  9
$USERR1
 40
0.0
  9
$USERR2
 40
0.0
  9
$USERR3
 40
0.0
  9
$USERR4
 40
0.0
  9
$USERR5
 40
0.0
  9
$WORLDVIEW
 70
     1
  9
$SHADEDGE
 70
     3
  9
$SHADEDIF
 70
    70
  9
$TILEMODE
 70
     1
  9
$MAXACTVP
 70
    16
  9
$PINSBASE
 10
0.0
 20
0.0
 30
0.0
  9
$PLIMCHECK
 70
     0
  9
$PEXTMIN
 10
1.000000000000000E+20
 20
1.000000000000000E+20
 30
1.000000000000000E+20
  9
$PEXTMAX
 10
-1.000000000000000E+20
 20
-1.000000000000000E+20
 30
-1.000000000000000E+20
  9
$PLIMMIN
 10
0.0
 20
0.0
  9
$PLIMMAX
 10
12.0
 20
9.0
  9
$UNITMODE
 70
     0
  9
$VISRETAIN
 70
     0
  9
$PLINEGEN
 70
     0
  9
$PSLTSCALE
 70
     1
  9
$TREEDEPTH
 70
  3020
  9
$CMLSTYLE
  2
Standard
  9
$CMLJUST
 70
     0
  9
$CMLSCALE
 40
1.0
  9
$PROXYGRAPHICS
 70
     1
  9
$MEASUREMENT
 70
     0
  9
$CELWEIGHT
370
    -1
  9
$ENDCAPS
280
     0
  9
$JOINSTYLE
280
     0
  9
$LWDISPLAY
290
     0
  9
$INSUNITS
 70
     0
  9
$HYPERLINKBASE
  1

  9
$STYLESHEET
  1

  9
$XEDIT
290
     1
  9
$CEPSNTYPE
380
     0
  9
$PSTYLEMODE
290
     1
  9
$FINGERPRINTGUID
  2
{D6DA03F4-3036-4DB6-B36E-ADBF891ADDE4}
  9
$VERSIONGUID
  2
{1BFEA971-CF8E-4263-83DC-A2762AE30C69}
  9
$EXTNAMES
290
     1
  9
$PSVPSCALE
 40
0.0
  9
$OLESTARTUP
290
     0
  0
ENDSEC
  0
SECTION
  2
CLASSES
  0
CLASS
  1
ACDBDICTIONARYWDFLT
  2
AcDbDictionaryWithDefault
  3
ObjectDBX Classes
 90
        0
280
     0
281
     0
  0
CLASS
  1
MATERIAL
  2
AcDbMaterial
  3
ObjectDBX Classes
 90
     1153
280
     0
281
     0
  0
CLASS
  1
VISUALSTYLE
  2
AcDbVisualStyle
  3
ObjectDBX Classes
 90
     4095
280
     0
281
     0
  0
CLASS
  1
SCALE
  2
AcDbScale
  3
ObjectDBX Classes
 90
     1153
280
     0
281
     0
  0
CLASS
  1
TABLESTYLE
  2
AcDbTableStyle
  3
ObjectDBX Classes
 90
     4095
280
     0
281
     0
  0
CLASS
  1
MLEADERSTYLE
  2
AcDbMLeaderStyle
  3
ACDB_MLEADERSTYLE_CLASS
 90
     4095
280
     0
281
     0
  0
CLASS
  1
ACDBSECTIONVIEWSTYLE
  2
AcDbSectionViewStyle
  3
ObjectDBX Classes
 90
     1025
280
     0
281
     0
  0
CLASS
  1
ACDBDETAILVIEWSTYLE
  2
AcDbDetailViewStyle
  3
ObjectDBX Classes
 90
     1025
280
     0
281
     0
  0
CLASS
  1
EXACXREFPANELOBJECT
  2
ExAcXREFPanelObject
  3
EXAC_ESW
 90
     1025
280
     0
281
     0
  0
CLASS
  1
NPOCOLLECTION
  2
AcDbImpNonPersistentObjectsCollection
  3
ObjectDBX Classes
 90
     1153
280
     0
281
     0
  0
CLASS
  1
DICTIONARYVAR
  2
AcDbDictionaryVar
  3
ObjectDBX Classes
 90
        0
280
     0
281
     0
  0
CLASS
  1
CELLSTYLEMAP
  2
AcDbCellStyleMap
  3
ObjectDBX Classes
 90
     1152
280
     0
281
     0
  0
CLASS
  1
ACDBPLACEHOLDER
  2
AcDbPlaceHolder
  3
ObjectDBX Classes
 90
        0
280
     0
281
     0
  0
CLASS
  1
LAYOUT
  2
AcDbLayout
  3
ObjectDBX Classes
 90
        0
280
     0
281
     0
  0
ENDSEC
  0
SECTION
  2
TABLES
  0
TABLE
  2
VPORT
  5
55F
330
0
100
AcDbSymbolTable
 70
     1
  0
VPORT
  5
5F6
330
55F
100
AcDbSymbolTableRecord
100
AcDbViewportTableRecord
  2
*Active
 70
     0
 10
0.0
 20
0.0
 11
1.0
 21
1.0
 12
-18.864232
 22
-17.516229
 13
0.0
 23
0.0
 14
1.0
 24
1.0
 15
0.0
 25
0.0
 16
0.0
 26
0.0
 36
1.0
 17
0.0
 27
0.0
 37
0.0
 40
63.97008195548348
 41
2.2
 42
50.0
 43
0.0
 44
0.0
 50
0.0
 51
0.0
 71
     0
 72
   100
 73
     1
 74
     1
 75
     0
 76
     0
 77
     0
 78
     0
281
     0
 65
     1
110
0.0
120
0.0
130
0.0
111
1.0
121
0.0
131
0.0
112
0.0
122
1.0
132
0.0
 79
     0
146
0.0
1001
ACAD_NAV_VCDISPLAY
1070
     3
  0
ENDTAB
  0
TABLE
  2
LTYPE
  5
55C
330
0
100
AcDbSymbolTable
 70
     4
  0
LTYPE
  5
5B1
330
55C
100
AcDbSymbolTableRecord
100
AcDbLinetypeTableRecord
  2
ByBlock
 70
     0
  3

 72
    65
 73
     0
 40
0.0
  0
LTYPE
  5
5B2
330
55C
100
AcDbSymbolTableRecord
100
AcDbLinetypeTableRecord
  2
ByLayer
 70
     0
  3

 72
    65
 73
     0
 40
0.0
  0
LTYPE
  5
5B3
330
55C
100
AcDbSymbolTableRecord
100
AcDbLinetypeTableRecord
  2
CONTINUOUS
 70
     0
  3
Solid line
 72
    65
 73
     0
 40
0.0
  0
LTYPE
  5
5BF
330
55C
100
AcDbSymbolTableRecord
100
AcDbLinetypeTableRecord
  2
PHANTOM2
 70
     0
  3
Phantom (.5x) ___ _ _ ___ _ _ ___ _ _ ___ _ _
 72
    65
 73
     6
 40
1.25
 49
0.625
 74
     0
 49
-0.125
 74
     0
 49
0.125
 74
     0
 49
-0.125
 74
     0
 49
0.125
 74
     0
 49
-0.125
 74
     0
  0
LTYPE
  5
5CD
330
55C
100
AcDbSymbolTableRecord
100
AcDbLinetypeTableRecord
  2
CENTER
 70
     0
  3
____ _ ____ _ ____ _ ____ _ ____ _ ____ _ ____
 72
    65
 73
     4
 40
5.059897
 49
3.162434999999999
 74
     0
 49
-0.6324870000000001
 74
     0
 49
0.6324870000000001
 74
     0
 49
-0.6324870000000001
 74
     0
  0
LTYPE
  5
5CE
330
55C
100
AcDbSymbolTableRecord
100
AcDbLinetypeTableRecord
  2
DASHED
 70
     0
  3
__ __ __ __ __ __ __ __ __ __ __ __ __ __ __ __
 72
    65
 73
     2
 40
7.589844999999999
 49
5.059897
 74
     0
 49
-2.529948
 74
     0
  0
ENDTAB
  0
TABLE
  2
LAYER
  5
559
330
0
100
AcDbSymbolTable
 70
    38
  0
LAYER
  5
5AB
102
{ACAD_XDICTIONARY
360
5FF
102
}
330
559
100
AcDbSymbolTableRecord
100
AcDbLayerTableRecord
  2
0
 70
     0
 62
     7
  6
CONTINUOUS
370
    -3
390
566
  0
LAYER
  5
5CB
102
{ACAD_XDICTIONARY
360
601
102
}
330
559
100
AcDbSymbolTableRecord
100
AcDbLayerTableRecord
  2
1
 70
     0
 62
     4
  6
CONTINUOUS
370
    -3
390
566
  0
LAYER
  5
5CF
102
{ACAD_XDICTIONARY
360
603
102
}
330
559
100
AcDbSymbolTableRecord
100
AcDbLayerTableRecord
  2
61
 70
     0
 62
     5
  6
CONTINUOUS
370
    -3
390
566
  0
LAYER
  5
5D0
102
{ACAD_XDICTIONARY
360
605
102
}
330
559
100
AcDbSymbolTableRecord
100
AcDbLayerTableRecord
  2
62
 70
     0
 62
    -5
  6
CONTINUOUS
370
    -3
390
566
  0
LAYER
  5
5D1
102
{ACAD_XDICTIONARY
360
607
102
}
330
559
100
AcDbSymbolTableRecord
100
AcDbLayerTableRecord
  2
63
 70
     0
 62
    -5
  6
CONTINUOUS
370
    -3
390
566
  0
LAYER
  5
5D2
102
{ACAD_XDICTIONARY
360
609
102
}
330
559
100
AcDbSymbolTableRecord
100
AcDbLayerTableRecord
  2
64
 70
     0
 62
    -5
  6
CONTINUOUS
370
    -3
390
566
  0
LAYER
  5
5D3
102
{ACAD_XDICTIONARY
360
60B
102
}
330
559
100
AcDbSymbolTableRecord
100
AcDbLayerTableRecord
  2
65
 70
     0
 62
    -5
  6
CONTINUOUS
370
    -3
390
566
  0
LAYER
  5
5D4
102
{ACAD_XDICTIONARY
360
60D
102
}
330
559
100
AcDbSymbolTableRecord
100
AcDbLayerTableRecord
  2
66
 70
     0
 62
    -5
  6
CONTINUOUS
370
    -3
390
566
  0
LAYER
  5
5D5
102
{ACAD_XDICTIONARY
360
60F
102
}
330
559
100
AcDbSymbolTableRecord
100
AcDbLayerTableRecord
  2
67
 70
     0
 62
    -5
  6
CONTINUOUS
370
    -3
390
566
  0
LAYER
  5
5D6
102
{ACAD_XDICTIONARY
360
611
102
}
330
559
100
AcDbSymbolTableRecord
100
AcDbLayerTableRecord
  2
68
 70
     0
 62
    -5
  6
CONTINUOUS
370
    -3
390
566
  0
LAYER
  5
5D7
102
{ACAD_XDICTIONARY
360
613
102
}
330
559
100
AcDbSymbolTableRecord
100
AcDbLayerTableRecord
  2
69
 70
     0
 62
    -5
  6
CONTINUOUS
370
    -3
390
566
  0
LAYER
  5
5D8
102
{ACAD_XDICTIONARY
360
615
102
}
330
559
100
AcDbSymbolTableRecord
100
AcDbLayerTableRecord
  2
70
 70
     0
 62
     5
  6
CONTINUOUS
370
    -3
390
566
  0
LAYER
  5
5D9
102
{ACAD_XDICTIONARY
360
617
102
}
330
559
100
AcDbSymbolTableRecord
100
AcDbLayerTableRecord
  2
2
 70
     0
 62
     7
  6
CONTINUOUS
370
    -3
390
566
  0
LAYER
  5
5DA
102
{ACAD_XDICTIONARY
360
619
102
}
330
559
100
AcDbSymbolTableRecord
100
AcDbLayerTableRecord
  2
3
 70
     0
 62
     1
  6
DASHED
370
    -3
390
566
  0
LAYER
  5
5DB
102
{ACAD_XDICTIONARY
360
61B
102
}
330
559
100
AcDbSymbolTableRecord
100
AcDbLayerTableRecord
  2
4
 70
     0
 62
    -2
  6
CENTER
370
    -3
390
566
  0
LAYER
  5
5DC
102
{ACAD_XDICTIONARY
360
61D
102
}
330
559
100
AcDbSymbolTableRecord
100
AcDbLayerTableRecord
  2
5
 70
     0
 62
    -7
  6
CONTINUOUS
370
    -3
390
566
  0
LAYER
  5
5DD
102
{ACAD_XDICTIONARY
360
61F
102
}
330
559
100
AcDbSymbolTableRecord
100
AcDbLayerTableRecord
  2
SK1
 70
     0
 62
     4
  6
CONTINUOUS
370
    -3
390
566
  0
LAYER
  5
5DE
102
{ACAD_XDICTIONARY
360
621
102
}
330
559
100
AcDbSymbolTableRecord
100
AcDbLayerTableRecord
  2
6
 70
     0
 62
     5
  6
CONTINUOUS
370
    -3
390
566
  0
LAYER
  5
5DF
102
{ACAD_XDICTIONARY
360
623
102
}
330
559
100
AcDbSymbolTableRecord
100
AcDbLayerTableRecord
  2
SK2
 70
     0
 62
     7
  6
CONTINUOUS
370
    -3
390
566
  0
LAYER
  5
5E0
102
{ACAD_XDICTIONARY
360
625
102
}
330
559
100
AcDbSymbolTableRecord
100
AcDbLayerTableRecord
  2
SK3
 70
     0
 62
     1
  6
DASHED
370
    -3
390
566
  0
LAYER
  5
5E1
102
{ACAD_XDICTIONARY
360
627
102
}
330
559
100
AcDbSymbolTableRecord
100
AcDbLayerTableRecord
  2
SK4
 70
     0
 62
     2
  6
CENTER
370
    -3
390
566
  0
LAYER
  5
5E2
102
{ACAD_XDICTIONARY
360
629
102
}
330
559
100
AcDbSymbolTableRecord
100
AcDbLayerTableRecord
  2
CUT
 70
     0
 62
    -1
  6
CONTINUOUS
370
    -3
390
566
  0
LAYER
  5
5E3
102
{ACAD_XDICTIONARY
360
62B
102
}
330
559
100
AcDbSymbolTableRecord
100
AcDbLayerTableRecord
  2
SK6
 70
     0
 62
     5
  6
CONTINUOUS
370
    -3
390
566
  0
LAYER
  5
5E4
102
{ACAD_XDICTIONARY
360
62D
102
}
330
559
100
AcDbSymbolTableRecord
100
AcDbLayerTableRecord
  2
80
 70
     0
 62
    -2
  6
CENTER
370
    -3
390
566
  0
LAYER
  5
5E5
102
{ACAD_XDICTIONARY
360
62F
102
}
330
559
100
AcDbSymbolTableRecord
100
AcDbLayerTableRecord
  2
81
 70
     0
 62
    -2
  6
CENTER
370
    -3
390
566
  0
LAYER
  5
5E6
102
{ACAD_XDICTIONARY
360
631
102
}
330
559
100
AcDbSymbolTableRecord
100
AcDbLayerTableRecord
  2
82
 70
     0
 62
    -2
  6
CENTER
370
    -3
390
566
  0
LAYER
  5
5E7
102
{ACAD_XDICTIONARY
360
633
102
}
330
559
100
AcDbSymbolTableRecord
100
AcDbLayerTableRecord
  2
NOCUT
 70
     0
 62
     7
  6
CONTINUOUS
370
    -3
390
566
  0
LAYER
  5
5E8
102
{ACAD_XDICTIONARY
360
635
102
}
330
559
100
AcDbSymbolTableRecord
100
AcDbLayerTableRecord
  2
50
 70
     0
 62
    -7
  6
CONTINUOUS
370
    -3
390
566
  0
LAYER
  5
5E9
102
{ACAD_XDICTIONARY
360
637
102
}
330
559
100
AcDbSymbolTableRecord
100
AcDbLayerTableRecord
  2
51
 70
     0
 62
     7
  6
CONTINUOUS
370
    -3
390
566
  0
LAYER
  5
5EA
102
{ACAD_XDICTIONARY
360
639
102
}
330
559
100
AcDbSymbolTableRecord
100
AcDbLayerTableRecord
  2
52
 70
     0
 62
    -7
  6
CONTINUOUS
370
    -3
390
566
  0
LAYER
  5
5EB
102
{ACAD_XDICTIONARY
360
63B
102
}
330
559
100
AcDbSymbolTableRecord
100
AcDbLayerTableRecord
  2
53
 70
     0
 62
    -7
  6
CONTINUOUS
370
    -3
390
566
  0
LAYER
  5
5EC
102
{ACAD_XDICTIONARY
360
63D
102
}
330
559
100
AcDbSymbolTableRecord
100
AcDbLayerTableRecord
  2
54
 70
     0
 62
    -7
  6
CONTINUOUS
370
    -3
390
566
  0
LAYER
  5
5ED
102
{ACAD_XDICTIONARY
360
63F
102
}
330
559
100
AcDbSymbolTableRecord
100
AcDbLayerTableRecord
  2
55
 70
     0
 62
    -7
  6
CONTINUOUS
370
    -3
390
566
  0
LAYER
  5
5EE
102
{ACAD_XDICTIONARY
360
641
102
}
330
559
100
AcDbSymbolTableRecord
100
AcDbLayerTableRecord
  2
56
 70
     0
 62
    -7
  6
CONTINUOUS
370
    -3
390
566
  0
LAYER
  5
5EF
102
{ACAD_XDICTIONARY
360
643
102
}
330
559
100
AcDbSymbolTableRecord
100
AcDbLayerTableRecord
  2
57
 70
     0
 62
    -7
  6
CONTINUOUS
370
    -3
390
566
  0
LAYER
  5
5F0
102
{ACAD_XDICTIONARY
360
645
102
}
330
559
100
AcDbSymbolTableRecord
100
AcDbLayerTableRecord
  2
58
 70
     0
 62
    -7
  6
CONTINUOUS
370
    -3
390
566
  0
LAYER
  5
5F1
102
{ACAD_XDICTIONARY
360
647
102
}
330
559
100
AcDbSymbolTableRecord
100
AcDbLayerTableRecord
  2
2L
 70
     0
 62
     7
  6
CONTINUOUS
370
    -3
390
566
  0
LAYER
  5
5F2
102
{ACAD_XDICTIONARY
360
649
102
}
330
559
100
AcDbSymbolTableRecord
100
AcDbLayerTableRecord
  2
59
 70
     0
 62
    -7
  6
CONTINUOUS
370
    -3
390
566
  0
ENDTAB
  0
TABLE
  2
STYLE
  5
55A
330
0
100
AcDbSymbolTable
 70
     3
  0
STYLE
  5
5AC
330
55A
100
AcDbSymbolTableRecord
100
AcDbTextStyleTableRecord
  2
STANDARD
 70
     0
 40
0.0
 41
1.0
 50
0.0
 71
     0
 42
4.5
  3
simplex.shx
  4

  0
STYLE
  5
5B0
330
55A
100
AcDbSymbolTableRecord
100
AcDbTextStyleTableRecord
  2
Annotative
 70
     0
 40
0.0
 41
1.0
 50
0.0
 71
     0
 42
0.2
  3
txt
  4

1001
AcadAnnotative
1000
AnnotativeData
1002
{
1070
     1
1070
     1
1002
}
  0
STYLE
  5
5CC
330
55A
100
AcDbSymbolTableRecord
100
AcDbTextStyleTableRecord
  2
SANDVIK_STYLE
 70
     0
 40
3.0
 41
1.0
 50
0.0
 71
     0
 42
3.0
  3
simplex.shx
  4

  0
ENDTAB
  0
TABLE
  2
VIEW
  5
55D
330
0
100
AcDbSymbolTable
 70
     0
  0
ENDTAB
  0
TABLE
  2
UCS
  5
55E
330
0
100
AcDbSymbolTable
 70
     0
  0
ENDTAB
  0
TABLE
  2
APPID
  5
560
330
0
100
AcDbSymbolTable
 70
     5
  0
APPID
  5
5AD
330
560
100
AcDbSymbolTableRecord
100
AcDbRegAppTableRecord
  2
ACAD
 70
     0
  0
APPID
  5
5B4
330
560
100
AcDbSymbolTableRecord
100
AcDbRegAppTableRecord
  2
AcadAnnotative
 70
     0
  0
APPID
  5
64D
330
560
100
AcDbSymbolTableRecord
100
AcDbRegAppTableRecord
  2
DCO15
 70
     0
  0
APPID
  5
659
330
560
100
AcDbSymbolTableRecord
100
AcDbRegAppTableRecord
  2
ACAD_NAV_VCDISPLAY
 70
     0
  0
APPID
  5
692
330
560
100
AcDbSymbolTableRecord
100
AcDbRegAppTableRecord
  2
ACAD_MLEADERVER
 70
     0
  0
ENDTAB
  0
TABLE
  2
DIMSTYLE
  5
561
330
0
100
AcDbSymbolTable
 70
     3
100
AcDbDimStyleTable
 71
     0
  0
DIMSTYLE
105
5AE
330
561
100
AcDbSymbolTableRecord
100
AcDbDimStyleTableRecord
  2
STANDARD
 70
     0
  4
 
 41
3.0
 42
2.5
 43
10.0
 44
2.5
 46
1.25
 73
     0
 74
     0
140
3.0
141
-3.0
143
0.039
145
1.5
146
0.75
147
1.5
271
     2
272
     2
279
     2
340
5CC
  0
DIMSTYLE
105
5AF
330
561
100
AcDbSymbolTableRecord
100
AcDbDimStyleTableRecord
  2
Annotative
 70
     0
340
5AC
1001
AcadAnnotative
1000
AnnotativeData
1002
{
1070
     1
1070
     1
1002
}
  0
DIMSTYLE
105
5F3
102
{ACAD_REACTORS
330
359
330
35A
330
35B
330
35C
102
}
330
561
100
AcDbSymbolTableRecord
100
AcDbDimStyleTableRecord
  2
SANDVIK_DIM
 70
     0
  4
 
 40
0.0
 41
4.57
 42
0.0
 44
5.0
 73
     0
 74
     0
 77
     1
 78
     8
140
4.5
147
2.299999999999999
176
   256
177
   256
178
   256
271
     2
272
     2
279
     2
340
5CC
  0
ENDTAB
  0
TABLE
  2
BLOCK_RECORD
  5
558
330
0
100
AcDbSymbolTable
 70
     4
  0
BLOCK_RECORD
  5
5C7
330
558
100
AcDbSymbolTableRecord
100
AcDbBlockTableRecord
  2
*Model_Space
340
5CA
  0
BLOCK_RECORD
  5
5C3
330
558
100
AcDbSymbolTableRecord
100
AcDbBlockTableRecord
  2
*Paper_Space
340
5C6
  0
BLOCK_RECORD
  5
5F7
330
558
100
AcDbSymbolTableRecord
100
AcDbBlockTableRecord
  2
*D0
340
0
  0
BLOCK_RECORD
  5
5F8
330
558
100
AcDbSymbolTableRecord
100
AcDbBlockTableRecord
  2
*D1
340
0
  0
BLOCK_RECORD
  5
5F9
330
558
100
AcDbSymbolTableRecord
100
AcDbBlockTableRecord
  2
*D2
340
0
  0
BLOCK_RECORD
  5
5FA
330
558
100
AcDbSymbolTableRecord
100
AcDbBlockTableRecord
  2
*D3
340
0
  0
ENDTAB
  0
ENDSEC
  0
SECTION
  2
BLOCKS
  0
BLOCK
  5
5C8
330
5C7
100
AcDbEntity
  8
0
100
AcDbBlockBegin
  2
*Model_Space
 70
     0
 10
0.0
 20
0.0
 30
0.0
  3
*Model_Space
  1

  0
ENDBLK
  5
5C9
330
5C7
100
AcDbEntity
  8
0
100
AcDbBlockEnd
  0
BLOCK
  5
5C4
330
5C3
100
AcDbEntity
 67
     1
  8
0
100
AcDbBlockBegin
  2
*Paper_Space
 70
     0
 10
0.0
 20
0.0
 30
0.0
  3
*Paper_Space
  1

  0
ENDBLK
  5
5C5
330
5C3
100
AcDbEntity
 67
     1
  8
0
100
AcDbBlockEnd
  0
BLOCK
  5
2
330
5F7
100
AcDbEntity
  8
0
100
AcDbBlockBegin
  2
*D0
 70
     1
 10
0.0
 20
0.0
 30
0.0
  3
*D0
  1

  0
LINE
  5
3
330
5F7
100
AcDbEntity
  8
0
100
AcDbLine
 10
5.0
 20
0.025
 30
0.0
 11
44.260219
 21
0.025
 31
0.0
  0
LINE
  5
4
330
5F7
100
AcDbEntity
  8
0
100
AcDbLine
 10
4.5
 20
-15.85
 30
0.0
 11
44.260219
 21
-15.85
 31
0.0
  0
LINE
  5
5
330
5F7
100
AcDbEntity
  8
0
100
AcDbLine
 10
42.260219
 20
0.025
 30
0.0
 11
42.260219
 21
-34.82105300000001
 31
0.0
  0
SOLID
  5
6
330
5F7
100
AcDbEntity
  8
0
100
AcDbTrace
 10
42.260219
 20
0.025
 30
0.0
 11
42.678216
 21
-3.149999999999999
 31
0.0
 12
41.84222199999999
 22
-3.149999999999999
 32
0.0
 13
41.84222199999999
 23
-3.149999999999999
 33
0.0
  0
SOLID
  5
7
330
5F7
100
AcDbEntity
  8
0
100
AcDbTrace
 10
42.260219
 20
-15.85
 30
0.0
 11
41.84222199999999
 21
-12.675
 31
0.0
 12
42.678216
 22
-12.675
 32
0.0
 13
42.678216
 23
-12.675
 33
0.0
  0
TEXT
  5
8
330
5F7
100
AcDbEntity
  8
0
100
AcDbText
 10
40.510219
 20
-34.82105300000001
 30
0.0
 40
3.5
  1
15.875
 50
90.0
100
AcDbText
  0
ENDBLK
  5
9
330
5F7
100
AcDbEntity
  8
0
100
AcDbBlockEnd
  0
BLOCK
  5
A
330
5F8
100
AcDbEntity
  8
0
100
AcDbBlockBegin
  2
*D1
 70
     1
 10
0.0
 20
0.0
 30
0.0
  3
*D1
  1

  0
LINE
  5
B
330
5F8
100
AcDbEntity
  8
0
100
AcDbLine
 10
-67.0
 20
-17.8
 30
0.0
 11
-67.0
 21
-33.316403
 31
0.0
  0
LINE
  5
C
330
5F8
100
AcDbEntity
  8
0
100
AcDbLine
 10
-39.5
 20
-17.85
 30
0.0
 11
-39.5
 21
-33.316403
 31
0.0
  0
LINE
  5
D
330
5F8
100
AcDbEntity
  8
0
100
AcDbLine
 10
-67.0
 20
-31.316403
 30
0.0
 11
-39.5
 21
-31.316403
 31
0.0
  0
SOLID
  5
E
330
5F8
100
AcDbEntity
  8
0
100
AcDbTrace
 10
-67.0
 20
-31.316403
 30
0.0
 11
-63.825
 21
-30.898406
 31
0.0
 12
-63.825
 22
-31.7344
 32
0.0
 13
-63.825
 23
-31.7344
 33
0.0
  0
SOLID
  5
F
330
5F8
100
AcDbEntity
  8
0
100
AcDbTrace
 10
-39.5
 20
-31.316403
 30
0.0
 11
-42.675
 21
-31.7344
 31
0.0
 12
-42.675
 22
-30.898406
 32
0.0
 13
-42.675
 23
-30.898406
 33
0.0
  0
TEXT
  5
10
330
5F8
100
AcDbEntity
  8
0
100
AcDbText
 10
-57.26578899999999
 20
-29.566403
 30
0.0
 40
3.5
  1
27.5
100
AcDbText
  0
ENDBLK
  5
11
330
5F8
100
AcDbEntity
  8
0
100
AcDbBlockEnd
  0
BLOCK
  5
12
330
5F9
100
AcDbEntity
  8
0
100
AcDbBlockBegin
  2
*D2
 70
     1
 10
0.0
 20
0.0
 30
0.0
  3
*D2
  1

  0
LINE
  5
13
330
5F9
100
AcDbEntity
  8
0
100
AcDbLine
 10
-69.0
 20
-15.8
 30
0.0
 11
-78.73868299999999
 21
-15.8
 31
0.0
  0
LINE
  5
14
330
5F9
100
AcDbEntity
  8
0
100
AcDbLine
 10
-41.1
 20
-15.85
 30
0.0
 11
-78.73868299999999
 21
-15.85
 31
0.0
  0
LINE
  5
15
330
5F9
100
AcDbEntity
  8
0
100
AcDbLine
 10
-76.73868299999999
 20
-24.6
 30
0.0
 11
-76.73868299999999
 21
-1.093420999999999
 31
0.0
  0
SOLID
  5
16
330
5F9
100
AcDbEntity
  8
0
100
AcDbTrace
 10
-76.73868299999999
 20
-15.8
 30
0.0
 11
-77.15668
 21
-12.625
 31
0.0
 12
-76.32068700000001
 22
-12.625
 32
0.0
 13
-76.32068700000001
 23
-12.625
 33
0.0
  0
SOLID
  5
17
330
5F9
100
AcDbEntity
  8
0
100
AcDbTrace
 10
-76.73868299999999
 20
-15.85
 30
0.0
 11
-76.32068700000001
 21
-19.025
 31
0.0
 12
-77.15668
 22
-19.025
 32
0.0
 13
-77.15668
 23
-19.025
 33
0.0
  0
TEXT
  5
18
330
5F9
100
AcDbEntity
  8
0
100
AcDbText
 10
-78.48868299999999
 20
-9.125
 30
0.0
 40
3.5
  1
0.05
 50
90.0
100
AcDbText
  0
ENDBLK
  5
19
330
5F9
100
AcDbEntity
  8
0
100
AcDbBlockEnd
  0
BLOCK
  5
1A
330
5FA
100
AcDbEntity
  8
0
100
AcDbBlockBegin
  2
*D3
 70
     1
 10
0.0
 20
0.0
 30
0.0
  3
*D3
  1

  0
LINE
  5
1B
330
5FA
100
AcDbEntity
  8
0
100
AcDbLine
 10
-67.0
 20
-17.8
 30
0.0
 11
-67.0
 21
-43.214341
 31
0.0
  0
LINE
  5
1C
330
5FA
100
AcDbEntity
  8
0
100
AcDbLine
 10
3.0
 20
-17.35
 30
0.0
 11
3.0
 21
-43.214341
 31
0.0
  0
LINE
  5
1D
330
5FA
100
AcDbEntity
  8
0
100
AcDbLine
 10
-67.0
 20
-41.214341
 30
0.0
 11
3.0
 21
-41.214341
 31
0.0
  0
SOLID
  5
1E
330
5FA
100
AcDbEntity
  8
0
100
AcDbTrace
 10
-67.0
 20
-41.214341
 30
0.0
 11
-63.825
 21
-40.796345
 31
0.0
 12
-63.825
 22
-41.63233799999999
 32
0.0
 13
-63.825
 23
-41.63233799999999
 33
0.0
  0
SOLID
  5
1F
330
5FA
100
AcDbEntity
  8
0
100
AcDbTrace
 10
3.0
 20
-41.214341
 30
0.0
 11
-0.175
 21
-41.63233799999999
 31
0.0
 12
-0.175
 22
-40.796345
 32
0.0
 13
-0.175
 23
-40.796345
 33
0.0
  0
TEXT
  5
20
330
5FA
100
AcDbEntity
  8
0
100
AcDbText
 10
-35.442105
 20
-39.714341
 30
0.0
 40
3.0
  1
70.0
100
AcDbText
  0
ENDBLK
  5
21
330
5FA
100
AcDbEntity
  8
0
100
AcDbBlockEnd
  0
ENDSEC
  0
SECTION
  2
ENTITIES
  0
LINE
  5
22
330
5C7
100
AcDbEntity
  8
4
100
AcDbLine
 10
27.0
 20
-7.924999999999999
 30
0.0
 11
10.0
 21
-7.924999999999999
 31
0.0
  0
LINE
  5
23
330
5C7
100
AcDbEntity
  8
80
100
AcDbLine
 10
0.0
 20
0.0
 30
0.0
 11
12.402103
 21
0.0
 31
0.0
  0
LINE
  5
24
330
5C7
100
AcDbEntity
  8
1
100
AcDbLine
 10
-39.1
 20
0.0
 30
0.0
 11
0.0
 21
0.0
 31
0.0
  0
LINE
  5
25
330
5C7
100
AcDbEntity
  8
1
100
AcDbLine
 10
2.999994
 20
-4.525
 30
0.0
 11
4.000116999999999
 21
-4.525
 31
0.0
  0
LINE
  5
26
330
5C7
100
AcDbEntity
  8
1
100
AcDbLine
 10
4.000116999999999
 20
-11.325
 30
0.0
 11
2.999994
 21
-11.325
 31
0.0
  0
LINE
  5
27
330
5C7
100
AcDbEntity
  8
SK1
100
AcDbLine
 10
9.4
 20
-5.924999999999999
 30
0.0
 11
24.0
 21
-5.924999999999999
 31
0.0
  0
LINE
  5
28
330
5C7
100
AcDbEntity
  8
SK1
100
AcDbLine
 10
24.0
 20
-9.925
 30
0.0
 11
10.011992
 21
-9.925
 31
0.0
  0
LINE
  5
29
330
5C7
100
AcDbEntity
  8
SK1
100
AcDbLine
 10
24.0
 20
-5.924999999999999
 30
0.0
 11
25.0
 21
-6.192948999999999
 31
0.0
  0
LINE
  5
2A
330
5C7
100
AcDbEntity
  8
SK1
100
AcDbLine
 10
25.0
 20
-9.657050999999999
 30
0.0
 11
24.0
 21
-9.925
 31
0.0
  0
LINE
  5
2B
330
5C7
100
AcDbEntity
  8
SK1
100
AcDbLine
 10
25.0
 20
-6.192948999999999
 30
0.0
 11
25.0
 21
-9.657050999999999
 31
0.0
  0
LINE
  5
2C
330
5C7
100
AcDbEntity
  8
SK1
100
AcDbLine
 10
9.4
 20
-5.924999999999999
 30
0.0
 11
9.4
 21
-9.318324999999999
 31
0.0
  0
LINE
  5
2D
330
5C7
100
AcDbEntity
  8
SK1
100
AcDbLine
 10
24.0
 20
-9.925
 30
0.0
 11
24.0
 21
-5.924999999999999
 31
0.0
  0
LINE
  5
2E
330
5C7
100
AcDbEntity
  8
1
100
AcDbLine
 10
4.4
 20
-10.925
 30
0.0
 11
9.0
 21
-10.925
 31
0.0
  0
LINE
  5
2F
330
5C7
100
AcDbEntity
  8
1
100
AcDbLine
 10
9.0
 20
-10.925
 30
0.0
 11
9.0
 21
-8.921801
 31
0.0
  0
LINE
  5
30
330
5C7
100
AcDbEntity
  8
SK1
100
AcDbLine
 10
9.0
 20
-4.924999999999999
 30
0.0
 11
4.968167
 21
-4.924999999999999
 31
0.0
  0
LINE
  5
31
330
5C7
100
AcDbEntity
  8
1
100
AcDbLine
 10
2.5
 20
-2.478277999999999
 30
0.0
 11
3.0
 21
-2.973933999999999
 31
0.0
  0
LINE
  5
32
330
5C7
100
AcDbEntity
  8
1
100
AcDbLine
 10
3.0
 20
-2.973933999999999
 30
0.0
 11
3.0
 21
-15.35
 31
0.0
  0
LINE
  5
33
330
5C7
100
AcDbEntity
  8
1
100
AcDbLine
 10
0.0
 20
0.0
 30
0.0
 11
2.5
 21
-2.478277999999999
 31
0.0
  0
LINE
  5
34
330
5C7
100
AcDbEntity
  8
1
100
AcDbLine
 10
2.5
 20
-15.85
 30
0.0
 11
-39.1
 21
-15.85
 31
0.0
  0
LINE
  5
35
330
5C7
100
AcDbEntity
  8
1
100
AcDbLine
 10
2.5
 20
-15.85
 30
0.0
 11
2.5
 21
-2.478277999999999
 31
0.0
  0
LINE
  5
36
330
5C7
100
AcDbEntity
  8
1
100
AcDbLine
 10
3.0
 20
-15.35
 30
0.0
 11
2.5
 21
-15.85
 31
0.0
  0
LINE
  5
37
330
5C7
100
AcDbEntity
  8
81
100
AcDbLine
 10
-67.0
 20
-15.8
 30
0.0
 11
-73.831154
 21
-15.8
 31
0.0
  0
LINE
  5
38
330
5C7
100
AcDbEntity
  8
1
100
AcDbLine
 10
4.968167
 20
-4.924999999999999
 30
0.0
 11
4.4
 21
-4.924999999999999
 31
0.0
  0
LINE
  5
39
330
5C7
100
AcDbEntity
  8
SK1
100
AcDbLine
 10
9.0
 20
-8.921801
 30
0.0
 11
9.0
 21
-4.924999999999999
 31
0.0
  0
LINE
  5
3A
330
5C7
100
AcDbEntity
  8
1
100
AcDbLine
 10
9.4
 20
-9.318324999999999
 30
0.0
 11
9.4
 21
-9.925
 31
0.0
  0
LINE
  5
3B
330
5C7
100
AcDbEntity
  8
1
100
AcDbLine
 10
10.011992
 20
-9.925
 30
0.0
 11
9.4
 21
-9.925
 31
0.0
  0
LINE
  5
3C
330
5C7
100
AcDbEntity
  8
1
100
AcDbLine
 10
-48.651781
 20
-8.424250999999999
 30
0.0
 11
-48.92739500000001
 21
-5.273975
 31
0.0
  0
LINE
  5
3D
330
5C7
100
AcDbEntity
  8
1
100
AcDbLine
 10
-57.065992
 20
-0.5
 30
0.0
 11
-65.982649
 21
-14.769635
 31
0.0
  0
LINE
  5
3E
330
5C7
100
AcDbEntity
  8
1
100
AcDbLine
 10
-48.00211199999999
 20
-15.85
 30
0.0
 11
-49.388808
 21
0.0
 31
0.0
  0
LINE
  5
3F
330
5C7
100
AcDbEntity
  8
1
100
AcDbLine
 10
-55.700148
 20
-14.64089
 30
0.0
 11
-55.746641
 21
-14.643326
 31
0.0
  0
LINE
  5
40
330
5C7
100
AcDbEntity
  8
1
100
AcDbLine
 10
-38.7
 20
0.0
 30
0.0
 11
-39.5
 21
0.0
 31
0.0
  0
LINE
  5
41
330
5C7
100
AcDbEntity
  8
1
100
AcDbLine
 10
-48.843153
 20
-0.5
 30
0.0
 11
-47.54394699999999
 21
-15.35
 31
0.0
  0
LINE
  5
42
330
5C7
100
AcDbEntity
  8
1
100
AcDbLine
 10
-65.748294
 20
-15.167491
 30
0.0
 11
-52.13216599999999
 21
-14.4539
 31
0.0
  0
LINE
  5
43
330
5C7
100
AcDbEntity
  8
1
100
AcDbLine
 10
-65.748294
 20
-15.167491
 30
0.0
 11
-65.982649
 21
-14.769635
 31
0.0
  0
LINE
  5
44
330
5C7
100
AcDbEntity
  8
1
100
AcDbLine
 10
-48.00211199999999
 20
-15.85
 30
0.0
 11
-47.54394699999999
 21
-15.35
 31
0.0
  0
LINE
  5
45
330
5C7
100
AcDbEntity
  8
1
100
AcDbLine
 10
-49.790336
 20
0.0
 30
0.0
 11
-48.404201
 21
-15.843595
 31
0.0
  0
LINE
  5
46
330
5C7
100
AcDbEntity
  8
1
100
AcDbLine
 10
-55.746641
 20
-14.643326
 30
0.0
 11
-55.928516
 21
-14.652858
 31
0.0
  0
LINE
  5
47
330
5C7
100
AcDbEntity
  8
1
100
AcDbLine
 10
-55.596508
 20
-14.404287
 30
0.0
 11
-51.238265
 21
-7.429638999999999
 31
0.0
  0
LINE
  5
48
330
5C7
100
AcDbEntity
  8
1
100
AcDbLine
 10
-50.7221
 20
-6.702675999999999
 30
0.0
 11
-51.135485
 21
-6.444364
 31
0.0
  0
LINE
  5
49
330
5C7
100
AcDbEntity
  8
1
100
AcDbLine
 10
-54.239881
 20
-5.817466999999999
 30
0.0
 11
-60.61491700000001
 21
-6.179466999999999
 31
0.0
  0
LINE
  5
4A
330
5C7
100
AcDbEntity
  8
1
100
AcDbLine
 10
-65.982649
 20
-14.769635
 30
0.0
 11
-65.748294
 21
-15.167491
 31
0.0
  0
LINE
  5
4B
330
5C7
100
AcDbEntity
  8
1
100
AcDbLine
 10
-40.0
 20
-15.35
 30
0.0
 11
-40.0
 21
-0.5
 31
0.0
  0
LINE
  5
4C
330
5C7
100
AcDbEntity
  8
1
100
AcDbLine
 10
-49.790336
 20
0.0
 30
0.0
 11
-56.75355699999999
 21
0.0
 31
0.0
  0
LINE
  5
4D
330
5C7
100
AcDbEntity
  8
1
100
AcDbLine
 10
-54.036865
 20
-5.492573999999999
 30
0.0
 11
-54.239881
 21
-5.817466999999999
 31
0.0
  0
LINE
  5
4E
330
5C7
100
AcDbEntity
  8
1
100
AcDbLine
 10
-54.036865
 20
-5.492573999999999
 30
0.0
 11
-54.239881
 21
-5.817466999999999
 31
0.0
  0
LINE
  5
4F
330
5C7
100
AcDbEntity
  8
1
100
AcDbLine
 10
-48.00211199999999
 20
-15.85
 30
0.0
 11
-49.388808
 21
0.0
 31
0.0
  0
LINE
  5
50
330
5C7
100
AcDbEntity
  8
1
100
AcDbLine
 10
-56.513948
 20
-14.805027
 30
0.0
 11
-56.488436
 21
-15.291814
 31
0.0
  0
LINE
  5
51
330
5C7
100
AcDbEntity
  8
1
100
AcDbLine
 10
-55.856641
 20
-14.919658
 30
0.0
 11
-50.7221
 21
-6.702675999999999
 31
0.0
  0
LINE
  5
52
330
5C7
100
AcDbEntity
  8
1
100
AcDbLine
 10
-66.87935
 20
-14.585244
 30
0.0
 11
-66.465965
 21
-14.843556
 31
0.0
  0
LINE
  5
53
330
5C7
100
AcDbEntity
  8
1
100
AcDbLine
 10
-51.437005
 20
-5.489008
 30
0.0
 11
-51.41149399999999
 21
-5.975794999999999
 31
0.0
  0
LINE
  5
54
330
5C7
100
AcDbEntity
  8
1
100
AcDbLine
 10
-61.331425
 20
-6.626574
 30
0.0
 11
-66.465965
 21
-14.843556
 31
0.0
  0
LINE
  5
55
330
5C7
100
AcDbEntity
  8
1
100
AcDbLine
 10
-61.087503
 20
-6.482892999999999
 30
0.0
 11
-61.113014
 21
-5.996106
 31
0.0
  0
LINE
  5
56
330
5C7
100
AcDbEntity
  8
1
100
AcDbLine
 10
-61.74481
 20
-6.368262
 30
0.0
 11
-66.87935
 21
-14.585244
 31
0.0
  0
LINE
  5
57
330
5C7
100
AcDbEntity
  8
1
100
AcDbLine
 10
-41.23375
 20
0.0
 30
0.0
 11
-42.0
 21
0.0
 31
0.0
  0
LINE
  5
58
330
5C7
100
AcDbEntity
  8
1
100
AcDbLine
 10
-42.0
 20
0.0
 30
0.0
 11
-42.76625
 21
0.0
 31
0.0
  0
LINE
  5
59
330
5C7
100
AcDbEntity
  8
1
100
AcDbLine
 10
-42.884789
 20
0.0
 30
0.0
 11
-42.76625
 21
0.0
 31
0.0
  0
LINE
  5
5A
330
5C7
100
AcDbEntity
  8
1
100
AcDbLine
 10
-48.614196
 20
-8.853854
 30
0.0
 11
-48.348742
 21
-11.888004
 31
0.0
  0
LINE
  5
5B
330
5C7
100
AcDbEntity
  8
1
100
AcDbLine
 10
-48.045682
 20
-15.351999
 30
0.0
 11
-48.30716599999999
 21
-12.363223
 31
0.0
  0
LINE
  5
5C
330
5C7
100
AcDbEntity
  8
1
100
AcDbLine
 10
-48.00211199999999
 20
-15.85
 30
0.0
 11
-48.39755499999999
 21
-15.85
 31
0.0
  0
LINE
  5
5D
330
5C7
100
AcDbEntity
  8
1
100
AcDbLine
 10
-55.928516
 20
-14.652858
 30
0.0
 11
-51.386567
 21
-7.384218999999999
 31
0.0
  0
LINE
  5
5E
330
5C7
100
AcDbEntity
  8
1
100
AcDbLine
 10
-56.75355699999999
 20
0.0
 30
0.0
 11
-57.065992
 21
-0.5
 31
0.0
  0
LINE
  5
5F
330
5C7
100
AcDbEntity
  8
1
100
AcDbLine
 10
-54.325836
 20
-5.67227
 30
0.0
 11
-54.239881
 21
-5.817466999999999
 31
0.0
  0
LINE
  5
60
330
5C7
100
AcDbEntity
  8
1
100
AcDbLine
 10
-54.163934
 20
-5.413172
 30
0.0
 11
-54.325836
 21
-5.67227
 31
0.0
  0
LINE
  5
61
330
5C7
100
AcDbEntity
  8
1
100
AcDbLine
 10
-40.0
 20
-15.35
 30
0.0
 11
-39.5
 21
-15.85
 31
0.0
  0
LINE
  5
62
330
5C7
100
AcDbEntity
  8
1
100
AcDbLine
 10
-55.928516
 20
-14.652858
 30
0.0
 11
-51.386567
 21
-7.384218999999999
 31
0.0
  0
LINE
  5
63
330
5C7
100
AcDbEntity
  8
1
100
AcDbLine
 10
-54.239881
 20
-5.817466999999999
 30
0.0
 11
-60.61491700000001
 21
-6.179466999999999
 31
0.0
  0
LINE
  5
64
330
5C7
100
AcDbEntity
  8
1
100
AcDbLine
 10
-52.13216599999999
 20
-14.4539
 30
0.0
 11
-55.700148
 21
-14.64089
 31
0.0
  0
LINE
  5
65
330
5C7
100
AcDbEntity
  8
1
100
AcDbLine
 10
-38.7
 20
-15.85
 30
0.0
 11
-38.7
 21
0.0
 31
0.0
  0
LINE
  5
66
330
5C7
100
AcDbEntity
  8
1
100
AcDbLine
 10
-39.5
 20
0.0
 30
0.0
 11
-39.5
 21
-15.85
 31
0.0
  0
LINE
  5
67
330
5C7
100
AcDbEntity
  8
1
100
AcDbLine
 10
-65.982649
 20
-14.769635
 30
0.0
 11
-60.61491700000001
 21
-6.179466999999999
 31
0.0
  0
LINE
  5
68
330
5C7
100
AcDbEntity
  8
1
100
AcDbLine
 10
-39.5
 20
-15.85
 30
0.0
 11
-48.00211199999999
 21
-15.85
 31
0.0
  0
LINE
  5
69
330
5C7
100
AcDbEntity
  8
1
100
AcDbLine
 10
-54.163934
 20
-5.413172
 30
0.0
 11
-54.036865
 21
-5.492573999999999
 31
0.0
  0
LINE
  5
6A
330
5C7
100
AcDbEntity
  8
1
100
AcDbLine
 10
-60.517688
 20
-6.023869
 30
0.0
 11
-56.75355699999999
 21
0.0
 31
0.0
  0
LINE
  5
6B
330
5C7
100
AcDbEntity
  8
1
100
AcDbLine
 10
-40.0
 20
-0.5
 30
0.0
 11
-39.5
 21
0.0
 31
0.0
  0
LINE
  5
6C
330
5C7
100
AcDbEntity
  8
1
100
AcDbLine
 10
-47.54394699999999
 20
-15.35
 30
0.0
 11
-40.0
 21
-15.35
 31
0.0
  0
LINE
  5
6D
330
5C7
100
AcDbEntity
  8
1
100
AcDbLine
 10
-49.790336
 20
0.0
 30
0.0
 11
-49.388808
 21
0.0
 31
0.0
  0
LINE
  5
6E
330
5C7
100
AcDbEntity
  8
1
100
AcDbLine
 10
-40.49999999999999
 20
0.0
 30
0.0
 11
-43.5
 21
0.0
 31
0.0
  0
LINE
  5
6F
330
5C7
100
AcDbEntity
  8
1
100
AcDbLine
 10
-39.5
 20
0.0
 30
0.0
 11
-39.5
 21
-15.85
 31
0.0
  0
LINE
  5
70
330
5C7
100
AcDbEntity
  8
1
100
AcDbLine
 10
-60.61491700000001
 20
-6.179466999999999
 30
0.0
 11
-60.517688
 21
-6.023869
 31
0.0
  0
LINE
  5
71
330
5C7
100
AcDbEntity
  8
1
100
AcDbLine
 10
-49.388808
 20
0.0
 30
0.0
 11
-48.843153
 21
-0.5
 31
0.0
  0
LINE
  5
72
330
5C7
100
AcDbEntity
  8
1
100
AcDbLine
 10
-55.928516
 20
-14.652858
 30
0.0
 11
-65.748294
 21
-15.167491
 31
0.0
  0
LINE
  5
73
330
5C7
100
AcDbEntity
  8
1
100
AcDbLine
 10
-40.0
 20
-0.5
 30
0.0
 11
-48.843153
 21
-0.5
 31
0.0
  0
LINE
  5
74
330
5C7
100
AcDbEntity
  8
1
100
AcDbLine
 10
-51.437005
 20
-5.489008
 30
0.0
 11
-61.113014
 21
-5.996106
 31
0.0
  0
LINE
  5
75
330
5C7
100
AcDbEntity
  8
1
100
AcDbLine
 10
-66.18995699999999
 20
-15.312125
 30
0.0
 11
-56.513948
 21
-14.805027
 31
0.0
  0
LINE
  5
76
330
5C7
100
AcDbEntity
  8
1
100
AcDbLine
 10
-56.270026
 20
-14.661346
 30
0.0
 11
-51.135485
 21
-6.444364
 31
0.0
  0
LINE
  5
77
330
5C7
100
AcDbEntity
  8
1
100
AcDbLine
 10
-61.331425
 20
-6.626574
 30
0.0
 11
-61.74481
 21
-6.368262
 31
0.0
  0
LINE
  5
78
330
5C7
100
AcDbEntity
  8
1
100
AcDbLine
 10
-66.164445
 20
-15.798912
 30
0.0
 11
-56.488436
 21
-15.291814
 31
0.0
  0
LINE
  5
79
330
5C7
100
AcDbEntity
  8
1
100
AcDbLine
 10
-66.164445
 20
-15.798912
 30
0.0
 11
-66.18995699999999
 21
-15.312125
 31
0.0
  0
LINE
  5
7A
330
5C7
100
AcDbEntity
  8
1
100
AcDbLine
 10
-56.270026
 20
-14.661346
 30
0.0
 11
-55.856641
 21
-14.919658
 31
0.0
  0
LINE
  5
7B
330
5C7
100
AcDbEntity
  8
1
100
AcDbLine
 10
-51.41149399999999
 20
-5.975794999999999
 30
0.0
 11
-61.087503
 21
-6.482892999999999
 31
0.0
  0
LINE
  5
7C
330
5C7
100
AcDbEntity
  8
1
100
AcDbLine
 10
-42.0
 20
0.0
 30
0.0
 11
-41.23375
 21
0.0
 31
0.0
  0
LINE
  5
7D
330
5C7
100
AcDbEntity
  8
1
100
AcDbLine
 10
-43.1935
 20
0.0
 30
0.0
 11
-40.8065
 21
0.0
 31
0.0
  0
LINE
  5
7E
330
5C7
100
AcDbEntity
  8
1
100
AcDbLine
 10
-41.115211
 20
0.0
 30
0.0
 11
-41.23375
 21
0.0
 31
0.0
  0
LINE
  5
7F
330
5C7
100
AcDbEntity
  8
1
100
AcDbLine
 10
-42.76625
 20
0.0
 30
0.0
 11
-42.0
 21
0.0
 31
0.0
  0
LINE
  5
80
330
5C7
100
AcDbEntity
  8
1
100
AcDbLine
 10
-39.5
 20
-15.85
 30
0.0
 11
-38.7
 21
-15.85
 31
0.0
  0
LINE
  5
81
330
5C7
100
AcDbEntity
  8
1
100
AcDbLine
 10
-49.388808
 20
0.0
 30
0.0
 11
-42.0
 21
0.0
 31
0.0
  0
LINE
  5
82
330
5C7
100
AcDbEntity
  8
1
100
AcDbLine
 10
-42.0
 20
0.0
 30
0.0
 11
-39.5
 21
0.0
 31
0.0
  0
LINE
  5
83
330
5C7
100
AcDbEntity
  8
1
100
AcDbLine
 10
-54.325836
 20
-5.67227
 30
0.0
 11
-60.517688
 21
-6.023869
 31
0.0
  0
LINE
  5
84
330
5C7
100
AcDbEntity
  8
1
100
AcDbLine
 10
-48.35195399999999
 20
-6.11444
 30
0.0
 11
-65.59897600000001
 21
-13.591006
 31
0.0
  0
LINE
  5
85
330
5C7
100
AcDbEntity
  8
1
100
AcDbLine
 10
-48.260082
 20
-7.164532
 30
0.0
 11
-65.20124100000001
 21
-14.508506
 31
0.0
  0
LINE
  5
86
330
5C7
100
AcDbEntity
  8
1
100
AcDbLine
 10
-48.035253
 20
-9.734349999999999
 30
0.0
 11
-66.32903
 21
-14.616375
 31
0.0
  0
LINE
  5
87
330
5C7
100
AcDbEntity
  8
1
100
AcDbLine
 10
-47.946768
 20
-10.745733
 30
0.0
 11
-66.07118599999999
 21
-15.582562
 31
0.0
  0
LINE
  5
88
330
5C7
100
AcDbEntity
  8
1
100
AcDbLine
 10
-47.721413
 20
-13.32155
 30
0.0
 11
-64.538037
 21
-14.600909
 31
0.0
  0
LINE
  5
89
330
5C7
100
AcDbEntity
  8
1
100
AcDbLine
 10
-47.634252
 20
-14.317809
 30
0.0
 11
-64.462179
 21
-15.598028
 31
0.0
  0
POINT
  5
8A
330
5C7
100
AcDbEntity
  8
80
100
AcDbPoint
 10
0.0
 20
0.0
 30
0.0
  0
POINT
  5
8B
330
5C7
100
AcDbEntity
  8
81
100
AcDbPoint
 10
-67.0
 20
-15.8
 30
0.0
  0
POINT
  5
8C
330
5C7
100
AcDbEntity
  8
SK2
100
AcDbPoint
 10
3.0
 20
0.025
 30
0.0
  0
ARC
  5
8D
330
5C7
100
AcDbEntity
  8
1
100
AcDbCircle
 10
9.4
 20
-10.325
 30
0.0
 40
0.4
100
AcDbArc
 50
90.0
 51
180.0
  0
ARC
  5
8E
330
5C7
100
AcDbEntity
  8
SK1
100
AcDbCircle
 10
9.4
 20
-5.525
 30
0.0
 40
0.4
100
AcDbArc
 50
180.0
 51
270.0
  0
ARC
  5
8F
330
5C7
100
AcDbEntity
  8
1
100
AcDbCircle
 10
-60.007631
 20
-9.965564999999999
 30
0.0
 40
0.292
100
AcDbArc
 50
75.16406500000001
 51
225.499298
  0
CIRCLE
  5
90
330
5C7
100
AcDbEntity
  8
1
100
AcDbCircle
 10
58.800725
 20
-10.64396
 30
0.0
 40
1.817949
210
0.0
220
0.0
230
-1.0
  0
ARC
  5
91
330
5C7
100
AcDbEntity
  8
1
100
AcDbCircle
 10
58.800725
 20
-10.64396
 30
0.0
 40
1.6765
210
0.0
220
0.0
230
-1.0
100
AcDbArc
 50
29.340113
 51
89.659887
  0
ARC
  5
92
330
5C7
100
AcDbEntity
  8
1
100
AcDbCircle
 10
-60.693128
 20
-10.663115
 30
0.0
 40
0.6860000000000001
100
AcDbArc
 50
315.660588
 51
0.5799430000000428
  0
ARC
  5
93
330
5C7
100
AcDbEntity
  8
1
100
AcDbCircle
 10
58.800725
 20
-10.64396
 30
0.0
 40
1.206499999999999
210
0.0
220
0.0
230
-1.0
100
AcDbArc
 50
235.544721
 51
243.455279
  0
ARC
  5
94
330
5C7
100
AcDbEntity
  8
1
100
AcDbCircle
 10
-52.658787
 20
-6.353691999999999
 30
0.0
 40
1.625
100
AcDbArc
 50
63.134066
 51
148.0
  0
ARC
  5
95
330
5C7
100
AcDbEntity
  8
1
100
AcDbCircle
 10
61.07146
 20
-6.789017999999999
 30
0.0
 40
0.7940000000000001
210
0.0
220
0.0
230
-1.0
100
AcDbArc
 50
32.0
 51
87.0
  0
CIRCLE
  5
96
330
5C7
100
AcDbEntity
  8
1
100
AcDbCircle
 10
58.800725
 20
-10.64396
 30
0.0
 40
3.0
210
0.0
220
0.0
230
-1.0
  0
ARC
  5
97
330
5C7
100
AcDbEntity
  8
1
100
AcDbCircle
 10
51.395451
 20
-6.281919999999999
 30
0.0
 40
0.3065449999999999
210
0.0
220
0.0
230
-1.0
100
AcDbArc
 50
87.0
 51
212.0
  0
ARC
  5
98
330
5C7
100
AcDbEntity
  8
1
100
AcDbCircle
 10
66.206
 20
-15.006
 30
0.0
 40
0.7940000000000001
210
0.0
220
0.0
230
-1.0
100
AcDbArc
 50
267.0
 51
31.99999999999997
  0
CIRCLE
  5
99
330
5C7
100
AcDbEntity
  8
1
100
AcDbCircle
 10
58.473778
 20
-10.509403
 30
0.0
 40
2.25
210
0.0
220
0.0
230
-1.0
  0
ARC
  5
9A
330
5C7
100
AcDbEntity
  8
1
100
AcDbCircle
 10
-51.870486
 20
-19.447047
 30
0.0
 40
5.0
100
AcDbArc
 50
46.11150999999999
 51
93.0
  0
CIRCLE
  5
9B
330
5C7
100
AcDbEntity
  8
1
100
AcDbCircle
 10
58.800725
 20
-10.64396
 30
0.0
 40
2.625
210
0.0
220
0.0
230
-1.0
  0
CIRCLE
  5
9C
330
5C7
100
AcDbEntity
  8
1
100
AcDbCircle
 10
58.800725
 20
-10.64396
 30
0.0
 40
2.2
210
0.0
220
0.0
230
-1.0
  0
ARC
  5
9D
330
5C7
100
AcDbEntity
  8
1
100
AcDbCircle
 10
-58.792507
 20
-12.028435
 30
0.0
 40
0.292
100
AcDbArc
 50
195.500702
 51
345.835935
  0
ARC
  5
9E
330
5C7
100
AcDbEntity
  8
1
100
AcDbCircle
 10
-57.844239
 20
-12.267751
 30
0.0
 40
0.6860000000000001
100
AcDbArc
 50
127.467971
 51
165.835935
  0
ARC
  5
9F
330
5C7
100
AcDbEntity
  8
1
100
AcDbCircle
 10
-56.908322
 20
-10.624804
 30
0.0
 40
0.6860000000000001
100
AcDbArc
 50
135.660588
 51
180.579943
  0
CIRCLE
  5
A0
330
5C7
100
AcDbEntity
  8
1
100
AcDbCircle
 10
58.800725
 20
-10.64396
 30
0.0
 40
1.55
210
0.0
220
0.0
230
-1.0
  0
CIRCLE
  5
A1
330
5C7
100
AcDbEntity
  8
1
100
AcDbCircle
 10
58.800725
 20
-10.64396
 30
0.0
 40
1.35
210
0.0
220
0.0
230
-1.0
  0
CIRCLE
  5
A2
330
5C7
100
AcDbEntity
  8
1
100
AcDbCircle
 10
58.800725
 20
-10.64396
 30
0.0
 40
2.625
210
0.0
220
0.0
230
-1.0
  0
ARC
  5
A3
330
5C7
100
AcDbEntity
  8
1
100
AcDbCircle
 10
-56.908322
 20
-10.624804
 30
0.0
 40
0.6860000000000001
100
AcDbArc
 50
180.579943
 51
225.499298
  0
ARC
  5
A4
330
5C7
100
AcDbEntity
  8
1
100
AcDbCircle
 10
51.870486
 20
-19.447047
 30
0.0
 40
5.0
210
0.0
220
0.0
230
-1.0
100
AcDbArc
 50
124.974278
 51
133.994254
  0
ARC
  5
A5
330
5C7
100
AcDbEntity
  8
1
100
AcDbCircle
 10
58.800725
 20
-10.64396
 30
0.0
 40
1.206499999999999
210
0.0
220
0.0
230
-1.0
100
AcDbArc
 50
179.420057
 51
235.544721
  0
ARC
  5
A6
330
5C7
100
AcDbEntity
  8
1
100
AcDbCircle
 10
-57.844239
 20
-12.267751
 30
0.0
 40
0.6860000000000001
100
AcDbArc
 50
75.16406500000001
 51
113.532029
  0
ARC
  5
A7
330
5C7
100
AcDbEntity
  8
1
100
AcDbCircle
 10
-57.866516
 20
-8.998113999999999
 30
0.0
 40
0.6860000000000001
100
AcDbArc
 50
195.500702
 51
240.420057
  0
ARC
  5
A8
330
5C7
100
AcDbEntity
  8
1
100
AcDbCircle
 10
-57.866516
 20
-8.998113999999999
 30
0.0
 40
0.6860000000000001
100
AcDbArc
 50
240.420057
 51
285.339412
  0
ARC
  5
A9
330
5C7
100
AcDbEntity
  8
1
100
AcDbCircle
 10
58.800725
 20
-10.64396
 30
0.0
 40
1.6765
210
0.0
220
0.0
230
-1.0
100
AcDbArc
 50
149.5
 51
209.340113
  0
ARC
  5
AA
330
5C7
100
AcDbEntity
  8
1
100
AcDbCircle
 10
-52.658787
 20
-6.353691999999999
 30
0.0
 40
1.625
100
AcDbArc
 50
63.134066
 51
148.0
  0
ARC
  5
AB
330
5C7
100
AcDbEntity
  8
1
100
AcDbCircle
 10
58.800725
 20
-10.64396
 30
0.0
 40
1.206499999999999
210
0.0
220
0.0
230
-1.0
100
AcDbArc
 50
55.54472099999999
 51
63.455279
  0
ARC
  5
AC
330
5C7
100
AcDbEntity
  8
1
100
AcDbCircle
 10
-58.800725
 20
-10.64396
 30
0.0
 40
1.206499999999999
100
AcDbArc
 50
60.42005699999999
 51
116.544721
  0
CIRCLE
  5
AD
330
5C7
100
AcDbEntity
  8
1
100
AcDbCircle
 10
58.800725
 20
-10.64396
 30
0.0
 40
1.8
210
0.0
220
0.0
230
-1.0
  0
ARC
  5
AE
330
5C7
100
AcDbEntity
  8
1
100
AcDbCircle
 10
-59.73493399999999
 20
-12.289806
 30
0.0
 40
0.6860000000000001
100
AcDbArc
 50
60.42005699999999
 51
105.339412
  0
CIRCLE
  5
AF
330
5C7
100
AcDbEntity
  8
1
100
AcDbCircle
 10
58.473778
 20
-10.509403
 30
0.0
 40
1.45
210
0.0
220
0.0
230
-1.0
  0
ARC
  5
B0
330
5C7
100
AcDbEntity
  8
1
100
AcDbCircle
 10
66.206
 20
-15.006
 30
0.0
 40
0.3065449999999999
210
0.0
220
0.0
230
-1.0
100
AcDbArc
 50
267.0
 51
31.99999999999997
  0
CIRCLE
  5
B1
330
5C7
100
AcDbEntity
  8
1
100
AcDbCircle
 10
58.800725
 20
-10.64396
 30
0.0
 40
3.071324999999999
210
0.0
220
0.0
230
-1.0
  0
ARC
  5
B2
330
5C7
100
AcDbEntity
  8
1
100
AcDbCircle
 10
56.529991
 20
-14.498902
 30
0.0
 40
0.7940000000000001
210
0.0
220
0.0
230
-1.0
100
AcDbArc
 50
212.0
 51
267.0
  0
ARC
  5
B3
330
5C7
100
AcDbEntity
  8
1
100
AcDbCircle
 10
-56.529991
 20
-14.498902
 30
0.0
 40
0.3065449999999999
100
AcDbArc
 50
273.0
 51
328.0
  0
ARC
  5
B4
330
5C7
100
AcDbEntity
  8
1
100
AcDbCircle
 10
51.395451
 20
-6.281919999999999
 30
0.0
 40
0.7940000000000001
210
0.0
220
0.0
230
-1.0
100
AcDbArc
 50
87.0
 51
212.0
  0
CIRCLE
  5
B5
330
5C7
100
AcDbEntity
  8
1
100
AcDbCircle
 10
58.800725
 20
-10.64396
 30
0.0
 40
2.2
210
0.0
220
0.0
230
-1.0
  0
ARC
  5
B6
330
5C7
100
AcDbEntity
  8
1
100
AcDbCircle
 10
-61.07146
 20
-6.789017999999999
 30
0.0
 40
0.3065449999999999
100
AcDbArc
 50
93.0
 51
148.0
  0
CIRCLE
  5
B7
330
5C7
100
AcDbEntity
  8
1
100
AcDbCircle
 10
58.800725
 20
-10.64396
 30
0.0
 40
2.944866
210
0.0
220
0.0
230
-1.0
  0
ARC
  5
B8
330
5C7
100
AcDbEntity
  8
1
100
AcDbCircle
 10
58.800725
 20
-10.64396
 30
0.0
 40
1.6765
210
0.0
220
0.0
230
-1.0
100
AcDbArc
 50
269.659887
 51
329.5
  0
ARC
  5
B9
330
5C7
100
AcDbEntity
  8
1
100
AcDbCircle
 10
-58.800725
 20
-10.64396
 30
0.0
 40
1.206499999999999
100
AcDbArc
 50
180.579943
 51
240.420057
  0
ARC
  5
BA
330
5C7
100
AcDbEntity
  8
1
100
AcDbCircle
 10
-50.873737
 20
-5.974606999999999
 30
0.0
 40
1.5
100
AcDbArc
 50
255.93524
 51
128.3414309999999
  0
CIRCLE
  5
BB
330
5C7
100
AcDbEntity
  8
1
100
AcDbCircle
 10
-50.873737
 20
-5.974606999999999
 30
0.0
 40
1.5
  0
ARC
  5
BC
330
5C7
100
AcDbEntity
  8
1
100
AcDbCircle
 10
-57.59381999999999
 20
-11.322355
 30
0.0
 40
0.292
100
AcDbArc
 50
255.1640649999999
 51
45.49929800000003
  0
ARC
  5
BD
330
5C7
100
AcDbEntity
  8
1
100
AcDbCircle
 10
58.800725
 20
-10.64396
 30
0.0
 40
1.6765
210
0.0
220
0.0
230
-1.0
100
AcDbArc
 50
209.340113
 51
269.659887
  0
ARC
  5
BE
330
5C7
100
AcDbEntity
  8
1
100
AcDbCircle
 10
-58.800725
 20
-10.64396
 30
0.0
 40
1.206499999999999
100
AcDbArc
 50
240.420057
 51
296.544721
  0
ARC
  5
BF
330
5C7
100
AcDbEntity
  8
1
100
AcDbCircle
 10
50.873737
 20
-5.974606999999999
 30
0.0
 40
1.5
210
0.0
220
0.0
230
-1.0
100
AcDbArc
 50
289.991846
 51
45.53524800000004
  0
CIRCLE
  5
C0
330
5C7
100
AcDbEntity
  8
1
100
AcDbCircle
 10
58.473778
 20
-10.509403
 30
0.0
 40
2.25
210
0.0
220
0.0
230
-1.0
  0
ARC
  5
C1
330
5C7
100
AcDbEntity
  8
1
100
AcDbCircle
 10
-59.993651
 20
-11.346647
 30
0.0
 40
0.292
100
AcDbArc
 50
135.660588
 51
285.339412
  0
CIRCLE
  5
C2
330
5C7
100
AcDbEntity
  8
1
100
AcDbCircle
 10
58.800725
 20
-10.64396
 30
0.0
 40
1.75
210
0.0
220
0.0
230
-1.0
  0
CIRCLE
  5
C3
330
5C7
100
AcDbEntity
  8
1
100
AcDbCircle
 10
58.800725
 20
-10.64396
 30
0.0
 40
1.75
210
0.0
220
0.0
230
-1.0
  0
CIRCLE
  5
C4
330
5C7
100
AcDbEntity
  8
1
100
AcDbCircle
 10
58.800725
 20
-10.64396
 30
0.0
 40
1.55
210
0.0
220
0.0
230
-1.0
  0
ARC
  5
C5
330
5C7
100
AcDbEntity
  8
1
100
AcDbCircle
 10
58.800725
 20
-10.64396
 30
0.0
 40
1.206499999999999
210
0.0
220
0.0
230
-1.0
100
AcDbArc
 50
55.54472099999999
 51
63.455279
  0
ARC
  5
C6
330
5C7
100
AcDbEntity
  8
1
100
AcDbCircle
 10
-59.73493399999999
 20
-12.289806
 30
0.0
 40
0.6860000000000001
100
AcDbArc
 50
15.500702
 51
60.42005699999999
  0
ARC
  5
C7
330
5C7
100
AcDbEntity
  8
1
100
AcDbCircle
 10
-58.80894399999999
 20
-9.259484
 30
0.0
 40
0.292
100
AcDbArc
 50
15.500702
 51
165.835935
  0
ARC
  5
C8
330
5C7
100
AcDbEntity
  8
1
100
AcDbCircle
 10
-58.800725
 20
-10.64396
 30
0.0
 40
1.206499999999999
100
AcDbArc
 50
124.455279
 51
180.579943
  0
ARC
  5
C9
330
5C7
100
AcDbEntity
  8
1
100
AcDbCircle
 10
-58.800725
 20
-10.64396
 30
0.0
 40
1.206499999999999
100
AcDbArc
 50
0.579943
 51
60.42005699999999
  0
ARC
  5
CA
330
5C7
100
AcDbEntity
  8
1
100
AcDbCircle
 10
58.800725
 20
-10.64396
 30
0.0
 40
1.6765
210
0.0
220
0.0
230
-1.0
100
AcDbArc
 50
329.5
 51
29.34011299999996
  0
ARC
  5
CB
330
5C7
100
AcDbEntity
  8
1
100
AcDbCircle
 10
-59.757212
 20
-9.020167999999999
 30
0.0
 40
0.6860000000000001
100
AcDbArc
 50
307.467971
 51
345.835935
  0
ARC
  5
CC
330
5C7
100
AcDbEntity
  8
1
100
AcDbCircle
 10
58.800725
 20
-10.64396
 30
0.0
 40
1.206499999999999
210
0.0
220
0.0
230
-1.0
100
AcDbArc
 50
235.544721
 51
243.455279
  0
ARC
  5
CD
330
5C7
100
AcDbEntity
  8
1
100
AcDbCircle
 10
58.800725
 20
-10.64396
 30
0.0
 40
1.6765
210
0.0
220
0.0
230
-1.0
100
AcDbArc
 50
89.659887
 51
149.5
  0
ARC
  5
CE
330
5C7
100
AcDbEntity
  8
1
100
AcDbCircle
 10
-57.6078
 20
-9.941272999999998
 30
0.0
 40
0.292
100
AcDbArc
 50
315.660588
 51
105.339412
  0
ARC
  5
CF
330
5C7
100
AcDbEntity
  8
1
100
AcDbCircle
 10
-52.658787
 20
-6.353691999999999
 30
0.0
 40
1.774836
100
AcDbArc
 50
61.21853999999999
 51
148.0
  0
ARC
  5
D0
330
5C7
100
AcDbEntity
  8
1
100
AcDbCircle
 10
-60.693128
 20
-10.663115
 30
0.0
 40
0.6860000000000001
100
AcDbArc
 50
0.579943
 51
45.499298
  0
ARC
  5
D1
330
5C7
100
AcDbEntity
  8
1
100
AcDbCircle
 10
-59.757212
 20
-9.020167999999999
 30
0.0
 40
0.6860000000000001
100
AcDbArc
 50
255.1640649999999
 51
293.532029
  0
ARC
  5
D2
330
5C7
100
AcDbEntity
  8
1
100
AcDbCircle
 10
51.870486
 20
-19.447047
 30
0.0
 40
5.0
210
0.0
220
0.0
230
-1.0
100
AcDbArc
 50
87.0
 51
124.974278
  0
CIRCLE
  5
D3
330
5C7
100
AcDbEntity
  8
1
100
AcDbCircle
 10
-58.473778
 20
-10.509403
 30
0.0
 40
1.45
  0
TEXT
  5
D4
330
5C7
100
AcDbEntity
  8
SK6
100
AcDbText
 10
-43.26289699999999
 20
5.181883
 30
0.0
 40
3.0
  1
QS-SDJCR103XHP
 41
0.803593652329749
  7
SANDVIK_STYLE
 72
     5
 11
-11.23395
 21
5.181883
 31
0.0
100
AcDbText
  0
POLYLINE
  5
D5
330
5C7
100
AcDbEntity
  8
1
100
AcDb3dPolyline
 66
     1
 10
0.0
 20
0.0
 30
0.0
 70
     8
  0
VERTEX
  5
D6
330
D5
100
AcDbEntity
  8
1
100
AcDbVertex
100
AcDb3dPolylineVertex
 10
4.4
 20
-10.925
 30
0.0
 70
    32
  0
VERTEX
  5
D7
330
D5
100
AcDbEntity
  8
1
100
AcDbVertex
100
AcDb3dPolylineVertex
 10
4.321947999999999
 20
-10.93272
 30
0.0
 70
    32
  0
VERTEX
  5
D8
330
D5
100
AcDbEntity
  8
1
100
AcDbVertex
100
AcDb3dPolylineVertex
 10
4.254487999999999
 20
-10.952388
 30
0.0
 70
    32
  0
VERTEX
  5
D9
330
D5
100
AcDbEntity
  8
1
100
AcDbVertex
100
AcDb3dPolylineVertex
 10
4.200019999999999
 20
-10.978577
 30
0.0
 70
    32
  0
VERTEX
  5
DA
330
D5
100
AcDbEntity
  8
1
100
AcDbVertex
100
AcDb3dPolylineVertex
 10
4.156728
 20
-11.007473
 30
0.0
 70
    32
  0
VERTEX
  5
DB
330
D5
100
AcDbEntity
  8
1
100
AcDbVertex
100
AcDb3dPolylineVertex
 10
4.122354
 20
-11.037045
 30
0.0
 70
    32
  0
VERTEX
  5
DC
330
D5
100
AcDbEntity
  8
1
100
AcDbVertex
100
AcDb3dPolylineVertex
 10
4.094772999999999
 20
-11.066462
 30
0.0
 70
    32
  0
VERTEX
  5
DD
330
D5
100
AcDbEntity
  8
1
100
AcDbVertex
100
AcDb3dPolylineVertex
 10
4.072764
 20
-11.094868
 30
0.0
 70
    32
  0
VERTEX
  5
DE
330
D5
100
AcDbEntity
  8
1
100
AcDbVertex
100
AcDb3dPolylineVertex
 10
4.05533
 20
-11.121967
 30
0.0
 70
    32
  0
VERTEX
  5
DF
330
D5
100
AcDbEntity
  8
1
100
AcDbVertex
100
AcDb3dPolylineVertex
 10
4.041466999999999
 20
-11.147641
 30
0.0
 70
    32
  0
VERTEX
  5
E0
330
D5
100
AcDbEntity
  8
1
100
AcDbVertex
100
AcDb3dPolylineVertex
 10
4.030480999999999
 20
-11.171811
 30
0.0
 70
    32
  0
VERTEX
  5
E1
330
D5
100
AcDbEntity
  8
1
100
AcDbVertex
100
AcDb3dPolylineVertex
 10
4.021923999999999
 20
-11.194378
 30
0.0
 70
    32
  0
VERTEX
  5
E2
330
D5
100
AcDbEntity
  8
1
100
AcDbVertex
100
AcDb3dPolylineVertex
 10
4.015344999999999
 20
-11.215224
 30
0.0
 70
    32
  0
VERTEX
  5
E3
330
D5
100
AcDbEntity
  8
1
100
AcDbVertex
100
AcDb3dPolylineVertex
 10
4.010355999999999
 20
-11.234253
 30
0.0
 70
    32
  0
VERTEX
  5
E4
330
D5
100
AcDbEntity
  8
1
100
AcDbVertex
100
AcDb3dPolylineVertex
 10
4.006704
 20
-11.251461
 30
0.0
 70
    32
  0
VERTEX
  5
E5
330
D5
100
AcDbEntity
  8
1
100
AcDbVertex
100
AcDb3dPolylineVertex
 10
4.004144999999999
 20
-11.266855
 30
0.0
 70
    32
  0
VERTEX
  5
E6
330
D5
100
AcDbEntity
  8
1
100
AcDbVertex
100
AcDb3dPolylineVertex
 10
4.002438999999999
 20
-11.280442
 30
0.0
 70
    32
  0
VERTEX
  5
E7
330
D5
100
AcDbEntity
  8
1
100
AcDbVertex
100
AcDb3dPolylineVertex
 10
4.001342
 20
-11.292226
 30
0.0
 70
    32
  0
VERTEX
  5
E8
330
D5
100
AcDbEntity
  8
1
100
AcDbVertex
100
AcDb3dPolylineVertex
 10
4.000634999999999
 20
-11.302215
 30
0.0
 70
    32
  0
VERTEX
  5
E9
330
D5
100
AcDbEntity
  8
1
100
AcDbVertex
100
AcDb3dPolylineVertex
 10
4.000215999999999
 20
-11.310404
 30
0.0
 70
    32
  0
VERTEX
  5
EA
330
D5
100
AcDbEntity
  8
1
100
AcDbVertex
100
AcDb3dPolylineVertex
 10
4.000015
 20
-11.316786
 30
0.0
 70
    32
  0
VERTEX
  5
EB
330
D5
100
AcDbEntity
  8
1
100
AcDbVertex
100
AcDb3dPolylineVertex
 10
3.999958999999999
 20
-11.321351
 30
0.0
 70
    32
  0
VERTEX
  5
EC
330
D5
100
AcDbEntity
  8
1
100
AcDbVertex
100
AcDb3dPolylineVertex
 10
3.999978
 20
-11.324092
 30
0.0
 70
    32
  0
VERTEX
  5
ED
330
D5
100
AcDbEntity
  8
1
100
AcDbVertex
100
AcDb3dPolylineVertex
 10
4.0
 20
-11.325
 30
0.0
 70
    32
  0
SEQEND
  5
EE
330
D5
100
AcDbEntity
  8
1
  0
POLYLINE
  5
EF
330
5C7
100
AcDbEntity
  8
1
100
AcDb3dPolyline
 66
     1
 10
0.0
 20
0.0
 30
0.0
 70
     8
  0
VERTEX
  5
F0
330
EF
100
AcDbEntity
  8
1
100
AcDbVertex
100
AcDb3dPolylineVertex
 10
4.0
 20
-4.525
 30
0.0
 70
    32
  0
VERTEX
  5
F1
330
EF
100
AcDbEntity
  8
1
100
AcDbVertex
100
AcDb3dPolylineVertex
 10
3.999979
 20
-4.525891
 30
0.0
 70
    32
  0
VERTEX
  5
F2
330
EF
100
AcDbEntity
  8
1
100
AcDbVertex
100
AcDb3dPolylineVertex
 10
3.999959999999999
 20
-4.528624999999999
 30
0.0
 70
    32
  0
VERTEX
  5
F3
330
EF
100
AcDbEntity
  8
1
100
AcDbVertex
100
AcDb3dPolylineVertex
 10
4.000015
 20
-4.533191
 30
0.0
 70
    32
  0
VERTEX
  5
F4
330
EF
100
AcDbEntity
  8
1
100
AcDbVertex
100
AcDb3dPolylineVertex
 10
4.000215999999999
 20
-4.539573999999999
 30
0.0
 70
    32
  0
VERTEX
  5
F5
330
EF
100
AcDbEntity
  8
1
100
AcDbVertex
100
AcDb3dPolylineVertex
 10
4.000633
 20
-4.54776
 30
0.0
 70
    32
  0
VERTEX
  5
F6
330
EF
100
AcDbEntity
  8
1
100
AcDbVertex
100
AcDb3dPolylineVertex
 10
4.001338999999999
 20
-4.557736
 30
0.0
 70
    32
  0
VERTEX
  5
F7
330
EF
100
AcDbEntity
  8
1
100
AcDbVertex
100
AcDb3dPolylineVertex
 10
4.002435
 20
-4.569493
 30
0.0
 70
    32
  0
VERTEX
  5
F8
330
EF
100
AcDbEntity
  8
1
100
AcDbVertex
100
AcDb3dPolylineVertex
 10
4.004134999999999
 20
-4.583026999999999
 30
0.0
 70
    32
  0
VERTEX
  5
F9
330
EF
100
AcDbEntity
  8
1
100
AcDbVertex
100
AcDb3dPolylineVertex
 10
4.006673999999999
 20
-4.598339
 30
0.0
 70
    32
  0
VERTEX
  5
FA
330
EF
100
AcDbEntity
  8
1
100
AcDbVertex
100
AcDb3dPolylineVertex
 10
4.010285999999999
 20
-4.615425
 30
0.0
 70
    32
  0
VERTEX
  5
FB
330
EF
100
AcDbEntity
  8
1
100
AcDbVertex
100
AcDb3dPolylineVertex
 10
4.015206
 20
-4.634285
 30
0.0
 70
    32
  0
VERTEX
  5
FC
330
EF
100
AcDbEntity
  8
1
100
AcDbVertex
100
AcDb3dPolylineVertex
 10
4.021678999999999
 20
-4.654917
 30
0.0
 70
    32
  0
VERTEX
  5
FD
330
EF
100
AcDbEntity
  8
1
100
AcDbVertex
100
AcDb3dPolylineVertex
 10
4.030115
 20
-4.677323999999999
 30
0.0
 70
    32
  0
VERTEX
  5
FE
330
EF
100
AcDbEntity
  8
1
100
AcDbVertex
100
AcDb3dPolylineVertex
 10
4.041044999999999
 20
-4.701508
 30
0.0
 70
    32
  0
VERTEX
  5
FF
330
EF
100
AcDbEntity
  8
1
100
AcDbVertex
100
AcDb3dPolylineVertex
 10
4.054983
 20
-4.72743
 30
0.0
 70
    32
  0
VERTEX
  5
100
330
EF
100
AcDbEntity
  8
1
100
AcDbVertex
100
AcDb3dPolylineVertex
 10
4.072550999999999
 20
-4.754805
 30
0.0
 70
    32
  0
VERTEX
  5
101
330
EF
100
AcDbEntity
  8
1
100
AcDbVertex
100
AcDb3dPolylineVertex
 10
4.094604
 20
-4.783336
 30
0.0
 70
    32
  0
VERTEX
  5
102
330
EF
100
AcDbEntity
  8
1
100
AcDbVertex
100
AcDb3dPolylineVertex
 10
4.122016999999999
 20
-4.812630999999999
 30
0.0
 70
    32
  0
VERTEX
  5
103
330
EF
100
AcDbEntity
  8
1
100
AcDbVertex
100
AcDb3dPolylineVertex
 10
4.156070999999999
 20
-4.842027999999999
 30
0.0
 70
    32
  0
VERTEX
  5
104
330
EF
100
AcDbEntity
  8
1
100
AcDbVertex
100
AcDb3dPolylineVertex
 10
4.198998999999999
 20
-4.870833
 30
0.0
 70
    32
  0
VERTEX
  5
105
330
EF
100
AcDbEntity
  8
1
100
AcDbVertex
100
AcDb3dPolylineVertex
 10
4.25383
 20
-4.897343
 30
0.0
 70
    32
  0
VERTEX
  5
106
330
EF
100
AcDbEntity
  8
1
100
AcDbVertex
100
AcDb3dPolylineVertex
 10
4.321501999999999
 20
-4.917187999999999
 30
0.0
 70
    32
  0
VERTEX
  5
107
330
EF
100
AcDbEntity
  8
1
100
AcDbVertex
100
AcDb3dPolylineVertex
 10
4.4
 20
-4.924999999999999
 30
0.0
 70
    32
  0
SEQEND
  5
108
330
EF
100
AcDbEntity
  8
1
  0
POLYLINE
  5
109
330
5C7
100
AcDbEntity
  8
1
100
AcDb3dPolyline
 66
     1
 10
0.0
 20
0.0
 30
0.0
 70
     8
  0
VERTEX
  5
10A
330
109
100
AcDbEntity
  8
1
100
AcDbVertex
100
AcDb3dPolylineVertex
 10
-58.527565
 20
-9.181447
 30
0.0
 70
    32
  0
VERTEX
  5
10B
330
109
100
AcDbEntity
  8
1
100
AcDbVertex
100
AcDb3dPolylineVertex
 10
-58.51655
 20
-9.21734
 30
0.0
 70
    32
  0
VERTEX
  5
10C
330
109
100
AcDbEntity
  8
1
100
AcDbVertex
100
AcDb3dPolylineVertex
 10
-58.50354799999999
 20
-9.252665999999999
 30
0.0
 70
    32
  0
VERTEX
  5
10D
330
109
100
AcDbEntity
  8
1
100
AcDbVertex
100
AcDb3dPolylineVertex
 10
-58.48852199999999
 20
-9.287435
 30
0.0
 70
    32
  0
VERTEX
  5
10E
330
109
100
AcDbEntity
  8
1
100
AcDbVertex
100
AcDb3dPolylineVertex
 10
-58.471427
 20
-9.321655999999999
 30
0.0
 70
    32
  0
VERTEX
  5
10F
330
109
100
AcDbEntity
  8
1
100
AcDbVertex
100
AcDb3dPolylineVertex
 10
-58.45217099999999
 20
-9.355332
 30
0.0
 70
    32
  0
VERTEX
  5
110
330
109
100
AcDbEntity
  8
1
100
AcDbVertex
100
AcDb3dPolylineVertex
 10
-58.430657
 20
-9.388417999999999
 30
0.0
 70
    32
  0
VERTEX
  5
111
330
109
100
AcDbEntity
  8
1
100
AcDbVertex
100
AcDb3dPolylineVertex
 10
-58.40705500000001
 20
-9.420505999999999
 30
0.0
 70
    32
  0
VERTEX
  5
112
330
109
100
AcDbEntity
  8
1
100
AcDbVertex
100
AcDb3dPolylineVertex
 10
-58.381474
 20
-9.451356
 30
0.0
 70
    32
  0
VERTEX
  5
113
330
109
100
AcDbEntity
  8
1
100
AcDbVertex
100
AcDb3dPolylineVertex
 10
-58.35382199999999
 20
-9.480961999999999
 30
0.0
 70
    32
  0
VERTEX
  5
114
330
109
100
AcDbEntity
  8
1
100
AcDbVertex
100
AcDb3dPolylineVertex
 10
-58.324003
 20
-9.509291000000001
 30
0.0
 70
    32
  0
VERTEX
  5
115
330
109
100
AcDbEntity
  8
1
100
AcDbVertex
100
AcDb3dPolylineVertex
 10
-58.29208900000001
 20
-9.536146999999999
 30
0.0
 70
    32
  0
VERTEX
  5
116
330
109
100
AcDbEntity
  8
1
100
AcDbVertex
100
AcDb3dPolylineVertex
 10
-58.25859499999999
 20
-9.561026
 30
0.0
 70
    32
  0
VERTEX
  5
117
330
109
100
AcDbEntity
  8
1
100
AcDbVertex
100
AcDb3dPolylineVertex
 10
-58.223723
 20
-9.583776
 30
0.0
 70
    32
  0
VERTEX
  5
118
330
109
100
AcDbEntity
  8
1
100
AcDbVertex
100
AcDb3dPolylineVertex
 10
-58.18740699999999
 20
-9.604425
 30
0.0
 70
    32
  0
VERTEX
  5
119
330
109
100
AcDbEntity
  8
1
100
AcDbVertex
100
AcDb3dPolylineVertex
 10
-58.149664
 20
-9.622916
 30
0.0
 70
    32
  0
VERTEX
  5
11A
330
109
100
AcDbEntity
  8
1
100
AcDbVertex
100
AcDb3dPolylineVertex
 10
-58.110937
 20
-9.639072
 30
0.0
 70
    32
  0
VERTEX
  5
11B
330
109
100
AcDbEntity
  8
1
100
AcDbVertex
100
AcDb3dPolylineVertex
 10
-58.071715
 20
-9.652705
 30
0.0
 70
    32
  0
VERTEX
  5
11C
330
109
100
AcDbEntity
  8
1
100
AcDbVertex
100
AcDb3dPolylineVertex
 10
-58.032208
 20
-9.663803999999998
 30
0.0
 70
    32
  0
VERTEX
  5
11D
330
109
100
AcDbEntity
  8
1
100
AcDbVertex
100
AcDb3dPolylineVertex
 10
-57.99235600000001
 20
-9.672470999999999
 30
0.0
 70
    32
  0
VERTEX
  5
11E
330
109
100
AcDbEntity
  8
1
100
AcDbVertex
100
AcDb3dPolylineVertex
 10
-57.95238000000001
 20
-9.678717999999999
 30
0.0
 70
    32
  0
VERTEX
  5
11F
330
109
100
AcDbEntity
  8
1
100
AcDbVertex
100
AcDb3dPolylineVertex
 10
-57.91285
 20
-9.682552000000001
 30
0.0
 70
    32
  0
VERTEX
  5
120
330
109
100
AcDbEntity
  8
1
100
AcDbVertex
100
AcDb3dPolylineVertex
 10
-57.873783
 20
-9.684086
 30
0.0
 70
    32
  0
VERTEX
  5
121
330
109
100
AcDbEntity
  8
1
100
AcDbVertex
100
AcDb3dPolylineVertex
 10
-57.83513000000001
 20
-9.683398999999999
 30
0.0
 70
    32
  0
VERTEX
  5
122
330
109
100
AcDbEntity
  8
1
100
AcDbVertex
100
AcDb3dPolylineVertex
 10
-57.796853
 20
-9.680566999999999
 30
0.0
 70
    32
  0
VERTEX
  5
123
330
109
100
AcDbEntity
  8
1
100
AcDbVertex
100
AcDb3dPolylineVertex
 10
-57.758988
 20
-9.675628999999998
 30
0.0
 70
    32
  0
VERTEX
  5
124
330
109
100
AcDbEntity
  8
1
100
AcDbVertex
100
AcDb3dPolylineVertex
 10
-57.72167099999999
 20
-9.668644
 30
0.0
 70
    32
  0
VERTEX
  5
125
330
109
100
AcDbEntity
  8
1
100
AcDbVertex
100
AcDb3dPolylineVertex
 10
-57.685044
 20
-9.659675
 30
0.0
 70
    32
  0
SEQEND
  5
126
330
109
100
AcDbEntity
  8
1
  0
POLYLINE
  5
127
330
5C7
100
AcDbEntity
  8
1
100
AcDb3dPolyline
 66
     1
 10
0.0
 20
0.0
 30
0.0
 70
     8
  0
VERTEX
  5
128
330
127
100
AcDbEntity
  8
1
100
AcDbVertex
100
AcDb3dPolylineVertex
 10
-57.35620400000001
 20
-9.793072
 30
0.0
 70
    32
  0
VERTEX
  5
129
330
127
100
AcDbEntity
  8
1
100
AcDbVertex
100
AcDb3dPolylineVertex
 10
-57.369
 20
-9.773241
 30
0.0
 70
    32
  0
VERTEX
  5
12A
330
127
100
AcDbEntity
  8
1
100
AcDbVertex
100
AcDb3dPolylineVertex
 10
-57.38334399999999
 20
-9.754502
 30
0.0
 70
    32
  0
VERTEX
  5
12B
330
127
100
AcDbEntity
  8
1
100
AcDbVertex
100
AcDb3dPolylineVertex
 10
-57.39899399999999
 20
-9.737152999999999
 30
0.0
 70
    32
  0
VERTEX
  5
12C
330
127
100
AcDbEntity
  8
1
100
AcDbVertex
100
AcDb3dPolylineVertex
 10
-57.415913
 20
-9.721174000000001
 30
0.0
 70
    32
  0
VERTEX
  5
12D
330
127
100
AcDbEntity
  8
1
100
AcDbVertex
100
AcDb3dPolylineVertex
 10
-57.434061
 20
-9.706588999999999
 30
0.0
 70
    32
  0
VERTEX
  5
12E
330
127
100
AcDbEntity
  8
1
100
AcDbVertex
100
AcDb3dPolylineVertex
 10
-57.453191
 20
-9.693564999999999
 30
0.0
 70
    32
  0
VERTEX
  5
12F
330
127
100
AcDbEntity
  8
1
100
AcDbVertex
100
AcDb3dPolylineVertex
 10
-57.473016
 20
-9.68224
 30
0.0
 70
    32
  0
VERTEX
  5
130
330
127
100
AcDbEntity
  8
1
100
AcDbVertex
100
AcDb3dPolylineVertex
 10
-57.493518
 20
-9.672564999999998
 30
0.0
 70
    32
  0
VERTEX
  5
131
330
127
100
AcDbEntity
  8
1
100
AcDbVertex
100
AcDb3dPolylineVertex
 10
-57.514637
 20
-9.664531
 30
0.0
 70
    32
  0
VERTEX
  5
132
330
127
100
AcDbEntity
  8
1
100
AcDbVertex
100
AcDb3dPolylineVertex
 10
-57.53602199999999
 20
-9.658217999999999
 30
0.0
 70
    32
  0
VERTEX
  5
133
330
127
100
AcDbEntity
  8
1
100
AcDbVertex
100
AcDb3dPolylineVertex
 10
-57.557578
 20
-9.653608999999999
 30
0.0
 70
    32
  0
VERTEX
  5
134
330
127
100
AcDbEntity
  8
1
100
AcDbVertex
100
AcDb3dPolylineVertex
 10
-57.57926099999999
 20
-9.650666000000001
 30
0.0
 70
    32
  0
VERTEX
  5
135
330
127
100
AcDbEntity
  8
1
100
AcDbVertex
100
AcDb3dPolylineVertex
 10
-57.60101800000001
 20
-9.649350999999999
 30
0.0
 70
    32
  0
VERTEX
  5
136
330
127
100
AcDbEntity
  8
1
100
AcDbVertex
100
AcDb3dPolylineVertex
 10
-57.622546
 20
-9.649632
 30
0.0
 70
    32
  0
VERTEX
  5
137
330
127
100
AcDbEntity
  8
1
100
AcDbVertex
100
AcDb3dPolylineVertex
 10
-57.643727
 20
-9.651472
 30
0.0
 70
    32
  0
VERTEX
  5
138
330
127
100
AcDbEntity
  8
1
100
AcDbVertex
100
AcDb3dPolylineVertex
 10
-57.664561
 20
-9.654832999999999
 30
0.0
 70
    32
  0
VERTEX
  5
139
330
127
100
AcDbEntity
  8
1
100
AcDbVertex
100
AcDb3dPolylineVertex
 10
-57.685044
 20
-9.659675
 30
0.0
 70
    32
  0
SEQEND
  5
13A
330
127
100
AcDbEntity
  8
1
  0
POLYLINE
  5
13B
330
5C7
100
AcDbEntity
  8
1
100
AcDb3dPolyline
 66
     1
 10
0.0
 20
0.0
 30
0.0
 70
     8
  0
VERTEX
  5
13C
330
13B
100
AcDbEntity
  8
1
100
AcDbVertex
100
AcDb3dPolylineVertex
 10
-59.932863
 20
-9.683298999999999
 30
0.0
 70
    32
  0
VERTEX
  5
13D
330
13B
100
AcDbEntity
  8
1
100
AcDbVertex
100
AcDb3dPolylineVertex
 10
-59.900199
 20
-9.691103999999999
 30
0.0
 70
    32
  0
VERTEX
  5
13E
330
13B
100
AcDbEntity
  8
1
100
AcDbVertex
100
AcDb3dPolylineVertex
 10
-59.86713
 20
-9.697308999999998
 30
0.0
 70
    32
  0
VERTEX
  5
13F
330
13B
100
AcDbEntity
  8
1
100
AcDbVertex
100
AcDb3dPolylineVertex
 10
-59.833637
 20
-9.701897999999999
 30
0.0
 70
    32
  0
VERTEX
  5
140
330
13B
100
AcDbEntity
  8
1
100
AcDbVertex
100
AcDb3dPolylineVertex
 10
-59.799698
 20
-9.704853999999999
 30
0.0
 70
    32
  0
VERTEX
  5
141
330
13B
100
AcDbEntity
  8
1
100
AcDbVertex
100
AcDb3dPolylineVertex
 10
-59.765278
 20
-9.706125999999999
 30
0.0
 70
    32
  0
VERTEX
  5
142
330
13B
100
AcDbEntity
  8
1
100
AcDbVertex
100
AcDb3dPolylineVertex
 10
-59.730355
 20
-9.705643999999999
 30
0.0
 70
    32
  0
VERTEX
  5
143
330
13B
100
AcDbEntity
  8
1
100
AcDbVertex
100
AcDb3dPolylineVertex
 10
-59.69498299999999
 20
-9.703341999999999
 30
0.0
 70
    32
  0
VERTEX
  5
144
330
13B
100
AcDbEntity
  8
1
100
AcDbVertex
100
AcDb3dPolylineVertex
 10
-59.659586
 20
-9.699192
 30
0.0
 70
    32
  0
VERTEX
  5
145
330
13B
100
AcDbEntity
  8
1
100
AcDbVertex
100
AcDb3dPolylineVertex
 10
-59.624226
 20
-9.693158
 30
0.0
 70
    32
  0
VERTEX
  5
146
330
13B
100
AcDbEntity
  8
1
100
AcDbVertex
100
AcDb3dPolylineVertex
 10
-59.588882
 20
-9.685195
 30
0.0
 70
    32
  0
VERTEX
  5
147
330
13B
100
AcDbEntity
  8
1
100
AcDbVertex
100
AcDb3dPolylineVertex
 10
-59.55349399999999
 20
-9.675214
 30
0.0
 70
    32
  0
VERTEX
  5
148
330
13B
100
AcDbEntity
  8
1
100
AcDbVertex
100
AcDb3dPolylineVertex
 10
-59.518228
 20
-9.663187999999999
 30
0.0
 70
    32
  0
VERTEX
  5
149
330
13B
100
AcDbEntity
  8
1
100
AcDbVertex
100
AcDb3dPolylineVertex
 10
-59.483318
 20
-9.649119
 30
0.0
 70
    32
  0
SEQEND
  5
14A
330
13B
100
AcDbEntity
  8
1
  0
POLYLINE
  5
14B
330
5C7
100
AcDbEntity
  8
1
100
AcDb3dPolyline
 66
     1
 10
0.0
 20
0.0
 30
0.0
 70
     8
  0
VERTEX
  5
14C
330
14B
100
AcDbEntity
  8
1
100
AcDbVertex
100
AcDb3dPolylineVertex
 10
-58.261545
 20
-11.723278
 30
0.0
 70
    32
  0
VERTEX
  5
14D
330
14B
100
AcDbEntity
  8
1
100
AcDbVertex
100
AcDb3dPolylineVertex
 10
-58.28686600000001
 20
-11.743649
 30
0.0
 70
    32
  0
VERTEX
  5
14E
330
14B
100
AcDbEntity
  8
1
100
AcDbVertex
100
AcDb3dPolylineVertex
 10
-58.31087199999999
 20
-11.7649
 30
0.0
 70
    32
  0
VERTEX
  5
14F
330
14B
100
AcDbEntity
  8
1
100
AcDbVertex
100
AcDb3dPolylineVertex
 10
-58.333612
 20
-11.787008
 30
0.0
 70
    32
  0
VERTEX
  5
150
330
14B
100
AcDbEntity
  8
1
100
AcDbVertex
100
AcDb3dPolylineVertex
 10
-58.35513299999999
 20
-11.809949
 30
0.0
 70
    32
  0
VERTEX
  5
151
330
14B
100
AcDbEntity
  8
1
100
AcDbVertex
100
AcDb3dPolylineVertex
 10
-58.37546800000001
 20
-11.833709
 30
0.0
 70
    32
  0
VERTEX
  5
152
330
14B
100
AcDbEntity
  8
1
100
AcDbVertex
100
AcDb3dPolylineVertex
 10
-58.394633
 20
-11.858286
 30
0.0
 70
    32
  0
VERTEX
  5
153
330
14B
100
AcDbEntity
  8
1
100
AcDbVertex
100
AcDb3dPolylineVertex
 10
-58.41257399999999
 20
-11.883578
 30
0.0
 70
    32
  0
VERTEX
  5
154
330
14B
100
AcDbEntity
  8
1
100
AcDbVertex
100
AcDb3dPolylineVertex
 10
-58.429147
 20
-11.90931
 30
0.0
 70
    32
  0
VERTEX
  5
155
330
14B
100
AcDbEntity
  8
1
100
AcDbVertex
100
AcDb3dPolylineVertex
 10
-58.444375
 20
-11.935426
 30
0.0
 70
    32
  0
VERTEX
  5
156
330
14B
100
AcDbEntity
  8
1
100
AcDbVertex
100
AcDb3dPolylineVertex
 10
-58.45830600000001
 20
-11.961935
 30
0.0
 70
    32
  0
VERTEX
  5
157
330
14B
100
AcDbEntity
  8
1
100
AcDbVertex
100
AcDb3dPolylineVertex
 10
-58.47098
 20
-11.988839
 30
0.0
 70
    32
  0
VERTEX
  5
158
330
14B
100
AcDbEntity
  8
1
100
AcDbVertex
100
AcDb3dPolylineVertex
 10
-58.48242800000001
 20
-12.016137
 30
0.0
 70
    32
  0
VERTEX
  5
159
330
14B
100
AcDbEntity
  8
1
100
AcDbVertex
100
AcDb3dPolylineVertex
 10
-58.492649
 20
-12.043794
 30
0.0
 70
    32
  0
VERTEX
  5
15A
330
14B
100
AcDbEntity
  8
1
100
AcDbVertex
100
AcDb3dPolylineVertex
 10
-58.501636
 20
-12.071735
 30
0.0
 70
    32
  0
VERTEX
  5
15B
330
14B
100
AcDbEntity
  8
1
100
AcDbVertex
100
AcDb3dPolylineVertex
 10
-58.509384
 20
-12.099888
 30
0.0
 70
    32
  0
SEQEND
  5
15C
330
14B
100
AcDbEntity
  8
1
  0
POLYLINE
  5
15D
330
5C7
100
AcDbEntity
  8
1
100
AcDb3dPolyline
 66
     1
 10
0.0
 20
0.0
 30
0.0
 70
     8
  0
VERTEX
  5
15E
330
15D
100
AcDbEntity
  8
1
100
AcDbVertex
100
AcDb3dPolylineVertex
 10
-60.202493
 20
-11.142566
 30
0.0
 70
    32
  0
VERTEX
  5
15F
330
15D
100
AcDbEntity
  8
1
100
AcDbVertex
100
AcDb3dPolylineVertex
 10
-60.215242
 20
-11.156472
 30
0.0
 70
    32
  0
VERTEX
  5
160
330
15D
100
AcDbEntity
  8
1
100
AcDbVertex
100
AcDb3dPolylineVertex
 10
-60.227074
 20
-11.171179
 30
0.0
 70
    32
  0
VERTEX
  5
161
330
15D
100
AcDbEntity
  8
1
100
AcDbVertex
100
AcDb3dPolylineVertex
 10
-60.23796899999999
 20
-11.186699
 30
0.0
 70
    32
  0
VERTEX
  5
162
330
15D
100
AcDbEntity
  8
1
100
AcDbVertex
100
AcDb3dPolylineVertex
 10
-60.247905
 20
-11.203043
 30
0.0
 70
    32
  0
VERTEX
  5
163
330
15D
100
AcDbEntity
  8
1
100
AcDbVertex
100
AcDb3dPolylineVertex
 10
-60.25686199999999
 20
-11.220221
 30
0.0
 70
    32
  0
VERTEX
  5
164
330
15D
100
AcDbEntity
  8
1
100
AcDbVertex
100
AcDb3dPolylineVertex
 10
-60.264747
 20
-11.238162
 30
0.0
 70
    32
  0
VERTEX
  5
165
330
15D
100
AcDbEntity
  8
1
100
AcDbVertex
100
AcDb3dPolylineVertex
 10
-60.271443
 20
-11.256671
 30
0.0
 70
    32
  0
VERTEX
  5
166
330
15D
100
AcDbEntity
  8
1
100
AcDbVertex
100
AcDb3dPolylineVertex
 10
-60.276881
 20
-11.275616
 30
0.0
 70
    32
  0
VERTEX
  5
167
330
15D
100
AcDbEntity
  8
1
100
AcDbVertex
100
AcDb3dPolylineVertex
 10
-60.28105400000001
 20
-11.295033
 30
0.0
 70
    32
  0
VERTEX
  5
168
330
15D
100
AcDbEntity
  8
1
100
AcDbVertex
100
AcDb3dPolylineVertex
 10
-60.28392199999999
 20
-11.314947
 30
0.0
 70
    32
  0
VERTEX
  5
169
330
15D
100
AcDbEntity
  8
1
100
AcDbVertex
100
AcDb3dPolylineVertex
 10
-60.285426
 20
-11.335329
 30
0.0
 70
    32
  0
VERTEX
  5
16A
330
15D
100
AcDbEntity
  8
1
100
AcDbVertex
100
AcDb3dPolylineVertex
 10
-60.28550500000001
 20
-11.355864
 30
0.0
 70
    32
  0
VERTEX
  5
16B
330
15D
100
AcDbEntity
  8
1
100
AcDbVertex
100
AcDb3dPolylineVertex
 10
-60.284138
 20
-11.376346
 30
0.0
 70
    32
  0
VERTEX
  5
16C
330
15D
100
AcDbEntity
  8
1
100
AcDbVertex
100
AcDb3dPolylineVertex
 10
-60.281317
 20
-11.396769
 30
0.0
 70
    32
  0
VERTEX
  5
16D
330
15D
100
AcDbEntity
  8
1
100
AcDbVertex
100
AcDb3dPolylineVertex
 10
-60.277003
 20
-11.417163
 30
0.0
 70
    32
  0
VERTEX
  5
16E
330
15D
100
AcDbEntity
  8
1
100
AcDbVertex
100
AcDb3dPolylineVertex
 10
-60.271179
 20
-11.437421
 30
0.0
 70
    32
  0
VERTEX
  5
16F
330
15D
100
AcDbEntity
  8
1
100
AcDbVertex
100
AcDb3dPolylineVertex
 10
-60.263911
 20
-11.457208
 30
0.0
 70
    32
  0
VERTEX
  5
170
330
15D
100
AcDbEntity
  8
1
100
AcDbVertex
100
AcDb3dPolylineVertex
 10
-60.255264
 20
-11.476352
 30
0.0
 70
    32
  0
VERTEX
  5
171
330
15D
100
AcDbEntity
  8
1
100
AcDbVertex
100
AcDb3dPolylineVertex
 10
-60.245247
 20
-11.494848
 30
0.0
 70
    32
  0
SEQEND
  5
172
330
15D
100
AcDbEntity
  8
1
  0
POLYLINE
  5
173
330
5C7
100
AcDbEntity
  8
1
100
AcDb3dPolyline
 66
     1
 10
0.0
 20
0.0
 30
0.0
 70
     8
  0
VERTEX
  5
174
330
173
100
AcDbEntity
  8
1
100
AcDbVertex
100
AcDb3dPolylineVertex
 10
-59.073886
 20
-12.106473
 30
0.0
 70
    32
  0
VERTEX
  5
175
330
173
100
AcDbEntity
  8
1
100
AcDbVertex
100
AcDb3dPolylineVertex
 10
-59.084901
 20
-12.07058
 30
0.0
 70
    32
  0
VERTEX
  5
176
330
173
100
AcDbEntity
  8
1
100
AcDbVertex
100
AcDb3dPolylineVertex
 10
-59.097902
 20
-12.035254
 30
0.0
 70
    32
  0
VERTEX
  5
177
330
173
100
AcDbEntity
  8
1
100
AcDbVertex
100
AcDb3dPolylineVertex
 10
-59.112928
 20
-12.000485
 30
0.0
 70
    32
  0
VERTEX
  5
178
330
173
100
AcDbEntity
  8
1
100
AcDbVertex
100
AcDb3dPolylineVertex
 10
-59.130023
 20
-11.966264
 30
0.0
 70
    32
  0
VERTEX
  5
179
330
173
100
AcDbEntity
  8
1
100
AcDbVertex
100
AcDb3dPolylineVertex
 10
-59.14928
 20
-11.932588
 30
0.0
 70
    32
  0
VERTEX
  5
17A
330
173
100
AcDbEntity
  8
1
100
AcDbVertex
100
AcDb3dPolylineVertex
 10
-59.17079300000001
 20
-11.899502
 30
0.0
 70
    32
  0
VERTEX
  5
17B
330
173
100
AcDbEntity
  8
1
100
AcDbVertex
100
AcDb3dPolylineVertex
 10
-59.194396
 20
-11.867413
 30
0.0
 70
    32
  0
VERTEX
  5
17C
330
173
100
AcDbEntity
  8
1
100
AcDbVertex
100
AcDb3dPolylineVertex
 10
-59.219977
 20
-11.836563
 30
0.0
 70
    32
  0
VERTEX
  5
17D
330
173
100
AcDbEntity
  8
1
100
AcDbVertex
100
AcDb3dPolylineVertex
 10
-59.24762900000001
 20
-11.806957
 30
0.0
 70
    32
  0
VERTEX
  5
17E
330
173
100
AcDbEntity
  8
1
100
AcDbVertex
100
AcDb3dPolylineVertex
 10
-59.277448
 20
-11.778628
 30
0.0
 70
    32
  0
VERTEX
  5
17F
330
173
100
AcDbEntity
  8
1
100
AcDbVertex
100
AcDb3dPolylineVertex
 10
-59.309361
 20
-11.751773
 30
0.0
 70
    32
  0
VERTEX
  5
180
330
173
100
AcDbEntity
  8
1
100
AcDbVertex
100
AcDb3dPolylineVertex
 10
-59.342856
 20
-11.726893
 30
0.0
 70
    32
  0
VERTEX
  5
181
330
173
100
AcDbEntity
  8
1
100
AcDbVertex
100
AcDb3dPolylineVertex
 10
-59.37772800000001
 20
-11.704144
 30
0.0
 70
    32
  0
VERTEX
  5
182
330
173
100
AcDbEntity
  8
1
100
AcDbVertex
100
AcDb3dPolylineVertex
 10
-59.41404399999999
 20
-11.683495
 30
0.0
 70
    32
  0
VERTEX
  5
183
330
173
100
AcDbEntity
  8
1
100
AcDbVertex
100
AcDb3dPolylineVertex
 10
-59.451787
 20
-11.665003
 30
0.0
 70
    32
  0
VERTEX
  5
184
330
173
100
AcDbEntity
  8
1
100
AcDbVertex
100
AcDb3dPolylineVertex
 10
-59.490514
 20
-11.648848
 30
0.0
 70
    32
  0
VERTEX
  5
185
330
173
100
AcDbEntity
  8
1
100
AcDbVertex
100
AcDb3dPolylineVertex
 10
-59.52973599999999
 20
-11.635215
 30
0.0
 70
    32
  0
VERTEX
  5
186
330
173
100
AcDbEntity
  8
1
100
AcDbVertex
100
AcDb3dPolylineVertex
 10
-59.569243
 20
-11.624116
 30
0.0
 70
    32
  0
VERTEX
  5
187
330
173
100
AcDbEntity
  8
1
100
AcDbVertex
100
AcDb3dPolylineVertex
 10
-59.60909499999999
 20
-11.615449
 30
0.0
 70
    32
  0
VERTEX
  5
188
330
173
100
AcDbEntity
  8
1
100
AcDbVertex
100
AcDb3dPolylineVertex
 10
-59.64907
 20
-11.609202
 30
0.0
 70
    32
  0
VERTEX
  5
189
330
173
100
AcDbEntity
  8
1
100
AcDbVertex
100
AcDb3dPolylineVertex
 10
-59.6886
 20
-11.605367
 30
0.0
 70
    32
  0
VERTEX
  5
18A
330
173
100
AcDbEntity
  8
1
100
AcDbVertex
100
AcDb3dPolylineVertex
 10
-59.72766800000001
 20
-11.603834
 30
0.0
 70
    32
  0
VERTEX
  5
18B
330
173
100
AcDbEntity
  8
1
100
AcDbVertex
100
AcDb3dPolylineVertex
 10
-59.76632099999999
 20
-11.604521
 30
0.0
 70
    32
  0
VERTEX
  5
18C
330
173
100
AcDbEntity
  8
1
100
AcDbVertex
100
AcDb3dPolylineVertex
 10
-59.80459699999999
 20
-11.607353
 30
0.0
 70
    32
  0
VERTEX
  5
18D
330
173
100
AcDbEntity
  8
1
100
AcDbVertex
100
AcDb3dPolylineVertex
 10
-59.842462
 20
-11.61229
 30
0.0
 70
    32
  0
VERTEX
  5
18E
330
173
100
AcDbEntity
  8
1
100
AcDbVertex
100
AcDb3dPolylineVertex
 10
-59.87978
 20
-11.619276
 30
0.0
 70
    32
  0
VERTEX
  5
18F
330
173
100
AcDbEntity
  8
1
100
AcDbVertex
100
AcDb3dPolylineVertex
 10
-59.916406
 20
-11.628244
 30
0.0
 70
    32
  0
SEQEND
  5
190
330
173
100
AcDbEntity
  8
1
  0
POLYLINE
  5
191
330
5C7
100
AcDbEntity
  8
1
100
AcDb3dPolyline
 66
     1
 10
0.0
 20
0.0
 30
0.0
 70
     8
  0
VERTEX
  5
192
330
191
100
AcDbEntity
  8
1
100
AcDbVertex
100
AcDb3dPolylineVertex
 10
-60.202493
 20
-11.142566
 30
0.0
 70
    32
  0
VERTEX
  5
193
330
191
100
AcDbEntity
  8
1
100
AcDbVertex
100
AcDb3dPolylineVertex
 10
-60.176993
 20
-11.115009
 30
0.0
 70
    32
  0
VERTEX
  5
194
330
191
100
AcDbEntity
  8
1
100
AcDbVertex
100
AcDb3dPolylineVertex
 10
-60.152981
 20
-11.086019
 30
0.0
 70
    32
  0
VERTEX
  5
195
330
191
100
AcDbEntity
  8
1
100
AcDbVertex
100
AcDb3dPolylineVertex
 10
-60.13046899999999
 20
-11.055559
 30
0.0
 70
    32
  0
VERTEX
  5
196
330
191
100
AcDbEntity
  8
1
100
AcDbVertex
100
AcDb3dPolylineVertex
 10
-60.109469
 20
-11.023585
 30
0.0
 70
    32
  0
VERTEX
  5
197
330
191
100
AcDbEntity
  8
1
100
AcDbVertex
100
AcDb3dPolylineVertex
 10
-60.090026
 20
-10.990016
 30
0.0
 70
    32
  0
VERTEX
  5
198
330
191
100
AcDbEntity
  8
1
100
AcDbVertex
100
AcDb3dPolylineVertex
 10
-60.072228
 20
-10.954792
 30
0.0
 70
    32
  0
VERTEX
  5
199
330
191
100
AcDbEntity
  8
1
100
AcDbVertex
100
AcDb3dPolylineVertex
 10
-60.056342
 20
-10.918263
 30
0.0
 70
    32
  0
VERTEX
  5
19A
330
191
100
AcDbEntity
  8
1
100
AcDbVertex
100
AcDb3dPolylineVertex
 10
-60.04252
 20
-10.880646
 30
0.0
 70
    32
  0
VERTEX
  5
19B
330
191
100
AcDbEntity
  8
1
100
AcDbVertex
100
AcDb3dPolylineVertex
 10
-60.030815
 20
-10.841862
 30
0.0
 70
    32
  0
VERTEX
  5
19C
330
191
100
AcDbEntity
  8
1
100
AcDbVertex
100
AcDb3dPolylineVertex
 10
-60.02130300000001
 20
-10.801847
 30
0.0
 70
    32
  0
VERTEX
  5
19D
330
191
100
AcDbEntity
  8
1
100
AcDbVertex
100
AcDb3dPolylineVertex
 10
-60.014116
 20
-10.760761
 30
0.0
 70
    32
  0
VERTEX
  5
19E
330
191
100
AcDbEntity
  8
1
100
AcDbVertex
100
AcDb3dPolylineVertex
 10
-60.00943299999999
 20
-10.719301
 30
0.0
 70
    32
  0
VERTEX
  5
19F
330
191
100
AcDbEntity
  8
1
100
AcDbVertex
100
AcDb3dPolylineVertex
 10
-60.00728299999999
 20
-10.67772
 30
0.0
 70
    32
  0
VERTEX
  5
1A0
330
191
100
AcDbEntity
  8
1
100
AcDbVertex
100
AcDb3dPolylineVertex
 10
-60.007675
 20
-10.635946
 30
0.0
 70
    32
  0
VERTEX
  5
1A1
330
191
100
AcDbEntity
  8
1
100
AcDbVertex
100
AcDb3dPolylineVertex
 10
-60.01065
 20
-10.594022
 30
0.0
 70
    32
  0
VERTEX
  5
1A2
330
191
100
AcDbEntity
  8
1
100
AcDbVertex
100
AcDb3dPolylineVertex
 10
-60.016138
 20
-10.552421
 30
0.0
 70
    32
  0
VERTEX
  5
1A3
330
191
100
AcDbEntity
  8
1
100
AcDbVertex
100
AcDb3dPolylineVertex
 10
-60.02405600000001
 20
-10.511659
 30
0.0
 70
    32
  0
VERTEX
  5
1A4
330
191
100
AcDbEntity
  8
1
100
AcDbVertex
100
AcDb3dPolylineVertex
 10
-60.03430899999999
 20
-10.471924
 30
0.0
 70
    32
  0
VERTEX
  5
1A5
330
191
100
AcDbEntity
  8
1
100
AcDbVertex
100
AcDb3dPolylineVertex
 10
-60.046837
 20
-10.433113
 30
0.0
 70
    32
  0
VERTEX
  5
1A6
330
191
100
AcDbEntity
  8
1
100
AcDbVertex
100
AcDb3dPolylineVertex
 10
-60.06152
 20
-10.39541
 30
0.0
 70
    32
  0
VERTEX
  5
1A7
330
191
100
AcDbEntity
  8
1
100
AcDbVertex
100
AcDb3dPolylineVertex
 10
-60.078065
 20
-10.359305
 30
0.0
 70
    32
  0
VERTEX
  5
1A8
330
191
100
AcDbEntity
  8
1
100
AcDbVertex
100
AcDb3dPolylineVertex
 10
-60.096368
 20
-10.324755
 30
0.0
 70
    32
  0
VERTEX
  5
1A9
330
191
100
AcDbEntity
  8
1
100
AcDbVertex
100
AcDb3dPolylineVertex
 10
-60.116381
 20
-10.29168
 30
0.0
 70
    32
  0
VERTEX
  5
1AA
330
191
100
AcDbEntity
  8
1
100
AcDbVertex
100
AcDb3dPolylineVertex
 10
-60.138061
 20
-10.260008
 30
0.0
 70
    32
  0
VERTEX
  5
1AB
330
191
100
AcDbEntity
  8
1
100
AcDbVertex
100
AcDb3dPolylineVertex
 10
-60.161354
 20
-10.22975
 30
0.0
 70
    32
  0
VERTEX
  5
1AC
330
191
100
AcDbEntity
  8
1
100
AcDbVertex
100
AcDb3dPolylineVertex
 10
-60.186142
 20
-10.200994
 30
0.0
 70
    32
  0
VERTEX
  5
1AD
330
191
100
AcDbEntity
  8
1
100
AcDbVertex
100
AcDb3dPolylineVertex
 10
-60.212299
 20
-10.173831
 30
0.0
 70
    32
  0
SEQEND
  5
1AE
330
191
100
AcDbEntity
  8
1
  0
POLYLINE
  5
1AF
330
5C7
100
AcDbEntity
  8
1
100
AcDb3dPolyline
 66
     1
 10
0.0
 20
0.0
 30
0.0
 70
     8
  0
VERTEX
  5
1B0
330
1AF
100
AcDbEntity
  8
1
100
AcDbVertex
100
AcDb3dPolylineVertex
 10
-58.810677
 20
-8.967489
 30
0.0
 70
    32
  0
VERTEX
  5
1B1
330
1AF
100
AcDbEntity
  8
1
100
AcDbVertex
100
AcDb3dPolylineVertex
 10
-58.834476
 20
-8.968609999999999
 30
0.0
 70
    32
  0
VERTEX
  5
1B2
330
1AF
100
AcDbEntity
  8
1
100
AcDbVertex
100
AcDb3dPolylineVertex
 10
-58.858103
 20
-8.971652
 30
0.0
 70
    32
  0
VERTEX
  5
1B3
330
1AF
100
AcDbEntity
  8
1
100
AcDbVertex
100
AcDb3dPolylineVertex
 10
-58.88117199999999
 20
-8.976556
 30
0.0
 70
    32
  0
VERTEX
  5
1B4
330
1AF
100
AcDbEntity
  8
1
100
AcDbVertex
100
AcDb3dPolylineVertex
 10
-58.90368299999999
 20
-8.98328
 30
0.0
 70
    32
  0
VERTEX
  5
1B5
330
1AF
100
AcDbEntity
  8
1
100
AcDbVertex
100
AcDb3dPolylineVertex
 10
-58.92558799999999
 20
-8.991797999999999
 30
0.0
 70
    32
  0
VERTEX
  5
1B6
330
1AF
100
AcDbEntity
  8
1
100
AcDbVertex
100
AcDb3dPolylineVertex
 10
-58.946602
 20
-9.001971000000001
 30
0.0
 70
    32
  0
VERTEX
  5
1B7
330
1AF
100
AcDbEntity
  8
1
100
AcDbVertex
100
AcDb3dPolylineVertex
 10
-58.966476
 20
-9.013621999999999
 30
0.0
 70
    32
  0
VERTEX
  5
1B8
330
1AF
100
AcDbEntity
  8
1
100
AcDbVertex
100
AcDb3dPolylineVertex
 10
-58.985242
 20
-9.026711
 30
0.0
 70
    32
  0
VERTEX
  5
1B9
330
1AF
100
AcDbEntity
  8
1
100
AcDbVertex
100
AcDb3dPolylineVertex
 10
-59.002878
 20
-9.041183
 30
0.0
 70
    32
  0
VERTEX
  5
1BA
330
1AF
100
AcDbEntity
  8
1
100
AcDbVertex
100
AcDb3dPolylineVertex
 10
-59.01911999999999
 20
-9.056757000000001
 30
0.0
 70
    32
  0
VERTEX
  5
1BB
330
1AF
100
AcDbEntity
  8
1
100
AcDbVertex
100
AcDb3dPolylineVertex
 10
-59.033936
 20
-9.073335
 30
0.0
 70
    32
  0
VERTEX
  5
1BC
330
1AF
100
AcDbEntity
  8
1
100
AcDbVertex
100
AcDb3dPolylineVertex
 10
-59.04734000000001
 20
-9.090860000000001
 30
0.0
 70
    32
  0
VERTEX
  5
1BD
330
1AF
100
AcDbEntity
  8
1
100
AcDbVertex
100
AcDb3dPolylineVertex
 10
-59.059339
 20
-9.109261
 30
0.0
 70
    32
  0
VERTEX
  5
1BE
330
1AF
100
AcDbEntity
  8
1
100
AcDbVertex
100
AcDb3dPolylineVertex
 10
-59.069812
 20
-9.128256
 30
0.0
 70
    32
  0
VERTEX
  5
1BF
330
1AF
100
AcDbEntity
  8
1
100
AcDbVertex
100
AcDb3dPolylineVertex
 10
-59.07873399999999
 20
-9.147728
 30
0.0
 70
    32
  0
VERTEX
  5
1C0
330
1AF
100
AcDbEntity
  8
1
100
AcDbVertex
100
AcDb3dPolylineVertex
 10
-59.08614100000001
 20
-9.167659
 30
0.0
 70
    32
  0
VERTEX
  5
1C1
330
1AF
100
AcDbEntity
  8
1
100
AcDbVertex
100
AcDb3dPolylineVertex
 10
-59.09206700000001
 20
-9.188032000000001
 30
0.0
 70
    32
  0
SEQEND
  5
1C2
330
1AF
100
AcDbEntity
  8
1
  0
POLYLINE
  5
1C3
330
5C7
100
AcDbEntity
  8
1
100
AcDb3dPolyline
 66
     1
 10
0.0
 20
0.0
 30
0.0
 70
     8
  0
VERTEX
  5
1C4
330
1C3
100
AcDbEntity
  8
1
100
AcDbVertex
100
AcDb3dPolylineVertex
 10
-51.924443
 20
-4.904085
 30
0.0
 70
    32
  0
VERTEX
  5
1C5
330
1C3
100
AcDbEntity
  8
1
100
AcDbVertex
100
AcDb3dPolylineVertex
 10
-51.90816599999999
 20
-4.888348999999999
 30
0.0
 70
    32
  0
VERTEX
  5
1C6
330
1C3
100
AcDbEntity
  8
1
100
AcDbVertex
100
AcDb3dPolylineVertex
 10
-51.891594
 20
-4.872804
 30
0.0
 70
    32
  0
VERTEX
  5
1C7
330
1C3
100
AcDbEntity
  8
1
100
AcDbVertex
100
AcDb3dPolylineVertex
 10
-51.874724
 20
-4.857455999999999
 30
0.0
 70
    32
  0
VERTEX
  5
1C8
330
1C3
100
AcDbEntity
  8
1
100
AcDbVertex
100
AcDb3dPolylineVertex
 10
-51.857557
 20
-4.842308
 30
0.0
 70
    32
  0
VERTEX
  5
1C9
330
1C3
100
AcDbEntity
  8
1
100
AcDbVertex
100
AcDb3dPolylineVertex
 10
-51.84009
 20
-4.827365
 30
0.0
 70
    32
  0
VERTEX
  5
1CA
330
1C3
100
AcDbEntity
  8
1
100
AcDbVertex
100
AcDb3dPolylineVertex
 10
-51.822324
 20
-4.812632999999999
 30
0.0
 70
    32
  0
VERTEX
  5
1CB
330
1C3
100
AcDbEntity
  8
1
100
AcDbVertex
100
AcDb3dPolylineVertex
 10
-51.804257
 20
-4.798115
 30
0.0
 70
    32
  0
SEQEND
  5
1CC
330
1C3
100
AcDbEntity
  8
1
  0
POLYLINE
  5
1CD
330
5C7
100
AcDbEntity
  8
1
100
AcDb3dPolyline
 66
     1
 10
0.0
 20
0.0
 30
0.0
 70
     8
  0
VERTEX
  5
1CE
330
1CD
100
AcDbEntity
  8
1
100
AcDbVertex
100
AcDb3dPolylineVertex
 10
-57.339276
 20
-11.465433
 30
0.0
 70
    32
  0
VERTEX
  5
1CF
330
1CD
100
AcDbEntity
  8
1
100
AcDbVertex
100
AcDb3dPolylineVertex
 10
-57.328554
 20
-11.444396
 30
0.0
 70
    32
  0
VERTEX
  5
1D0
330
1CD
100
AcDbEntity
  8
1
100
AcDbVertex
100
AcDb3dPolylineVertex
 10
-57.319561
 20
-11.422583
 30
0.0
 70
    32
  0
VERTEX
  5
1D1
330
1CD
100
AcDbEntity
  8
1
100
AcDbVertex
100
AcDb3dPolylineVertex
 10
-57.312425
 20
-11.400341
 30
0.0
 70
    32
  0
VERTEX
  5
1D2
330
1CD
100
AcDbEntity
  8
1
100
AcDbVertex
100
AcDb3dPolylineVertex
 10
-57.30710699999999
 20
-11.377672
 30
0.0
 70
    32
  0
VERTEX
  5
1D3
330
1CD
100
AcDbEntity
  8
1
100
AcDbVertex
100
AcDb3dPolylineVertex
 10
-57.303613
 20
-11.354641
 30
0.0
 70
    32
  0
VERTEX
  5
1D4
330
1CD
100
AcDbEntity
  8
1
100
AcDbVertex
100
AcDb3dPolylineVertex
 10
-57.301967
 20
-11.33157
 30
0.0
 70
    32
  0
VERTEX
  5
1D5
330
1CD
100
AcDbEntity
  8
1
100
AcDbVertex
100
AcDb3dPolylineVertex
 10
-57.30213599999999
 20
-11.30874
 30
0.0
 70
    32
  0
VERTEX
  5
1D6
330
1CD
100
AcDbEntity
  8
1
100
AcDbVertex
100
AcDb3dPolylineVertex
 10
-57.304074
 20
-11.28614
 30
0.0
 70
    32
  0
VERTEX
  5
1D7
330
1CD
100
AcDbEntity
  8
1
100
AcDbVertex
100
AcDb3dPolylineVertex
 10
-57.30774399999999
 20
-11.263818
 30
0.0
 70
    32
  0
VERTEX
  5
1D8
330
1CD
100
AcDbEntity
  8
1
100
AcDbVertex
100
AcDb3dPolylineVertex
 10
-57.313037
 20
-11.242145
 30
0.0
 70
    32
  0
VERTEX
  5
1D9
330
1CD
100
AcDbEntity
  8
1
100
AcDbVertex
100
AcDb3dPolylineVertex
 10
-57.319887
 20
-11.221192
 30
0.0
 70
    32
  0
VERTEX
  5
1DA
330
1CD
100
AcDbEntity
  8
1
100
AcDbVertex
100
AcDb3dPolylineVertex
 10
-57.328238
 20
-11.200974
 30
0.0
 70
    32
  0
VERTEX
  5
1DB
330
1CD
100
AcDbEntity
  8
1
100
AcDbVertex
100
AcDb3dPolylineVertex
 10
-57.33803100000001
 20
-11.181513
 30
0.0
 70
    32
  0
VERTEX
  5
1DC
330
1CD
100
AcDbEntity
  8
1
100
AcDbVertex
100
AcDb3dPolylineVertex
 10
-57.349084
 20
-11.163054
 30
0.0
 70
    32
  0
VERTEX
  5
1DD
330
1CD
100
AcDbEntity
  8
1
100
AcDbVertex
100
AcDb3dPolylineVertex
 10
-57.361309
 20
-11.145678
 30
0.0
 70
    32
  0
VERTEX
  5
1DE
330
1CD
100
AcDbEntity
  8
1
100
AcDbVertex
100
AcDb3dPolylineVertex
 10
-57.374676
 20
-11.129363
 30
0.0
 70
    32
  0
VERTEX
  5
1DF
330
1CD
100
AcDbEntity
  8
1
100
AcDbVertex
100
AcDb3dPolylineVertex
 10
-57.389152
 20
-11.114088
 30
0.0
 70
    32
  0
SEQEND
  5
1E0
330
1CD
100
AcDbEntity
  8
1
  0
POLYLINE
  5
1E1
330
5C7
100
AcDbEntity
  8
1
100
AcDb3dPolyline
 66
     1
 10
0.0
 20
0.0
 30
0.0
 70
     8
  0
VERTEX
  5
1E2
330
1E1
100
AcDbEntity
  8
1
100
AcDbVertex
100
AcDb3dPolylineVertex
 10
-57.668587
 20
-11.604621
 30
0.0
 70
    32
  0
VERTEX
  5
1E3
330
1E1
100
AcDbEntity
  8
1
100
AcDbVertex
100
AcDb3dPolylineVertex
 10
-57.650053
 20
-11.608899
 30
0.0
 70
    32
  0
VERTEX
  5
1E4
330
1E1
100
AcDbEntity
  8
1
100
AcDbVertex
100
AcDb3dPolylineVertex
 10
-57.63126999999999
 20
-11.611964
 30
0.0
 70
    32
  0
VERTEX
  5
1E5
330
1E1
100
AcDbEntity
  8
1
100
AcDbVertex
100
AcDb3dPolylineVertex
 10
-57.61224
 20
-11.613792
 30
0.0
 70
    32
  0
VERTEX
  5
1E6
330
1E1
100
AcDbEntity
  8
1
100
AcDbVertex
100
AcDb3dPolylineVertex
 10
-57.592961
 20
-11.61436
 30
0.0
 70
    32
  0
VERTEX
  5
1E7
330
1E1
100
AcDbEntity
  8
1
100
AcDbVertex
100
AcDb3dPolylineVertex
 10
-57.57343699999999
 20
-11.613642
 30
0.0
 70
    32
  0
VERTEX
  5
1E8
330
1E1
100
AcDbEntity
  8
1
100
AcDbVertex
100
AcDb3dPolylineVertex
 10
-57.553784
 20
-11.611594
 30
0.0
 70
    32
  0
VERTEX
  5
1E9
330
1E1
100
AcDbEntity
  8
1
100
AcDbVertex
100
AcDb3dPolylineVertex
 10
-57.534232
 20
-11.60821
 30
0.0
 70
    32
  0
VERTEX
  5
1EA
330
1E1
100
AcDbEntity
  8
1
100
AcDbVertex
100
AcDb3dPolylineVertex
 10
-57.514924
 20
-11.603496
 30
0.0
 70
    32
  0
VERTEX
  5
1EB
330
1E1
100
AcDbEntity
  8
1
100
AcDbVertex
100
AcDb3dPolylineVertex
 10
-57.49583399999999
 20
-11.597425
 30
0.0
 70
    32
  0
VERTEX
  5
1EC
330
1E1
100
AcDbEntity
  8
1
100
AcDbVertex
100
AcDb3dPolylineVertex
 10
-57.47696
 20
-11.589948
 30
0.0
 70
    32
  0
VERTEX
  5
1ED
330
1E1
100
AcDbEntity
  8
1
100
AcDbVertex
100
AcDb3dPolylineVertex
 10
-57.45836800000001
 20
-11.581031
 30
0.0
 70
    32
  0
VERTEX
  5
1EE
330
1E1
100
AcDbEntity
  8
1
100
AcDbVertex
100
AcDb3dPolylineVertex
 10
-57.44036999999999
 20
-11.570784
 30
0.0
 70
    32
  0
VERTEX
  5
1EF
330
1E1
100
AcDbEntity
  8
1
100
AcDbVertex
100
AcDb3dPolylineVertex
 10
-57.42315
 20
-11.559287
 30
0.0
 70
    32
  0
VERTEX
  5
1F0
330
1E1
100
AcDbEntity
  8
1
100
AcDbVertex
100
AcDb3dPolylineVertex
 10
-57.406712
 20
-11.546531
 30
0.0
 70
    32
  0
VERTEX
  5
1F1
330
1E1
100
AcDbEntity
  8
1
100
AcDbVertex
100
AcDb3dPolylineVertex
 10
-57.391054
 20
-11.532467
 30
0.0
 70
    32
  0
VERTEX
  5
1F2
330
1E1
100
AcDbEntity
  8
1
100
AcDbVertex
100
AcDb3dPolylineVertex
 10
-57.376289
 20
-11.517142
 30
0.0
 70
    32
  0
VERTEX
  5
1F3
330
1E1
100
AcDbEntity
  8
1
100
AcDbVertex
100
AcDb3dPolylineVertex
 10
-57.36268599999999
 20
-11.500797
 30
0.0
 70
    32
  0
VERTEX
  5
1F4
330
1E1
100
AcDbEntity
  8
1
100
AcDbVertex
100
AcDb3dPolylineVertex
 10
-57.350349
 20
-11.483559
 30
0.0
 70
    32
  0
VERTEX
  5
1F5
330
1E1
100
AcDbEntity
  8
1
100
AcDbVertex
100
AcDb3dPolylineVertex
 10
-57.339276
 20
-11.465433
 30
0.0
 70
    32
  0
SEQEND
  5
1F6
330
1E1
100
AcDbEntity
  8
1
  0
POLYLINE
  5
1F7
330
5C7
100
AcDbEntity
  8
1
100
AcDb3dPolyline
 66
     1
 10
0.0
 20
0.0
 30
0.0
 70
     8
  0
VERTEX
  5
1F8
330
1F7
100
AcDbEntity
  8
1
100
AcDbVertex
100
AcDb3dPolylineVertex
 10
-59.932863
 20
-9.683298999999999
 30
0.0
 70
    32
  0
VERTEX
  5
1F9
330
1F7
100
AcDbEntity
  8
1
100
AcDbVertex
100
AcDb3dPolylineVertex
 10
-59.951398
 20
-9.679021
 30
0.0
 70
    32
  0
VERTEX
  5
1FA
330
1F7
100
AcDbEntity
  8
1
100
AcDbVertex
100
AcDb3dPolylineVertex
 10
-59.97018
 20
-9.675955999999999
 30
0.0
 70
    32
  0
VERTEX
  5
1FB
330
1F7
100
AcDbEntity
  8
1
100
AcDbVertex
100
AcDb3dPolylineVertex
 10
-59.989211
 20
-9.674127999999999
 30
0.0
 70
    32
  0
VERTEX
  5
1FC
330
1F7
100
AcDbEntity
  8
1
100
AcDbVertex
100
AcDb3dPolylineVertex
 10
-60.00848900000001
 20
-9.67356
 30
0.0
 70
    32
  0
VERTEX
  5
1FD
330
1F7
100
AcDbEntity
  8
1
100
AcDbVertex
100
AcDb3dPolylineVertex
 10
-60.028014
 20
-9.674277999999999
 30
0.0
 70
    32
  0
VERTEX
  5
1FE
330
1F7
100
AcDbEntity
  8
1
100
AcDbVertex
100
AcDb3dPolylineVertex
 10
-60.047666
 20
-9.676325999999999
 30
0.0
 70
    32
  0
VERTEX
  5
1FF
330
1F7
100
AcDbEntity
  8
1
100
AcDbVertex
100
AcDb3dPolylineVertex
 10
-60.06721899999999
 20
-9.67971
 30
0.0
 70
    32
  0
VERTEX
  5
200
330
1F7
100
AcDbEntity
  8
1
100
AcDbVertex
100
AcDb3dPolylineVertex
 10
-60.086526
 20
-9.684423999999999
 30
0.0
 70
    32
  0
VERTEX
  5
201
330
1F7
100
AcDbEntity
  8
1
100
AcDbVertex
100
AcDb3dPolylineVertex
 10
-60.105616
 20
-9.690495
 30
0.0
 70
    32
  0
VERTEX
  5
202
330
1F7
100
AcDbEntity
  8
1
100
AcDbVertex
100
AcDb3dPolylineVertex
 10
-60.12449100000001
 20
-9.697972
 30
0.0
 70
    32
  0
VERTEX
  5
203
330
1F7
100
AcDbEntity
  8
1
100
AcDbVertex
100
AcDb3dPolylineVertex
 10
-60.14308299999999
 20
-9.706888000000001
 30
0.0
 70
    32
  0
VERTEX
  5
204
330
1F7
100
AcDbEntity
  8
1
100
AcDbVertex
100
AcDb3dPolylineVertex
 10
-60.161081
 20
-9.717135999999999
 30
0.0
 70
    32
  0
VERTEX
  5
205
330
1F7
100
AcDbEntity
  8
1
100
AcDbVertex
100
AcDb3dPolylineVertex
 10
-60.178301
 20
-9.728633
 30
0.0
 70
    32
  0
VERTEX
  5
206
330
1F7
100
AcDbEntity
  8
1
100
AcDbVertex
100
AcDb3dPolylineVertex
 10
-60.194739
 20
-9.741388999999999
 30
0.0
 70
    32
  0
VERTEX
  5
207
330
1F7
100
AcDbEntity
  8
1
100
AcDbVertex
100
AcDb3dPolylineVertex
 10
-60.210397
 20
-9.755452999999999
 30
0.0
 70
    32
  0
VERTEX
  5
208
330
1F7
100
AcDbEntity
  8
1
100
AcDbVertex
100
AcDb3dPolylineVertex
 10
-60.225161
 20
-9.770777999999999
 30
0.0
 70
    32
  0
VERTEX
  5
209
330
1F7
100
AcDbEntity
  8
1
100
AcDbVertex
100
AcDb3dPolylineVertex
 10
-60.238765
 20
-9.787122999999999
 30
0.0
 70
    32
  0
VERTEX
  5
20A
330
1F7
100
AcDbEntity
  8
1
100
AcDbVertex
100
AcDb3dPolylineVertex
 10
-60.251102
 20
-9.80436
 30
0.0
 70
    32
  0
VERTEX
  5
20B
330
1F7
100
AcDbEntity
  8
1
100
AcDbVertex
100
AcDb3dPolylineVertex
 10
-60.262175
 20
-9.822486999999998
 30
0.0
 70
    32
  0
SEQEND
  5
20C
330
1F7
100
AcDbEntity
  8
1
  0
POLYLINE
  5
20D
330
5C7
100
AcDbEntity
  8
1
100
AcDb3dPolyline
 66
     1
 10
0.0
 20
0.0
 30
0.0
 70
     8
  0
VERTEX
  5
20E
330
20D
100
AcDbEntity
  8
1
100
AcDbVertex
100
AcDb3dPolylineVertex
 10
-60.262175
 20
-9.822486999999998
 30
0.0
 70
    32
  0
VERTEX
  5
20F
330
20D
100
AcDbEntity
  8
1
100
AcDbVertex
100
AcDb3dPolylineVertex
 10
-60.272897
 20
-9.843524
 30
0.0
 70
    32
  0
VERTEX
  5
210
330
20D
100
AcDbEntity
  8
1
100
AcDbVertex
100
AcDb3dPolylineVertex
 10
-60.28189000000001
 20
-9.865337
 30
0.0
 70
    32
  0
VERTEX
  5
211
330
20D
100
AcDbEntity
  8
1
100
AcDbVertex
100
AcDb3dPolylineVertex
 10
-60.289026
 20
-9.887578999999998
 30
0.0
 70
    32
  0
VERTEX
  5
212
330
20D
100
AcDbEntity
  8
1
100
AcDbVertex
100
AcDb3dPolylineVertex
 10
-60.29434300000001
 20
-9.910247999999999
 30
0.0
 70
    32
  0
VERTEX
  5
213
330
20D
100
AcDbEntity
  8
1
100
AcDbVertex
100
AcDb3dPolylineVertex
 10
-60.297837
 20
-9.933278999999998
 30
0.0
 70
    32
  0
VERTEX
  5
214
330
20D
100
AcDbEntity
  8
1
100
AcDbVertex
100
AcDb3dPolylineVertex
 10
-60.299484
 20
-9.95635
 30
0.0
 70
    32
  0
VERTEX
  5
215
330
20D
100
AcDbEntity
  8
1
100
AcDbVertex
100
AcDb3dPolylineVertex
 10
-60.299314
 20
-9.979179
 30
0.0
 70
    32
  0
VERTEX
  5
216
330
20D
100
AcDbEntity
  8
1
100
AcDbVertex
100
AcDb3dPolylineVertex
 10
-60.297377
 20
-10.00178
 30
0.0
 70
    32
  0
VERTEX
  5
217
330
20D
100
AcDbEntity
  8
1
100
AcDbVertex
100
AcDb3dPolylineVertex
 10
-60.293706
 20
-10.024102
 30
0.0
 70
    32
  0
VERTEX
  5
218
330
20D
100
AcDbEntity
  8
1
100
AcDbVertex
100
AcDb3dPolylineVertex
 10
-60.28841299999999
 20
-10.045775
 30
0.0
 70
    32
  0
VERTEX
  5
219
330
20D
100
AcDbEntity
  8
1
100
AcDbVertex
100
AcDb3dPolylineVertex
 10
-60.281564
 20
-10.066727
 30
0.0
 70
    32
  0
VERTEX
  5
21A
330
20D
100
AcDbEntity
  8
1
100
AcDbVertex
100
AcDb3dPolylineVertex
 10
-60.273213
 20
-10.086946
 30
0.0
 70
    32
  0
VERTEX
  5
21B
330
20D
100
AcDbEntity
  8
1
100
AcDbVertex
100
AcDb3dPolylineVertex
 10
-60.26341999999999
 20
-10.106407
 30
0.0
 70
    32
  0
VERTEX
  5
21C
330
20D
100
AcDbEntity
  8
1
100
AcDbVertex
100
AcDb3dPolylineVertex
 10
-60.252367
 20
-10.124865
 30
0.0
 70
    32
  0
VERTEX
  5
21D
330
20D
100
AcDbEntity
  8
1
100
AcDbVertex
100
AcDb3dPolylineVertex
 10
-60.240141
 20
-10.142242
 30
0.0
 70
    32
  0
VERTEX
  5
21E
330
20D
100
AcDbEntity
  8
1
100
AcDbVertex
100
AcDb3dPolylineVertex
 10
-60.226775
 20
-10.158557
 30
0.0
 70
    32
  0
VERTEX
  5
21F
330
20D
100
AcDbEntity
  8
1
100
AcDbVertex
100
AcDb3dPolylineVertex
 10
-60.212299
 20
-10.173831
 30
0.0
 70
    32
  0
SEQEND
  5
220
330
20D
100
AcDbEntity
  8
1
  0
POLYLINE
  5
221
330
5C7
100
AcDbEntity
  8
1
100
AcDb3dPolyline
 66
     1
 10
0.0
 20
0.0
 30
0.0
 70
     8
  0
VERTEX
  5
222
330
221
100
AcDbEntity
  8
1
100
AcDbVertex
100
AcDb3dPolylineVertex
 10
-57.39895799999999
 20
-10.145354
 30
0.0
 70
    32
  0
VERTEX
  5
223
330
221
100
AcDbEntity
  8
1
100
AcDbVertex
100
AcDb3dPolylineVertex
 10
-57.38620799999999
 20
-10.131448
 30
0.0
 70
    32
  0
VERTEX
  5
224
330
221
100
AcDbEntity
  8
1
100
AcDbVertex
100
AcDb3dPolylineVertex
 10
-57.37437599999999
 20
-10.116741
 30
0.0
 70
    32
  0
VERTEX
  5
225
330
221
100
AcDbEntity
  8
1
100
AcDbVertex
100
AcDb3dPolylineVertex
 10
-57.363482
 20
-10.101221
 30
0.0
 70
    32
  0
VERTEX
  5
226
330
221
100
AcDbEntity
  8
1
100
AcDbVertex
100
AcDb3dPolylineVertex
 10
-57.35354499999999
 20
-10.084877
 30
0.0
 70
    32
  0
VERTEX
  5
227
330
221
100
AcDbEntity
  8
1
100
AcDbVertex
100
AcDb3dPolylineVertex
 10
-57.344588
 20
-10.067699
 30
0.0
 70
    32
  0
VERTEX
  5
228
330
221
100
AcDbEntity
  8
1
100
AcDbVertex
100
AcDb3dPolylineVertex
 10
-57.33670400000001
 20
-10.049757
 30
0.0
 70
    32
  0
VERTEX
  5
229
330
221
100
AcDbEntity
  8
1
100
AcDbVertex
100
AcDb3dPolylineVertex
 10
-57.33000799999999
 20
-10.031249
 30
0.0
 70
    32
  0
VERTEX
  5
22A
330
221
100
AcDbEntity
  8
1
100
AcDbVertex
100
AcDb3dPolylineVertex
 10
-57.32456899999999
 20
-10.012304
 30
0.0
 70
    32
  0
VERTEX
  5
22B
330
221
100
AcDbEntity
  8
1
100
AcDbVertex
100
AcDb3dPolylineVertex
 10
-57.320397
 20
-9.992886999999999
 30
0.0
 70
    32
  0
VERTEX
  5
22C
330
221
100
AcDbEntity
  8
1
100
AcDbVertex
100
AcDb3dPolylineVertex
 10
-57.317528
 20
-9.972972
 30
0.0
 70
    32
  0
VERTEX
  5
22D
330
221
100
AcDbEntity
  8
1
100
AcDbVertex
100
AcDb3dPolylineVertex
 10
-57.31602500000001
 20
-9.952590999999999
 30
0.0
 70
    32
  0
VERTEX
  5
22E
330
221
100
AcDbEntity
  8
1
100
AcDbVertex
100
AcDb3dPolylineVertex
 10
-57.31594499999999
 20
-9.932055999999999
 30
0.0
 70
    32
  0
VERTEX
  5
22F
330
221
100
AcDbEntity
  8
1
100
AcDbVertex
100
AcDb3dPolylineVertex
 10
-57.317312
 20
-9.911573999999999
 30
0.0
 70
    32
  0
VERTEX
  5
230
330
221
100
AcDbEntity
  8
1
100
AcDbVertex
100
AcDb3dPolylineVertex
 10
-57.320133
 20
-9.891149999999999
 30
0.0
 70
    32
  0
VERTEX
  5
231
330
221
100
AcDbEntity
  8
1
100
AcDbVertex
100
AcDb3dPolylineVertex
 10
-57.324447
 20
-9.870757000000001
 30
0.0
 70
    32
  0
VERTEX
  5
232
330
221
100
AcDbEntity
  8
1
100
AcDbVertex
100
AcDb3dPolylineVertex
 10
-57.33027199999999
 20
-9.850499000000001
 30
0.0
 70
    32
  0
VERTEX
  5
233
330
221
100
AcDbEntity
  8
1
100
AcDbVertex
100
AcDb3dPolylineVertex
 10
-57.33754000000001
 20
-9.830712
 30
0.0
 70
    32
  0
VERTEX
  5
234
330
221
100
AcDbEntity
  8
1
100
AcDbVertex
100
AcDb3dPolylineVertex
 10
-57.346186
 20
-9.811567
 30
0.0
 70
    32
  0
VERTEX
  5
235
330
221
100
AcDbEntity
  8
1
100
AcDbVertex
100
AcDb3dPolylineVertex
 10
-57.35620400000001
 20
-9.793072
 30
0.0
 70
    32
  0
SEQEND
  5
236
330
221
100
AcDbEntity
  8
1
  0
POLYLINE
  5
237
330
5C7
100
AcDbEntity
  8
1
100
AcDb3dPolyline
 66
     1
 10
0.0
 20
0.0
 30
0.0
 70
     8
  0
VERTEX
  5
238
330
237
100
AcDbEntity
  8
1
100
AcDbVertex
100
AcDb3dPolylineVertex
 10
-58.790773
 20
-12.32043
 30
0.0
 70
    32
  0
VERTEX
  5
239
330
237
100
AcDbEntity
  8
1
100
AcDbVertex
100
AcDb3dPolylineVertex
 10
-58.766974
 20
-12.31931
 30
0.0
 70
    32
  0
VERTEX
  5
23A
330
237
100
AcDbEntity
  8
1
100
AcDbVertex
100
AcDb3dPolylineVertex
 10
-58.74334799999999
 20
-12.316267
 30
0.0
 70
    32
  0
VERTEX
  5
23B
330
237
100
AcDbEntity
  8
1
100
AcDbVertex
100
AcDb3dPolylineVertex
 10
-58.720279
 20
-12.311363
 30
0.0
 70
    32
  0
VERTEX
  5
23C
330
237
100
AcDbEntity
  8
1
100
AcDbVertex
100
AcDb3dPolylineVertex
 10
-58.697767
 20
-12.304639
 30
0.0
 70
    32
  0
VERTEX
  5
23D
330
237
100
AcDbEntity
  8
1
100
AcDbVertex
100
AcDb3dPolylineVertex
 10
-58.675863
 20
-12.296122
 30
0.0
 70
    32
  0
VERTEX
  5
23E
330
237
100
AcDbEntity
  8
1
100
AcDbVertex
100
AcDb3dPolylineVertex
 10
-58.654848
 20
-12.285949
 30
0.0
 70
    32
  0
VERTEX
  5
23F
330
237
100
AcDbEntity
  8
1
100
AcDbVertex
100
AcDb3dPolylineVertex
 10
-58.634975
 20
-12.274298
 30
0.0
 70
    32
  0
VERTEX
  5
240
330
237
100
AcDbEntity
  8
1
100
AcDbVertex
100
AcDb3dPolylineVertex
 10
-58.61620799999999
 20
-12.261209
 30
0.0
 70
    32
  0
VERTEX
  5
241
330
237
100
AcDbEntity
  8
1
100
AcDbVertex
100
AcDb3dPolylineVertex
 10
-58.59857299999999
 20
-12.246737
 30
0.0
 70
    32
  0
VERTEX
  5
242
330
237
100
AcDbEntity
  8
1
100
AcDbVertex
100
AcDb3dPolylineVertex
 10
-58.582331
 20
-12.231163
 30
0.0
 70
    32
  0
VERTEX
  5
243
330
237
100
AcDbEntity
  8
1
100
AcDbVertex
100
AcDb3dPolylineVertex
 10
-58.567514
 20
-12.214585
 30
0.0
 70
    32
  0
VERTEX
  5
244
330
237
100
AcDbEntity
  8
1
100
AcDbVertex
100
AcDb3dPolylineVertex
 10
-58.55411
 20
-12.19706
 30
0.0
 70
    32
  0
VERTEX
  5
245
330
237
100
AcDbEntity
  8
1
100
AcDbVertex
100
AcDb3dPolylineVertex
 10
-58.542112
 20
-12.178658
 30
0.0
 70
    32
  0
VERTEX
  5
246
330
237
100
AcDbEntity
  8
1
100
AcDbVertex
100
AcDb3dPolylineVertex
 10
-58.531639
 20
-12.159663
 30
0.0
 70
    32
  0
VERTEX
  5
247
330
237
100
AcDbEntity
  8
1
100
AcDbVertex
100
AcDb3dPolylineVertex
 10
-58.522716
 20
-12.140192
 30
0.0
 70
    32
  0
VERTEX
  5
248
330
237
100
AcDbEntity
  8
1
100
AcDbVertex
100
AcDb3dPolylineVertex
 10
-58.515309
 20
-12.120261
 30
0.0
 70
    32
  0
VERTEX
  5
249
330
237
100
AcDbEntity
  8
1
100
AcDbVertex
100
AcDb3dPolylineVertex
 10
-58.509384
 20
-12.099888
 30
0.0
 70
    32
  0
SEQEND
  5
24A
330
237
100
AcDbEntity
  8
1
  0
POLYLINE
  5
24B
330
5C7
100
AcDbEntity
  8
1
100
AcDb3dPolyline
 66
     1
 10
0.0
 20
0.0
 30
0.0
 70
     8
  0
VERTEX
  5
24C
330
24B
100
AcDbEntity
  8
1
100
AcDbVertex
100
AcDb3dPolylineVertex
 10
-57.668587
 20
-11.604621
 30
0.0
 70
    32
  0
VERTEX
  5
24D
330
24B
100
AcDbEntity
  8
1
100
AcDbVertex
100
AcDb3dPolylineVertex
 10
-57.701252
 20
-11.596815
 30
0.0
 70
    32
  0
VERTEX
  5
24E
330
24B
100
AcDbEntity
  8
1
100
AcDbVertex
100
AcDb3dPolylineVertex
 10
-57.73432099999999
 20
-11.590611
 30
0.0
 70
    32
  0
VERTEX
  5
24F
330
24B
100
AcDbEntity
  8
1
100
AcDbVertex
100
AcDb3dPolylineVertex
 10
-57.767814
 20
-11.586021
 30
0.0
 70
    32
  0
VERTEX
  5
250
330
24B
100
AcDbEntity
  8
1
100
AcDbVertex
100
AcDb3dPolylineVertex
 10
-57.801753
 20
-11.583066
 30
0.0
 70
    32
  0
VERTEX
  5
251
330
24B
100
AcDbEntity
  8
1
100
AcDbVertex
100
AcDb3dPolylineVertex
 10
-57.83617299999999
 20
-11.581793
 30
0.0
 70
    32
  0
VERTEX
  5
252
330
24B
100
AcDbEntity
  8
1
100
AcDbVertex
100
AcDb3dPolylineVertex
 10
-57.87109499999999
 20
-11.582276
 30
0.0
 70
    32
  0
VERTEX
  5
253
330
24B
100
AcDbEntity
  8
1
100
AcDbVertex
100
AcDb3dPolylineVertex
 10
-57.90646800000001
 20
-11.584578
 30
0.0
 70
    32
  0
VERTEX
  5
254
330
24B
100
AcDbEntity
  8
1
100
AcDbVertex
100
AcDb3dPolylineVertex
 10
-57.941864
 20
-11.588728
 30
0.0
 70
    32
  0
VERTEX
  5
255
330
24B
100
AcDbEntity
  8
1
100
AcDbVertex
100
AcDb3dPolylineVertex
 10
-57.97722499999999
 20
-11.594762
 30
0.0
 70
    32
  0
VERTEX
  5
256
330
24B
100
AcDbEntity
  8
1
100
AcDbVertex
100
AcDb3dPolylineVertex
 10
-58.01256899999999
 20
-11.602725
 30
0.0
 70
    32
  0
VERTEX
  5
257
330
24B
100
AcDbEntity
  8
1
100
AcDbVertex
100
AcDb3dPolylineVertex
 10
-58.04795699999999
 20
-11.612706
 30
0.0
 70
    32
  0
VERTEX
  5
258
330
24B
100
AcDbEntity
  8
1
100
AcDbVertex
100
AcDb3dPolylineVertex
 10
-58.083223
 20
-11.624732
 30
0.0
 70
    32
  0
VERTEX
  5
259
330
24B
100
AcDbEntity
  8
1
100
AcDbVertex
100
AcDb3dPolylineVertex
 10
-58.11813199999999
 20
-11.638801
 30
0.0
 70
    32
  0
SEQEND
  5
25A
330
24B
100
AcDbEntity
  8
1
  0
POLYLINE
  5
25B
330
5C7
100
AcDbEntity
  8
1
100
AcDb3dPolyline
 66
     1
 10
0.0
 20
0.0
 30
0.0
 70
     8
  0
VERTEX
  5
25C
330
25B
100
AcDbEntity
  8
1
100
AcDbVertex
100
AcDb3dPolylineVertex
 10
-60.245247
 20
-11.494848
 30
0.0
 70
    32
  0
VERTEX
  5
25D
330
25B
100
AcDbEntity
  8
1
100
AcDbVertex
100
AcDb3dPolylineVertex
 10
-60.232451
 20
-11.514678
 30
0.0
 70
    32
  0
VERTEX
  5
25E
330
25B
100
AcDbEntity
  8
1
100
AcDbVertex
100
AcDb3dPolylineVertex
 10
-60.21810699999999
 20
-11.533418
 30
0.0
 70
    32
  0
VERTEX
  5
25F
330
25B
100
AcDbEntity
  8
1
100
AcDbVertex
100
AcDb3dPolylineVertex
 10
-60.202457
 20
-11.550767
 30
0.0
 70
    32
  0
VERTEX
  5
260
330
25B
100
AcDbEntity
  8
1
100
AcDbVertex
100
AcDb3dPolylineVertex
 10
-60.185537
 20
-11.566746
 30
0.0
 70
    32
  0
VERTEX
  5
261
330
25B
100
AcDbEntity
  8
1
100
AcDbVertex
100
AcDb3dPolylineVertex
 10
-60.167389
 20
-11.581331
 30
0.0
 70
    32
  0
VERTEX
  5
262
330
25B
100
AcDbEntity
  8
1
100
AcDbVertex
100
AcDb3dPolylineVertex
 10
-60.14826
 20
-11.594355
 30
0.0
 70
    32
  0
VERTEX
  5
263
330
25B
100
AcDbEntity
  8
1
100
AcDbVertex
100
AcDb3dPolylineVertex
 10
-60.128434
 20
-11.60568
 30
0.0
 70
    32
  0
VERTEX
  5
264
330
25B
100
AcDbEntity
  8
1
100
AcDbVertex
100
AcDb3dPolylineVertex
 10
-60.10793299999999
 20
-11.615355
 30
0.0
 70
    32
  0
VERTEX
  5
265
330
25B
100
AcDbEntity
  8
1
100
AcDbVertex
100
AcDb3dPolylineVertex
 10
-60.086814
 20
-11.623389
 30
0.0
 70
    32
  0
VERTEX
  5
266
330
25B
100
AcDbEntity
  8
1
100
AcDbVertex
100
AcDb3dPolylineVertex
 10
-60.065428
 20
-11.629701
 30
0.0
 70
    32
  0
VERTEX
  5
267
330
25B
100
AcDbEntity
  8
1
100
AcDbVertex
100
AcDb3dPolylineVertex
 10
-60.043873
 20
-11.634311
 30
0.0
 70
    32
  0
VERTEX
  5
268
330
25B
100
AcDbEntity
  8
1
100
AcDbVertex
100
AcDb3dPolylineVertex
 10
-60.022189
 20
-11.637254
 30
0.0
 70
    32
  0
VERTEX
  5
269
330
25B
100
AcDbEntity
  8
1
100
AcDbVertex
100
AcDb3dPolylineVertex
 10
-60.000432
 20
-11.638569
 30
0.0
 70
    32
  0
VERTEX
  5
26A
330
25B
100
AcDbEntity
  8
1
100
AcDbVertex
100
AcDb3dPolylineVertex
 10
-59.978905
 20
-11.638288
 30
0.0
 70
    32
  0
VERTEX
  5
26B
330
25B
100
AcDbEntity
  8
1
100
AcDbVertex
100
AcDb3dPolylineVertex
 10
-59.957723
 20
-11.636448
 30
0.0
 70
    32
  0
VERTEX
  5
26C
330
25B
100
AcDbEntity
  8
1
100
AcDbVertex
100
AcDb3dPolylineVertex
 10
-59.93689
 20
-11.633087
 30
0.0
 70
    32
  0
VERTEX
  5
26D
330
25B
100
AcDbEntity
  8
1
100
AcDbVertex
100
AcDb3dPolylineVertex
 10
-59.916406
 20
-11.628244
 30
0.0
 70
    32
  0
SEQEND
  5
26E
330
25B
100
AcDbEntity
  8
1
  0
POLYLINE
  5
26F
330
5C7
100
AcDbEntity
  8
1
100
AcDb3dPolyline
 66
     1
 10
0.0
 20
0.0
 30
0.0
 70
     8
  0
VERTEX
  5
270
330
26F
100
AcDbEntity
  8
1
100
AcDbVertex
100
AcDb3dPolylineVertex
 10
-48.404201
 20
-15.843595
 30
0.0
 70
    32
  0
VERTEX
  5
271
330
26F
100
AcDbEntity
  8
1
100
AcDbVertex
100
AcDb3dPolylineVertex
 10
-48.40325100000001
 20
-15.84451
 30
0.0
 70
    32
  0
VERTEX
  5
272
330
26F
100
AcDbEntity
  8
1
100
AcDbVertex
100
AcDb3dPolylineVertex
 10
-48.402301
 20
-15.845424
 30
0.0
 70
    32
  0
VERTEX
  5
273
330
26F
100
AcDbEntity
  8
1
100
AcDbVertex
100
AcDb3dPolylineVertex
 10
-48.401351
 20
-15.846339
 30
0.0
 70
    32
  0
VERTEX
  5
274
330
26F
100
AcDbEntity
  8
1
100
AcDbVertex
100
AcDb3dPolylineVertex
 10
-48.400402
 20
-15.847254
 30
0.0
 70
    32
  0
VERTEX
  5
275
330
26F
100
AcDbEntity
  8
1
100
AcDbVertex
100
AcDb3dPolylineVertex
 10
-48.399452
 20
-15.848169
 30
0.0
 70
    32
  0
VERTEX
  5
276
330
26F
100
AcDbEntity
  8
1
100
AcDbVertex
100
AcDb3dPolylineVertex
 10
-48.39850399999999
 20
-15.849084
 30
0.0
 70
    32
  0
VERTEX
  5
277
330
26F
100
AcDbEntity
  8
1
100
AcDbVertex
100
AcDb3dPolylineVertex
 10
-48.39755499999999
 20
-15.85
 30
0.0
 70
    32
  0
SEQEND
  5
278
330
26F
100
AcDbEntity
  8
1
  0
POLYLINE
  5
279
330
5C7
100
AcDbEntity
  8
1
100
AcDb3dPolyline
 66
     1
 10
0.0
 20
0.0
 30
0.0
 70
     8
  0
VERTEX
  5
27A
330
279
100
AcDbEntity
  8
1
100
AcDbVertex
100
AcDb3dPolylineVertex
 10
-59.33990600000001
 20
-9.564641999999999
 30
0.0
 70
    32
  0
VERTEX
  5
27B
330
279
100
AcDbEntity
  8
1
100
AcDbVertex
100
AcDb3dPolylineVertex
 10
-59.314585
 20
-9.544271
 30
0.0
 70
    32
  0
VERTEX
  5
27C
330
279
100
AcDbEntity
  8
1
100
AcDbVertex
100
AcDb3dPolylineVertex
 10
-59.290579
 20
-9.523019999999998
 30
0.0
 70
    32
  0
VERTEX
  5
27D
330
279
100
AcDbEntity
  8
1
100
AcDbVertex
100
AcDb3dPolylineVertex
 10
-59.267839
 20
-9.500911
 30
0.0
 70
    32
  0
VERTEX
  5
27E
330
279
100
AcDbEntity
  8
1
100
AcDbVertex
100
AcDb3dPolylineVertex
 10
-59.246317
 20
-9.477971
 30
0.0
 70
    32
  0
VERTEX
  5
27F
330
279
100
AcDbEntity
  8
1
100
AcDbVertex
100
AcDb3dPolylineVertex
 10
-59.22598299999999
 20
-9.454211
 30
0.0
 70
    32
  0
VERTEX
  5
280
330
279
100
AcDbEntity
  8
1
100
AcDbVertex
100
AcDb3dPolylineVertex
 10
-59.206818
 20
-9.429633
 30
0.0
 70
    32
  0
VERTEX
  5
281
330
279
100
AcDbEntity
  8
1
100
AcDbVertex
100
AcDb3dPolylineVertex
 10
-59.188876
 20
-9.404341999999999
 30
0.0
 70
    32
  0
VERTEX
  5
282
330
279
100
AcDbEntity
  8
1
100
AcDbVertex
100
AcDb3dPolylineVertex
 10
-59.17230299999999
 20
-9.378608999999999
 30
0.0
 70
    32
  0
VERTEX
  5
283
330
279
100
AcDbEntity
  8
1
100
AcDbVertex
100
AcDb3dPolylineVertex
 10
-59.15707600000001
 20
-9.352494
 30
0.0
 70
    32
  0
VERTEX
  5
284
330
279
100
AcDbEntity
  8
1
100
AcDbVertex
100
AcDb3dPolylineVertex
 10
-59.14314399999999
 20
-9.325984
 30
0.0
 70
    32
  0
VERTEX
  5
285
330
279
100
AcDbEntity
  8
1
100
AcDbVertex
100
AcDb3dPolylineVertex
 10
-59.130471
 20
-9.299080999999999
 30
0.0
 70
    32
  0
VERTEX
  5
286
330
279
100
AcDbEntity
  8
1
100
AcDbVertex
100
AcDb3dPolylineVertex
 10
-59.119023
 20
-9.271781999999999
 30
0.0
 70
    32
  0
VERTEX
  5
287
330
279
100
AcDbEntity
  8
1
100
AcDbVertex
100
AcDb3dPolylineVertex
 10
-59.10880200000001
 20
-9.244125999999999
 30
0.0
 70
    32
  0
VERTEX
  5
288
330
279
100
AcDbEntity
  8
1
100
AcDbVertex
100
AcDb3dPolylineVertex
 10
-59.099814
 20
-9.216185000000001
 30
0.0
 70
    32
  0
VERTEX
  5
289
330
279
100
AcDbEntity
  8
1
100
AcDbVertex
100
AcDb3dPolylineVertex
 10
-59.09206700000001
 20
-9.188032000000001
 30
0.0
 70
    32
  0
SEQEND
  5
28A
330
279
100
AcDbEntity
  8
1
  0
POLYLINE
  5
28B
330
5C7
100
AcDbEntity
  8
1
100
AcDb3dPolyline
 66
     1
 10
0.0
 20
0.0
 30
0.0
 70
     8
  0
VERTEX
  5
28C
330
28B
100
AcDbEntity
  8
1
100
AcDbVertex
100
AcDb3dPolylineVertex
 10
-59.073886
 20
-12.106473
 30
0.0
 70
    32
  0
VERTEX
  5
28D
330
28B
100
AcDbEntity
  8
1
100
AcDbVertex
100
AcDb3dPolylineVertex
 10
-59.06826800000001
 20
-12.124483
 30
0.0
 70
    32
  0
VERTEX
  5
28E
330
28B
100
AcDbEntity
  8
1
100
AcDbVertex
100
AcDb3dPolylineVertex
 10
-59.06149599999999
 20
-12.142102
 30
0.0
 70
    32
  0
VERTEX
  5
28F
330
28B
100
AcDbEntity
  8
1
100
AcDbVertex
100
AcDb3dPolylineVertex
 10
-59.053551
 20
-12.159319
 30
0.0
 70
    32
  0
VERTEX
  5
290
330
28B
100
AcDbEntity
  8
1
100
AcDbVertex
100
AcDb3dPolylineVertex
 10
-59.044412
 20
-12.176122
 30
0.0
 70
    32
  0
VERTEX
  5
291
330
28B
100
AcDbEntity
  8
1
100
AcDbVertex
100
AcDb3dPolylineVertex
 10
-59.034059
 20
-12.192497
 30
0.0
 70
    32
  0
VERTEX
  5
292
330
28B
100
AcDbEntity
  8
1
100
AcDbVertex
100
AcDb3dPolylineVertex
 10
-59.022508
 20
-12.208328
 30
0.0
 70
    32
  0
VERTEX
  5
293
330
28B
100
AcDbEntity
  8
1
100
AcDbVertex
100
AcDb3dPolylineVertex
 10
-59.00986899999999
 20
-12.223417
 30
0.0
 70
    32
  0
VERTEX
  5
294
330
28B
100
AcDbEntity
  8
1
100
AcDbVertex
100
AcDb3dPolylineVertex
 10
-58.996221
 20
-12.237637
 30
0.0
 70
    32
  0
VERTEX
  5
295
330
28B
100
AcDbEntity
  8
1
100
AcDbVertex
100
AcDb3dPolylineVertex
 10
-58.981529
 20
-12.251
 30
0.0
 70
    32
  0
VERTEX
  5
296
330
28B
100
AcDbEntity
  8
1
100
AcDbVertex
100
AcDb3dPolylineVertex
 10
-58.965752
 20
-12.263486
 30
0.0
 70
    32
  0
VERTEX
  5
297
330
28B
100
AcDbEntity
  8
1
100
AcDbVertex
100
AcDb3dPolylineVertex
 10
-58.948885
 20
-12.275026
 30
0.0
 70
    32
  0
VERTEX
  5
298
330
28B
100
AcDbEntity
  8
1
100
AcDbVertex
100
AcDb3dPolylineVertex
 10
-58.93116899999999
 20
-12.285412
 30
0.0
 70
    32
  0
VERTEX
  5
299
330
28B
100
AcDbEntity
  8
1
100
AcDbVertex
100
AcDb3dPolylineVertex
 10
-58.91277399999999
 20
-12.29452
 30
0.0
 70
    32
  0
VERTEX
  5
29A
330
28B
100
AcDbEntity
  8
1
100
AcDbVertex
100
AcDb3dPolylineVertex
 10
-58.89369699999999
 20
-12.302342
 30
0.0
 70
    32
  0
VERTEX
  5
29B
330
28B
100
AcDbEntity
  8
1
100
AcDbVertex
100
AcDb3dPolylineVertex
 10
-58.87389699999999
 20
-12.308858
 30
0.0
 70
    32
  0
VERTEX
  5
29C
330
28B
100
AcDbEntity
  8
1
100
AcDbVertex
100
AcDb3dPolylineVertex
 10
-58.853456
 20
-12.314
 30
0.0
 70
    32
  0
VERTEX
  5
29D
330
28B
100
AcDbEntity
  8
1
100
AcDbVertex
100
AcDb3dPolylineVertex
 10
-58.83269499999999
 20
-12.317657
 30
0.0
 70
    32
  0
VERTEX
  5
29E
330
28B
100
AcDbEntity
  8
1
100
AcDbVertex
100
AcDb3dPolylineVertex
 10
-58.81179799999999
 20
-12.319799
 30
0.0
 70
    32
  0
VERTEX
  5
29F
330
28B
100
AcDbEntity
  8
1
100
AcDbVertex
100
AcDb3dPolylineVertex
 10
-58.790773
 20
-12.32043
 30
0.0
 70
    32
  0
SEQEND
  5
2A0
330
28B
100
AcDbEntity
  8
1
  0
POLYLINE
  5
2A1
330
5C7
100
AcDbEntity
  8
1
100
AcDb3dPolyline
 66
     1
 10
0.0
 20
0.0
 30
0.0
 70
     8
  0
VERTEX
  5
2A2
330
2A1
100
AcDbEntity
  8
1
100
AcDbVertex
100
AcDb3dPolylineVertex
 10
-58.527565
 20
-9.181447
 30
0.0
 70
    32
  0
VERTEX
  5
2A3
330
2A1
100
AcDbEntity
  8
1
100
AcDbVertex
100
AcDb3dPolylineVertex
 10
-58.53318299999999
 20
-9.163437
 30
0.0
 70
    32
  0
VERTEX
  5
2A4
330
2A1
100
AcDbEntity
  8
1
100
AcDbVertex
100
AcDb3dPolylineVertex
 10
-58.539954
 20
-9.145817999999998
 30
0.0
 70
    32
  0
VERTEX
  5
2A5
330
2A1
100
AcDbEntity
  8
1
100
AcDbVertex
100
AcDb3dPolylineVertex
 10
-58.5479
 20
-9.128600999999999
 30
0.0
 70
    32
  0
VERTEX
  5
2A6
330
2A1
100
AcDbEntity
  8
1
100
AcDbVertex
100
AcDb3dPolylineVertex
 10
-58.557039
 20
-9.111798
 30
0.0
 70
    32
  0
VERTEX
  5
2A7
330
2A1
100
AcDbEntity
  8
1
100
AcDbVertex
100
AcDb3dPolylineVertex
 10
-58.567391
 20
-9.095423
 30
0.0
 70
    32
  0
VERTEX
  5
2A8
330
2A1
100
AcDbEntity
  8
1
100
AcDbVertex
100
AcDb3dPolylineVertex
 10
-58.578943
 20
-9.079591999999999
 30
0.0
 70
    32
  0
VERTEX
  5
2A9
330
2A1
100
AcDbEntity
  8
1
100
AcDbVertex
100
AcDb3dPolylineVertex
 10
-58.59158199999999
 20
-9.064503
 30
0.0
 70
    32
  0
VERTEX
  5
2AA
330
2A1
100
AcDbEntity
  8
1
100
AcDbVertex
100
AcDb3dPolylineVertex
 10
-58.605229
 20
-9.050283
 30
0.0
 70
    32
  0
VERTEX
  5
2AB
330
2A1
100
AcDbEntity
  8
1
100
AcDbVertex
100
AcDb3dPolylineVertex
 10
-58.619921
 20
-9.03692
 30
0.0
 70
    32
  0
VERTEX
  5
2AC
330
2A1
100
AcDbEntity
  8
1
100
AcDbVertex
100
AcDb3dPolylineVertex
 10
-58.635699
 20
-9.024433999999999
 30
0.0
 70
    32
  0
VERTEX
  5
2AD
330
2A1
100
AcDbEntity
  8
1
100
AcDbVertex
100
AcDb3dPolylineVertex
 10
-58.652566
 20
-9.012894000000001
 30
0.0
 70
    32
  0
VERTEX
  5
2AE
330
2A1
100
AcDbEntity
  8
1
100
AcDbVertex
100
AcDb3dPolylineVertex
 10
-58.670281
 20
-9.002508
 30
0.0
 70
    32
  0
VERTEX
  5
2AF
330
2A1
100
AcDbEntity
  8
1
100
AcDbVertex
100
AcDb3dPolylineVertex
 10
-58.688677
 20
-8.993399999999999
 30
0.0
 70
    32
  0
VERTEX
  5
2B0
330
2A1
100
AcDbEntity
  8
1
100
AcDbVertex
100
AcDb3dPolylineVertex
 10
-58.707753
 20
-8.985578
 30
0.0
 70
    32
  0
VERTEX
  5
2B1
330
2A1
100
AcDbEntity
  8
1
100
AcDbVertex
100
AcDb3dPolylineVertex
 10
-58.727553
 20
-8.979061999999998
 30
0.0
 70
    32
  0
VERTEX
  5
2B2
330
2A1
100
AcDbEntity
  8
1
100
AcDbVertex
100
AcDb3dPolylineVertex
 10
-58.74799499999999
 20
-8.973919999999999
 30
0.0
 70
    32
  0
VERTEX
  5
2B3
330
2A1
100
AcDbEntity
  8
1
100
AcDbVertex
100
AcDb3dPolylineVertex
 10
-58.768755
 20
-8.970261999999999
 30
0.0
 70
    32
  0
VERTEX
  5
2B4
330
2A1
100
AcDbEntity
  8
1
100
AcDbVertex
100
AcDb3dPolylineVertex
 10
-58.789652
 20
-8.968119999999998
 30
0.0
 70
    32
  0
VERTEX
  5
2B5
330
2A1
100
AcDbEntity
  8
1
100
AcDbVertex
100
AcDb3dPolylineVertex
 10
-58.810677
 20
-8.967489
 30
0.0
 70
    32
  0
SEQEND
  5
2B6
330
2A1
100
AcDbEntity
  8
1
  0
POLYLINE
  5
2B7
330
5C7
100
AcDbEntity
  8
1
100
AcDb3dPolyline
 66
     1
 10
0.0
 20
0.0
 30
0.0
 70
     8
  0
VERTEX
  5
2B8
330
2B7
100
AcDbEntity
  8
1
100
AcDbVertex
100
AcDb3dPolylineVertex
 10
-57.39895799999999
 20
-10.145354
 30
0.0
 70
    32
  0
VERTEX
  5
2B9
330
2B7
100
AcDbEntity
  8
1
100
AcDbVertex
100
AcDb3dPolylineVertex
 10
-57.42445799999999
 20
-10.172911
 30
0.0
 70
    32
  0
VERTEX
  5
2BA
330
2B7
100
AcDbEntity
  8
1
100
AcDbVertex
100
AcDb3dPolylineVertex
 10
-57.44846899999999
 20
-10.2019
 30
0.0
 70
    32
  0
VERTEX
  5
2BB
330
2B7
100
AcDbEntity
  8
1
100
AcDbVertex
100
AcDb3dPolylineVertex
 10
-57.47098199999999
 20
-10.232361
 30
0.0
 70
    32
  0
VERTEX
  5
2BC
330
2B7
100
AcDbEntity
  8
1
100
AcDbVertex
100
AcDb3dPolylineVertex
 10
-57.49198199999999
 20
-10.264335
 30
0.0
 70
    32
  0
VERTEX
  5
2BD
330
2B7
100
AcDbEntity
  8
1
100
AcDbVertex
100
AcDb3dPolylineVertex
 10
-57.51142399999999
 20
-10.297904
 30
0.0
 70
    32
  0
VERTEX
  5
2BE
330
2B7
100
AcDbEntity
  8
1
100
AcDbVertex
100
AcDb3dPolylineVertex
 10
-57.529222
 20
-10.333128
 30
0.0
 70
    32
  0
VERTEX
  5
2BF
330
2B7
100
AcDbEntity
  8
1
100
AcDbVertex
100
AcDb3dPolylineVertex
 10
-57.54510899999999
 20
-10.369657
 30
0.0
 70
    32
  0
VERTEX
  5
2C0
330
2B7
100
AcDbEntity
  8
1
100
AcDbVertex
100
AcDb3dPolylineVertex
 10
-57.55893
 20
-10.407274
 30
0.0
 70
    32
  0
VERTEX
  5
2C1
330
2B7
100
AcDbEntity
  8
1
100
AcDbVertex
100
AcDb3dPolylineVertex
 10
-57.570636
 20
-10.446058
 30
0.0
 70
    32
  0
VERTEX
  5
2C2
330
2B7
100
AcDbEntity
  8
1
100
AcDbVertex
100
AcDb3dPolylineVertex
 10
-57.580148
 20
-10.486073
 30
0.0
 70
    32
  0
VERTEX
  5
2C3
330
2B7
100
AcDbEntity
  8
1
100
AcDbVertex
100
AcDb3dPolylineVertex
 10
-57.587334
 20
-10.527159
 30
0.0
 70
    32
  0
VERTEX
  5
2C4
330
2B7
100
AcDbEntity
  8
1
100
AcDbVertex
100
AcDb3dPolylineVertex
 10
-57.592018
 20
-10.568619
 30
0.0
 70
    32
  0
VERTEX
  5
2C5
330
2B7
100
AcDbEntity
  8
1
100
AcDbVertex
100
AcDb3dPolylineVertex
 10
-57.594167
 20
-10.610199
 30
0.0
 70
    32
  0
VERTEX
  5
2C6
330
2B7
100
AcDbEntity
  8
1
100
AcDbVertex
100
AcDb3dPolylineVertex
 10
-57.593775
 20
-10.651974
 30
0.0
 70
    32
  0
VERTEX
  5
2C7
330
2B7
100
AcDbEntity
  8
1
100
AcDbVertex
100
AcDb3dPolylineVertex
 10
-57.590801
 20
-10.693898
 30
0.0
 70
    32
  0
VERTEX
  5
2C8
330
2B7
100
AcDbEntity
  8
1
100
AcDbVertex
100
AcDb3dPolylineVertex
 10
-57.585312
 20
-10.735499
 30
0.0
 70
    32
  0
VERTEX
  5
2C9
330
2B7
100
AcDbEntity
  8
1
100
AcDbVertex
100
AcDb3dPolylineVertex
 10
-57.57739399999999
 20
-10.77626
 30
0.0
 70
    32
  0
VERTEX
  5
2CA
330
2B7
100
AcDbEntity
  8
1
100
AcDbVertex
100
AcDb3dPolylineVertex
 10
-57.567141
 20
-10.815996
 30
0.0
 70
    32
  0
VERTEX
  5
2CB
330
2B7
100
AcDbEntity
  8
1
100
AcDbVertex
100
AcDb3dPolylineVertex
 10
-57.554613
 20
-10.854807
 30
0.0
 70
    32
  0
VERTEX
  5
2CC
330
2B7
100
AcDbEntity
  8
1
100
AcDbVertex
100
AcDb3dPolylineVertex
 10
-57.53993000000001
 20
-10.89251
 30
0.0
 70
    32
  0
VERTEX
  5
2CD
330
2B7
100
AcDbEntity
  8
1
100
AcDbVertex
100
AcDb3dPolylineVertex
 10
-57.523385
 20
-10.928615
 30
0.0
 70
    32
  0
VERTEX
  5
2CE
330
2B7
100
AcDbEntity
  8
1
100
AcDbVertex
100
AcDb3dPolylineVertex
 10
-57.50508299999999
 20
-10.963164
 30
0.0
 70
    32
  0
VERTEX
  5
2CF
330
2B7
100
AcDbEntity
  8
1
100
AcDbVertex
100
AcDb3dPolylineVertex
 10
-57.48506899999999
 20
-10.996239
 30
0.0
 70
    32
  0
VERTEX
  5
2D0
330
2B7
100
AcDbEntity
  8
1
100
AcDbVertex
100
AcDb3dPolylineVertex
 10
-57.46339
 20
-11.027912
 30
0.0
 70
    32
  0
VERTEX
  5
2D1
330
2B7
100
AcDbEntity
  8
1
100
AcDbVertex
100
AcDb3dPolylineVertex
 10
-57.44009699999999
 20
-11.05817
 30
0.0
 70
    32
  0
VERTEX
  5
2D2
330
2B7
100
AcDbEntity
  8
1
100
AcDbVertex
100
AcDb3dPolylineVertex
 10
-57.41530799999999
 20
-11.086926
 30
0.0
 70
    32
  0
VERTEX
  5
2D3
330
2B7
100
AcDbEntity
  8
1
100
AcDbVertex
100
AcDb3dPolylineVertex
 10
-57.389152
 20
-11.114088
 30
0.0
 70
    32
  0
SEQEND
  5
2D4
330
2B7
100
AcDbEntity
  8
1
  0
POLYLINE
  5
2D5
330
5C7
100
AcDbEntity
  8
1
100
AcDb3dPolyline
 66
     1
 10
0.0
 20
0.0
 30
0.0
 70
     8
  0
VERTEX
  5
2D6
330
2D5
100
AcDbEntity
  8
1
100
AcDbVertex
100
AcDb3dPolylineVertex
 10
-66.32903
 20
-14.616375
 30
0.0
 70
    32
  0
VERTEX
  5
2D7
330
2D5
100
AcDbEntity
  8
1
100
AcDbVertex
100
AcDb3dPolylineVertex
 10
-66.33905099999999
 20
-14.647089
 30
0.0
 70
    32
  0
VERTEX
  5
2D8
330
2D5
100
AcDbEntity
  8
1
100
AcDbVertex
100
AcDb3dPolylineVertex
 10
-66.33401500000001
 20
-14.726825
 30
0.0
 70
    32
  0
VERTEX
  5
2D9
330
2D5
100
AcDbEntity
  8
1
100
AcDbVertex
100
AcDb3dPolylineVertex
 10
-66.31446899999999
 20
-14.846943
 30
0.0
 70
    32
  0
VERTEX
  5
2DA
330
2D5
100
AcDbEntity
  8
1
100
AcDbVertex
100
AcDb3dPolylineVertex
 10
-66.28252899999999
 20
-14.994426
 30
0.0
 70
    32
  0
VERTEX
  5
2DB
330
2D5
100
AcDbEntity
  8
1
100
AcDbVertex
100
AcDb3dPolylineVertex
 10
-66.241658
 20
-15.153291
 30
0.0
 70
    32
  0
VERTEX
  5
2DC
330
2D5
100
AcDbEntity
  8
1
100
AcDbVertex
100
AcDb3dPolylineVertex
 10
-66.19628399999999
 20
-15.306325
 30
0.0
 70
    32
  0
VERTEX
  5
2DD
330
2D5
100
AcDbEntity
  8
1
100
AcDbVertex
100
AcDb3dPolylineVertex
 10
-66.151325
 20
-15.436942
 30
0.0
 70
    32
  0
VERTEX
  5
2DE
330
2D5
100
AcDbEntity
  8
1
100
AcDbVertex
100
AcDb3dPolylineVertex
 10
-66.11165200000001
 20
-15.530989
 30
0.0
 70
    32
  0
VERTEX
  5
2DF
330
2D5
100
AcDbEntity
  8
1
100
AcDbVertex
100
AcDb3dPolylineVertex
 10
-66.08156499999999
 20
-15.578274
 30
0.0
 70
    32
  0
VERTEX
  5
2E0
330
2D5
100
AcDbEntity
  8
1
100
AcDbVertex
100
AcDb3dPolylineVertex
 10
-66.064324
 20
-15.573672
 30
0.0
 70
    32
  0
VERTEX
  5
2E1
330
2D5
100
AcDbEntity
  8
1
100
AcDbVertex
100
AcDb3dPolylineVertex
 10
-66.061797
 20
-15.517684
 30
0.0
 70
    32
  0
VERTEX
  5
2E2
330
2D5
100
AcDbEntity
  8
1
100
AcDbVertex
100
AcDb3dPolylineVertex
 10
-66.074258
 20
-15.416375
 30
0.0
 70
    32
  0
VERTEX
  5
2E3
330
2D5
100
AcDbEntity
  8
1
100
AcDbVertex
100
AcDb3dPolylineVertex
 10
-66.10035699999999
 20
-15.280725
 30
0.0
 70
    32
  0
VERTEX
  5
2E4
330
2D5
100
AcDbEntity
  8
1
100
AcDbVertex
100
AcDb3dPolylineVertex
 10
-66.13726599999999
 20
-15.125433
 30
0.0
 70
    32
  0
VERTEX
  5
2E5
330
2D5
100
AcDbEntity
  8
1
100
AcDbVertex
100
AcDb3dPolylineVertex
 10
-66.180984
 20
-14.967327
 30
0.0
 70
    32
  0
VERTEX
  5
2E6
330
2D5
100
AcDbEntity
  8
1
100
AcDbVertex
100
AcDb3dPolylineVertex
 10
-66.226775
 20
-14.82354
 30
0.0
 70
    32
  0
VERTEX
  5
2E7
330
2D5
100
AcDbEntity
  8
1
100
AcDbVertex
100
AcDb3dPolylineVertex
 10
-66.269677
 20
-14.709655
 30
0.0
 70
    32
  0
VERTEX
  5
2E8
330
2D5
100
AcDbEntity
  8
1
100
AcDbVertex
100
AcDb3dPolylineVertex
 10
-66.305039
 20
-14.638012
 30
0.0
 70
    32
  0
VERTEX
  5
2E9
330
2D5
100
AcDbEntity
  8
1
100
AcDbVertex
100
AcDb3dPolylineVertex
 10
-66.32903
 20
-14.616375
 30
0.0
 70
    32
  0
SEQEND
  5
2EA
330
2D5
100
AcDbEntity
  8
1
  0
POLYLINE
  5
2EB
330
5C7
100
AcDbEntity
  8
1
100
AcDb3dPolyline
 66
     1
 10
0.0
 20
0.0
 30
0.0
 70
     8
  0
VERTEX
  5
2EC
330
2EB
100
AcDbEntity
  8
1
100
AcDbVertex
100
AcDb3dPolylineVertex
 10
-55.746641
 20
-14.643326
 30
0.0
 70
    32
  0
VERTEX
  5
2ED
330
2EB
100
AcDbEntity
  8
1
100
AcDbVertex
100
AcDb3dPolylineVertex
 10
-55.73890999999999
 20
-14.630833
 30
0.0
 70
    32
  0
VERTEX
  5
2EE
330
2EB
100
AcDbEntity
  8
1
100
AcDbVertex
100
AcDb3dPolylineVertex
 10
-55.73115699999999
 20
-14.618325
 30
0.0
 70
    32
  0
VERTEX
  5
2EF
330
2EB
100
AcDbEntity
  8
1
100
AcDbVertex
100
AcDb3dPolylineVertex
 10
-55.723383
 20
-14.605804
 30
0.0
 70
    32
  0
VERTEX
  5
2F0
330
2EB
100
AcDbEntity
  8
1
100
AcDbVertex
100
AcDb3dPolylineVertex
 10
-55.715588
 20
-14.593271
 30
0.0
 70
    32
  0
VERTEX
  5
2F1
330
2EB
100
AcDbEntity
  8
1
100
AcDbVertex
100
AcDb3dPolylineVertex
 10
-55.70777299999999
 20
-14.580725
 30
0.0
 70
    32
  0
VERTEX
  5
2F2
330
2EB
100
AcDbEntity
  8
1
100
AcDbVertex
100
AcDb3dPolylineVertex
 10
-55.699938
 20
-14.568168
 30
0.0
 70
    32
  0
VERTEX
  5
2F3
330
2EB
100
AcDbEntity
  8
1
100
AcDbVertex
100
AcDb3dPolylineVertex
 10
-55.69208399999999
 20
-14.555601
 30
0.0
 70
    32
  0
VERTEX
  5
2F4
330
2EB
100
AcDbEntity
  8
1
100
AcDbVertex
100
AcDb3dPolylineVertex
 10
-55.68421
 20
-14.543025
 30
0.0
 70
    32
  0
VERTEX
  5
2F5
330
2EB
100
AcDbEntity
  8
1
100
AcDbVertex
100
AcDb3dPolylineVertex
 10
-55.67631899999999
 20
-14.53044
 30
0.0
 70
    32
  0
VERTEX
  5
2F6
330
2EB
100
AcDbEntity
  8
1
100
AcDbVertex
100
AcDb3dPolylineVertex
 10
-55.66841
 20
-14.517847
 30
0.0
 70
    32
  0
VERTEX
  5
2F7
330
2EB
100
AcDbEntity
  8
1
100
AcDbVertex
100
AcDb3dPolylineVertex
 10
-55.660483
 20
-14.505246
 30
0.0
 70
    32
  0
VERTEX
  5
2F8
330
2EB
100
AcDbEntity
  8
1
100
AcDbVertex
100
AcDb3dPolylineVertex
 10
-55.65254
 20
-14.49264
 30
0.0
 70
    32
  0
VERTEX
  5
2F9
330
2EB
100
AcDbEntity
  8
1
100
AcDbVertex
100
AcDb3dPolylineVertex
 10
-55.64458000000001
 20
-14.480028
 30
0.0
 70
    32
  0
VERTEX
  5
2FA
330
2EB
100
AcDbEntity
  8
1
100
AcDbVertex
100
AcDb3dPolylineVertex
 10
-55.63660500000001
 20
-14.467412
 30
0.0
 70
    32
  0
VERTEX
  5
2FB
330
2EB
100
AcDbEntity
  8
1
100
AcDbVertex
100
AcDb3dPolylineVertex
 10
-55.628614
 20
-14.454791
 30
0.0
 70
    32
  0
VERTEX
  5
2FC
330
2EB
100
AcDbEntity
  8
1
100
AcDbVertex
100
AcDb3dPolylineVertex
 10
-55.620608
 20
-14.442168
 30
0.0
 70
    32
  0
VERTEX
  5
2FD
330
2EB
100
AcDbEntity
  8
1
100
AcDbVertex
100
AcDb3dPolylineVertex
 10
-55.612589
 20
-14.429542
 30
0.0
 70
    32
  0
VERTEX
  5
2FE
330
2EB
100
AcDbEntity
  8
1
100
AcDbVertex
100
AcDb3dPolylineVertex
 10
-55.604555
 20
-14.416915
 30
0.0
 70
    32
  0
VERTEX
  5
2FF
330
2EB
100
AcDbEntity
  8
1
100
AcDbVertex
100
AcDb3dPolylineVertex
 10
-55.596508
 20
-14.404287
 30
0.0
 70
    32
  0
SEQEND
  5
300
330
2EB
100
AcDbEntity
  8
1
  0
POLYLINE
  5
301
330
5C7
100
AcDbEntity
  8
1
100
AcDb3dPolyline
 66
     1
 10
0.0
 20
0.0
 30
0.0
 70
     8
  0
VERTEX
  5
302
330
301
100
AcDbEntity
  8
1
100
AcDbVertex
100
AcDb3dPolylineVertex
 10
-65.59897600000001
 20
-13.591006
 30
0.0
 70
    32
  0
VERTEX
  5
303
330
301
100
AcDbEntity
  8
1
100
AcDbVertex
100
AcDb3dPolylineVertex
 10
-65.604557
 20
-13.622953
 30
0.0
 70
    32
  0
VERTEX
  5
304
330
301
100
AcDbEntity
  8
1
100
AcDbVertex
100
AcDb3dPolylineVertex
 10
-65.587982
 20
-13.70115
 30
0.0
 70
    32
  0
VERTEX
  5
305
330
301
100
AcDbEntity
  8
1
100
AcDbVertex
100
AcDb3dPolylineVertex
 10
-65.551049
 20
-13.817124
 30
0.0
 70
    32
  0
VERTEX
  5
306
330
301
100
AcDbEntity
  8
1
100
AcDbVertex
100
AcDb3dPolylineVertex
 10
-65.497759
 20
-13.958308
 30
0.0
 70
    32
  0
VERTEX
  5
307
330
301
100
AcDbEntity
  8
1
100
AcDbVertex
100
AcDb3dPolylineVertex
 10
-65.433887
 20
-14.109401
 30
0.0
 70
    32
  0
VERTEX
  5
308
330
301
100
AcDbEntity
  8
1
100
AcDbVertex
100
AcDb3dPolylineVertex
 10
-65.366354
 20
-14.254031
 30
0.0
 70
    32
  0
VERTEX
  5
309
330
301
100
AcDbEntity
  8
1
100
AcDbVertex
100
AcDb3dPolylineVertex
 10
-65.302479
 20
-14.376525
 30
0.0
 70
    32
  0
VERTEX
  5
30A
330
301
100
AcDbEntity
  8
1
100
AcDbVertex
100
AcDb3dPolylineVertex
 10
-65.249184
 20
-14.463608
 30
0.0
 70
    32
  0
VERTEX
  5
30B
330
301
100
AcDbEntity
  8
1
100
AcDbVertex
100
AcDb3dPolylineVertex
 10
-65.212244
 20
-14.505844
 30
0.0
 70
    32
  0
VERTEX
  5
30C
330
301
100
AcDbEntity
  8
1
100
AcDbVertex
100
AcDb3dPolylineVertex
 10
-65.19566199999999
 20
-14.498655
 30
0.0
 70
    32
  0
VERTEX
  5
30D
330
301
100
AcDbEntity
  8
1
100
AcDbVertex
100
AcDb3dPolylineVertex
 10
-65.201235
 20
-14.442822
 30
0.0
 70
    32
  0
VERTEX
  5
30E
330
301
100
AcDbEntity
  8
1
100
AcDbVertex
100
AcDb3dPolylineVertex
 10
-65.228358
 20
-14.344393
 30
0.0
 70
    32
  0
VERTEX
  5
30F
330
301
100
AcDbEntity
  8
1
100
AcDbVertex
100
AcDb3dPolylineVertex
 10
-65.27409399999999
 20
-14.214037
 30
0.0
 70
    32
  0
VERTEX
  5
310
330
301
100
AcDbEntity
  8
1
100
AcDbVertex
100
AcDb3dPolylineVertex
 10
-65.33348499999999
 20
-14.065877
 30
0.0
 70
    32
  0
VERTEX
  5
311
330
301
100
AcDbEntity
  8
1
100
AcDbVertex
100
AcDb3dPolylineVertex
 10
-65.40009599999999
 20
-13.915971
 30
0.0
 70
    32
  0
VERTEX
  5
312
330
301
100
AcDbEntity
  8
1
100
AcDbVertex
100
AcDb3dPolylineVertex
 10
-65.466708
 20
-13.780563
 30
0.0
 70
    32
  0
VERTEX
  5
313
330
301
100
AcDbEntity
  8
1
100
AcDbVertex
100
AcDb3dPolylineVertex
 10
-65.52610300000001
 20
-13.674325
 30
0.0
 70
    32
  0
VERTEX
  5
314
330
301
100
AcDbEntity
  8
1
100
AcDbVertex
100
AcDb3dPolylineVertex
 10
-65.57184499999999
 20
-13.608772
 30
0.0
 70
    32
  0
VERTEX
  5
315
330
301
100
AcDbEntity
  8
1
100
AcDbVertex
100
AcDb3dPolylineVertex
 10
-65.59897600000001
 20
-13.591006
 30
0.0
 70
    32
  0
SEQEND
  5
316
330
301
100
AcDbEntity
  8
1
  0
POLYLINE
  5
317
330
5C7
100
AcDbEntity
  8
1
100
AcDb3dPolyline
 66
     1
 10
0.0
 20
0.0
 30
0.0
 70
     8
  0
VERTEX
  5
318
330
317
100
AcDbEntity
  8
1
100
AcDbVertex
100
AcDb3dPolylineVertex
 10
-55.700148
 20
-14.64089
 30
0.0
 70
    32
  0
VERTEX
  5
319
330
317
100
AcDbEntity
  8
1
100
AcDbVertex
100
AcDb3dPolylineVertex
 10
-55.687568
 20
-14.627971
 30
0.0
 70
    32
  0
VERTEX
  5
31A
330
317
100
AcDbEntity
  8
1
100
AcDbVertex
100
AcDb3dPolylineVertex
 10
-55.67577599999999
 20
-14.615099
 30
0.0
 70
    32
  0
VERTEX
  5
31B
330
317
100
AcDbEntity
  8
1
100
AcDbVertex
100
AcDb3dPolylineVertex
 10
-55.66477299999999
 20
-14.602275
 30
0.0
 70
    32
  0
VERTEX
  5
31C
330
317
100
AcDbEntity
  8
1
100
AcDbVertex
100
AcDb3dPolylineVertex
 10
-55.654561
 20
-14.5895
 30
0.0
 70
    32
  0
VERTEX
  5
31D
330
317
100
AcDbEntity
  8
1
100
AcDbVertex
100
AcDb3dPolylineVertex
 10
-55.64514
 20
-14.576775
 30
0.0
 70
    32
  0
VERTEX
  5
31E
330
317
100
AcDbEntity
  8
1
100
AcDbVertex
100
AcDb3dPolylineVertex
 10
-55.63650899999999
 20
-14.5641
 30
0.0
 70
    32
  0
VERTEX
  5
31F
330
317
100
AcDbEntity
  8
1
100
AcDbVertex
100
AcDb3dPolylineVertex
 10
-55.628671
 20
-14.551476
 30
0.0
 70
    32
  0
VERTEX
  5
320
330
317
100
AcDbEntity
  8
1
100
AcDbVertex
100
AcDb3dPolylineVertex
 10
-55.621625
 20
-14.538905
 30
0.0
 70
    32
  0
VERTEX
  5
321
330
317
100
AcDbEntity
  8
1
100
AcDbVertex
100
AcDb3dPolylineVertex
 10
-55.615372
 20
-14.526386
 30
0.0
 70
    32
  0
VERTEX
  5
322
330
317
100
AcDbEntity
  8
1
100
AcDbVertex
100
AcDb3dPolylineVertex
 10
-55.609912
 20
-14.513922
 30
0.0
 70
    32
  0
VERTEX
  5
323
330
317
100
AcDbEntity
  8
1
100
AcDbVertex
100
AcDb3dPolylineVertex
 10
-55.60524499999999
 20
-14.501511
 30
0.0
 70
    32
  0
VERTEX
  5
324
330
317
100
AcDbEntity
  8
1
100
AcDbVertex
100
AcDb3dPolylineVertex
 10
-55.601373
 20
-14.489156
 30
0.0
 70
    32
  0
VERTEX
  5
325
330
317
100
AcDbEntity
  8
1
100
AcDbVertex
100
AcDb3dPolylineVertex
 10
-55.59829399999999
 20
-14.476858
 30
0.0
 70
    32
  0
VERTEX
  5
326
330
317
100
AcDbEntity
  8
1
100
AcDbVertex
100
AcDb3dPolylineVertex
 10
-55.59601
 20
-14.464616
 30
0.0
 70
    32
  0
VERTEX
  5
327
330
317
100
AcDbEntity
  8
1
100
AcDbVertex
100
AcDb3dPolylineVertex
 10
-55.59452099999999
 20
-14.452431
 30
0.0
 70
    32
  0
VERTEX
  5
328
330
317
100
AcDbEntity
  8
1
100
AcDbVertex
100
AcDb3dPolylineVertex
 10
-55.593826
 20
-14.440306
 30
0.0
 70
    32
  0
VERTEX
  5
329
330
317
100
AcDbEntity
  8
1
100
AcDbVertex
100
AcDb3dPolylineVertex
 10
-55.593925
 20
-14.428239
 30
0.0
 70
    32
  0
VERTEX
  5
32A
330
317
100
AcDbEntity
  8
1
100
AcDbVertex
100
AcDb3dPolylineVertex
 10
-55.59482
 20
-14.416233
 30
0.0
 70
    32
  0
VERTEX
  5
32B
330
317
100
AcDbEntity
  8
1
100
AcDbVertex
100
AcDb3dPolylineVertex
 10
-55.596508
 20
-14.404287
 30
0.0
 70
    32
  0
SEQEND
  5
32C
330
317
100
AcDbEntity
  8
1
  0
POLYLINE
  5
32D
330
5C7
100
AcDbEntity
  8
1
100
AcDb3dPolyline
 66
     1
 10
0.0
 20
0.0
 30
0.0
 70
     8
  0
VERTEX
  5
32E
330
32D
100
AcDbEntity
  8
1
100
AcDbVertex
100
AcDb3dPolylineVertex
 10
-64.538037
 20
-14.600909
 30
0.0
 70
    32
  0
VERTEX
  5
32F
330
32D
100
AcDbEntity
  8
1
100
AcDbVertex
100
AcDb3dPolylineVertex
 10
-64.55561299999999
 20
-14.629416
 30
0.0
 70
    32
  0
VERTEX
  5
330
330
32D
100
AcDbEntity
  8
1
100
AcDbVertex
100
AcDb3dPolylineVertex
 10
-64.56717399999999
 20
-14.70886
 30
0.0
 70
    32
  0
VERTEX
  5
331
330
32D
100
AcDbEntity
  8
1
100
AcDbVertex
100
AcDb3dPolylineVertex
 10
-64.571467
 20
-14.830633
 30
0.0
 70
    32
  0
VERTEX
  5
332
330
32D
100
AcDbEntity
  8
1
100
AcDbVertex
100
AcDb3dPolylineVertex
 10
-64.568028
 20
-14.981538
 30
0.0
 70
    32
  0
VERTEX
  5
333
330
32D
100
AcDbEntity
  8
1
100
AcDbVertex
100
AcDb3dPolylineVertex
 10
-64.55722800000001
 20
-15.145223
 30
0.0
 70
    32
  0
VERTEX
  5
334
330
32D
100
AcDbEntity
  8
1
100
AcDbVertex
100
AcDb3dPolylineVertex
 10
-64.540239
 20
-15.30395
 30
0.0
 70
    32
  0
VERTEX
  5
335
330
32D
100
AcDbEntity
  8
1
100
AcDbVertex
100
AcDb3dPolylineVertex
 10
-64.51890099999999
 20
-15.440518
 30
0.0
 70
    32
  0
VERTEX
  5
336
330
32D
100
AcDbEntity
  8
1
100
AcDbVertex
100
AcDb3dPolylineVertex
 10
-64.495526
 20
-15.540127
 30
0.0
 70
    32
  0
VERTEX
  5
337
330
32D
100
AcDbEntity
  8
1
100
AcDbVertex
100
AcDb3dPolylineVertex
 10
-64.47264799999999
 20
-15.591985
 30
0.0
 70
    32
  0
VERTEX
  5
338
330
32D
100
AcDbEntity
  8
1
100
AcDbVertex
100
AcDb3dPolylineVertex
 10
-64.452745
 20
-15.590471
 30
0.0
 70
    32
  0
VERTEX
  5
339
330
32D
100
AcDbEntity
  8
1
100
AcDbVertex
100
AcDb3dPolylineVertex
 10
-64.437976
 20
-15.535749
 30
0.0
 70
    32
  0
VERTEX
  5
33A
330
32D
100
AcDbEntity
  8
1
100
AcDbVertex
100
AcDb3dPolylineVertex
 10
-64.42993900000001
 20
-15.43375
 30
0.0
 70
    32
  0
VERTEX
  5
33B
330
32D
100
AcDbEntity
  8
1
100
AcDbVertex
100
AcDb3dPolylineVertex
 10
-64.429506
 20
-15.295525
 30
0.0
 70
    32
  0
VERTEX
  5
33C
330
32D
100
AcDbEntity
  8
1
100
AcDbVertex
100
AcDb3dPolylineVertex
 10
-64.436724
 20
-15.136055
 30
0.0
 70
    32
  0
VERTEX
  5
33D
330
32D
100
AcDbEntity
  8
1
100
AcDbVertex
100
AcDb3dPolylineVertex
 10
-64.450811
 20
-14.972621
 30
0.0
 70
    32
  0
VERTEX
  5
33E
330
32D
100
AcDbEntity
  8
1
100
AcDbVertex
100
AcDb3dPolylineVertex
 10
-64.47023900000001
 20
-14.822932
 30
0.0
 70
    32
  0
VERTEX
  5
33F
330
32D
100
AcDbEntity
  8
1
100
AcDbVertex
100
AcDb3dPolylineVertex
 10
-64.492905
 20
-14.70321
 30
0.0
 70
    32
  0
VERTEX
  5
340
330
32D
100
AcDbEntity
  8
1
100
AcDbVertex
100
AcDb3dPolylineVertex
 10
-64.516351
 20
-14.626429
 30
0.0
 70
    32
  0
VERTEX
  5
341
330
32D
100
AcDbEntity
  8
1
100
AcDbVertex
100
AcDb3dPolylineVertex
 10
-64.538037
 20
-14.600909
 30
0.0
 70
    32
  0
SEQEND
  5
342
330
32D
100
AcDbEntity
  8
1
  0
POLYLINE
  5
343
330
5C7
100
AcDbEntity
  8
1
100
AcDb3dPolyline
 66
     1
 10
0.0
 20
0.0
 30
0.0
 70
     8
  0
VERTEX
  5
344
330
343
100
AcDbEntity
  8
1
100
AcDbVertex
100
AcDb3dPolylineVertex
 10
-51.238265
 20
-7.429638999999999
 30
0.0
 70
    32
  0
VERTEX
  5
345
330
343
100
AcDbEntity
  8
1
100
AcDbVertex
100
AcDb3dPolylineVertex
 10
-51.246181
 20
-7.427633
 30
0.0
 70
    32
  0
VERTEX
  5
346
330
343
100
AcDbEntity
  8
1
100
AcDbVertex
100
AcDb3dPolylineVertex
 10
-51.254087
 20
-7.425583999999999
 30
0.0
 70
    32
  0
VERTEX
  5
347
330
343
100
AcDbEntity
  8
1
100
AcDbVertex
100
AcDb3dPolylineVertex
 10
-51.26198099999999
 20
-7.423491
 30
0.0
 70
    32
  0
VERTEX
  5
348
330
343
100
AcDbEntity
  8
1
100
AcDbVertex
100
AcDb3dPolylineVertex
 10
-51.26986399999999
 20
-7.421355999999999
 30
0.0
 70
    32
  0
VERTEX
  5
349
330
343
100
AcDbEntity
  8
1
100
AcDbVertex
100
AcDb3dPolylineVertex
 10
-51.27773499999999
 20
-7.419177999999999
 30
0.0
 70
    32
  0
VERTEX
  5
34A
330
343
100
AcDbEntity
  8
1
100
AcDbVertex
100
AcDb3dPolylineVertex
 10
-51.285594
 20
-7.416957
 30
0.0
 70
    32
  0
VERTEX
  5
34B
330
343
100
AcDbEntity
  8
1
100
AcDbVertex
100
AcDb3dPolylineVertex
 10
-51.29344099999999
 20
-7.414692999999998
 30
0.0
 70
    32
  0
VERTEX
  5
34C
330
343
100
AcDbEntity
  8
1
100
AcDbVertex
100
AcDb3dPolylineVertex
 10
-51.301275
 20
-7.412386999999999
 30
0.0
 70
    32
  0
VERTEX
  5
34D
330
343
100
AcDbEntity
  8
1
100
AcDbVertex
100
AcDb3dPolylineVertex
 10
-51.309097
 20
-7.410038
 30
0.0
 70
    32
  0
VERTEX
  5
34E
330
343
100
AcDbEntity
  8
1
100
AcDbVertex
100
AcDb3dPolylineVertex
 10
-51.316906
 20
-7.407646
 30
0.0
 70
    32
  0
VERTEX
  5
34F
330
343
100
AcDbEntity
  8
1
100
AcDbVertex
100
AcDb3dPolylineVertex
 10
-51.324702
 20
-7.405211999999999
 30
0.0
 70
    32
  0
VERTEX
  5
350
330
343
100
AcDbEntity
  8
1
100
AcDbVertex
100
AcDb3dPolylineVertex
 10
-51.332484
 20
-7.402735
 30
0.0
 70
    32
  0
VERTEX
  5
351
330
343
100
AcDbEntity
  8
1
100
AcDbVertex
100
AcDb3dPolylineVertex
 10
-51.34025300000001
 20
-7.400216999999999
 30
0.0
 70
    32
  0
VERTEX
  5
352
330
343
100
AcDbEntity
  8
1
100
AcDbVertex
100
AcDb3dPolylineVertex
 10
-51.348008
 20
-7.397655999999999
 30
0.0
 70
    32
  0
VERTEX
  5
353
330
343
100
AcDbEntity
  8
1
100
AcDbVertex
100
AcDb3dPolylineVertex
 10
-51.355748
 20
-7.395052
 30
0.0
 70
    32
  0
VERTEX
  5
354
330
343
100
AcDbEntity
  8
1
100
AcDbVertex
100
AcDb3dPolylineVertex
 10
-51.363475
 20
-7.392407
 30
0.0
 70
    32
  0
VERTEX
  5
355
330
343
100
AcDbEntity
  8
1
100
AcDbVertex
100
AcDb3dPolylineVertex
 10
-51.371187
 20
-7.389719
 30
0.0
 70
    32
  0
VERTEX
  5
356
330
343
100
AcDbEntity
  8
1
100
AcDbVertex
100
AcDb3dPolylineVertex
 10
-51.378884
 20
-7.386989999999999
 30
0.0
 70
    32
  0
VERTEX
  5
357
330
343
100
AcDbEntity
  8
1
100
AcDbVertex
100
AcDb3dPolylineVertex
 10
-51.386567
 20
-7.384218999999999
 30
0.0
 70
    32
  0
SEQEND
  5
358
330
343
100
AcDbEntity
  8
1
  0
DIMENSION
  5
359
330
5C7
100
AcDbEntity
  8
SK2
100
AcDbDimension
  2
*D0
 10
42.260219
 20
-15.85
 30
0.0
 11
40.510219
 21
-34.82105300000001
 31
0.0
  1
15.875
 71
     5
 42
-1.0
  3
SANDVIK_DIM
100
AcDbAlignedDimension
 13
5.0
 23
0.025
 33
0.0
 14
4.5
 24
-15.85
 34
0.0
 50
90.0
100
AcDbRotatedDimension
  0
DIMENSION
  5
35A
330
5C7
100
AcDbEntity
  8
SK2
100
AcDbDimension
  2
*D1
 10
-39.5
 20
-31.316403
 30
0.0
 11
-57.26578899999999
 21
-29.566403
 31
0.0
  1
27.5
 71
     5
 42
-1.0
  3
SANDVIK_DIM
100
AcDbAlignedDimension
 13
-67.0
 23
-17.8
 33
0.0
 14
-39.5
 24
-17.85
 34
0.0
100
AcDbRotatedDimension
  0
DIMENSION
  5
35B
330
5C7
100
AcDbEntity
  8
2
100
AcDbDimension
  2
*D2
 10
-76.73868299999999
 20
-15.85
 30
0.0
 11
-78.48868299999999
 21
-9.125
 31
0.0
  1
0.05
 71
     5
 42
-1.0
  3
SANDVIK_DIM
100
AcDbAlignedDimension
 13
-69.0
 23
-15.8
 33
0.0
 14
-41.1
 24
-15.85
 34
0.0
 50
90.0
100
AcDbRotatedDimension
  0
DIMENSION
  5
35C
330
5C7
100
AcDbEntity
  8
SK2
100
AcDbDimension
  2
*D3
 10
3.0
 20
-41.214341
 30
0.0
 11
-35.442105
 21
-39.714341
 31
0.0
  1
70.0
 71
     5
 42
-1.0
  3
SANDVIK_DIM
100
AcDbAlignedDimension
 13
-67.0
 23
-17.8
 33
0.0
 14
3.0
 24
-17.35
 34
0.0
100
AcDbRotatedDimension
  0
ENDSEC
  0
SECTION
  2
OBJECTS
  0
DICTIONARY
  5
563
330
0
100
AcDbDictionary
281
     1
  3
ACAD_CIP_PREVIOUS_PRODUCT_INFO
350
5FC
  3
ACAD_COLOR
350
5B9
  3
ACAD_DETAILVIEWSTYLE
350
5C1
  3
ACAD_GROUP
350
564
  3
ACAD_LAYOUT
350
5B8
  3
ACAD_MATERIAL
350
567
  3
ACAD_MLEADERSTYLE
350
5BC
  3
ACAD_MLINESTYLE
350
5B5
  3
ACAD_PLOTSETTINGS
350
5B7
  3
ACAD_PLOTSTYLENAME
350
565
  3
ACAD_SCALELIST
350
599
  3
ACAD_SECTIONVIEWSTYLE
350
5BE
  3
ACAD_TABLESTYLE
350
5BA
  3
ACAD_VISUALSTYLE
350
580
  3
ACDB_RECOMPOSE_DATA
350
65C
  3
AcDbVariableDictionary
350
64F
  3
ASE_INDEX_DICTIONARY
350
64C
  3
DWGPROPS
350
65D
  0
DICTIONARY
  5
5FF
330
5AB
100
AcDbDictionary
280
     1
281
     1
  3
ADSK_XREC_LAYER_RECONCILED
360
600
  0
DICTIONARY
  5
601
330
5CB
100
AcDbDictionary
280
     1
281
     1
  3
ADSK_XREC_LAYER_RECONCILED
360
602
  0
DICTIONARY
  5
603
330
5CF
100
AcDbDictionary
280
     1
281
     1
  3
ADSK_XREC_LAYER_RECONCILED
360
604
  0
DICTIONARY
  5
605
330
5D0
100
AcDbDictionary
280
     1
281
     1
  3
ADSK_XREC_LAYER_RECONCILED
360
606
  0
DICTIONARY
  5
607
330
5D1
100
AcDbDictionary
280
     1
281
     1
  3
ADSK_XREC_LAYER_RECONCILED
360
608
  0
DICTIONARY
  5
609
330
5D2
100
AcDbDictionary
280
     1
281
     1
  3
ADSK_XREC_LAYER_RECONCILED
360
60A
  0
DICTIONARY
  5
60B
330
5D3
100
AcDbDictionary
280
     1
281
     1
  3
ADSK_XREC_LAYER_RECONCILED
360
60C
  0
DICTIONARY
  5
60D
330
5D4
100
AcDbDictionary
280
     1
281
     1
  3
ADSK_XREC_LAYER_RECONCILED
360
60E
  0
DICTIONARY
  5
60F
330
5D5
100
AcDbDictionary
280
     1
281
     1
  3
ADSK_XREC_LAYER_RECONCILED
360
610
  0
DICTIONARY
  5
611
330
5D6
100
AcDbDictionary
280
     1
281
     1
  3
ADSK_XREC_LAYER_RECONCILED
360
612
  0
DICTIONARY
  5
613
330
5D7
100
AcDbDictionary
280
     1
281
     1
  3
ADSK_XREC_LAYER_RECONCILED
360
614
  0
DICTIONARY
  5
615
330
5D8
100
AcDbDictionary
280
     1
281
     1
  3
ADSK_XREC_LAYER_RECONCILED
360
616
  0
DICTIONARY
  5
617
330
5D9
100
AcDbDictionary
280
     1
281
     1
  3
ADSK_XREC_LAYER_RECONCILED
360
618
  0
DICTIONARY
  5
619
330
5DA
100
AcDbDictionary
280
     1
281
     1
  3
ADSK_XREC_LAYER_RECONCILED
360
61A
  0
DICTIONARY
  5
61B
330
5DB
100
AcDbDictionary
280
     1
281
     1
  3
ADSK_XREC_LAYER_RECONCILED
360
61C
  0
DICTIONARY
  5
61D
330
5DC
100
AcDbDictionary
280
     1
281
     1
  3
ADSK_XREC_LAYER_RECONCILED
360
61E
  0
DICTIONARY
  5
61F
330
5DD
100
AcDbDictionary
280
     1
281
     1
  3
ADSK_XREC_LAYER_RECONCILED
360
620
  0
DICTIONARY
  5
621
330
5DE
100
AcDbDictionary
280
     1
281
     1
  3
ADSK_XREC_LAYER_RECONCILED
360
622
  0
DICTIONARY
  5
623
330
5DF
100
AcDbDictionary
280
     1
281
     1
  3
ADSK_XREC_LAYER_RECONCILED
360
624
  0
DICTIONARY
  5
625
330
5E0
100
AcDbDictionary
280
     1
281
     1
  3
ADSK_XREC_LAYER_RECONCILED
360
626
  0
DICTIONARY
  5
627
330
5E1
100
AcDbDictionary
280
     1
281
     1
  3
ADSK_XREC_LAYER_RECONCILED
360
628
  0
DICTIONARY
  5
629
330
5E2
100
AcDbDictionary
280
     1
281
     1
  3
ADSK_XREC_LAYER_RECONCILED
360
62A
  0
DICTIONARY
  5
62B
330
5E3
100
AcDbDictionary
280
     1
281
     1
  3
ADSK_XREC_LAYER_RECONCILED
360
62C
  0
DICTIONARY
  5
62D
330
5E4
100
AcDbDictionary
280
     1
281
     1
  3
ADSK_XREC_LAYER_RECONCILED
360
62E
  0
DICTIONARY
  5
62F
330
5E5
100
AcDbDictionary
280
     1
281
     1
  3
ADSK_XREC_LAYER_RECONCILED
360
630
  0
DICTIONARY
  5
631
330
5E6
100
AcDbDictionary
280
     1
281
     1
  3
ADSK_XREC_LAYER_RECONCILED
360
632
  0
DICTIONARY
  5
633
330
5E7
100
AcDbDictionary
280
     1
281
     1
  3
ADSK_XREC_LAYER_RECONCILED
360
634
  0
DICTIONARY
  5
635
330
5E8
100
AcDbDictionary
280
     1
281
     1
  3
ADSK_XREC_LAYER_RECONCILED
360
636
  0
DICTIONARY
  5
637
330
5E9
100
AcDbDictionary
280
     1
281
     1
  3
ADSK_XREC_LAYER_RECONCILED
360
638
  0
DICTIONARY
  5
639
330
5EA
100
AcDbDictionary
280
     1
281
     1
  3
ADSK_XREC_LAYER_RECONCILED
360
63A
  0
DICTIONARY
  5
63B
330
5EB
100
AcDbDictionary
280
     1
281
     1
  3
ADSK_XREC_LAYER_RECONCILED
360
63C
  0
DICTIONARY
  5
63D
330
5EC
100
AcDbDictionary
280
     1
281
     1
  3
ADSK_XREC_LAYER_RECONCILED
360
63E
  0
DICTIONARY
  5
63F
330
5ED
100
AcDbDictionary
280
     1
281
     1
  3
ADSK_XREC_LAYER_RECONCILED
360
640
  0
DICTIONARY
  5
641
330
5EE
100
AcDbDictionary
280
     1
281
     1
  3
ADSK_XREC_LAYER_RECONCILED
360
642
  0
DICTIONARY
  5
643
330
5EF
100
AcDbDictionary
280
     1
281
     1
  3
ADSK_XREC_LAYER_RECONCILED
360
644
  0
DICTIONARY
  5
645
330
5F0
100
AcDbDictionary
280
     1
281
     1
  3
ADSK_XREC_LAYER_RECONCILED
360
646
  0
DICTIONARY
  5
647
330
5F1
100
AcDbDictionary
280
     1
281
     1
  3
ADSK_XREC_LAYER_RECONCILED
360
648
  0
DICTIONARY
  5
649
330
5F2
100
AcDbDictionary
280
     1
281
     1
  3
ADSK_XREC_LAYER_RECONCILED
360
64A
  0
XRECORD
  5
5FC
102
{ACAD_REACTORS
330
563
102
}
330
563
100
AcDbXrecord
280
     1
300
AMECH_PP
300
2013
300
PDSU_F_S
  0
DICTIONARY
  5
5B9
102
{ACAD_REACTORS
330
563
102
}
330
563
100
AcDbDictionary
281
     1
  0
DICTIONARY
  5
5C1
102
{ACAD_REACTORS
330
563
102
}
330
563
100
AcDbDictionary
281
     1
  3
Imperial24
350
5C2
  0
DICTIONARY
  5
564
102
{ACAD_REACTORS
330
563
102
}
330
563
100
AcDbDictionary
281
     1
  0
DICTIONARY
  5
5B8
102
{ACAD_REACTORS
330
563
102
}
330
563
100
AcDbDictionary
281
     1
  3
Layout1
350
5C6
  3
Model
350
5CA
  0
DICTIONARY
  5
567
102
{ACAD_REACTORS
330
563
102
}
330
563
100
AcDbDictionary
281
     1
  3
ByBlock
350
570
  3
ByLayer
350
568
  3
Global
350
578
  0
DICTIONARY
  5
5BC
102
{ACAD_REACTORS
330
563
102
}
330
563
100
AcDbDictionary
281
     1
  3
Standard
350
5BD
  0
DICTIONARY
  5
5B5
102
{ACAD_REACTORS
330
563
102
}
330
563
100
AcDbDictionary
281
     1
  3
Standard
350
5B6
  0
DICTIONARY
  5
5B7
102
{ACAD_REACTORS
330
563
102
}
330
563
100
AcDbDictionary
281
     1
  0
ACDBDICTIONARYWDFLT
  5
565
102
{ACAD_REACTORS
330
563
102
}
330
563
100
AcDbDictionary
281
     1
  3
Normal
350
566
100
AcDbDictionaryWithDefault
340
566
  0
DICTIONARY
  5
599
102
{ACAD_REACTORS
330
563
102
}
330
563
100
AcDbDictionary
281
     1
  3
A0
350
59A
  3
A1
350
59B
  3
A2
350
59C
  3
A3
350
59D
  3
A4
350
59E
  3
A5
350
59F
  3
A6
350
5A0
  3
A7
350
5A1
  3
A8
350
5A2
  3
A9
350
5A3
  3
B0
350
5A4
  3
B1
350
5A5
  3
B2
350
5A6
  3
B3
350
5A7
  3
B4
350
5A8
  3
B5
350
5A9
  3
B6
350
5AA
  0
DICTIONARY
  5
5BE
102
{ACAD_REACTORS
330
563
102
}
330
563
100
AcDbDictionary
281
     1
  3
Imperial24
350
5C0
  0
DICTIONARY
  5
5BA
102
{ACAD_REACTORS
330
563
102
}
330
563
100
AcDbDictionary
281
     1
  3
Standard
350
5BB
  0
DICTIONARY
  5
580
102
{ACAD_REACTORS
330
563
102
}
330
563
100
AcDbDictionary
281
     1
  3
2dWireframe
350
586
  3
Basic
350
585
  3
Brighten
350
58C
  3
ColorChange
350
590
  3
Conceptual
350
589
  3
Dim
350
58B
  3
EdgeColorOff
350
598
  3
Facepattern
350
58F
  3
Flat
350
581
  3
FlatWithEdges
350
582
  3
Gouraud
350
583
  3
GouraudWithEdges
350
584
  3
Hidden
350
588
  3
JitterOff
350
596
  3
Linepattern
350
58E
  3
OverhangOff
350
597
  3
Realistic
350
58A
  3
Shaded
350
595
  3
Shaded with edges
350
594
  3
Shades of Gray
350
591
  3
Sketchy
350
592
  3
Thicken
350
58D
  3
Wireframe
350
587
  3
X-Ray
350
593
  0
XRECORD
  5
65C
102
{ACAD_REACTORS
330
563
102
}
330
563
100
AcDbXrecord
280
     1
 90
        1
330
5BB
  0
DICTIONARY
  5
64F
102
{ACAD_REACTORS
330
563
102
}
330
563
100
AcDbDictionary
281
     1
  3
CANNOSCALE
350
654
  3
CMLEADERSTYLE
350
651
  3
CTABLESTYLE
350
650
  3
CVIEWDETAILSTYLE
350
652
  3
CVIEWSECTIONSTYLE
350
653
  3
DIMASSOC
350
657
  3
INDEXCTL
350
656
  3
SORTENTS
350
655
  3
XCLIPFRAME
350
658
  0
DICTIONARY
  5
64C
102
{ACAD_REACTORS
330
563
102
}
330
563
100
AcDbDictionary
281
     1
  3
ASEBlockHierarchyIndexRecord
350
64E
1001
DCO15
1040
1815721004.459
  0
XRECORD
  5
65D
102
{ACAD_REACTORS
330
563
102
}
330
563
100
AcDbXrecord
280
     1
  1
DWGPROPS COOKIE
  2

  3

  4

  6

  7

  8
Micke
  9

300
=
301
=
302
=
303
=
304
=
305
=
306
=
307
=
308
=
309
=
 40
0.0000072222222222
 41
2456818.50124809
 42
2456818.501255312
  1

 90
        0
  0
XRECORD
  5
600
102
{ACAD_REACTORS
330
5FF
102
}
330
5FF
100
AcDbXrecord
280
     1
290
     1
  0
XRECORD
  5
602
102
{ACAD_REACTORS
330
601
102
}
330
601
100
AcDbXrecord
280
     1
290
     1
  0
XRECORD
  5
604
102
{ACAD_REACTORS
330
603
102
}
330
603
100
AcDbXrecord
280
     1
290
     1
  0
XRECORD
  5
606
102
{ACAD_REACTORS
330
605
102
}
330
605
100
AcDbXrecord
280
     1
290
     1
  0
XRECORD
  5
608
102
{ACAD_REACTORS
330
607
102
}
330
607
100
AcDbXrecord
280
     1
290
     1
  0
XRECORD
  5
60A
102
{ACAD_REACTORS
330
609
102
}
330
609
100
AcDbXrecord
280
     1
290
     1
  0
XRECORD
  5
60C
102
{ACAD_REACTORS
330
60B
102
}
330
60B
100
AcDbXrecord
280
     1
290
     1
  0
XRECORD
  5
60E
102
{ACAD_REACTORS
330
60D
102
}
330
60D
100
AcDbXrecord
280
     1
290
     1
  0
XRECORD
  5
610
102
{ACAD_REACTORS
330
60F
102
}
330
60F
100
AcDbXrecord
280
     1
290
     1
  0
XRECORD
  5
612
102
{ACAD_REACTORS
330
611
102
}
330
611
100
AcDbXrecord
280
     1
290
     1
  0
XRECORD
  5
614
102
{ACAD_REACTORS
330
613
102
}
330
613
100
AcDbXrecord
280
     1
290
     1
  0
XRECORD
  5
616
102
{ACAD_REACTORS
330
615
102
}
330
615
100
AcDbXrecord
280
     1
290
     1
  0
XRECORD
  5
618
102
{ACAD_REACTORS
330
617
102
}
330
617
100
AcDbXrecord
280
     1
290
     1
  0
XRECORD
  5
61A
102
{ACAD_REACTORS
330
619
102
}
330
619
100
AcDbXrecord
280
     1
290
     1
  0
XRECORD
  5
61C
102
{ACAD_REACTORS
330
61B
102
}
330
61B
100
AcDbXrecord
280
     1
290
     1
  0
XRECORD
  5
61E
102
{ACAD_REACTORS
330
61D
102
}
330
61D
100
AcDbXrecord
280
     1
290
     1
  0
XRECORD
  5
620
102
{ACAD_REACTORS
330
61F
102
}
330
61F
100
AcDbXrecord
280
     1
290
     1
  0
XRECORD
  5
622
102
{ACAD_REACTORS
330
621
102
}
330
621
100
AcDbXrecord
280
     1
290
     1
  0
XRECORD
  5
624
102
{ACAD_REACTORS
330
623
102
}
330
623
100
AcDbXrecord
280
     1
290
     1
  0
XRECORD
  5
626
102
{ACAD_REACTORS
330
625
102
}
330
625
100
AcDbXrecord
280
     1
290
     1
  0
XRECORD
  5
628
102
{ACAD_REACTORS
330
627
102
}
330
627
100
AcDbXrecord
280
     1
290
     1
  0
XRECORD
  5
62A
102
{ACAD_REACTORS
330
629
102
}
330
629
100
AcDbXrecord
280
     1
290
     1
  0
XRECORD
  5
62C
102
{ACAD_REACTORS
330
62B
102
}
330
62B
100
AcDbXrecord
280
     1
290
     1
  0
XRECORD
  5
62E
102
{ACAD_REACTORS
330
62D
102
}
330
62D
100
AcDbXrecord
280
     1
290
     1
  0
XRECORD
  5
630
102
{ACAD_REACTORS
330
62F
102
}
330
62F
100
AcDbXrecord
280
     1
290
     1
  0
XRECORD
  5
632
102
{ACAD_REACTORS
330
631
102
}
330
631
100
AcDbXrecord
280
     1
290
     1
  0
XRECORD
  5
634
102
{ACAD_REACTORS
330
633
102
}
330
633
100
AcDbXrecord
280
     1
290
     1
  0
XRECORD
  5
636
102
{ACAD_REACTORS
330
635
102
}
330
635
100
AcDbXrecord
280
     1
290
     1
  0
XRECORD
  5
638
102
{ACAD_REACTORS
330
637
102
}
330
637
100
AcDbXrecord
280
     1
290
     1
  0
XRECORD
  5
63A
102
{ACAD_REACTORS
330
639
102
}
330
639
100
AcDbXrecord
280
     1
290
     1
  0
XRECORD
  5
63C
102
{ACAD_REACTORS
330
63B
102
}
330
63B
100
AcDbXrecord
280
     1
290
     1
  0
XRECORD
  5
63E
102
{ACAD_REACTORS
330
63D
102
}
330
63D
100
AcDbXrecord
280
     1
290
     1
  0
XRECORD
  5
640
102
{ACAD_REACTORS
330
63F
102
}
330
63F
100
AcDbXrecord
280
     1
290
     1
  0
XRECORD
  5
642
102
{ACAD_REACTORS
330
641
102
}
330
641
100
AcDbXrecord
280
     1
290
     1
  0
XRECORD
  5
644
102
{ACAD_REACTORS
330
643
102
}
330
643
100
AcDbXrecord
280
     1
290
     1
  0
XRECORD
  5
646
102
{ACAD_REACTORS
330
645
102
}
330
645
100
AcDbXrecord
280
     1
290
     1
  0
XRECORD
  5
648
102
{ACAD_REACTORS
330
647
102
}
330
647
100
AcDbXrecord
280
     1
290
     1
  0
XRECORD
  5
64A
102
{ACAD_REACTORS
330
649
102
}
330
649
100
AcDbXrecord
280
     1
290
     1
  0
ACDBDETAILVIEWSTYLE
  5
5C2
102
{ACAD_REACTORS
330
5C1
102
}
330
5C1
100
AcDbModelDocViewStyle
 70
     0
  3
Imperial24
290
     0
100
AcDbDetailViewStyle
 70
     0
 71
     0
 90
        3
 71
     1
340
5AC
 40
0.24
340
0
 40
0.24
300

 40
0.36
280
     3
 71
     2
340
5B3
 90
       25
 71
     3
340
5AC
 40
0.24
 90
        1
 40
0.75
 90
        1
300
%<\AcVar ViewType \f "%tc1">% %<\AcVar ViewDetailId>%\PSCALE %<\AcVar ViewScale \f "%sn">%
 71
     4
340
5B3
 90
       25
340
5B3
 90
       25
280
     0
  0
LAYOUT
  5
5C6
102
{ACAD_XDICTIONARY
360
693
102
}
102
{ACAD_REACTORS
330
5B8
102
}
330
5B8
100
AcDbPlotSettings
  1

  2
Brother DCP-9020CDW Printer
  4

  6

 40
0.0
 41
0.0
 42
0.0
 43
0.0
 44
0.0
 45
0.0
 46
0.0
 47
0.0
 48
0.0
 49
0.0
140
0.0
141
0.0
142
1.0
143
1.0
 70
   688
 72
     0
 73
     0
 74
     5
  7

 75
    16
147
1.0
148
0.0
149
0.0
100
AcDbLayout
  1
Layout1
 70
     1
 71
     1
 10
0.0
 20
0.0
 11
12.0
 21
9.0
 12
0.0
 22
0.0
 32
0.0
 14
1.000000000000000E+20
 24
1.000000000000000E+20
 34
1.000000000000000E+20
 15
-1.000000000000000E+20
 25
-1.000000000000000E+20
 35
-1.000000000000000E+20
146
0.0
 13
0.0
 23
0.0
 33
0.0
 16
1.0
 26
0.0
 36
0.0
 17
0.0
 27
1.0
 37
0.0
 76
     0
330
5C3
  0
LAYOUT
  5
5CA
102
{ACAD_XDICTIONARY
360
695
102
}
102
{ACAD_REACTORS
330
5B8
102
}
330
5B8
100
AcDbPlotSettings
  1

  2
Brother DCP-9020CDW Printer
  4

  6

 40
0.0
 41
0.0
 42
0.0
 43
0.0
 44
0.0
 45
0.0
 46
0.0
 47
0.0
 48
0.0
 49
0.0
140
0.0
141
0.0
142
1.0
143
1.0
 70
  1712
 72
     0
 73
     0
 74
     0
  7

 75
     0
147
1.0
148
0.0
149
0.0
100
AcDbLayout
  1
Model
 70
     1
 71
     0
 10
0.0
 20
0.0
 11
12.0
 21
9.0
 12
0.0
 22
0.0
 32
0.0
 14
0.0
 24
0.0
 34
0.0
 15
0.0
 25
0.0
 35
0.0
146
0.0
 13
0.0
 23
0.0
 33
0.0
 16
1.0
 26
0.0
 36
0.0
 17
0.0
 27
1.0
 37
0.0
 76
     0
330
5C7
331
5F6
  0
MATERIAL
  5
570
102
{ACAD_XDICTIONARY
360
571
102
}
102
{ACAD_REACTORS
330
567
102
}
330
567
100
AcDbMaterial
  1
ByBlock
 72
     0
 43
0.0208333333333333
 43
0.0
 43
0.0
 43
0.0
 43
0.0
 43
0.0208333333333333
 43
0.0
 43
0.0
 43
0.0
 43
0.0
 43
1.0
 43
0.0
 43
0.0
 43
0.0
 43
0.0
 43
1.0
 77
     0
 47
0.0208333333333333
 47
0.0
 47
0.0
 47
0.0
 47
0.0
 47
0.0208333333333333
 47
0.0
 47
0.0
 47
0.0
 47
0.0
 47
1.0
 47
0.0
 47
0.0
 47
0.0
 47
0.0
 47
1.0
171
     0
 49
0.0208333333333333
 49
0.0
 49
0.0
 49
0.0
 49
0.0
 49
0.0208333333333333
 49
0.0
 49
0.0
 49
0.0
 49
0.0
 49
1.0
 49
0.0
 49
0.0
 49
0.0
 49
0.0
 49
1.0
175
     0
142
0.0208333333333333
142
0.0
142
0.0
142
0.0
142
0.0
142
0.0208333333333333
142
0.0
142
0.0
142
0.0
142
0.0
142
1.0
142
0.0
142
0.0
142
0.0
142
0.0
142
1.0
179
     0
144
0.0208333333333333
144
0.0
144
0.0
144
0.0
144
0.0
144
0.0208333333333333
144
0.0
144
0.0
144
0.0
144
0.0
144
1.0
144
0.0
144
0.0
144
0.0
144
0.0
144
1.0
147
0.0208333333333333
147
0.0
147
0.0
147
0.0
147
0.0
147
0.0208333333333333
147
0.0
147
0.0
147
0.0
147
0.0
147
1.0
147
0.0
147
0.0
147
0.0
147
0.0
147
1.0
  0
MATERIAL
  5
568
102
{ACAD_XDICTIONARY
360
569
102
}
102
{ACAD_REACTORS
330
567
102
}
330
567
100
AcDbMaterial
  1
ByLayer
 72
     0
 43
0.0208333333333333
 43
0.0
 43
0.0
 43
0.0
 43
0.0
 43
0.0208333333333333
 43
0.0
 43
0.0
 43
0.0
 43
0.0
 43
1.0
 43
0.0
 43
0.0
 43
0.0
 43
0.0
 43
1.0
 77
     0
 47
0.0208333333333333
 47
0.0
 47
0.0
 47
0.0
 47
0.0
 47
0.0208333333333333
 47
0.0
 47
0.0
 47
0.0
 47
0.0
 47
1.0
 47
0.0
 47
0.0
 47
0.0
 47
0.0
 47
1.0
171
     0
 49
0.0208333333333333
 49
0.0
 49
0.0
 49
0.0
 49
0.0
 49
0.0208333333333333
 49
0.0
 49
0.0
 49
0.0
 49
0.0
 49
1.0
 49
0.0
 49
0.0
 49
0.0
 49
0.0
 49
1.0
175
     0
142
0.0208333333333333
142
0.0
142
0.0
142
0.0
142
0.0
142
0.0208333333333333
142
0.0
142
0.0
142
0.0
142
0.0
142
1.0
142
0.0
142
0.0
142
0.0
142
0.0
142
1.0
179
     0
144
0.0208333333333333
144
0.0
144
0.0
144
0.0
144
0.0
144
0.0208333333333333
144
0.0
144
0.0
144
0.0
144
0.0
144
1.0
144
0.0
144
0.0
144
0.0
144
0.0
144
1.0
147
0.0208333333333333
147
0.0
147
0.0
147
0.0
147
0.0
147
0.0208333333333333
147
0.0
147
0.0
147
0.0
147
0.0
147
1.0
147
0.0
147
0.0
147
0.0
147
0.0
147
1.0
  0
MATERIAL
  5
578
102
{ACAD_XDICTIONARY
360
579
102
}
102
{ACAD_REACTORS
330
567
102
}
330
567
100
AcDbMaterial
  1
Global
 72
     0
 43
0.0208333333333333
 43
0.0
 43
0.0
 43
0.0
 43
0.0
 43
0.0208333333333333
 43
0.0
 43
0.0
 43
0.0
 43
0.0
 43
1.0
 43
0.0
 43
0.0
 43
0.0
 43
0.0
 43
1.0
 77
     0
 47
0.0208333333333333
 47
0.0
 47
0.0
 47
0.0
 47
0.0
 47
0.0208333333333333
 47
0.0
 47
0.0
 47
0.0
 47
0.0
 47
1.0
 47
0.0
 47
0.0
 47
0.0
 47
0.0
 47
1.0
171
     0
 49
0.0208333333333333
 49
0.0
 49
0.0
 49
0.0
 49
0.0
 49
0.0208333333333333
 49
0.0
 49
0.0
 49
0.0
 49
0.0
 49
1.0
 49
0.0
 49
0.0
 49
0.0
 49
0.0
 49
1.0
175
     0
142
0.0208333333333333
142
0.0
142
0.0
142
0.0
142
0.0
142
0.0208333333333333
142
0.0
142
0.0
142
0.0
142
0.0
142
1.0
142
0.0
142
0.0
142
0.0
142
0.0
142
1.0
179
     0
144
0.0208333333333333
144
0.0
144
0.0
144
0.0
144
0.0
144
0.0208333333333333
144
0.0
144
0.0
144
0.0
144
0.0
144
1.0
144
0.0
144
0.0
144
0.0
144
0.0
144
1.0
147
0.0208333333333333
147
0.0
147
0.0
147
0.0
147
0.0
147
0.0208333333333333
147
0.0
147
0.0
147
0.0
147
0.0
147
1.0
147
0.0
147
0.0
147
0.0
147
0.0
147
1.0
  0
MLEADERSTYLE
  5
5BD
102
{ACAD_REACTORS
330
5BC
102
}
330
5BC
100
AcDbMLeaderStyle
170
     2
171
     1
172
     0
 90
        2
 40
0.0
 41
0.0
173
     1
 91
-1056964608
340
5B1
 92
       -2
290
     1
 42
0.09
291
     1
 43
0.36
  3
Standard
 44
0.18
300

342
5AC
174
     1
178
     6
175
     1
176
     0
 93
-1056964608
 45
0.18
292
     0
297
     0
 46
0.18
 94
-1056964608
 47
1.0
 49
1.0
140
1.0
293
     1
141
0.0
294
     1
177
     0
142
1.0
295
     0
296
     0
143
0.125
1001
ACAD_MLEADERVER
1070
     2
  0
MLINESTYLE
  5
5B6
102
{ACAD_REACTORS
330
5B5
102
}
330
5B5
100
AcDbMlineStyle
  2
STANDARD
 70
     0
  3

 62
   256
 51
90.0
 52
90.0
 71
     2
 49
0.5
 62
   256
  6
BYLAYER
 49
-0.5
 62
   256
  6
BYLAYER
  0
ACDBPLACEHOLDER
  5
566
102
{ACAD_REACTORS
330
565
102
}
330
565
  0
SCALE
  5
59A
102
{ACAD_REACTORS
330
599
102
}
330
599
100
AcDbScale
 70
     0
300
1:1
140
1.0
141
1.0
290
     1
  0
SCALE
  5
59B
102
{ACAD_REACTORS
330
599
102
}
330
599
100
AcDbScale
 70
     0
300
1/128" = 1'-0"
140
0.0078125
141
12.0
290
     0
  0
SCALE
  5
59C
102
{ACAD_REACTORS
330
599
102
}
330
599
100
AcDbScale
 70
     0
300
1/64" = 1'-0"
140
0.015625
141
12.0
290
     0
  0
SCALE
  5
59D
102
{ACAD_REACTORS
330
599
102
}
330
599
100
AcDbScale
 70
     0
300
1/32" = 1'-0"
140
0.03125
141
12.0
290
     0
  0
SCALE
  5
59E
102
{ACAD_REACTORS
330
599
102
}
330
599
100
AcDbScale
 70
     0
300
1/16" = 1'-0"
140
0.0625
141
12.0
290
     0
  0
SCALE
  5
59F
102
{ACAD_REACTORS
330
599
102
}
330
599
100
AcDbScale
 70
     0
300
3/32" = 1'-0"
140
0.09375
141
12.0
290
     0
  0
SCALE
  5
5A0
102
{ACAD_REACTORS
330
599
102
}
330
599
100
AcDbScale
 70
     0
300
1/8" = 1'-0"
140
0.125
141
12.0
290
     0
  0
SCALE
  5
5A1
102
{ACAD_REACTORS
330
599
102
}
330
599
100
AcDbScale
 70
     0
300
3/16" = 1'-0"
140
0.1875
141
12.0
290
     0
  0
SCALE
  5
5A2
102
{ACAD_REACTORS
330
599
102
}
330
599
100
AcDbScale
 70
     0
300
1/4" = 1'-0"
140
0.25
141
12.0
290
     0
  0
SCALE
  5
5A3
102
{ACAD_REACTORS
330
599
102
}
330
599
100
AcDbScale
 70
     0
300
3/8" = 1'-0"
140
0.375
141
12.0
290
     0
  0
SCALE
  5
5A4
102
{ACAD_REACTORS
330
599
102
}
330
599
100
AcDbScale
 70
     0
300
1/2" = 1'-0"
140
0.5
141
12.0
290
     0
  0
SCALE
  5
5A5
102
{ACAD_REACTORS
330
599
102
}
330
599
100
AcDbScale
 70
     0
300
3/4" = 1'-0"
140
0.75
141
12.0
290
     0
  0
SCALE
  5
5A6
102
{ACAD_REACTORS
330
599
102
}
330
599
100
AcDbScale
 70
     0
300
1" = 1'-0"
140
1.0
141
12.0
290
     0
  0
SCALE
  5
5A7
102
{ACAD_REACTORS
330
599
102
}
330
599
100
AcDbScale
 70
     0
300
1-1/2" = 1'-0"
140
1.5
141
12.0
290
     0
  0
SCALE
  5
5A8
102
{ACAD_REACTORS
330
599
102
}
330
599
100
AcDbScale
 70
     0
300
3" = 1'-0"
140
3.0
141
12.0
290
     0
  0
SCALE
  5
5A9
102
{ACAD_REACTORS
330
599
102
}
330
599
100
AcDbScale
 70
     0
300
6" = 1'-0"
140
6.0
141
12.0
290
     0
  0
SCALE
  5
5AA
102
{ACAD_REACTORS
330
599
102
}
330
599
100
AcDbScale
 70
     0
300
1'-0" = 1'-0"
140
12.0
141
12.0
290
     0
  0
ACDBSECTIONVIEWSTYLE
  5
5C0
102
{ACAD_REACTORS
330
5BE
102
}
330
5BE
100
AcDbModelDocViewStyle
 70
     0
  3
Imperial24
290
     0
100
AcDbSectionViewStyle
 70
     0
 71
     0
 90
       78
 71
     1
340
5AC
 40
0.24
340
0
340
0
 40
0.24
300
I, O, Q, S, X, Z
 40
0.48
 90
        3
 40
0.18
 90
        1
 71
     2
340
5BF
 90
       25
340
5B3
 90
       50
 40
0.24
 40
0.0
 40
0.24
 71
     3
340
5AC
 40
0.24
 90
        1
 40
0.75
 90
        1
300
%<\AcVar ViewType \f "%tc1">% %<\AcVar ViewSectionStartId>%-%<\AcVar ViewSectionEndId>%\PSCALE %<\AcVar ViewScale \f "%sn">%
 71
     4
300
ANSI31
 40
1.0
 90
        0
290
     0
290
     0
 90
        6
 40
0.0
 40
1.570796326794896
 40
0.2617993877991494
 40
1.308996938995747
 40
-0.2617993877991494
 40
1.832595714594046
  0
TABLESTYLE
  5
5BB
102
{ACAD_XDICTIONARY
360
65A
102
}
102
{ACAD_REACTORS
330
5BA
102
}
330
5BA
100
AcDbTableStyle
  3
Standard
 70
     0
 71
     0
 40
0.06
 41
0.06
280
     0
281
     0
  7
STANDARD
140
0.18
170
     2
 62
     0
 63
     7
283
     0
274
    -2
284
     1
 64
     0
275
    -2
285
     1
 65
     0
276
    -2
286
     1
 66
     0
277
    -2
287
     1
 67
     0
278
    -2
288
     1
 68
     0
279
    -2
289
     1
 69
     0
  7
STANDARD
140
0.25
170
     5
 62
     0
 63
     7
283
     0
274
    -2
284
     1
 64
     0
275
    -2
285
     1
 65
     0
276
    -2
286
     1
 66
     0
277
    -2
287
     1
 67
     0
278
    -2
288
     1
 68
     0
279
    -2
289
     1
 69
     0
  7
STANDARD
140
0.18
170
     5
 62
     0
 63
     7
283
     0
274
    -2
284
     1
 64
     0
275
    -2
285
     1
 65
     0
276
    -2
286
     1
 66
     0
277
    -2
287
     1
 67
     0
278
    -2
288
     1
 68
     0
279
    -2
289
     1
 69
     0
  0
VISUALSTYLE
  5
586
102
{ACAD_XDICTIONARY
360
66B
102
}
102
{ACAD_REACTORS
330
580
102
}
330
580
100
AcDbVisualStyle
  2
2dWireframe
 70
     4
 71
     0
 72
     2
 73
     0
 90
        0
 40
-0.6
 41
-30.0
 62
     5
 63
     7
 74
     1
 91
        4
 64
     7
 65
   257
 75
     1
175
     1
 42
1.0
 92
        0
 66
   257
 43
1.0
 76
     1
 77
     6
 78
     2
 67
     7
 79
     5
170
     0
171
     0
290
     0
174
     0
 93
        1
 44
0.0
173
     0
291
     0
 45
0.0
1001
ACAD
1000
AcDbSavedByObjectVersion
1070
     0
  0
VISUALSTYLE
  5
585
102
{ACAD_XDICTIONARY
360
669
102
}
102
{ACAD_REACTORS
330
580
102
}
330
580
100
AcDbVisualStyle
  2
Basic
 70
     7
 71
     1
 72
     0
 73
     1
 90
        0
 40
-0.6
 41
-30.0
 62
     5
 63
     7
 74
     0
 91
        4
 64
     7
 65
   257
 75
     1
175
     1
 42
1.0
 92
        8
 66
     7
 43
1.0
 76
     1
 77
     6
 78
     2
 67
     7
 79
     5
170
     0
171
     0
290
     0
174
     0
 93
        1
 44
0.0
173
     0
291
     1
 45
0.0
1001
ACAD
1000
AcDbSavedByObjectVersion
1070
     0
  0
VISUALSTYLE
  5
58C
102
{ACAD_XDICTIONARY
360
677
102
}
102
{ACAD_REACTORS
330
580
102
}
330
580
100
AcDbVisualStyle
  2
Brighten
 70
    12
 71
     2
 72
     2
 73
     0
 90
        0
 40
-0.6
 41
-30.0
 62
     5
 63
     7
 74
     1
 91
        4
 64
     7
 65
   257
 75
     1
175
     1
 42
1.0
 92
        8
 66
     7
 43
1.0
 76
     1
 77
     6
 78
     2
 67
     7
 79
     5
170
     0
171
     0
290
     0
174
     0
 93
        1
 44
50.0
173
     0
291
     1
 45
0.0
1001
ACAD
1000
AcDbSavedByObjectVersion
1070
     0
  0
VISUALSTYLE
  5
590
102
{ACAD_XDICTIONARY
360
67F
102
}
102
{ACAD_REACTORS
330
580
102
}
330
580
100
AcDbVisualStyle
  2
ColorChange
 70
    16
 71
     2
 72
     2
 73
     3
 90
        0
 40
-0.6
 41
-30.0
 62
     5
 63
     8
 74
     1
 91
        4
 64
     7
 65
   257
 75
     1
175
     1
 42
1.0
 92
        8
 66
     8
 43
1.0
 76
     1
 77
     6
 78
     2
 67
     7
 79
     5
170
     0
171
     0
290
     0
174
     0
 93
        1
 44
0.0
173
     0
291
     1
 45
0.0
1001
ACAD
1000
AcDbSavedByObjectVersion
1070
     0
  0
VISUALSTYLE
  5
589
102
{ACAD_XDICTIONARY
360
671
102
}
102
{ACAD_REACTORS
330
580
102
}
330
580
100
AcDbVisualStyle
  2
Conceptual
 70
     9
 71
     3
 72
     2
 73
     0
 90
        0
 40
-0.6
 41
-30.0
 62
     5
 63
     7
 74
     2
 91
        2
 64
     7
 65
   257
 75
     1
175
     1
 42
179.0
 92
        8
 66
     7
 43
1.0
 76
     1
 77
     6
 78
     2
 67
     7
 79
     3
170
     0
171
     0
290
     0
174
     0
 93
        1
 44
0.0
173
     0
291
     0
 45
0.0
1001
ACAD
1000
AcDbSavedByObjectVersion
1070
     0
  0
VISUALSTYLE
  5
58B
102
{ACAD_XDICTIONARY
360
675
102
}
102
{ACAD_REACTORS
330
580
102
}
330
580
100
AcDbVisualStyle
  2
Dim
 70
    11
 71
     2
 72
     2
 73
     0
 90
        0
 40
-0.6
 41
-30.0
 62
     5
 63
     7
 74
     1
 91
        4
 64
     7
 65
   257
 75
     1
175
     1
 42
1.0
 92
        8
 66
     7
 43
1.0
 76
     1
 77
     6
 78
     2
 67
     7
 79
     5
170
     0
171
     0
290
     0
174
     0
 93
        1
 44
-50.0
173
     0
291
     1
 45
0.0
1001
ACAD
1000
AcDbSavedByObjectVersion
1070
     0
  0
VISUALSTYLE
  5
598
102
{ACAD_XDICTIONARY
360
68F
102
}
102
{ACAD_REACTORS
330
580
102
}
330
580
100
AcDbVisualStyle
  2
EdgeColorOff
 70
    22
 71
     2
 72
     2
 73
     0
 90
        0
 40
-0.6
 41
-30.0
 62
     5
 63
     7
 74
     1
 91
        4
 64
     7
 65
   257
 75
     1
175
     1
 42
1.0
 92
        8
 66
     7
 43
1.0
 76
     1
 77
     6
 78
     2
 67
     7
 79
     5
170
     0
171
     0
290
     0
174
     0
 93
        1
 44
0.0
173
     0
291
     1
 45
0.0
1001
ACAD
1000
AcDbSavedByObjectVersion
1070
     0
  0
VISUALSTYLE
  5
58F
102
{ACAD_XDICTIONARY
360
67D
102
}
102
{ACAD_REACTORS
330
580
102
}
330
580
100
AcDbVisualStyle
  2
Facepattern
 70
    15
 71
     2
 72
     2
 73
     0
 90
        0
 40
-0.6
 41
-30.0
 62
     5
 63
     7
 74
     1
 91
        4
 64
     7
 65
   257
 75
     1
175
     1
 42
1.0
 92
        8
 66
     7
 43
1.0
 76
     1
 77
     6
 78
     2
 67
     7
 79
     5
170
     0
171
     0
290
     0
174
     0
 93
        1
 44
0.0
173
     0
291
     1
 45
0.0
1001
ACAD
1000
AcDbSavedByObjectVersion
1070
     0
  0
VISUALSTYLE
  5
581
102
{ACAD_XDICTIONARY
360
661
102
}
102
{ACAD_REACTORS
330
580
102
}
330
580
100
AcDbVisualStyle
  2
Flat
 70
     0
 71
     2
 72
     1
 73
     1
 90
        2
 40
-0.6
 41
30.0
 62
     5
 63
     7
 74
     0
 91
        0
 64
     7
 65
   257
 75
     1
175
     1
 42
1.0
 92
        8
 66
     7
 43
1.0
 76
     1
 77
     6
 78
     2
 67
     7
 79
     5
170
     0
171
     0
290
     0
174
     0
 93
       13
 44
0.0
173
     0
291
     1
 45
0.0
1001
ACAD
1000
AcDbSavedByObjectVersion
1070
     0
  0
VISUALSTYLE
  5
582
102
{ACAD_XDICTIONARY
360
663
102
}
102
{ACAD_REACTORS
330
580
102
}
330
580
100
AcDbVisualStyle
  2
FlatWithEdges
 70
     1
 71
     2
 72
     1
 73
     1
 90
        2
 40
-0.6
 41
30.0
 62
     5
 63
     7
 74
     1
 91
        0
 64
     7
 65
   257
 75
     1
175
     1
 42
1.0
 92
        0
 66
   257
 43
1.0
 76
     1
 77
     6
 78
     2
 67
     7
 79
     5
170
     0
171
     0
290
     0
174
     0
 93
       13
 44
0.0
173
     0
291
     1
 45
0.0
1001
ACAD
1000
AcDbSavedByObjectVersion
1070
     0
  0
VISUALSTYLE
  5
583
102
{ACAD_XDICTIONARY
360
665
102
}
102
{ACAD_REACTORS
330
580
102
}
330
580
100
AcDbVisualStyle
  2
Gouraud
 70
     2
 71
     2
 72
     2
 73
     1
 90
        2
 40
-0.6
 41
30.0
 62
     5
 63
     7
 74
     0
 91
        0
 64
     7
 65
   257
 75
     1
175
     1
 42
1.0
 92
        0
 66
     7
 43
1.0
 76
     1
 77
     6
 78
     2
 67
     7
 79
     5
170
     0
171
     0
290
     0
174
     0
 93
       13
 44
0.0
173
     0
291
     1
 45
0.0
1001
ACAD
1000
AcDbSavedByObjectVersion
1070
     0
  0
VISUALSTYLE
  5
584
102
{ACAD_XDICTIONARY
360
667
102
}
102
{ACAD_REACTORS
330
580
102
}
330
580
100
AcDbVisualStyle
  2
GouraudWithEdges
 70
     3
 71
     2
 72
     2
 73
     1
 90
        2
 40
-0.6
 41
30.0
 62
     5
 63
     7
 74
     1
 91
        0
 64
     7
 65
   257
 75
     1
175
     1
 42
1.0
 92
        0
 66
   257
 43
1.0
 76
     1
 77
     6
 78
     2
 67
     7
 79
     5
170
     0
171
     0
290
     0
174
     0
 93
       13
 44
0.0
173
     0
291
     1
 45
0.0
1001
ACAD
1000
AcDbSavedByObjectVersion
1070
     0
  0
VISUALSTYLE
  5
588
102
{ACAD_XDICTIONARY
360
66F
102
}
102
{ACAD_REACTORS
330
580
102
}
330
580
100
AcDbVisualStyle
  2
Hidden
 70
     6
 71
     1
 72
     2
 73
     2
 90
        0
 40
-0.6
 41
-30.0
 62
     5
 63
     7
 74
     2
 91
        2
 64
     7
 65
   257
 75
     2
175
     1
 42
40.0
 92
        0
 66
   257
 43
1.0
 76
     1
 77
     6
 78
     2
 67
     7
 79
     3
170
     0
171
     0
290
     0
174
     0
 93
        1
 44
0.0
173
     0
291
     0
 45
0.0
1001
ACAD
1000
AcDbSavedByObjectVersion
1070
     0
  0
VISUALSTYLE
  5
596
102
{ACAD_XDICTIONARY
360
68B
102
}
102
{ACAD_REACTORS
330
580
102
}
330
580
100
AcDbVisualStyle
  2
JitterOff
 70
    20
 71
     2
 72
     2
 73
     0
 90
        0
 40
-0.6
 41
-30.0
 62
     5
 63
     7
 74
     1
 91
        4
 64
     7
 65
   257
 75
     1
175
     1
 42
1.0
 92
       10
 66
     7
 43
1.0
 76
     1
 77
     6
 78
     2
 67
     7
 79
     5
170
     0
171
     0
290
     0
174
     0
 93
        1
 44
0.0
173
     0
291
     1
 45
0.0
1001
ACAD
1000
AcDbSavedByObjectVersion
1070
     0
  0
VISUALSTYLE
  5
58E
102
{ACAD_XDICTIONARY
360
67B
102
}
102
{ACAD_REACTORS
330
580
102
}
330
580
100
AcDbVisualStyle
  2
Linepattern
 70
    14
 71
     2
 72
     2
 73
     0
 90
        0
 40
-0.6
 41
-30.0
 62
     5
 63
     7
 74
     1
 91
        4
 64
     7
 65
   257
 75
     7
175
     7
 42
1.0
 92
        8
 66
     7
 43
1.0
 76
     1
 77
     6
 78
     2
 67
     7
 79
     5
170
     0
171
     0
290
     0
174
     0
 93
        1
 44
0.0
173
     0
291
     1
 45
0.0
1001
ACAD
1000
AcDbSavedByObjectVersion
1070
     0
  0
VISUALSTYLE
  5
597
102
{ACAD_XDICTIONARY
360
68D
102
}
102
{ACAD_REACTORS
330
580
102
}
330
580
100
AcDbVisualStyle
  2
OverhangOff
 70
    21
 71
     2
 72
     2
 73
     0
 90
        0
 40
-0.6
 41
-30.0
 62
     5
 63
     7
 74
     1
 91
        4
 64
     7
 65
   257
 75
     1
175
     1
 42
1.0
 92
        9
 66
     7
 43
1.0
 76
     1
 77
     6
 78
     2
 67
     7
 79
     5
170
     0
171
     0
290
     0
174
     0
 93
        1
 44
0.0
173
     0
291
     1
 45
0.0
1001
ACAD
1000
AcDbSavedByObjectVersion
1070
     0
  0
VISUALSTYLE
  5
58A
102
{ACAD_XDICTIONARY
360
673
102
}
102
{ACAD_REACTORS
330
580
102
}
330
580
100
AcDbVisualStyle
  2
Realistic
 70
     8
 71
     2
 72
     3
 73
     0
 90
        2
 40
-0.6
 41
30.0
 62
     5
 63
     7
 74
     0
 91
        0
 64
     7
 65
   257
 75
     1
175
     1
 42
1.0
 92
        8
 66
   257
 43
1.0
 76
     1
 77
     6
 78
     2
 67
     7
 79
     3
170
     0
171
     0
290
     0
174
     0
 93
       13
 44
0.0
173
     0
291
     0
 45
0.0
1001
ACAD
1000
AcDbSavedByObjectVersion
1070
     0
  0
VISUALSTYLE
  5
595
102
{ACAD_XDICTIONARY
360
689
102
}
102
{ACAD_REACTORS
330
580
102
}
330
580
100
AcDbVisualStyle
  2
Shaded
 70
    27
 71
     2
 72
     2
 73
     1
 90
        2
 40
-0.6
 41
30.0
 62
     5
 63
     7
 74
     0
 91
        4
 64
     7
 65
   257
 75
     1
175
     1
 42
1.0
 92
        8
 66
   257
 43
1.0
 76
     1
 77
     6
 78
     2
 67
     8
 79
     3
170
     0
171
     0
290
     0
174
     0
 93
        5
 44
0.0
173
     0
291
     0
 45
0.0
1001
ACAD
1000
AcDbSavedByObjectVersion
1070
     0
  0
VISUALSTYLE
  5
594
102
{ACAD_XDICTIONARY
360
687
102
}
102
{ACAD_REACTORS
330
580
102
}
330
580
100
AcDbVisualStyle
  2
Shaded with edges
 70
    26
 71
     2
 72
     2
 73
     1
 90
        2
 40
-0.6
 41
30.0
 62
     5
 63
     7
 74
     1
 91
       10
 64
     7
 65
   257
 75
     2
175
     1
 42
1.0
 92
        8
 66
   257
 43
1.0
 76
     1
 77
     6
 78
     2
 67
     7
 79
     3
170
     0
171
     0
290
     0
174
     0
 93
        5
 44
0.0
173
     0
291
     0
 45
0.0
1001
ACAD
1000
AcDbSavedByObjectVersion
1070
     0
  0
VISUALSTYLE
  5
591
102
{ACAD_XDICTIONARY
360
681
102
}
102
{ACAD_REACTORS
330
580
102
}
330
580
100
AcDbVisualStyle
  2
Shades of Gray
 70
    23
 71
     2
 72
     2
 73
     3
 90
        0
 40
-0.6
 41
-30.0
 62
     5
 63
     7
 74
     2
 91
        2
 64
     7
 65
     7
 75
     1
175
     1
 42
40.0
 92
        8
 66
     7
 43
1.0
 76
     1
 77
     6
 78
     2
 67
     7
 79
     3
170
     0
171
     0
290
     0
174
     0
 93
        1
 44
0.0
173
     0
291
     0
 45
0.0
1001
ACAD
1000
AcDbSavedByObjectVersion
1070
     0
  0
VISUALSTYLE
  5
592
102
{ACAD_XDICTIONARY
360
683
102
}
102
{ACAD_REACTORS
330
580
102
}
330
580
100
AcDbVisualStyle
  2
Sketchy
 70
    24
 71
     1
 72
     2
 73
     2
 90
        0
 40
-0.6
 41
-30.0
 62
     5
 63
     7
 74
     2
 91
        2
 64
     7
 65
     7
 75
     1
175
     1
 42
40.0
 92
       11
 66
     7
 43
1.0
 76
     1
 77
     6
 78
     2
 67
     7
 79
     6
170
     0
171
     0
290
     0
174
     0
 93
        1
 44
0.0
173
     0
291
     0
 45
0.0
1001
ACAD
1000
AcDbSavedByObjectVersion
1070
     0
  0
VISUALSTYLE
  5
58D
102
{ACAD_XDICTIONARY
360
679
102
}
102
{ACAD_REACTORS
330
580
102
}
330
580
100
AcDbVisualStyle
  2
Thicken
 70
    13
 71
     2
 72
     2
 73
     0
 90
        0
 40
-0.6
 41
-30.0
 62
     5
 63
     7
 74
     1
 91
        4
 64
     7
 65
   257
 75
     1
175
     1
 42
1.0
 92
       12
 66
     7
 43
1.0
 76
     1
 77
     6
 78
     2
 67
     7
 79
     5
170
     0
171
     0
290
     0
174
     0
 93
        1
 44
0.0
173
     0
291
     1
 45
0.0
1001
ACAD
1000
AcDbSavedByObjectVersion
1070
     0
  0
VISUALSTYLE
  5
587
102
{ACAD_XDICTIONARY
360
66D
102
}
102
{ACAD_REACTORS
330
580
102
}
330
580
100
AcDbVisualStyle
  2
Wireframe
 70
     5
 71
     0
 72
     2
 73
     0
 90
        0
 40
-0.6
 41
-30.0
 62
     5
 63
     7
 74
     1
 91
        4
 64
     7
 65
   257
 75
     1
175
     1
 42
1.0
 92
        0
 66
   257
 43
1.0
 76
     1
 77
     6
 78
     2
 67
     7
 79
     3
170
     0
171
     0
290
     0
174
     0
 93
        1
 44
0.0
173
     0
291
     0
 45
0.0
1001
ACAD
1000
AcDbSavedByObjectVersion
1070
     0
  0
VISUALSTYLE
  5
593
102
{ACAD_XDICTIONARY
360
685
102
}
102
{ACAD_REACTORS
330
580
102
}
330
580
100
AcDbVisualStyle
  2
X-Ray
 70
    25
 71
     2
 72
     2
 73
     1
 90
        1
 40
0.5
 41
-30.0
 62
     5
 63
     7
 74
     1
 91
        0
 64
     7
 65
   257
 75
     1
175
     1
 42
1.0
 92
        8
 66
     7
 43
1.0
 76
     1
 77
     6
 78
     2
 67
     7
 79
     3
170
     0
171
     0
290
     0
174
     0
 93
       13
 44
0.0
173
     0
291
     0
 45
0.0
1001
ACAD
1000
AcDbSavedByObjectVersion
1070
     0
  0
DICTIONARYVAR
  5
654
102
{ACAD_REACTORS
330
64F
102
}
330
64F
100
DictionaryVariables
280
     0
  1
1:1
  0
DICTIONARYVAR
  5
651
102
{ACAD_REACTORS
330
64F
102
}
330
64F
100
DictionaryVariables
280
     0
  1
STANDARD
  0
DICTIONARYVAR
  5
650
102
{ACAD_REACTORS
330
64F
102
}
330
64F
100
DictionaryVariables
280
     0
  1
STANDARD
  0
DICTIONARYVAR
  5
652
102
{ACAD_REACTORS
330
64F
102
}
330
64F
100
DictionaryVariables
280
     0
  1
Imperial24
  0
DICTIONARYVAR
  5
653
102
{ACAD_REACTORS
330
64F
102
}
330
64F
100
DictionaryVariables
280
     0
  1
Imperial24
  0
DICTIONARYVAR
  5
657
102
{ACAD_REACTORS
330
64F
102
}
330
64F
100
DictionaryVariables
280
     0
  1
1
  0
DICTIONARYVAR
  5
656
102
{ACAD_REACTORS
330
64F
102
}
330
64F
100
DictionaryVariables
280
     0
  1
0
  0
DICTIONARYVAR
  5
655
102
{ACAD_REACTORS
330
64F
102
}
330
64F
100
DictionaryVariables
280
     0
  1
127
  0
DICTIONARYVAR
  5
658
102
{ACAD_REACTORS
330
64F
102
}
330
64F
100
DictionaryVariables
280
     0
  1
2
  0
XRECORD
  5
64E
102
{ACAD_REACTORS
330
64C
102
}
330
64C
100
AcDbXrecord
280
     1
  0
DICTIONARY
  5
693
330
5C6
100
AcDbDictionary
280
     1
281
     1
  3
ACAD_XREC_ROUNDTRIP
360
694
  0
DICTIONARY
  5
695
330
5CA
100
AcDbDictionary
280
     1
281
     1
  3
ACAD_XREC_ROUNDTRIP
360
696
  0
DICTIONARY
  5
571
330
570
100
AcDbDictionary
280
     1
281
     1
  3
ACAD_XREC_ROUNDTRIP
360
65F
  3
BUMPTILE
360
573
  3
DIFFUSETILE
360
572
  3
OPACITYTILE
360
576
  3
REFLECTIONTILE
360
575
  3
REFRACTIONTILE
360
577
  3
SPECULARTILE
360
574
  0
DICTIONARY
  5
569
330
568
100
AcDbDictionary
280
     1
281
     1
  3
ACAD_XREC_ROUNDTRIP
360
65E
  3
BUMPTILE
360
56B
  3
DIFFUSETILE
360
56A
  3
OPACITYTILE
360
56E
  3
REFLECTIONTILE
360
56D
  3
REFRACTIONTILE
360
56F
  3
SPECULARTILE
360
56C
  0
DICTIONARY
  5
579
330
578
100
AcDbDictionary
280
     1
281
     1
  3
ACAD_XREC_ROUNDTRIP
360
660
  3
BUMPTILE
360
57B
  3
DIFFUSETILE
360
57A
  3
OPACITYTILE
360
57E
  3
REFLECTIONTILE
360
57D
  3
REFRACTIONTILE
360
57F
  3
SPECULARTILE
360
57C
  0
DICTIONARY
  5
65A
330
5BB
100
AcDbDictionary
280
     1
281
     1
  3
ACAD_ROUNDTRIP_2008_TABLESTYLE_CELLSTYLEMAP
360
65B
  3
ACAD_XREC_ROUNDTRIP
360
691
  0
DICTIONARY
  5
66B
330
586
100
AcDbDictionary
280
     1
281
     1
  3
ACAD_XREC_ROUNDTRIP
360
66C
  0
DICTIONARY
  5
669
330
585
100
AcDbDictionary
280
     1
281
     1
  3
ACAD_XREC_ROUNDTRIP
360
66A
  0
DICTIONARY
  5
677
330
58C
100
AcDbDictionary
280
     1
281
     1
  3
ACAD_XREC_ROUNDTRIP
360
678
  0
DICTIONARY
  5
67F
330
590
100
AcDbDictionary
280
     1
281
     1
  3
ACAD_XREC_ROUNDTRIP
360
680
  0
DICTIONARY
  5
671
330
589
100
AcDbDictionary
280
     1
281
     1
  3
ACAD_XREC_ROUNDTRIP
360
672
  0
DICTIONARY
  5
675
330
58B
100
AcDbDictionary
280
     1
281
     1
  3
ACAD_XREC_ROUNDTRIP
360
676
  0
DICTIONARY
  5
68F
330
598
100
AcDbDictionary
280
     1
281
     1
  3
ACAD_XREC_ROUNDTRIP
360
690
  0
DICTIONARY
  5
67D
330
58F
100
AcDbDictionary
280
     1
281
     1
  3
ACAD_XREC_ROUNDTRIP
360
67E
  0
DICTIONARY
  5
661
330
581
100
AcDbDictionary
280
     1
281
     1
  3
ACAD_XREC_ROUNDTRIP
360
662
  0
DICTIONARY
  5
663
330
582
100
AcDbDictionary
280
     1
281
     1
  3
ACAD_XREC_ROUNDTRIP
360
664
  0
DICTIONARY
  5
665
330
583
100
AcDbDictionary
280
     1
281
     1
  3
ACAD_XREC_ROUNDTRIP
360
666
  0
DICTIONARY
  5
667
330
584
100
AcDbDictionary
280
     1
281
     1
  3
ACAD_XREC_ROUNDTRIP
360
668
  0
DICTIONARY
  5
66F
330
588
100
AcDbDictionary
280
     1
281
     1
  3
ACAD_XREC_ROUNDTRIP
360
670
  0
DICTIONARY
  5
68B
330
596
100
AcDbDictionary
280
     1
281
     1
  3
ACAD_XREC_ROUNDTRIP
360
68C
  0
DICTIONARY
  5
67B
330
58E
100
AcDbDictionary
280
     1
281
     1
  3
ACAD_XREC_ROUNDTRIP
360
67C
  0
DICTIONARY
  5
68D
330
597
100
AcDbDictionary
280
     1
281
     1
  3
ACAD_XREC_ROUNDTRIP
360
68E
  0
DICTIONARY
  5
673
330
58A
100
AcDbDictionary
280
     1
281
     1
  3
ACAD_XREC_ROUNDTRIP
360
674
  0
DICTIONARY
  5
689
330
595
100
AcDbDictionary
280
     1
281
     1
  3
ACAD_XREC_ROUNDTRIP
360
68A
  0
DICTIONARY
  5
687
330
594
100
AcDbDictionary
280
     1
281
     1
  3
ACAD_XREC_ROUNDTRIP
360
688
  0
DICTIONARY
  5
681
330
591
100
AcDbDictionary
280
     1
281
     1
  3
ACAD_XREC_ROUNDTRIP
360
682
  0
DICTIONARY
  5
683
330
592
100
AcDbDictionary
280
     1
281
     1
  3
ACAD_XREC_ROUNDTRIP
360
684
  0
DICTIONARY
  5
679
330
58D
100
AcDbDictionary
280
     1
281
     1
  3
ACAD_XREC_ROUNDTRIP
360
67A
  0
DICTIONARY
  5
66D
330
587
100
AcDbDictionary
280
     1
281
     1
  3
ACAD_XREC_ROUNDTRIP
360
66E
  0
DICTIONARY
  5
685
330
593
100
AcDbDictionary
280
     1
281
     1
  3
ACAD_XREC_ROUNDTRIP
360
686
  0
XRECORD
  5
694
102
{ACAD_REACTORS
330
693
102
}
330
693
100
AcDbXrecord
280
     1
102
SHADEPLOT
 70
     0
102
SHADEPLOTRESLEVEL
 70
     2
102
SHADEPLOTCUSTOMDPI
 70
   300
  0
XRECORD
  5
696
102
{ACAD_REACTORS
330
695
102
}
330
695
100
AcDbXrecord
280
     1
102
SHADEPLOT
 70
     0
102
SHADEPLOTRESLEVEL
 70
     2
102
SHADEPLOTCUSTOMDPI
 70
   300
  0
XRECORD
  5
65F
102
{ACAD_REACTORS
330
571
102
}
330
571
100
AcDbXrecord
280
     1
102
MATERIAL
148
0.0
149
0.0
149
0.0
 93
        0
 94
      127
282
     0
 72
     0
 77
     0
171
     0
175
     0
179
     0
273
     0
  0
XRECORD
  5
573
102
{ACAD_REACTORS
330
571
102
}
330
571
100
AcDbXrecord
280
     1
270
     1
271
     1
  0
XRECORD
  5
572
102
{ACAD_REACTORS
330
571
102
}
330
571
100
AcDbXrecord
280
     1
270
     1
271
     1
  0
XRECORD
  5
576
102
{ACAD_REACTORS
330
571
102
}
330
571
100
AcDbXrecord
280
     1
270
     1
271
     1
  0
XRECORD
  5
575
102
{ACAD_REACTORS
330
571
102
}
330
571
100
AcDbXrecord
280
     1
270
     1
271
     1
  0
XRECORD
  5
577
102
{ACAD_REACTORS
330
571
102
}
330
571
100
AcDbXrecord
280
     1
270
     1
271
     1
  0
XRECORD
  5
574
102
{ACAD_REACTORS
330
571
102
}
330
571
100
AcDbXrecord
280
     1
270
     1
271
     1
  0
XRECORD
  5
65E
102
{ACAD_REACTORS
330
569
102
}
330
569
100
AcDbXrecord
280
     1
102
MATERIAL
148
0.0
149
0.0
149
0.0
 93
        0
 94
      127
282
     0
 72
     0
 77
     0
171
     0
175
     0
179
     0
273
     0
  0
XRECORD
  5
56B
102
{ACAD_REACTORS
330
569
102
}
330
569
100
AcDbXrecord
280
     1
270
     1
271
     1
  0
XRECORD
  5
56A
102
{ACAD_REACTORS
330
569
102
}
330
569
100
AcDbXrecord
280
     1
270
     1
271
     1
  0
XRECORD
  5
56E
102
{ACAD_REACTORS
330
569
102
}
330
569
100
AcDbXrecord
280
     1
270
     1
271
     1
  0
XRECORD
  5
56D
102
{ACAD_REACTORS
330
569
102
}
330
569
100
AcDbXrecord
280
     1
270
     1
271
     1
  0
XRECORD
  5
56F
102
{ACAD_REACTORS
330
569
102
}
330
569
100
AcDbXrecord
280
     1
270
     1
271
     1
  0
XRECORD
  5
56C
102
{ACAD_REACTORS
330
569
102
}
330
569
100
AcDbXrecord
280
     1
270
     1
271
     1
  0
XRECORD
  5
660
102
{ACAD_REACTORS
330
579
102
}
330
579
100
AcDbXrecord
280
     1
102
MATERIAL
148
0.0
149
0.0
149
0.0
 93
        0
 94
      127
282
     0
 72
     0
 77
     0
171
     0
175
     0
179
     0
273
     0
  0
XRECORD
  5
57B
102
{ACAD_REACTORS
330
579
102
}
330
579
100
AcDbXrecord
280
     1
270
     1
271
     1
  0
XRECORD
  5
57A
102
{ACAD_REACTORS
330
579
102
}
330
579
100
AcDbXrecord
280
     1
270
     1
271
     1
  0
XRECORD
  5
57E
102
{ACAD_REACTORS
330
579
102
}
330
579
100
AcDbXrecord
280
     1
270
     1
271
     1
  0
XRECORD
  5
57D
102
{ACAD_REACTORS
330
579
102
}
330
579
100
AcDbXrecord
280
     1
270
     1
271
     1
  0
XRECORD
  5
57F
102
{ACAD_REACTORS
330
579
102
}
330
579
100
AcDbXrecord
280
     1
270
     1
271
     1
  0
XRECORD
  5
57C
102
{ACAD_REACTORS
330
579
102
}
330
579
100
AcDbXrecord
280
     1
270
     1
271
     1
  0
CELLSTYLEMAP
  5
65B
102
{ACAD_REACTORS
330
65A
102
}
330
65A
100
AcDbCellStyleMap
 90
        3
300
CELLSTYLE
  1
TABLEFORMAT_BEGIN
 90
        5
170
     1
 91
        0
 92
    32768
 62
   257
 93
        1
300
CONTENTFORMAT
  1
CONTENTFORMAT_BEGIN
 90
        0
 91
        0
 92
      512
 93
        0
300

 40
0.0
140
1.0
 94
        5
 62
     0
340
5AC
144
0.25
309
CONTENTFORMAT_END
171
     0
 94
        0
309
TABLEFORMAT_END
  1
CELLSTYLE_BEGIN
 90
        1
 91
        1
300
_TITLE
309
CELLSTYLE_END
300
CELLSTYLE
  1
TABLEFORMAT_BEGIN
 90
        5
170
     1
 91
        0
 92
        0
 62
   257
 93
        1
300
CONTENTFORMAT
  1
CONTENTFORMAT_BEGIN
 90
        0
 91
        0
 92
      512
 93
        0
300

 40
0.0
140
1.0
 94
        5
 62
     0
340
5AC
144
0.18
309
CONTENTFORMAT_END
171
     0
 94
        0
309
TABLEFORMAT_END
  1
CELLSTYLE_BEGIN
 90
        2
 91
        1
300
_HEADER
309
CELLSTYLE_END
300
CELLSTYLE
  1
TABLEFORMAT_BEGIN
 90
        5
170
     1
 91
        0
 92
        0
 62
   257
 93
        1
300
CONTENTFORMAT
  1
CONTENTFORMAT_BEGIN
 90
        0
 91
        0
 92
      512
 93
        0
300

 40
0.0
140
1.0
 94
        2
 62
     0
340
5AC
144
0.18
309
CONTENTFORMAT_END
171
     0
 94
        0
309
TABLEFORMAT_END
  1
CELLSTYLE_BEGIN
 90
        3
 91
        2
300
_DATA
309
CELLSTYLE_END
  0
XRECORD
  5
691
102
{ACAD_REACTORS
330
65A
102
}
330
65A
100
AcDbXrecord
280
     1
102
ACAD_ROUNDTRIP_PRE2007_TABLESTYLE
 90
      512
 91
        0
  1

 92
      512
 93
        0
  2

 94
      512
 95
        0
  3

  0
XRECORD
  5
66C
102
{ACAD_REACTORS
330
66B
102
}
330
66B
100
AcDbXrecord
280
     1
102
RTVSPost2010Prop28
280
     1
102
RTVSPost2010PropOp28
 70
     1
102
RTVSPost2010Prop29
280
     1
102
RTVSPost2010PropOp29
 70
     1
102
RTVSPost2010Prop30
280
     0
102
RTVSPost2010PropOp30
 70
     1
102
RTVSPost2010Prop31
280
     0
102
RTVSPost2010PropOp31
 70
     1
102
RTVSPost2010Prop32
280
     0
102
RTVSPost2010PropOp32
 70
     1
102
RTVSPost2010Prop33
280
     0
102
RTVSPost2010PropOp33
 70
     1
102
RTVSPost2010Prop34
280
     0
102
RTVSPost2010PropOp34
 70
     1
102
RTVSPost2010Prop35
280
     0
102
RTVSPost2010PropOp35
 70
     1
102
RTVSPost2010Prop36
280
     0
102
RTVSPost2010PropOp36
 70
     1
102
RTVSPost2010Prop37
 90
       50
102
RTVSPost2010PropOp37
 70
     1
102
RTVSPost2010Prop38
140
0.0
102
RTVSPost2010PropOp38
 70
     1
102
RTVSPost2010Prop39
140
1.0
102
RTVSPost2010PropOp39
 70
     1
102
RTVSPost2010Prop40
 90
        0
102
RTVSPost2010PropOp40
 70
     1
102
RTVSPost2010Prop41ColorIndex
 90
       18
102
RTVSPost2010Prop41ColorRGB
 90
        0
102
RTVSPost2010PropOp41
 70
     1
102
RTVSPost2010Prop42
 90
       50
102
RTVSPost2010PropOp42
 70
     1
102
RTVSPost2010Prop43
 90
        3
102
RTVSPost2010PropOp43
 70
     1
102
RTVSPost2010Prop44ColorIndex
 90
        5
102
RTVSPost2010Prop44ColorRGB
 90
      255
102
RTVSPost2010PropOp44
 70
     1
102
RTVSPost2010Prop45
280
     0
102
RTVSPost2010PropOp45
 70
     1
102
RTVSPost2010Prop46
 90
       50
102
RTVSPost2010PropOp46
 70
     1
102
RTVSPost2010Prop47
 90
       50
102
RTVSPost2010PropOp47
 70
     1
102
RTVSPost2010Prop48
 90
       50
102
RTVSPost2010PropOp48
 70
     1
102
RTVSPost2010Prop49
280
     0
102
RTVSPost2010PropOp49
 70
     1
102
RTVSPost2010Prop50
 90
       50
102
RTVSPost2010PropOp50
 70
     1
102
RTVSPost2010Prop51ColorIndex
 90
      256
102
RTVSPost2010Prop51ColorRGB
 90
-16777216
102
RTVSPost2010PropOp51
 70
     0
102
RTVSPost2010Prop52
140
1.0
102
RTVSPost2010PropOp52
 70
     0
102
RTVSPost2010Prop53
 90
        2
102
RTVSPost2010PropOp53
 70
     1
102
RTVSPost2010Prop54
  1
strokes_ogs.tif
102
RTVSPost2010PropOp54
 70
     1
102
RTVSPost2010Prop55
280
     0
102
RTVSPost2010PropOp55
 70
     1
102
RTVSPost2010Prop56
140
1.0
102
RTVSPost2010PropOp56
 70
     1
102
RTVSPost2010Prop57
140
1.0
102
RTVSPost2010PropOp57
 70
     1
102
RTVSPropertyOp0
 70
     1
102
RTVSPropertyOp1
 70
     1
102
RTVSPropertyOp2
 70
     1
102
RTVSPropertyOp3
 70
     1
102
RTVSPropertyOp4
 70
     1
102
RTVSPropertyOp5
 70
     1
102
RTVSPropertyOp6
 70
     1
102
RTVSPropertyOp7
 70
     1
102
RTVSPropertyOp8
 70
     1
102
RTVSPropertyOp9
 70
     1
102
RTVSPropertyOp10
 70
     1
102
RTVSPropertyOp11
 70
     1
102
RTVSPropertyOp12
 70
     1
102
RTVSPropertyOp13
 70
     1
102
RTVSPropertyOp14
 70
     1
102
RTVSPropertyOp15
 70
     1
102
RTVSPropertyOp16
 70
     1
102
RTVSPropertyOp17
 70
     1
102
RTVSPropertyOp18
 70
     1
102
RTVSPropertyOp19
 70
     1
102
RTVSPropertyOp20
 70
     1
102
RTVSPropertyOp21
 70
     1
102
RTVSPropertyOp22
 70
     1
102
RTVSPropertyOp23
 70
     1
102
RTVSPropertyOp24
 70
     1
102
RTVSPropertyOp25
 70
     1
102
RTVSPropertyOp26
 70
     1
102
RTVSPropertyOp27
 70
     1
102
RTVSPropertyOp28
 70
     1
102
RTVSPropertyOp29
 70
     1
102
RTVSPropertyOp30
 70
     1
102
RTVSPropertyOp31
 70
     1
102
RTVSPropertyOp32
 70
     1
102
RTVSPropertyOp33
 70
     1
102
RTVSPropertyOp34
 70
     1
102
RTVSPropertyOp35
 70
     1
102
RTVSPropertyOp36
 70
     1
102
RTVSPropertyOp37
 70
     1
102
RTVSPropertyOp38
 70
     1
102
RTVSPropertyOp39
 70
     1
102
RTVSPropertyOp40
 70
     1
102
RTVSPropertyOp41
 70
     1
102
RTVSPropertyOp42
 70
     1
102
RTVSPropertyOp43
 70
     1
102
RTVSPropertyOp44
 70
     1
102
RTVSPropertyOp45
 70
     1
102
RTVSPropertyOp46
 70
     1
102
RTVSPropertyOp47
 70
     1
102
RTVSPropertyOp48
 70
     1
102
RTVSPropertyOp49
 70
     1
102
RTVSPropertyOp50
 70
     1
102
RTVSPropertyOp51
 70
     0
102
RTVSPropertyOp52
 70
     0
102
RTVSPropertyOp53
 70
     1
102
RTVSPropertyOp54
 70
     1
102
RTVSPropertyOp55
 70
     1
102
RTVSPropertyOp56
 70
     1
102
RTVSPropertyOp57
 70
     1
102
RTVSPropertyOp58
 70
     1
102
RTVSPropertyOp59
 70
     1
102
RTVSPropertyOp60
 70
     1
102
RTVSPropertyOp61
 70
     1
102
RTVSPropertyOp62
 70
     1
  0
XRECORD
  5
66A
102
{ACAD_REACTORS
330
669
102
}
330
669
100
AcDbXrecord
280
     1
102
RTVSPost2010Prop28
280
     0
102
RTVSPost2010PropOp28
 70
     1
102
RTVSPost2010Prop29
280
     1
102
RTVSPost2010PropOp29
 70
     1
102
RTVSPost2010Prop30
280
     1
102
RTVSPost2010PropOp30
 70
     1
102
RTVSPost2010Prop31
280
     0
102
RTVSPost2010PropOp31
 70
     1
102
RTVSPost2010Prop32
280
     0
102
RTVSPost2010PropOp32
 70
     1
102
RTVSPost2010Prop33
280
     0
102
RTVSPost2010PropOp33
 70
     1
102
RTVSPost2010Prop34
280
     0
102
RTVSPost2010PropOp34
 70
     1
102
RTVSPost2010Prop35
280
     0
102
RTVSPost2010PropOp35
 70
     1
102
RTVSPost2010Prop36
280
     0
102
RTVSPost2010PropOp36
 70
     1
102
RTVSPost2010Prop37
 90
       50
102
RTVSPost2010PropOp37
 70
     1
102
RTVSPost2010Prop38
140
0.0
102
RTVSPost2010PropOp38
 70
     1
102
RTVSPost2010Prop39
140
1.0
102
RTVSPost2010PropOp39
 70
     1
102
RTVSPost2010Prop40
 90
        0
102
RTVSPost2010PropOp40
 70
     1
102
RTVSPost2010Prop41ColorIndex
 90
       18
102
RTVSPost2010Prop41ColorRGB
 90
        0
102
RTVSPost2010PropOp41
 70
     1
102
RTVSPost2010Prop42
 90
       50
102
RTVSPost2010PropOp42
 70
     1
102
RTVSPost2010Prop43
 90
        3
102
RTVSPost2010PropOp43
 70
     1
102
RTVSPost2010Prop44ColorIndex
 90
        5
102
RTVSPost2010Prop44ColorRGB
 90
      255
102
RTVSPost2010PropOp44
 70
     1
102
RTVSPost2010Prop45
280
     0
102
RTVSPost2010PropOp45
 70
     1
102
RTVSPost2010Prop46
 90
       50
102
RTVSPost2010PropOp46
 70
     1
102
RTVSPost2010Prop47
 90
       50
102
RTVSPost2010PropOp47
 70
     1
102
RTVSPost2010Prop48
 90
       50
102
RTVSPost2010PropOp48
 70
     1
102
RTVSPost2010Prop49
280
     0
102
RTVSPost2010PropOp49
 70
     1
102
RTVSPost2010Prop50
 90
       50
102
RTVSPost2010PropOp50
 70
     1
102
RTVSPost2010Prop51ColorIndex
 90
      256
102
RTVSPost2010Prop51ColorRGB
 90
-16777216
102
RTVSPost2010PropOp51
 70
     0
102
RTVSPost2010Prop52
140
1.0
102
RTVSPost2010PropOp52
 70
     0
102
RTVSPost2010Prop53
 90
        2
102
RTVSPost2010PropOp53
 70
     1
102
RTVSPost2010Prop54
  1
strokes_ogs.tif
102
RTVSPost2010PropOp54
 70
     1
102
RTVSPost2010Prop55
280
     0
102
RTVSPost2010PropOp55
 70
     1
102
RTVSPost2010Prop56
140
1.0
102
RTVSPost2010PropOp56
 70
     1
102
RTVSPost2010Prop57
140
1.0
102
RTVSPost2010PropOp57
 70
     1
102
RTVSPropertyOp0
 70
     1
102
RTVSPropertyOp1
 70
     1
102
RTVSPropertyOp2
 70
     1
102
RTVSPropertyOp3
 70
     1
102
RTVSPropertyOp4
 70
     1
102
RTVSPropertyOp5
 70
     1
102
RTVSPropertyOp6
 70
     1
102
RTVSPropertyOp7
 70
     1
102
RTVSPropertyOp8
 70
     1
102
RTVSPropertyOp9
 70
     1
102
RTVSPropertyOp10
 70
     1
102
RTVSPropertyOp11
 70
     1
102
RTVSPropertyOp12
 70
     1
102
RTVSPropertyOp13
 70
     1
102
RTVSPropertyOp14
 70
     1
102
RTVSPropertyOp15
 70
     1
102
RTVSPropertyOp16
 70
     1
102
RTVSPropertyOp17
 70
     1
102
RTVSPropertyOp18
 70
     1
102
RTVSPropertyOp19
 70
     1
102
RTVSPropertyOp20
 70
     1
102
RTVSPropertyOp21
 70
     1
102
RTVSPropertyOp22
 70
     1
102
RTVSPropertyOp23
 70
     1
102
RTVSPropertyOp24
 70
     1
102
RTVSPropertyOp25
 70
     1
102
RTVSPropertyOp26
 70
     1
102
RTVSPropertyOp27
 70
     1
102
RTVSPropertyOp28
 70
     1
102
RTVSPropertyOp29
 70
     1
102
RTVSPropertyOp30
 70
     1
102
RTVSPropertyOp31
 70
     1
102
RTVSPropertyOp32
 70
     1
102
RTVSPropertyOp33
 70
     1
102
RTVSPropertyOp34
 70
     1
102
RTVSPropertyOp35
 70
     1
102
RTVSPropertyOp36
 70
     1
102
RTVSPropertyOp37
 70
     1
102
RTVSPropertyOp38
 70
     1
102
RTVSPropertyOp39
 70
     1
102
RTVSPropertyOp40
 70
     1
102
RTVSPropertyOp41
 70
     1
102
RTVSPropertyOp42
 70
     1
102
RTVSPropertyOp43
 70
     1
102
RTVSPropertyOp44
 70
     1
102
RTVSPropertyOp45
 70
     1
102
RTVSPropertyOp46
 70
     1
102
RTVSPropertyOp47
 70
     1
102
RTVSPropertyOp48
 70
     1
102
RTVSPropertyOp49
 70
     1
102
RTVSPropertyOp50
 70
     1
102
RTVSPropertyOp51
 70
     0
102
RTVSPropertyOp52
 70
     0
102
RTVSPropertyOp53
 70
     1
102
RTVSPropertyOp54
 70
     1
102
RTVSPropertyOp55
 70
     1
102
RTVSPropertyOp56
 70
     1
102
RTVSPropertyOp57
 70
     1
102
RTVSPropertyOp58
 70
     1
102
RTVSPropertyOp59
 70
     1
102
RTVSPropertyOp60
 70
     1
102
RTVSPropertyOp61
 70
     1
102
RTVSPropertyOp62
 70
     1
  0
XRECORD
  5
678
102
{ACAD_REACTORS
330
677
102
}
330
677
100
AcDbXrecord
280
     1
102
RTVSPost2010Prop28
280
     0
102
RTVSPost2010PropOp28
 70
     1
102
RTVSPost2010Prop29
280
     1
102
RTVSPost2010PropOp29
 70
     1
102
RTVSPost2010Prop30
280
     1
102
RTVSPost2010PropOp30
 70
     1
102
RTVSPost2010Prop31
280
     0
102
RTVSPost2010PropOp31
 70
     1
102
RTVSPost2010Prop32
280
     0
102
RTVSPost2010PropOp32
 70
     1
102
RTVSPost2010Prop33
280
     0
102
RTVSPost2010PropOp33
 70
     1
102
RTVSPost2010Prop34
280
     0
102
RTVSPost2010PropOp34
 70
     1
102
RTVSPost2010Prop35
280
     0
102
RTVSPost2010PropOp35
 70
     1
102
RTVSPost2010Prop36
280
     0
102
RTVSPost2010PropOp36
 70
     1
102
RTVSPost2010Prop37
 90
       50
102
RTVSPost2010PropOp37
 70
     1
102
RTVSPost2010Prop38
140
0.0
102
RTVSPost2010PropOp38
 70
     1
102
RTVSPost2010Prop39
140
1.0
102
RTVSPost2010PropOp39
 70
     1
102
RTVSPost2010Prop40
 90
        0
102
RTVSPost2010PropOp40
 70
     1
102
RTVSPost2010Prop41ColorIndex
 90
       18
102
RTVSPost2010Prop41ColorRGB
 90
        0
102
RTVSPost2010PropOp41
 70
     1
102
RTVSPost2010Prop42
 90
       50
102
RTVSPost2010PropOp42
 70
     1
102
RTVSPost2010Prop43
 90
        3
102
RTVSPost2010PropOp43
 70
     1
102
RTVSPost2010Prop44ColorIndex
 90
        5
102
RTVSPost2010Prop44ColorRGB
 90
      255
102
RTVSPost2010PropOp44
 70
     1
102
RTVSPost2010Prop45
280
     0
102
RTVSPost2010PropOp45
 70
     1
102
RTVSPost2010Prop46
 90
       50
102
RTVSPost2010PropOp46
 70
     1
102
RTVSPost2010Prop47
 90
       50
102
RTVSPost2010PropOp47
 70
     1
102
RTVSPost2010Prop48
 90
       50
102
RTVSPost2010PropOp48
 70
     1
102
RTVSPost2010Prop49
280
     0
102
RTVSPost2010PropOp49
 70
     1
102
RTVSPost2010Prop50
 90
       50
102
RTVSPost2010PropOp50
 70
     1
102
RTVSPost2010Prop51ColorIndex
 90
      256
102
RTVSPost2010Prop51ColorRGB
 90
-16777216
102
RTVSPost2010PropOp51
 70
     0
102
RTVSPost2010Prop52
140
1.0
102
RTVSPost2010PropOp52
 70
     0
102
RTVSPost2010Prop53
 90
        2
102
RTVSPost2010PropOp53
 70
     1
102
RTVSPost2010Prop54
  1
strokes_ogs.tif
102
RTVSPost2010PropOp54
 70
     1
102
RTVSPost2010Prop55
280
     0
102
RTVSPost2010PropOp55
 70
     1
102
RTVSPost2010Prop56
140
1.0
102
RTVSPost2010PropOp56
 70
     1
102
RTVSPost2010Prop57
140
1.0
102
RTVSPost2010PropOp57
 70
     1
102
RTVSPropertyOp0
 70
     1
102
RTVSPropertyOp1
 70
     1
102
RTVSPropertyOp2
 70
     1
102
RTVSPropertyOp3
 70
     1
102
RTVSPropertyOp4
 70
     1
102
RTVSPropertyOp5
 70
     1
102
RTVSPropertyOp6
 70
     1
102
RTVSPropertyOp7
 70
     1
102
RTVSPropertyOp8
 70
     1
102
RTVSPropertyOp9
 70
     1
102
RTVSPropertyOp10
 70
     1
102
RTVSPropertyOp11
 70
     1
102
RTVSPropertyOp12
 70
     1
102
RTVSPropertyOp13
 70
     1
102
RTVSPropertyOp14
 70
     1
102
RTVSPropertyOp15
 70
     1
102
RTVSPropertyOp16
 70
     1
102
RTVSPropertyOp17
 70
     1
102
RTVSPropertyOp18
 70
     1
102
RTVSPropertyOp19
 70
     1
102
RTVSPropertyOp20
 70
     1
102
RTVSPropertyOp21
 70
     1
102
RTVSPropertyOp22
 70
     1
102
RTVSPropertyOp23
 70
     1
102
RTVSPropertyOp24
 70
     1
102
RTVSPropertyOp25
 70
     1
102
RTVSPropertyOp26
 70
     1
102
RTVSPropertyOp27
 70
     1
102
RTVSPropertyOp28
 70
     1
102
RTVSPropertyOp29
 70
     1
102
RTVSPropertyOp30
 70
     1
102
RTVSPropertyOp31
 70
     1
102
RTVSPropertyOp32
 70
     1
102
RTVSPropertyOp33
 70
     1
102
RTVSPropertyOp34
 70
     1
102
RTVSPropertyOp35
 70
     1
102
RTVSPropertyOp36
 70
     1
102
RTVSPropertyOp37
 70
     1
102
RTVSPropertyOp38
 70
     1
102
RTVSPropertyOp39
 70
     1
102
RTVSPropertyOp40
 70
     1
102
RTVSPropertyOp41
 70
     1
102
RTVSPropertyOp42
 70
     1
102
RTVSPropertyOp43
 70
     1
102
RTVSPropertyOp44
 70
     1
102
RTVSPropertyOp45
 70
     1
102
RTVSPropertyOp46
 70
     1
102
RTVSPropertyOp47
 70
     1
102
RTVSPropertyOp48
 70
     1
102
RTVSPropertyOp49
 70
     1
102
RTVSPropertyOp50
 70
     1
102
RTVSPropertyOp51
 70
     0
102
RTVSPropertyOp52
 70
     0
102
RTVSPropertyOp53
 70
     1
102
RTVSPropertyOp54
 70
     1
102
RTVSPropertyOp55
 70
     1
102
RTVSPropertyOp56
 70
     1
102
RTVSPropertyOp57
 70
     1
102
RTVSPropertyOp58
 70
     1
102
RTVSPropertyOp59
 70
     1
102
RTVSPropertyOp60
 70
     1
102
RTVSPropertyOp61
 70
     1
102
RTVSPropertyOp62
 70
     1
  0
XRECORD
  5
680
102
{ACAD_REACTORS
330
67F
102
}
330
67F
100
AcDbXrecord
280
     1
102
RTVSPost2010Prop28
280
     0
102
RTVSPost2010PropOp28
 70
     1
102
RTVSPost2010Prop29
280
     1
102
RTVSPost2010PropOp29
 70
     1
102
RTVSPost2010Prop30
280
     1
102
RTVSPost2010PropOp30
 70
     1
102
RTVSPost2010Prop31
280
     0
102
RTVSPost2010PropOp31
 70
     1
102
RTVSPost2010Prop32
280
     0
102
RTVSPost2010PropOp32
 70
     1
102
RTVSPost2010Prop33
280
     0
102
RTVSPost2010PropOp33
 70
     1
102
RTVSPost2010Prop34
280
     0
102
RTVSPost2010PropOp34
 70
     1
102
RTVSPost2010Prop35
280
     0
102
RTVSPost2010PropOp35
 70
     1
102
RTVSPost2010Prop36
280
     0
102
RTVSPost2010PropOp36
 70
     1
102
RTVSPost2010Prop37
 90
       50
102
RTVSPost2010PropOp37
 70
     1
102
RTVSPost2010Prop38
140
0.0
102
RTVSPost2010PropOp38
 70
     1
102
RTVSPost2010Prop39
140
1.0
102
RTVSPost2010PropOp39
 70
     1
102
RTVSPost2010Prop40
 90
        0
102
RTVSPost2010PropOp40
 70
     1
102
RTVSPost2010Prop41ColorIndex
 90
       18
102
RTVSPost2010Prop41ColorRGB
 90
        0
102
RTVSPost2010PropOp41
 70
     1
102
RTVSPost2010Prop42
 90
       50
102
RTVSPost2010PropOp42
 70
     1
102
RTVSPost2010Prop43
 90
        3
102
RTVSPost2010PropOp43
 70
     1
102
RTVSPost2010Prop44ColorIndex
 90
        5
102
RTVSPost2010Prop44ColorRGB
 90
      255
102
RTVSPost2010PropOp44
 70
     1
102
RTVSPost2010Prop45
280
     0
102
RTVSPost2010PropOp45
 70
     1
102
RTVSPost2010Prop46
 90
       50
102
RTVSPost2010PropOp46
 70
     1
102
RTVSPost2010Prop47
 90
       50
102
RTVSPost2010PropOp47
 70
     1
102
RTVSPost2010Prop48
 90
       50
102
RTVSPost2010PropOp48
 70
     1
102
RTVSPost2010Prop49
280
     0
102
RTVSPost2010PropOp49
 70
     1
102
RTVSPost2010Prop50
 90
       50
102
RTVSPost2010PropOp50
 70
     1
102
RTVSPost2010Prop51ColorIndex
 90
      256
102
RTVSPost2010Prop51ColorRGB
 90
-16777216
102
RTVSPost2010PropOp51
 70
     0
102
RTVSPost2010Prop52
140
1.0
102
RTVSPost2010PropOp52
 70
     0
102
RTVSPost2010Prop53
 90
        2
102
RTVSPost2010PropOp53
 70
     1
102
RTVSPost2010Prop54
  1
strokes_ogs.tif
102
RTVSPost2010PropOp54
 70
     1
102
RTVSPost2010Prop55
280
     0
102
RTVSPost2010PropOp55
 70
     1
102
RTVSPost2010Prop56
140
1.0
102
RTVSPost2010PropOp56
 70
     1
102
RTVSPost2010Prop57
140
1.0
102
RTVSPost2010PropOp57
 70
     1
102
RTVSPropertyOp0
 70
     1
102
RTVSPropertyOp1
 70
     1
102
RTVSPropertyOp2
 70
     1
102
RTVSPropertyOp3
 70
     1
102
RTVSPropertyOp4
 70
     1
102
RTVSPropertyOp5
 70
     1
102
RTVSPropertyOp6
 70
     1
102
RTVSPropertyOp7
 70
     1
102
RTVSPropertyOp8
 70
     1
102
RTVSPropertyOp9
 70
     1
102
RTVSPropertyOp10
 70
     1
102
RTVSPropertyOp11
 70
     1
102
RTVSPropertyOp12
 70
     1
102
RTVSPropertyOp13
 70
     1
102
RTVSPropertyOp14
 70
     1
102
RTVSPropertyOp15
 70
     1
102
RTVSPropertyOp16
 70
     1
102
RTVSPropertyOp17
 70
     1
102
RTVSPropertyOp18
 70
     1
102
RTVSPropertyOp19
 70
     1
102
RTVSPropertyOp20
 70
     1
102
RTVSPropertyOp21
 70
     1
102
RTVSPropertyOp22
 70
     1
102
RTVSPropertyOp23
 70
     1
102
RTVSPropertyOp24
 70
     1
102
RTVSPropertyOp25
 70
     1
102
RTVSPropertyOp26
 70
     1
102
RTVSPropertyOp27
 70
     1
102
RTVSPropertyOp28
 70
     1
102
RTVSPropertyOp29
 70
     1
102
RTVSPropertyOp30
 70
     1
102
RTVSPropertyOp31
 70
     1
102
RTVSPropertyOp32
 70
     1
102
RTVSPropertyOp33
 70
     1
102
RTVSPropertyOp34
 70
     1
102
RTVSPropertyOp35
 70
     1
102
RTVSPropertyOp36
 70
     1
102
RTVSPropertyOp37
 70
     1
102
RTVSPropertyOp38
 70
     1
102
RTVSPropertyOp39
 70
     1
102
RTVSPropertyOp40
 70
     1
102
RTVSPropertyOp41
 70
     1
102
RTVSPropertyOp42
 70
     1
102
RTVSPropertyOp43
 70
     1
102
RTVSPropertyOp44
 70
     1
102
RTVSPropertyOp45
 70
     1
102
RTVSPropertyOp46
 70
     1
102
RTVSPropertyOp47
 70
     1
102
RTVSPropertyOp48
 70
     1
102
RTVSPropertyOp49
 70
     1
102
RTVSPropertyOp50
 70
     1
102
RTVSPropertyOp51
 70
     0
102
RTVSPropertyOp52
 70
     0
102
RTVSPropertyOp53
 70
     1
102
RTVSPropertyOp54
 70
     1
102
RTVSPropertyOp55
 70
     1
102
RTVSPropertyOp56
 70
     1
102
RTVSPropertyOp57
 70
     1
102
RTVSPropertyOp58
 70
     1
102
RTVSPropertyOp59
 70
     1
102
RTVSPropertyOp60
 70
     1
102
RTVSPropertyOp61
 70
     1
102
RTVSPropertyOp62
 70
     1
  0
XRECORD
  5
672
102
{ACAD_REACTORS
330
671
102
}
330
671
100
AcDbXrecord
280
     1
102
RTVSPost2010Prop28
280
     0
102
RTVSPost2010PropOp28
 70
     1
102
RTVSPost2010Prop29
280
     1
102
RTVSPost2010PropOp29
 70
     1
102
RTVSPost2010Prop30
280
     1
102
RTVSPost2010PropOp30
 70
     1
102
RTVSPost2010Prop31
280
     0
102
RTVSPost2010PropOp31
 70
     1
102
RTVSPost2010Prop32
280
     0
102
RTVSPost2010PropOp32
 70
     1
102
RTVSPost2010Prop33
280
     0
102
RTVSPost2010PropOp33
 70
     1
102
RTVSPost2010Prop34
280
     0
102
RTVSPost2010PropOp34
 70
     1
102
RTVSPost2010Prop35
280
     0
102
RTVSPost2010PropOp35
 70
     1
102
RTVSPost2010Prop36
280
     0
102
RTVSPost2010PropOp36
 70
     1
102
RTVSPost2010Prop37
 90
       50
102
RTVSPost2010PropOp37
 70
     1
102
RTVSPost2010Prop38
140
0.0
102
RTVSPost2010PropOp38
 70
     1
102
RTVSPost2010Prop39
140
1.0
102
RTVSPost2010PropOp39
 70
     1
102
RTVSPost2010Prop40
 90
        0
102
RTVSPost2010PropOp40
 70
     1
102
RTVSPost2010Prop41ColorIndex
 90
       18
102
RTVSPost2010Prop41ColorRGB
 90
        0
102
RTVSPost2010PropOp41
 70
     1
102
RTVSPost2010Prop42
 90
       50
102
RTVSPost2010PropOp42
 70
     1
102
RTVSPost2010Prop43
 90
        3
102
RTVSPost2010PropOp43
 70
     1
102
RTVSPost2010Prop44ColorIndex
 90
        5
102
RTVSPost2010Prop44ColorRGB
 90
      255
102
RTVSPost2010PropOp44
 70
     1
102
RTVSPost2010Prop45
280
     0
102
RTVSPost2010PropOp45
 70
     1
102
RTVSPost2010Prop46
 90
       50
102
RTVSPost2010PropOp46
 70
     1
102
RTVSPost2010Prop47
 90
       50
102
RTVSPost2010PropOp47
 70
     1
102
RTVSPost2010Prop48
 90
       50
102
RTVSPost2010PropOp48
 70
     1
102
RTVSPost2010Prop49
280
     0
102
RTVSPost2010PropOp49
 70
     1
102
RTVSPost2010Prop50
 90
       50
102
RTVSPost2010PropOp50
 70
     1
102
RTVSPost2010Prop51ColorIndex
 90
      256
102
RTVSPost2010Prop51ColorRGB
 90
-16777216
102
RTVSPost2010PropOp51
 70
     0
102
RTVSPost2010Prop52
140
1.0
102
RTVSPost2010PropOp52
 70
     0
102
RTVSPost2010Prop53
 90
        2
102
RTVSPost2010PropOp53
 70
     1
102
RTVSPost2010Prop54
  1
strokes_ogs.tif
102
RTVSPost2010PropOp54
 70
     1
102
RTVSPost2010Prop55
280
     0
102
RTVSPost2010PropOp55
 70
     1
102
RTVSPost2010Prop56
140
1.0
102
RTVSPost2010PropOp56
 70
     1
102
RTVSPost2010Prop57
140
1.0
102
RTVSPost2010PropOp57
 70
     1
102
RTVSPropertyOp0
 70
     1
102
RTVSPropertyOp1
 70
     1
102
RTVSPropertyOp2
 70
     1
102
RTVSPropertyOp3
 70
     1
102
RTVSPropertyOp4
 70
     1
102
RTVSPropertyOp5
 70
     1
102
RTVSPropertyOp6
 70
     1
102
RTVSPropertyOp7
 70
     1
102
RTVSPropertyOp8
 70
     1
102
RTVSPropertyOp9
 70
     1
102
RTVSPropertyOp10
 70
     1
102
RTVSPropertyOp11
 70
     1
102
RTVSPropertyOp12
 70
     1
102
RTVSPropertyOp13
 70
     1
102
RTVSPropertyOp14
 70
     1
102
RTVSPropertyOp15
 70
     1
102
RTVSPropertyOp16
 70
     1
102
RTVSPropertyOp17
 70
     1
102
RTVSPropertyOp18
 70
     1
102
RTVSPropertyOp19
 70
     1
102
RTVSPropertyOp20
 70
     1
102
RTVSPropertyOp21
 70
     1
102
RTVSPropertyOp22
 70
     1
102
RTVSPropertyOp23
 70
     1
102
RTVSPropertyOp24
 70
     1
102
RTVSPropertyOp25
 70
     1
102
RTVSPropertyOp26
 70
     1
102
RTVSPropertyOp27
 70
     1
102
RTVSPropertyOp28
 70
     1
102
RTVSPropertyOp29
 70
     1
102
RTVSPropertyOp30
 70
     1
102
RTVSPropertyOp31
 70
     1
102
RTVSPropertyOp32
 70
     1
102
RTVSPropertyOp33
 70
     1
102
RTVSPropertyOp34
 70
     1
102
RTVSPropertyOp35
 70
     1
102
RTVSPropertyOp36
 70
     1
102
RTVSPropertyOp37
 70
     1
102
RTVSPropertyOp38
 70
     1
102
RTVSPropertyOp39
 70
     1
102
RTVSPropertyOp40
 70
     1
102
RTVSPropertyOp41
 70
     1
102
RTVSPropertyOp42
 70
     1
102
RTVSPropertyOp43
 70
     1
102
RTVSPropertyOp44
 70
     1
102
RTVSPropertyOp45
 70
     1
102
RTVSPropertyOp46
 70
     1
102
RTVSPropertyOp47
 70
     1
102
RTVSPropertyOp48
 70
     1
102
RTVSPropertyOp49
 70
     1
102
RTVSPropertyOp50
 70
     1
102
RTVSPropertyOp51
 70
     0
102
RTVSPropertyOp52
 70
     0
102
RTVSPropertyOp53
 70
     1
102
RTVSPropertyOp54
 70
     1
102
RTVSPropertyOp55
 70
     1
102
RTVSPropertyOp56
 70
     1
102
RTVSPropertyOp57
 70
     1
102
RTVSPropertyOp58
 70
     1
102
RTVSPropertyOp59
 70
     1
102
RTVSPropertyOp60
 70
     1
102
RTVSPropertyOp61
 70
     1
102
RTVSPropertyOp62
 70
     1
  0
XRECORD
  5
676
102
{ACAD_REACTORS
330
675
102
}
330
675
100
AcDbXrecord
280
     1
102
RTVSPost2010Prop28
280
     0
102
RTVSPost2010PropOp28
 70
     1
102
RTVSPost2010Prop29
280
     1
102
RTVSPost2010PropOp29
 70
     1
102
RTVSPost2010Prop30
280
     1
102
RTVSPost2010PropOp30
 70
     1
102
RTVSPost2010Prop31
280
     0
102
RTVSPost2010PropOp31
 70
     1
102
RTVSPost2010Prop32
280
     0
102
RTVSPost2010PropOp32
 70
     1
102
RTVSPost2010Prop33
280
     0
102
RTVSPost2010PropOp33
 70
     1
102
RTVSPost2010Prop34
280
     0
102
RTVSPost2010PropOp34
 70
     1
102
RTVSPost2010Prop35
280
     0
102
RTVSPost2010PropOp35
 70
     1
102
RTVSPost2010Prop36
280
     0
102
RTVSPost2010PropOp36
 70
     1
102
RTVSPost2010Prop37
 90
       50
102
RTVSPost2010PropOp37
 70
     1
102
RTVSPost2010Prop38
140
0.0
102
RTVSPost2010PropOp38
 70
     1
102
RTVSPost2010Prop39
140
1.0
102
RTVSPost2010PropOp39
 70
     1
102
RTVSPost2010Prop40
 90
        0
102
RTVSPost2010PropOp40
 70
     1
102
RTVSPost2010Prop41ColorIndex
 90
       18
102
RTVSPost2010Prop41ColorRGB
 90
        0
102
RTVSPost2010PropOp41
 70
     1
102
RTVSPost2010Prop42
 90
       50
102
RTVSPost2010PropOp42
 70
     1
102
RTVSPost2010Prop43
 90
        3
102
RTVSPost2010PropOp43
 70
     1
102
RTVSPost2010Prop44ColorIndex
 90
        5
102
RTVSPost2010Prop44ColorRGB
 90
      255
102
RTVSPost2010PropOp44
 70
     1
102
RTVSPost2010Prop45
280
     0
102
RTVSPost2010PropOp45
 70
     1
102
RTVSPost2010Prop46
 90
       50
102
RTVSPost2010PropOp46
 70
     1
102
RTVSPost2010Prop47
 90
       50
102
RTVSPost2010PropOp47
 70
     1
102
RTVSPost2010Prop48
 90
       50
102
RTVSPost2010PropOp48
 70
     1
102
RTVSPost2010Prop49
280
     0
102
RTVSPost2010PropOp49
 70
     1
102
RTVSPost2010Prop50
 90
       50
102
RTVSPost2010PropOp50
 70
     1
102
RTVSPost2010Prop51ColorIndex
 90
      256
102
RTVSPost2010Prop51ColorRGB
 90
-16777216
102
RTVSPost2010PropOp51
 70
     0
102
RTVSPost2010Prop52
140
1.0
102
RTVSPost2010PropOp52
 70
     0
102
RTVSPost2010Prop53
 90
        2
102
RTVSPost2010PropOp53
 70
     1
102
RTVSPost2010Prop54
  1
strokes_ogs.tif
102
RTVSPost2010PropOp54
 70
     1
102
RTVSPost2010Prop55
280
     0
102
RTVSPost2010PropOp55
 70
     1
102
RTVSPost2010Prop56
140
1.0
102
RTVSPost2010PropOp56
 70
     1
102
RTVSPost2010Prop57
140
1.0
102
RTVSPost2010PropOp57
 70
     1
102
RTVSPropertyOp0
 70
     1
102
RTVSPropertyOp1
 70
     1
102
RTVSPropertyOp2
 70
     1
102
RTVSPropertyOp3
 70
     1
102
RTVSPropertyOp4
 70
     1
102
RTVSPropertyOp5
 70
     1
102
RTVSPropertyOp6
 70
     1
102
RTVSPropertyOp7
 70
     1
102
RTVSPropertyOp8
 70
     1
102
RTVSPropertyOp9
 70
     1
102
RTVSPropertyOp10
 70
     1
102
RTVSPropertyOp11
 70
     1
102
RTVSPropertyOp12
 70
     1
102
RTVSPropertyOp13
 70
     1
102
RTVSPropertyOp14
 70
     1
102
RTVSPropertyOp15
 70
     1
102
RTVSPropertyOp16
 70
     1
102
RTVSPropertyOp17
 70
     1
102
RTVSPropertyOp18
 70
     1
102
RTVSPropertyOp19
 70
     1
102
RTVSPropertyOp20
 70
     1
102
RTVSPropertyOp21
 70
     1
102
RTVSPropertyOp22
 70
     1
102
RTVSPropertyOp23
 70
     1
102
RTVSPropertyOp24
 70
     1
102
RTVSPropertyOp25
 70
     1
102
RTVSPropertyOp26
 70
     1
102
RTVSPropertyOp27
 70
     1
102
RTVSPropertyOp28
 70
     1
102
RTVSPropertyOp29
 70
     1
102
RTVSPropertyOp30
 70
     1
102
RTVSPropertyOp31
 70
     1
102
RTVSPropertyOp32
 70
     1
102
RTVSPropertyOp33
 70
     1
102
RTVSPropertyOp34
 70
     1
102
RTVSPropertyOp35
 70
     1
102
RTVSPropertyOp36
 70
     1
102
RTVSPropertyOp37
 70
     1
102
RTVSPropertyOp38
 70
     1
102
RTVSPropertyOp39
 70
     1
102
RTVSPropertyOp40
 70
     1
102
RTVSPropertyOp41
 70
     1
102
RTVSPropertyOp42
 70
     1
102
RTVSPropertyOp43
 70
     1
102
RTVSPropertyOp44
 70
     1
102
RTVSPropertyOp45
 70
     1
102
RTVSPropertyOp46
 70
     1
102
RTVSPropertyOp47
 70
     1
102
RTVSPropertyOp48
 70
     1
102
RTVSPropertyOp49
 70
     1
102
RTVSPropertyOp50
 70
     1
102
RTVSPropertyOp51
 70
     0
102
RTVSPropertyOp52
 70
     0
102
RTVSPropertyOp53
 70
     1
102
RTVSPropertyOp54
 70
     1
102
RTVSPropertyOp55
 70
     1
102
RTVSPropertyOp56
 70
     1
102
RTVSPropertyOp57
 70
     1
102
RTVSPropertyOp58
 70
     1
102
RTVSPropertyOp59
 70
     1
102
RTVSPropertyOp60
 70
     1
102
RTVSPropertyOp61
 70
     1
102
RTVSPropertyOp62
 70
     1
  0
XRECORD
  5
690
102
{ACAD_REACTORS
330
68F
102
}
330
68F
100
AcDbXrecord
280
     1
102
RTVSPost2010Prop28
280
     0
102
RTVSPost2010PropOp28
 70
     1
102
RTVSPost2010Prop29
280
     1
102
RTVSPost2010PropOp29
 70
     1
102
RTVSPost2010Prop30
280
     1
102
RTVSPost2010PropOp30
 70
     1
102
RTVSPost2010Prop31
280
     0
102
RTVSPost2010PropOp31
 70
     1
102
RTVSPost2010Prop32
280
     0
102
RTVSPost2010PropOp32
 70
     1
102
RTVSPost2010Prop33
280
     0
102
RTVSPost2010PropOp33
 70
     1
102
RTVSPost2010Prop34
280
     0
102
RTVSPost2010PropOp34
 70
     1
102
RTVSPost2010Prop35
280
     0
102
RTVSPost2010PropOp35
 70
     1
102
RTVSPost2010Prop36
280
     0
102
RTVSPost2010PropOp36
 70
     1
102
RTVSPost2010Prop37
 90
       50
102
RTVSPost2010PropOp37
 70
     0
102
RTVSPost2010Prop38
140
0.0
102
RTVSPost2010PropOp38
 70
     0
102
RTVSPost2010Prop39
140
1.0
102
RTVSPost2010PropOp39
 70
     0
102
RTVSPost2010Prop40
 90
        0
102
RTVSPost2010PropOp40
 70
     0
102
RTVSPost2010Prop41ColorIndex
 90
       18
102
RTVSPost2010Prop41ColorRGB
 90
        0
102
RTVSPost2010PropOp41
 70
     0
102
RTVSPost2010Prop42
 90
       50
102
RTVSPost2010PropOp42
 70
     0
102
RTVSPost2010Prop43
 90
        3
102
RTVSPost2010PropOp43
 70
     0
102
RTVSPost2010Prop44ColorIndex
 90
        5
102
RTVSPost2010Prop44ColorRGB
 90
      255
102
RTVSPost2010PropOp44
 70
     0
102
RTVSPost2010Prop45
280
     0
102
RTVSPost2010PropOp45
 70
     1
102
RTVSPost2010Prop46
 90
       50
102
RTVSPost2010PropOp46
 70
     0
102
RTVSPost2010Prop47
 90
       50
102
RTVSPost2010PropOp47
 70
     0
102
RTVSPost2010Prop48
 90
       50
102
RTVSPost2010PropOp48
 70
     0
102
RTVSPost2010Prop49
280
     0
102
RTVSPost2010PropOp49
 70
     1
102
RTVSPost2010Prop50
 90
       50
102
RTVSPost2010PropOp50
 70
     0
102
RTVSPost2010Prop51ColorIndex
 90
      256
102
RTVSPost2010Prop51ColorRGB
 90
-16777216
102
RTVSPost2010PropOp51
 70
     0
102
RTVSPost2010Prop52
140
1.0
102
RTVSPost2010PropOp52
 70
     0
102
RTVSPost2010Prop53
 90
        2
102
RTVSPost2010PropOp53
 70
     0
102
RTVSPost2010Prop54
  1
strokes_ogs.tif
102
RTVSPost2010PropOp54
 70
     0
102
RTVSPost2010Prop55
280
     0
102
RTVSPost2010PropOp55
 70
     1
102
RTVSPost2010Prop56
140
1.0
102
RTVSPost2010PropOp56
 70
     0
102
RTVSPost2010Prop57
140
1.0
102
RTVSPost2010PropOp57
 70
     0
102
RTVSPropertyOp0
 70
     0
102
RTVSPropertyOp1
 70
     0
102
RTVSPropertyOp2
 70
     0
102
RTVSPropertyOp3
 70
     0
102
RTVSPropertyOp4
 70
     0
102
RTVSPropertyOp5
 70
     0
102
RTVSPropertyOp6
 70
     0
102
RTVSPropertyOp7
 70
     0
102
RTVSPropertyOp8
 70
     0
102
RTVSPropertyOp9
 70
     0
102
RTVSPropertyOp10
 70
     0
102
RTVSPropertyOp11
 70
     0
102
RTVSPropertyOp12
 70
     0
102
RTVSPropertyOp13
 70
     0
102
RTVSPropertyOp14
 70
     2
102
RTVSPropertyOp15
 70
     0
102
RTVSPropertyOp16
 70
     0
102
RTVSPropertyOp17
 70
     0
102
RTVSPropertyOp18
 70
     0
102
RTVSPropertyOp19
 70
     0
102
RTVSPropertyOp20
 70
     0
102
RTVSPropertyOp21
 70
     0
102
RTVSPropertyOp22
 70
     0
102
RTVSPropertyOp23
 70
     0
102
RTVSPropertyOp24
 70
     0
102
RTVSPropertyOp25
 70
     0
102
RTVSPropertyOp26
 70
     0
102
RTVSPropertyOp27
 70
     0
102
RTVSPropertyOp28
 70
     1
102
RTVSPropertyOp29
 70
     1
102
RTVSPropertyOp30
 70
     1
102
RTVSPropertyOp31
 70
     1
102
RTVSPropertyOp32
 70
     1
102
RTVSPropertyOp33
 70
     1
102
RTVSPropertyOp34
 70
     1
102
RTVSPropertyOp35
 70
     1
102
RTVSPropertyOp36
 70
     1
102
RTVSPropertyOp37
 70
     0
102
RTVSPropertyOp38
 70
     0
102
RTVSPropertyOp39
 70
     0
102
RTVSPropertyOp40
 70
     0
102
RTVSPropertyOp41
 70
     0
102
RTVSPropertyOp42
 70
     0
102
RTVSPropertyOp43
 70
     0
102
RTVSPropertyOp44
 70
     0
102
RTVSPropertyOp45
 70
     1
102
RTVSPropertyOp46
 70
     0
102
RTVSPropertyOp47
 70
     0
102
RTVSPropertyOp48
 70
     0
102
RTVSPropertyOp49
 70
     1
102
RTVSPropertyOp50
 70
     0
102
RTVSPropertyOp51
 70
     0
102
RTVSPropertyOp52
 70
     0
102
RTVSPropertyOp53
 70
     0
102
RTVSPropertyOp54
 70
     0
102
RTVSPropertyOp55
 70
     1
102
RTVSPropertyOp56
 70
     0
102
RTVSPropertyOp57
 70
     0
102
RTVSPropertyOp58
 70
     0
102
RTVSPropertyOp59
 70
     0
102
RTVSPropertyOp60
 70
     0
102
RTVSPropertyOp61
 70
     0
102
RTVSPropertyOp62
 70
     0
  0
XRECORD
  5
67E
102
{ACAD_REACTORS
330
67D
102
}
330
67D
100
AcDbXrecord
280
     1
102
RTVSPost2010Prop28
280
     0
102
RTVSPost2010PropOp28
 70
     1
102
RTVSPost2010Prop29
280
     1
102
RTVSPost2010PropOp29
 70
     1
102
RTVSPost2010Prop30
280
     1
102
RTVSPost2010PropOp30
 70
     1
102
RTVSPost2010Prop31
280
     0
102
RTVSPost2010PropOp31
 70
     1
102
RTVSPost2010Prop32
280
     0
102
RTVSPost2010PropOp32
 70
     1
102
RTVSPost2010Prop33
280
     0
102
RTVSPost2010PropOp33
 70
     1
102
RTVSPost2010Prop34
280
     0
102
RTVSPost2010PropOp34
 70
     1
102
RTVSPost2010Prop35
280
     0
102
RTVSPost2010PropOp35
 70
     1
102
RTVSPost2010Prop36
280
     0
102
RTVSPost2010PropOp36
 70
     1
102
RTVSPost2010Prop37
 90
       50
102
RTVSPost2010PropOp37
 70
     1
102
RTVSPost2010Prop38
140
0.0
102
RTVSPost2010PropOp38
 70
     1
102
RTVSPost2010Prop39
140
1.0
102
RTVSPost2010PropOp39
 70
     1
102
RTVSPost2010Prop40
 90
        0
102
RTVSPost2010PropOp40
 70
     1
102
RTVSPost2010Prop41ColorIndex
 90
       18
102
RTVSPost2010Prop41ColorRGB
 90
        0
102
RTVSPost2010PropOp41
 70
     1
102
RTVSPost2010Prop42
 90
       50
102
RTVSPost2010PropOp42
 70
     1
102
RTVSPost2010Prop43
 90
        3
102
RTVSPost2010PropOp43
 70
     1
102
RTVSPost2010Prop44ColorIndex
 90
        5
102
RTVSPost2010Prop44ColorRGB
 90
      255
102
RTVSPost2010PropOp44
 70
     1
102
RTVSPost2010Prop45
280
     0
102
RTVSPost2010PropOp45
 70
     1
102
RTVSPost2010Prop46
 90
       50
102
RTVSPost2010PropOp46
 70
     1
102
RTVSPost2010Prop47
 90
       50
102
RTVSPost2010PropOp47
 70
     1
102
RTVSPost2010Prop48
 90
       50
102
RTVSPost2010PropOp48
 70
     1
102
RTVSPost2010Prop49
280
     0
102
RTVSPost2010PropOp49
 70
     1
102
RTVSPost2010Prop50
 90
       50
102
RTVSPost2010PropOp50
 70
     1
102
RTVSPost2010Prop51ColorIndex
 90
      256
102
RTVSPost2010Prop51ColorRGB
 90
-16777216
102
RTVSPost2010PropOp51
 70
     0
102
RTVSPost2010Prop52
140
1.0
102
RTVSPost2010PropOp52
 70
     0
102
RTVSPost2010Prop53
 90
        2
102
RTVSPost2010PropOp53
 70
     1
102
RTVSPost2010Prop54
  1
strokes_ogs.tif
102
RTVSPost2010PropOp54
 70
     1
102
RTVSPost2010Prop55
280
     0
102
RTVSPost2010PropOp55
 70
     1
102
RTVSPost2010Prop56
140
1.0
102
RTVSPost2010PropOp56
 70
     1
102
RTVSPost2010Prop57
140
1.0
102
RTVSPost2010PropOp57
 70
     1
102
RTVSPropertyOp0
 70
     1
102
RTVSPropertyOp1
 70
     1
102
RTVSPropertyOp2
 70
     1
102
RTVSPropertyOp3
 70
     1
102
RTVSPropertyOp4
 70
     1
102
RTVSPropertyOp5
 70
     1
102
RTVSPropertyOp6
 70
     1
102
RTVSPropertyOp7
 70
     1
102
RTVSPropertyOp8
 70
     1
102
RTVSPropertyOp9
 70
     1
102
RTVSPropertyOp10
 70
     1
102
RTVSPropertyOp11
 70
     1
102
RTVSPropertyOp12
 70
     1
102
RTVSPropertyOp13
 70
     1
102
RTVSPropertyOp14
 70
     1
102
RTVSPropertyOp15
 70
     1
102
RTVSPropertyOp16
 70
     1
102
RTVSPropertyOp17
 70
     1
102
RTVSPropertyOp18
 70
     1
102
RTVSPropertyOp19
 70
     1
102
RTVSPropertyOp20
 70
     1
102
RTVSPropertyOp21
 70
     1
102
RTVSPropertyOp22
 70
     1
102
RTVSPropertyOp23
 70
     1
102
RTVSPropertyOp24
 70
     1
102
RTVSPropertyOp25
 70
     1
102
RTVSPropertyOp26
 70
     1
102
RTVSPropertyOp27
 70
     1
102
RTVSPropertyOp28
 70
     1
102
RTVSPropertyOp29
 70
     1
102
RTVSPropertyOp30
 70
     1
102
RTVSPropertyOp31
 70
     1
102
RTVSPropertyOp32
 70
     1
102
RTVSPropertyOp33
 70
     1
102
RTVSPropertyOp34
 70
     1
102
RTVSPropertyOp35
 70
     1
102
RTVSPropertyOp36
 70
     1
102
RTVSPropertyOp37
 70
     1
102
RTVSPropertyOp38
 70
     1
102
RTVSPropertyOp39
 70
     1
102
RTVSPropertyOp40
 70
     1
102
RTVSPropertyOp41
 70
     1
102
RTVSPropertyOp42
 70
     1
102
RTVSPropertyOp43
 70
     1
102
RTVSPropertyOp44
 70
     1
102
RTVSPropertyOp45
 70
     1
102
RTVSPropertyOp46
 70
     1
102
RTVSPropertyOp47
 70
     1
102
RTVSPropertyOp48
 70
     1
102
RTVSPropertyOp49
 70
     1
102
RTVSPropertyOp50
 70
     1
102
RTVSPropertyOp51
 70
     0
102
RTVSPropertyOp52
 70
     0
102
RTVSPropertyOp53
 70
     1
102
RTVSPropertyOp54
 70
     1
102
RTVSPropertyOp55
 70
     1
102
RTVSPropertyOp56
 70
     1
102
RTVSPropertyOp57
 70
     1
102
RTVSPropertyOp58
 70
     1
102
RTVSPropertyOp59
 70
     1
102
RTVSPropertyOp60
 70
     1
102
RTVSPropertyOp61
 70
     1
102
RTVSPropertyOp62
 70
     1
  0
XRECORD
  5
662
102
{ACAD_REACTORS
330
661
102
}
330
661
100
AcDbXrecord
280
     1
102
RTVSPost2010Prop28
280
     0
102
RTVSPost2010PropOp28
 70
     1
102
RTVSPost2010Prop29
280
     1
102
RTVSPost2010PropOp29
 70
     1
102
RTVSPost2010Prop30
280
     1
102
RTVSPost2010PropOp30
 70
     1
102
RTVSPost2010Prop31
280
     0
102
RTVSPost2010PropOp31
 70
     1
102
RTVSPost2010Prop32
280
     0
102
RTVSPost2010PropOp32
 70
     1
102
RTVSPost2010Prop33
280
     0
102
RTVSPost2010PropOp33
 70
     1
102
RTVSPost2010Prop34
280
     0
102
RTVSPost2010PropOp34
 70
     1
102
RTVSPost2010Prop35
280
     0
102
RTVSPost2010PropOp35
 70
     1
102
RTVSPost2010Prop36
280
     0
102
RTVSPost2010PropOp36
 70
     1
102
RTVSPost2010Prop37
 90
       50
102
RTVSPost2010PropOp37
 70
     1
102
RTVSPost2010Prop38
140
0.0
102
RTVSPost2010PropOp38
 70
     1
102
RTVSPost2010Prop39
140
1.0
102
RTVSPost2010PropOp39
 70
     1
102
RTVSPost2010Prop40
 90
        0
102
RTVSPost2010PropOp40
 70
     1
102
RTVSPost2010Prop41ColorIndex
 90
       18
102
RTVSPost2010Prop41ColorRGB
 90
        0
102
RTVSPost2010PropOp41
 70
     1
102
RTVSPost2010Prop42
 90
       50
102
RTVSPost2010PropOp42
 70
     1
102
RTVSPost2010Prop43
 90
        3
102
RTVSPost2010PropOp43
 70
     1
102
RTVSPost2010Prop44ColorIndex
 90
        5
102
RTVSPost2010Prop44ColorRGB
 90
      255
102
RTVSPost2010PropOp44
 70
     1
102
RTVSPost2010Prop45
280
     0
102
RTVSPost2010PropOp45
 70
     1
102
RTVSPost2010Prop46
 90
       50
102
RTVSPost2010PropOp46
 70
     1
102
RTVSPost2010Prop47
 90
       50
102
RTVSPost2010PropOp47
 70
     1
102
RTVSPost2010Prop48
 90
       50
102
RTVSPost2010PropOp48
 70
     1
102
RTVSPost2010Prop49
280
     0
102
RTVSPost2010PropOp49
 70
     1
102
RTVSPost2010Prop50
 90
       50
102
RTVSPost2010PropOp50
 70
     1
102
RTVSPost2010Prop51ColorIndex
 90
      256
102
RTVSPost2010Prop51ColorRGB
 90
-16777216
102
RTVSPost2010PropOp51
 70
     0
102
RTVSPost2010Prop52
140
1.0
102
RTVSPost2010PropOp52
 70
     0
102
RTVSPost2010Prop53
 90
        2
102
RTVSPost2010PropOp53
 70
     1
102
RTVSPost2010Prop54
  1
strokes_ogs.tif
102
RTVSPost2010PropOp54
 70
     1
102
RTVSPost2010Prop55
280
     0
102
RTVSPost2010PropOp55
 70
     1
102
RTVSPost2010Prop56
140
1.0
102
RTVSPost2010PropOp56
 70
     1
102
RTVSPost2010Prop57
140
1.0
102
RTVSPost2010PropOp57
 70
     1
102
RTVSPropertyOp0
 70
     1
102
RTVSPropertyOp1
 70
     1
102
RTVSPropertyOp2
 70
     1
102
RTVSPropertyOp3
 70
     1
102
RTVSPropertyOp4
 70
     1
102
RTVSPropertyOp5
 70
     1
102
RTVSPropertyOp6
 70
     1
102
RTVSPropertyOp7
 70
     1
102
RTVSPropertyOp8
 70
     1
102
RTVSPropertyOp9
 70
     1
102
RTVSPropertyOp10
 70
     1
102
RTVSPropertyOp11
 70
     1
102
RTVSPropertyOp12
 70
     1
102
RTVSPropertyOp13
 70
     1
102
RTVSPropertyOp14
 70
     1
102
RTVSPropertyOp15
 70
     1
102
RTVSPropertyOp16
 70
     1
102
RTVSPropertyOp17
 70
     1
102
RTVSPropertyOp18
 70
     1
102
RTVSPropertyOp19
 70
     1
102
RTVSPropertyOp20
 70
     1
102
RTVSPropertyOp21
 70
     1
102
RTVSPropertyOp22
 70
     1
102
RTVSPropertyOp23
 70
     1
102
RTVSPropertyOp24
 70
     1
102
RTVSPropertyOp25
 70
     1
102
RTVSPropertyOp26
 70
     1
102
RTVSPropertyOp27
 70
     1
102
RTVSPropertyOp28
 70
     1
102
RTVSPropertyOp29
 70
     1
102
RTVSPropertyOp30
 70
     1
102
RTVSPropertyOp31
 70
     1
102
RTVSPropertyOp32
 70
     1
102
RTVSPropertyOp33
 70
     1
102
RTVSPropertyOp34
 70
     1
102
RTVSPropertyOp35
 70
     1
102
RTVSPropertyOp36
 70
     1
102
RTVSPropertyOp37
 70
     1
102
RTVSPropertyOp38
 70
     1
102
RTVSPropertyOp39
 70
     1
102
RTVSPropertyOp40
 70
     1
102
RTVSPropertyOp41
 70
     1
102
RTVSPropertyOp42
 70
     1
102
RTVSPropertyOp43
 70
     1
102
RTVSPropertyOp44
 70
     1
102
RTVSPropertyOp45
 70
     1
102
RTVSPropertyOp46
 70
     1
102
RTVSPropertyOp47
 70
     1
102
RTVSPropertyOp48
 70
     1
102
RTVSPropertyOp49
 70
     1
102
RTVSPropertyOp50
 70
     1
102
RTVSPropertyOp51
 70
     0
102
RTVSPropertyOp52
 70
     0
102
RTVSPropertyOp53
 70
     1
102
RTVSPropertyOp54
 70
     1
102
RTVSPropertyOp55
 70
     1
102
RTVSPropertyOp56
 70
     1
102
RTVSPropertyOp57
 70
     1
102
RTVSPropertyOp58
 70
     1
102
RTVSPropertyOp59
 70
     1
102
RTVSPropertyOp60
 70
     1
102
RTVSPropertyOp61
 70
     1
102
RTVSPropertyOp62
 70
     1
  0
XRECORD
  5
664
102
{ACAD_REACTORS
330
663
102
}
330
663
100
AcDbXrecord
280
     1
102
RTVSPost2010Prop28
280
     0
102
RTVSPost2010PropOp28
 70
     1
102
RTVSPost2010Prop29
280
     1
102
RTVSPost2010PropOp29
 70
     1
102
RTVSPost2010Prop30
280
     1
102
RTVSPost2010PropOp30
 70
     1
102
RTVSPost2010Prop31
280
     0
102
RTVSPost2010PropOp31
 70
     1
102
RTVSPost2010Prop32
280
     0
102
RTVSPost2010PropOp32
 70
     1
102
RTVSPost2010Prop33
280
     0
102
RTVSPost2010PropOp33
 70
     1
102
RTVSPost2010Prop34
280
     0
102
RTVSPost2010PropOp34
 70
     1
102
RTVSPost2010Prop35
280
     0
102
RTVSPost2010PropOp35
 70
     1
102
RTVSPost2010Prop36
280
     0
102
RTVSPost2010PropOp36
 70
     1
102
RTVSPost2010Prop37
 90
       50
102
RTVSPost2010PropOp37
 70
     1
102
RTVSPost2010Prop38
140
0.0
102
RTVSPost2010PropOp38
 70
     1
102
RTVSPost2010Prop39
140
1.0
102
RTVSPost2010PropOp39
 70
     1
102
RTVSPost2010Prop40
 90
        0
102
RTVSPost2010PropOp40
 70
     1
102
RTVSPost2010Prop41ColorIndex
 90
       18
102
RTVSPost2010Prop41ColorRGB
 90
        0
102
RTVSPost2010PropOp41
 70
     1
102
RTVSPost2010Prop42
 90
       50
102
RTVSPost2010PropOp42
 70
     1
102
RTVSPost2010Prop43
 90
        3
102
RTVSPost2010PropOp43
 70
     1
102
RTVSPost2010Prop44ColorIndex
 90
        5
102
RTVSPost2010Prop44ColorRGB
 90
      255
102
RTVSPost2010PropOp44
 70
     1
102
RTVSPost2010Prop45
280
     0
102
RTVSPost2010PropOp45
 70
     1
102
RTVSPost2010Prop46
 90
       50
102
RTVSPost2010PropOp46
 70
     1
102
RTVSPost2010Prop47
 90
       50
102
RTVSPost2010PropOp47
 70
     1
102
RTVSPost2010Prop48
 90
       50
102
RTVSPost2010PropOp48
 70
     1
102
RTVSPost2010Prop49
280
     0
102
RTVSPost2010PropOp49
 70
     1
102
RTVSPost2010Prop50
 90
       50
102
RTVSPost2010PropOp50
 70
     1
102
RTVSPost2010Prop51ColorIndex
 90
      256
102
RTVSPost2010Prop51ColorRGB
 90
-16777216
102
RTVSPost2010PropOp51
 70
     0
102
RTVSPost2010Prop52
140
1.0
102
RTVSPost2010PropOp52
 70
     0
102
RTVSPost2010Prop53
 90
        2
102
RTVSPost2010PropOp53
 70
     1
102
RTVSPost2010Prop54
  1
strokes_ogs.tif
102
RTVSPost2010PropOp54
 70
     1
102
RTVSPost2010Prop55
280
     0
102
RTVSPost2010PropOp55
 70
     1
102
RTVSPost2010Prop56
140
1.0
102
RTVSPost2010PropOp56
 70
     1
102
RTVSPost2010Prop57
140
1.0
102
RTVSPost2010PropOp57
 70
     1
102
RTVSPropertyOp0
 70
     1
102
RTVSPropertyOp1
 70
     1
102
RTVSPropertyOp2
 70
     1
102
RTVSPropertyOp3
 70
     1
102
RTVSPropertyOp4
 70
     1
102
RTVSPropertyOp5
 70
     1
102
RTVSPropertyOp6
 70
     1
102
RTVSPropertyOp7
 70
     1
102
RTVSPropertyOp8
 70
     1
102
RTVSPropertyOp9
 70
     1
102
RTVSPropertyOp10
 70
     1
102
RTVSPropertyOp11
 70
     1
102
RTVSPropertyOp12
 70
     1
102
RTVSPropertyOp13
 70
     1
102
RTVSPropertyOp14
 70
     1
102
RTVSPropertyOp15
 70
     1
102
RTVSPropertyOp16
 70
     1
102
RTVSPropertyOp17
 70
     1
102
RTVSPropertyOp18
 70
     1
102
RTVSPropertyOp19
 70
     1
102
RTVSPropertyOp20
 70
     1
102
RTVSPropertyOp21
 70
     1
102
RTVSPropertyOp22
 70
     1
102
RTVSPropertyOp23
 70
     1
102
RTVSPropertyOp24
 70
     1
102
RTVSPropertyOp25
 70
     1
102
RTVSPropertyOp26
 70
     1
102
RTVSPropertyOp27
 70
     1
102
RTVSPropertyOp28
 70
     1
102
RTVSPropertyOp29
 70
     1
102
RTVSPropertyOp30
 70
     1
102
RTVSPropertyOp31
 70
     1
102
RTVSPropertyOp32
 70
     1
102
RTVSPropertyOp33
 70
     1
102
RTVSPropertyOp34
 70
     1
102
RTVSPropertyOp35
 70
     1
102
RTVSPropertyOp36
 70
     1
102
RTVSPropertyOp37
 70
     1
102
RTVSPropertyOp38
 70
     1
102
RTVSPropertyOp39
 70
     1
102
RTVSPropertyOp40
 70
     1
102
RTVSPropertyOp41
 70
     1
102
RTVSPropertyOp42
 70
     1
102
RTVSPropertyOp43
 70
     1
102
RTVSPropertyOp44
 70
     1
102
RTVSPropertyOp45
 70
     1
102
RTVSPropertyOp46
 70
     1
102
RTVSPropertyOp47
 70
     1
102
RTVSPropertyOp48
 70
     1
102
RTVSPropertyOp49
 70
     1
102
RTVSPropertyOp50
 70
     1
102
RTVSPropertyOp51
 70
     0
102
RTVSPropertyOp52
 70
     0
102
RTVSPropertyOp53
 70
     1
102
RTVSPropertyOp54
 70
     1
102
RTVSPropertyOp55
 70
     1
102
RTVSPropertyOp56
 70
     1
102
RTVSPropertyOp57
 70
     1
102
RTVSPropertyOp58
 70
     1
102
RTVSPropertyOp59
 70
     1
102
RTVSPropertyOp60
 70
     1
102
RTVSPropertyOp61
 70
     1
102
RTVSPropertyOp62
 70
     1
  0
XRECORD
  5
666
102
{ACAD_REACTORS
330
665
102
}
330
665
100
AcDbXrecord
280
     1
102
RTVSPost2010Prop28
280
     0
102
RTVSPost2010PropOp28
 70
     1
102
RTVSPost2010Prop29
280
     1
102
RTVSPost2010PropOp29
 70
     1
102
RTVSPost2010Prop30
280
     1
102
RTVSPost2010PropOp30
 70
     1
102
RTVSPost2010Prop31
280
     0
102
RTVSPost2010PropOp31
 70
     1
102
RTVSPost2010Prop32
280
     0
102
RTVSPost2010PropOp32
 70
     1
102
RTVSPost2010Prop33
280
     0
102
RTVSPost2010PropOp33
 70
     1
102
RTVSPost2010Prop34
280
     0
102
RTVSPost2010PropOp34
 70
     1
102
RTVSPost2010Prop35
280
     0
102
RTVSPost2010PropOp35
 70
     1
102
RTVSPost2010Prop36
280
     0
102
RTVSPost2010PropOp36
 70
     1
102
RTVSPost2010Prop37
 90
       50
102
RTVSPost2010PropOp37
 70
     1
102
RTVSPost2010Prop38
140
0.0
102
RTVSPost2010PropOp38
 70
     1
102
RTVSPost2010Prop39
140
1.0
102
RTVSPost2010PropOp39
 70
     1
102
RTVSPost2010Prop40
 90
        0
102
RTVSPost2010PropOp40
 70
     1
102
RTVSPost2010Prop41ColorIndex
 90
       18
102
RTVSPost2010Prop41ColorRGB
 90
        0
102
RTVSPost2010PropOp41
 70
     1
102
RTVSPost2010Prop42
 90
       50
102
RTVSPost2010PropOp42
 70
     1
102
RTVSPost2010Prop43
 90
        3
102
RTVSPost2010PropOp43
 70
     1
102
RTVSPost2010Prop44ColorIndex
 90
        5
102
RTVSPost2010Prop44ColorRGB
 90
      255
102
RTVSPost2010PropOp44
 70
     1
102
RTVSPost2010Prop45
280
     0
102
RTVSPost2010PropOp45
 70
     1
102
RTVSPost2010Prop46
 90
       50
102
RTVSPost2010PropOp46
 70
     1
102
RTVSPost2010Prop47
 90
       50
102
RTVSPost2010PropOp47
 70
     1
102
RTVSPost2010Prop48
 90
       50
102
RTVSPost2010PropOp48
 70
     1
102
RTVSPost2010Prop49
280
     0
102
RTVSPost2010PropOp49
 70
     1
102
RTVSPost2010Prop50
 90
       50
102
RTVSPost2010PropOp50
 70
     1
102
RTVSPost2010Prop51ColorIndex
 90
      256
102
RTVSPost2010Prop51ColorRGB
 90
-16777216
102
RTVSPost2010PropOp51
 70
     0
102
RTVSPost2010Prop52
140
1.0
102
RTVSPost2010PropOp52
 70
     0
102
RTVSPost2010Prop53
 90
        2
102
RTVSPost2010PropOp53
 70
     1
102
RTVSPost2010Prop54
  1
strokes_ogs.tif
102
RTVSPost2010PropOp54
 70
     1
102
RTVSPost2010Prop55
280
     0
102
RTVSPost2010PropOp55
 70
     1
102
RTVSPost2010Prop56
140
1.0
102
RTVSPost2010PropOp56
 70
     1
102
RTVSPost2010Prop57
140
1.0
102
RTVSPost2010PropOp57
 70
     1
102
RTVSPropertyOp0
 70
     1
102
RTVSPropertyOp1
 70
     1
102
RTVSPropertyOp2
 70
     1
102
RTVSPropertyOp3
 70
     1
102
RTVSPropertyOp4
 70
     1
102
RTVSPropertyOp5
 70
     1
102
RTVSPropertyOp6
 70
     1
102
RTVSPropertyOp7
 70
     1
102
RTVSPropertyOp8
 70
     1
102
RTVSPropertyOp9
 70
     1
102
RTVSPropertyOp10
 70
     1
102
RTVSPropertyOp11
 70
     1
102
RTVSPropertyOp12
 70
     1
102
RTVSPropertyOp13
 70
     1
102
RTVSPropertyOp14
 70
     1
102
RTVSPropertyOp15
 70
     1
102
RTVSPropertyOp16
 70
     1
102
RTVSPropertyOp17
 70
     1
102
RTVSPropertyOp18
 70
     1
102
RTVSPropertyOp19
 70
     1
102
RTVSPropertyOp20
 70
     1
102
RTVSPropertyOp21
 70
     1
102
RTVSPropertyOp22
 70
     1
102
RTVSPropertyOp23
 70
     1
102
RTVSPropertyOp24
 70
     1
102
RTVSPropertyOp25
 70
     1
102
RTVSPropertyOp26
 70
     1
102
RTVSPropertyOp27
 70
     1
102
RTVSPropertyOp28
 70
     1
102
RTVSPropertyOp29
 70
     1
102
RTVSPropertyOp30
 70
     1
102
RTVSPropertyOp31
 70
     1
102
RTVSPropertyOp32
 70
     1
102
RTVSPropertyOp33
 70
     1
102
RTVSPropertyOp34
 70
     1
102
RTVSPropertyOp35
 70
     1
102
RTVSPropertyOp36
 70
     1
102
RTVSPropertyOp37
 70
     1
102
RTVSPropertyOp38
 70
     1
102
RTVSPropertyOp39
 70
     1
102
RTVSPropertyOp40
 70
     1
102
RTVSPropertyOp41
 70
     1
102
RTVSPropertyOp42
 70
     1
102
RTVSPropertyOp43
 70
     1
102
RTVSPropertyOp44
 70
     1
102
RTVSPropertyOp45
 70
     1
102
RTVSPropertyOp46
 70
     1
102
RTVSPropertyOp47
 70
     1
102
RTVSPropertyOp48
 70
     1
102
RTVSPropertyOp49
 70
     1
102
RTVSPropertyOp50
 70
     1
102
RTVSPropertyOp51
 70
     0
102
RTVSPropertyOp52
 70
     0
102
RTVSPropertyOp53
 70
     1
102
RTVSPropertyOp54
 70
     1
102
RTVSPropertyOp55
 70
     1
102
RTVSPropertyOp56
 70
     1
102
RTVSPropertyOp57
 70
     1
102
RTVSPropertyOp58
 70
     1
102
RTVSPropertyOp59
 70
     1
102
RTVSPropertyOp60
 70
     1
102
RTVSPropertyOp61
 70
     1
102
RTVSPropertyOp62
 70
     1
  0
XRECORD
  5
668
102
{ACAD_REACTORS
330
667
102
}
330
667
100
AcDbXrecord
280
     1
102
RTVSPost2010Prop28
280
     0
102
RTVSPost2010PropOp28
 70
     1
102
RTVSPost2010Prop29
280
     1
102
RTVSPost2010PropOp29
 70
     1
102
RTVSPost2010Prop30
280
     1
102
RTVSPost2010PropOp30
 70
     1
102
RTVSPost2010Prop31
280
     0
102
RTVSPost2010PropOp31
 70
     1
102
RTVSPost2010Prop32
280
     0
102
RTVSPost2010PropOp32
 70
     1
102
RTVSPost2010Prop33
280
     0
102
RTVSPost2010PropOp33
 70
     1
102
RTVSPost2010Prop34
280
     0
102
RTVSPost2010PropOp34
 70
     1
102
RTVSPost2010Prop35
280
     0
102
RTVSPost2010PropOp35
 70
     1
102
RTVSPost2010Prop36
280
     0
102
RTVSPost2010PropOp36
 70
     1
102
RTVSPost2010Prop37
 90
       50
102
RTVSPost2010PropOp37
 70
     1
102
RTVSPost2010Prop38
140
0.0
102
RTVSPost2010PropOp38
 70
     1
102
RTVSPost2010Prop39
140
1.0
102
RTVSPost2010PropOp39
 70
     1
102
RTVSPost2010Prop40
 90
        0
102
RTVSPost2010PropOp40
 70
     1
102
RTVSPost2010Prop41ColorIndex
 90
       18
102
RTVSPost2010Prop41ColorRGB
 90
        0
102
RTVSPost2010PropOp41
 70
     1
102
RTVSPost2010Prop42
 90
       50
102
RTVSPost2010PropOp42
 70
     1
102
RTVSPost2010Prop43
 90
        3
102
RTVSPost2010PropOp43
 70
     1
102
RTVSPost2010Prop44ColorIndex
 90
        5
102
RTVSPost2010Prop44ColorRGB
 90
      255
102
RTVSPost2010PropOp44
 70
     1
102
RTVSPost2010Prop45
280
     0
102
RTVSPost2010PropOp45
 70
     1
102
RTVSPost2010Prop46
 90
       50
102
RTVSPost2010PropOp46
 70
     1
102
RTVSPost2010Prop47
 90
       50
102
RTVSPost2010PropOp47
 70
     1
102
RTVSPost2010Prop48
 90
       50
102
RTVSPost2010PropOp48
 70
     1
102
RTVSPost2010Prop49
280
     0
102
RTVSPost2010PropOp49
 70
     1
102
RTVSPost2010Prop50
 90
       50
102
RTVSPost2010PropOp50
 70
     1
102
RTVSPost2010Prop51ColorIndex
 90
      256
102
RTVSPost2010Prop51ColorRGB
 90
-16777216
102
RTVSPost2010PropOp51
 70
     0
102
RTVSPost2010Prop52
140
1.0
102
RTVSPost2010PropOp52
 70
     0
102
RTVSPost2010Prop53
 90
        2
102
RTVSPost2010PropOp53
 70
     1
102
RTVSPost2010Prop54
  1
strokes_ogs.tif
102
RTVSPost2010PropOp54
 70
     1
102
RTVSPost2010Prop55
280
     0
102
RTVSPost2010PropOp55
 70
     1
102
RTVSPost2010Prop56
140
1.0
102
RTVSPost2010PropOp56
 70
     1
102
RTVSPost2010Prop57
140
1.0
102
RTVSPost2010PropOp57
 70
     1
102
RTVSPropertyOp0
 70
     1
102
RTVSPropertyOp1
 70
     1
102
RTVSPropertyOp2
 70
     1
102
RTVSPropertyOp3
 70
     1
102
RTVSPropertyOp4
 70
     1
102
RTVSPropertyOp5
 70
     1
102
RTVSPropertyOp6
 70
     1
102
RTVSPropertyOp7
 70
     1
102
RTVSPropertyOp8
 70
     1
102
RTVSPropertyOp9
 70
     1
102
RTVSPropertyOp10
 70
     1
102
RTVSPropertyOp11
 70
     1
102
RTVSPropertyOp12
 70
     1
102
RTVSPropertyOp13
 70
     1
102
RTVSPropertyOp14
 70
     1
102
RTVSPropertyOp15
 70
     1
102
RTVSPropertyOp16
 70
     1
102
RTVSPropertyOp17
 70
     1
102
RTVSPropertyOp18
 70
     1
102
RTVSPropertyOp19
 70
     1
102
RTVSPropertyOp20
 70
     1
102
RTVSPropertyOp21
 70
     1
102
RTVSPropertyOp22
 70
     1
102
RTVSPropertyOp23
 70
     1
102
RTVSPropertyOp24
 70
     1
102
RTVSPropertyOp25
 70
     1
102
RTVSPropertyOp26
 70
     1
102
RTVSPropertyOp27
 70
     1
102
RTVSPropertyOp28
 70
     1
102
RTVSPropertyOp29
 70
     1
102
RTVSPropertyOp30
 70
     1
102
RTVSPropertyOp31
 70
     1
102
RTVSPropertyOp32
 70
     1
102
RTVSPropertyOp33
 70
     1
102
RTVSPropertyOp34
 70
     1
102
RTVSPropertyOp35
 70
     1
102
RTVSPropertyOp36
 70
     1
102
RTVSPropertyOp37
 70
     1
102
RTVSPropertyOp38
 70
     1
102
RTVSPropertyOp39
 70
     1
102
RTVSPropertyOp40
 70
     1
102
RTVSPropertyOp41
 70
     1
102
RTVSPropertyOp42
 70
     1
102
RTVSPropertyOp43
 70
     1
102
RTVSPropertyOp44
 70
     1
102
RTVSPropertyOp45
 70
     1
102
RTVSPropertyOp46
 70
     1
102
RTVSPropertyOp47
 70
     1
102
RTVSPropertyOp48
 70
     1
102
RTVSPropertyOp49
 70
     1
102
RTVSPropertyOp50
 70
     1
102
RTVSPropertyOp51
 70
     0
102
RTVSPropertyOp52
 70
     0
102
RTVSPropertyOp53
 70
     1
102
RTVSPropertyOp54
 70
     1
102
RTVSPropertyOp55
 70
     1
102
RTVSPropertyOp56
 70
     1
102
RTVSPropertyOp57
 70
     1
102
RTVSPropertyOp58
 70
     1
102
RTVSPropertyOp59
 70
     1
102
RTVSPropertyOp60
 70
     1
102
RTVSPropertyOp61
 70
     1
102
RTVSPropertyOp62
 70
     1
  0
XRECORD
  5
670
102
{ACAD_REACTORS
330
66F
102
}
330
66F
100
AcDbXrecord
280
     1
102
RTVSPost2010Prop28
280
     0
102
RTVSPost2010PropOp28
 70
     1
102
RTVSPost2010Prop29
280
     1
102
RTVSPost2010PropOp29
 70
     1
102
RTVSPost2010Prop30
280
     1
102
RTVSPost2010PropOp30
 70
     1
102
RTVSPost2010Prop31
280
     0
102
RTVSPost2010PropOp31
 70
     1
102
RTVSPost2010Prop32
280
     0
102
RTVSPost2010PropOp32
 70
     1
102
RTVSPost2010Prop33
280
     0
102
RTVSPost2010PropOp33
 70
     1
102
RTVSPost2010Prop34
280
     0
102
RTVSPost2010PropOp34
 70
     1
102
RTVSPost2010Prop35
280
     0
102
RTVSPost2010PropOp35
 70
     1
102
RTVSPost2010Prop36
280
     0
102
RTVSPost2010PropOp36
 70
     1
102
RTVSPost2010Prop37
 90
       50
102
RTVSPost2010PropOp37
 70
     1
102
RTVSPost2010Prop38
140
0.0
102
RTVSPost2010PropOp38
 70
     1
102
RTVSPost2010Prop39
140
1.0
102
RTVSPost2010PropOp39
 70
     1
102
RTVSPost2010Prop40
 90
        0
102
RTVSPost2010PropOp40
 70
     1
102
RTVSPost2010Prop41ColorIndex
 90
       18
102
RTVSPost2010Prop41ColorRGB
 90
        0
102
RTVSPost2010PropOp41
 70
     1
102
RTVSPost2010Prop42
 90
       50
102
RTVSPost2010PropOp42
 70
     1
102
RTVSPost2010Prop43
 90
        3
102
RTVSPost2010PropOp43
 70
     1
102
RTVSPost2010Prop44ColorIndex
 90
        5
102
RTVSPost2010Prop44ColorRGB
 90
      255
102
RTVSPost2010PropOp44
 70
     1
102
RTVSPost2010Prop45
280
     0
102
RTVSPost2010PropOp45
 70
     1
102
RTVSPost2010Prop46
 90
       50
102
RTVSPost2010PropOp46
 70
     1
102
RTVSPost2010Prop47
 90
       50
102
RTVSPost2010PropOp47
 70
     1
102
RTVSPost2010Prop48
 90
       50
102
RTVSPost2010PropOp48
 70
     1
102
RTVSPost2010Prop49
280
     0
102
RTVSPost2010PropOp49
 70
     1
102
RTVSPost2010Prop50
 90
       50
102
RTVSPost2010PropOp50
 70
     1
102
RTVSPost2010Prop51ColorIndex
 90
      256
102
RTVSPost2010Prop51ColorRGB
 90
-16777216
102
RTVSPost2010PropOp51
 70
     0
102
RTVSPost2010Prop52
140
1.0
102
RTVSPost2010PropOp52
 70
     0
102
RTVSPost2010Prop53
 90
        2
102
RTVSPost2010PropOp53
 70
     1
102
RTVSPost2010Prop54
  1
strokes_ogs.tif
102
RTVSPost2010PropOp54
 70
     1
102
RTVSPost2010Prop55
280
     0
102
RTVSPost2010PropOp55
 70
     1
102
RTVSPost2010Prop56
140
1.0
102
RTVSPost2010PropOp56
 70
     1
102
RTVSPost2010Prop57
140
1.0
102
RTVSPost2010PropOp57
 70
     1
102
RTVSPropertyOp0
 70
     1
102
RTVSPropertyOp1
 70
     1
102
RTVSPropertyOp2
 70
     1
102
RTVSPropertyOp3
 70
     1
102
RTVSPropertyOp4
 70
     1
102
RTVSPropertyOp5
 70
     1
102
RTVSPropertyOp6
 70
     1
102
RTVSPropertyOp7
 70
     1
102
RTVSPropertyOp8
 70
     1
102
RTVSPropertyOp9
 70
     1
102
RTVSPropertyOp10
 70
     1
102
RTVSPropertyOp11
 70
     1
102
RTVSPropertyOp12
 70
     1
102
RTVSPropertyOp13
 70
     1
102
RTVSPropertyOp14
 70
     1
102
RTVSPropertyOp15
 70
     1
102
RTVSPropertyOp16
 70
     1
102
RTVSPropertyOp17
 70
     1
102
RTVSPropertyOp18
 70
     1
102
RTVSPropertyOp19
 70
     1
102
RTVSPropertyOp20
 70
     1
102
RTVSPropertyOp21
 70
     1
102
RTVSPropertyOp22
 70
     1
102
RTVSPropertyOp23
 70
     1
102
RTVSPropertyOp24
 70
     1
102
RTVSPropertyOp25
 70
     1
102
RTVSPropertyOp26
 70
     1
102
RTVSPropertyOp27
 70
     1
102
RTVSPropertyOp28
 70
     1
102
RTVSPropertyOp29
 70
     1
102
RTVSPropertyOp30
 70
     1
102
RTVSPropertyOp31
 70
     1
102
RTVSPropertyOp32
 70
     1
102
RTVSPropertyOp33
 70
     1
102
RTVSPropertyOp34
 70
     1
102
RTVSPropertyOp35
 70
     1
102
RTVSPropertyOp36
 70
     1
102
RTVSPropertyOp37
 70
     1
102
RTVSPropertyOp38
 70
     1
102
RTVSPropertyOp39
 70
     1
102
RTVSPropertyOp40
 70
     1
102
RTVSPropertyOp41
 70
     1
102
RTVSPropertyOp42
 70
     1
102
RTVSPropertyOp43
 70
     1
102
RTVSPropertyOp44
 70
     1
102
RTVSPropertyOp45
 70
     1
102
RTVSPropertyOp46
 70
     1
102
RTVSPropertyOp47
 70
     1
102
RTVSPropertyOp48
 70
     1
102
RTVSPropertyOp49
 70
     1
102
RTVSPropertyOp50
 70
     1
102
RTVSPropertyOp51
 70
     0
102
RTVSPropertyOp52
 70
     0
102
RTVSPropertyOp53
 70
     1
102
RTVSPropertyOp54
 70
     1
102
RTVSPropertyOp55
 70
     1
102
RTVSPropertyOp56
 70
     1
102
RTVSPropertyOp57
 70
     1
102
RTVSPropertyOp58
 70
     1
102
RTVSPropertyOp59
 70
     1
102
RTVSPropertyOp60
 70
     1
102
RTVSPropertyOp61
 70
     1
102
RTVSPropertyOp62
 70
     1
  0
XRECORD
  5
68C
102
{ACAD_REACTORS
330
68B
102
}
330
68B
100
AcDbXrecord
280
     1
102
RTVSPost2010Prop28
280
     0
102
RTVSPost2010PropOp28
 70
     1
102
RTVSPost2010Prop29
280
     1
102
RTVSPost2010PropOp29
 70
     1
102
RTVSPost2010Prop30
280
     1
102
RTVSPost2010PropOp30
 70
     1
102
RTVSPost2010Prop31
280
     0
102
RTVSPost2010PropOp31
 70
     1
102
RTVSPost2010Prop32
280
     0
102
RTVSPost2010PropOp32
 70
     1
102
RTVSPost2010Prop33
280
     0
102
RTVSPost2010PropOp33
 70
     1
102
RTVSPost2010Prop34
280
     0
102
RTVSPost2010PropOp34
 70
     1
102
RTVSPost2010Prop35
280
     0
102
RTVSPost2010PropOp35
 70
     1
102
RTVSPost2010Prop36
280
     0
102
RTVSPost2010PropOp36
 70
     1
102
RTVSPost2010Prop37
 90
       50
102
RTVSPost2010PropOp37
 70
     0
102
RTVSPost2010Prop38
140
0.0
102
RTVSPost2010PropOp38
 70
     0
102
RTVSPost2010Prop39
140
1.0
102
RTVSPost2010PropOp39
 70
     0
102
RTVSPost2010Prop40
 90
        0
102
RTVSPost2010PropOp40
 70
     0
102
RTVSPost2010Prop41ColorIndex
 90
       18
102
RTVSPost2010Prop41ColorRGB
 90
        0
102
RTVSPost2010PropOp41
 70
     0
102
RTVSPost2010Prop42
 90
       50
102
RTVSPost2010PropOp42
 70
     0
102
RTVSPost2010Prop43
 90
        3
102
RTVSPost2010PropOp43
 70
     0
102
RTVSPost2010Prop44ColorIndex
 90
        5
102
RTVSPost2010Prop44ColorRGB
 90
      255
102
RTVSPost2010PropOp44
 70
     0
102
RTVSPost2010Prop45
280
     0
102
RTVSPost2010PropOp45
 70
     1
102
RTVSPost2010Prop46
 90
       50
102
RTVSPost2010PropOp46
 70
     0
102
RTVSPost2010Prop47
 90
       50
102
RTVSPost2010PropOp47
 70
     0
102
RTVSPost2010Prop48
 90
       50
102
RTVSPost2010PropOp48
 70
     0
102
RTVSPost2010Prop49
280
     0
102
RTVSPost2010PropOp49
 70
     1
102
RTVSPost2010Prop50
 90
       50
102
RTVSPost2010PropOp50
 70
     0
102
RTVSPost2010Prop51ColorIndex
 90
      256
102
RTVSPost2010Prop51ColorRGB
 90
-16777216
102
RTVSPost2010PropOp51
 70
     0
102
RTVSPost2010Prop52
140
1.0
102
RTVSPost2010PropOp52
 70
     0
102
RTVSPost2010Prop53
 90
        2
102
RTVSPost2010PropOp53
 70
     0
102
RTVSPost2010Prop54
  1
strokes_ogs.tif
102
RTVSPost2010PropOp54
 70
     0
102
RTVSPost2010Prop55
280
     0
102
RTVSPost2010PropOp55
 70
     1
102
RTVSPost2010Prop56
140
1.0
102
RTVSPost2010PropOp56
 70
     0
102
RTVSPost2010Prop57
140
1.0
102
RTVSPost2010PropOp57
 70
     0
102
RTVSPropertyOp0
 70
     0
102
RTVSPropertyOp1
 70
     0
102
RTVSPropertyOp2
 70
     0
102
RTVSPropertyOp3
 70
     0
102
RTVSPropertyOp4
 70
     0
102
RTVSPropertyOp5
 70
     0
102
RTVSPropertyOp6
 70
     0
102
RTVSPropertyOp7
 70
     0
102
RTVSPropertyOp8
 70
     0
102
RTVSPropertyOp9
 70
     0
102
RTVSPropertyOp10
 70
     0
102
RTVSPropertyOp11
 70
     0
102
RTVSPropertyOp12
 70
     0
102
RTVSPropertyOp13
 70
     0
102
RTVSPropertyOp14
 70
     2
102
RTVSPropertyOp15
 70
     0
102
RTVSPropertyOp16
 70
     0
102
RTVSPropertyOp17
 70
     0
102
RTVSPropertyOp18
 70
     0
102
RTVSPropertyOp19
 70
     0
102
RTVSPropertyOp20
 70
     0
102
RTVSPropertyOp21
 70
     0
102
RTVSPropertyOp22
 70
     0
102
RTVSPropertyOp23
 70
     0
102
RTVSPropertyOp24
 70
     0
102
RTVSPropertyOp25
 70
     0
102
RTVSPropertyOp26
 70
     0
102
RTVSPropertyOp27
 70
     0
102
RTVSPropertyOp28
 70
     1
102
RTVSPropertyOp29
 70
     1
102
RTVSPropertyOp30
 70
     1
102
RTVSPropertyOp31
 70
     1
102
RTVSPropertyOp32
 70
     1
102
RTVSPropertyOp33
 70
     1
102
RTVSPropertyOp34
 70
     1
102
RTVSPropertyOp35
 70
     1
102
RTVSPropertyOp36
 70
     1
102
RTVSPropertyOp37
 70
     0
102
RTVSPropertyOp38
 70
     0
102
RTVSPropertyOp39
 70
     0
102
RTVSPropertyOp40
 70
     0
102
RTVSPropertyOp41
 70
     0
102
RTVSPropertyOp42
 70
     0
102
RTVSPropertyOp43
 70
     0
102
RTVSPropertyOp44
 70
     0
102
RTVSPropertyOp45
 70
     1
102
RTVSPropertyOp46
 70
     0
102
RTVSPropertyOp47
 70
     0
102
RTVSPropertyOp48
 70
     0
102
RTVSPropertyOp49
 70
     1
102
RTVSPropertyOp50
 70
     0
102
RTVSPropertyOp51
 70
     0
102
RTVSPropertyOp52
 70
     0
102
RTVSPropertyOp53
 70
     0
102
RTVSPropertyOp54
 70
     0
102
RTVSPropertyOp55
 70
     1
102
RTVSPropertyOp56
 70
     0
102
RTVSPropertyOp57
 70
     0
102
RTVSPropertyOp58
 70
     0
102
RTVSPropertyOp59
 70
     0
102
RTVSPropertyOp60
 70
     0
102
RTVSPropertyOp61
 70
     0
102
RTVSPropertyOp62
 70
     0
  0
XRECORD
  5
67C
102
{ACAD_REACTORS
330
67B
102
}
330
67B
100
AcDbXrecord
280
     1
102
RTVSPost2010Prop28
280
     0
102
RTVSPost2010PropOp28
 70
     1
102
RTVSPost2010Prop29
280
     1
102
RTVSPost2010PropOp29
 70
     1
102
RTVSPost2010Prop30
280
     1
102
RTVSPost2010PropOp30
 70
     1
102
RTVSPost2010Prop31
280
     0
102
RTVSPost2010PropOp31
 70
     1
102
RTVSPost2010Prop32
280
     0
102
RTVSPost2010PropOp32
 70
     1
102
RTVSPost2010Prop33
280
     0
102
RTVSPost2010PropOp33
 70
     1
102
RTVSPost2010Prop34
280
     0
102
RTVSPost2010PropOp34
 70
     1
102
RTVSPost2010Prop35
280
     0
102
RTVSPost2010PropOp35
 70
     1
102
RTVSPost2010Prop36
280
     0
102
RTVSPost2010PropOp36
 70
     1
102
RTVSPost2010Prop37
 90
       50
102
RTVSPost2010PropOp37
 70
     1
102
RTVSPost2010Prop38
140
0.0
102
RTVSPost2010PropOp38
 70
     1
102
RTVSPost2010Prop39
140
1.0
102
RTVSPost2010PropOp39
 70
     1
102
RTVSPost2010Prop40
 90
        0
102
RTVSPost2010PropOp40
 70
     1
102
RTVSPost2010Prop41ColorIndex
 90
       18
102
RTVSPost2010Prop41ColorRGB
 90
        0
102
RTVSPost2010PropOp41
 70
     1
102
RTVSPost2010Prop42
 90
       50
102
RTVSPost2010PropOp42
 70
     1
102
RTVSPost2010Prop43
 90
        3
102
RTVSPost2010PropOp43
 70
     1
102
RTVSPost2010Prop44ColorIndex
 90
        5
102
RTVSPost2010Prop44ColorRGB
 90
      255
102
RTVSPost2010PropOp44
 70
     1
102
RTVSPost2010Prop45
280
     0
102
RTVSPost2010PropOp45
 70
     1
102
RTVSPost2010Prop46
 90
       50
102
RTVSPost2010PropOp46
 70
     1
102
RTVSPost2010Prop47
 90
       50
102
RTVSPost2010PropOp47
 70
     1
102
RTVSPost2010Prop48
 90
       50
102
RTVSPost2010PropOp48
 70
     1
102
RTVSPost2010Prop49
280
     0
102
RTVSPost2010PropOp49
 70
     1
102
RTVSPost2010Prop50
 90
       50
102
RTVSPost2010PropOp50
 70
     1
102
RTVSPost2010Prop51ColorIndex
 90
      256
102
RTVSPost2010Prop51ColorRGB
 90
-16777216
102
RTVSPost2010PropOp51
 70
     0
102
RTVSPost2010Prop52
140
1.0
102
RTVSPost2010PropOp52
 70
     0
102
RTVSPost2010Prop53
 90
        2
102
RTVSPost2010PropOp53
 70
     1
102
RTVSPost2010Prop54
  1
strokes_ogs.tif
102
RTVSPost2010PropOp54
 70
     1
102
RTVSPost2010Prop55
280
     0
102
RTVSPost2010PropOp55
 70
     1
102
RTVSPost2010Prop56
140
1.0
102
RTVSPost2010PropOp56
 70
     1
102
RTVSPost2010Prop57
140
1.0
102
RTVSPost2010PropOp57
 70
     1
102
RTVSPropertyOp0
 70
     1
102
RTVSPropertyOp1
 70
     1
102
RTVSPropertyOp2
 70
     1
102
RTVSPropertyOp3
 70
     1
102
RTVSPropertyOp4
 70
     1
102
RTVSPropertyOp5
 70
     1
102
RTVSPropertyOp6
 70
     1
102
RTVSPropertyOp7
 70
     1
102
RTVSPropertyOp8
 70
     1
102
RTVSPropertyOp9
 70
     1
102
RTVSPropertyOp10
 70
     1
102
RTVSPropertyOp11
 70
     1
102
RTVSPropertyOp12
 70
     1
102
RTVSPropertyOp13
 70
     1
102
RTVSPropertyOp14
 70
     1
102
RTVSPropertyOp15
 70
     1
102
RTVSPropertyOp16
 70
     1
102
RTVSPropertyOp17
 70
     1
102
RTVSPropertyOp18
 70
     1
102
RTVSPropertyOp19
 70
     1
102
RTVSPropertyOp20
 70
     1
102
RTVSPropertyOp21
 70
     1
102
RTVSPropertyOp22
 70
     1
102
RTVSPropertyOp23
 70
     1
102
RTVSPropertyOp24
 70
     1
102
RTVSPropertyOp25
 70
     1
102
RTVSPropertyOp26
 70
     1
102
RTVSPropertyOp27
 70
     1
102
RTVSPropertyOp28
 70
     1
102
RTVSPropertyOp29
 70
     1
102
RTVSPropertyOp30
 70
     1
102
RTVSPropertyOp31
 70
     1
102
RTVSPropertyOp32
 70
     1
102
RTVSPropertyOp33
 70
     1
102
RTVSPropertyOp34
 70
     1
102
RTVSPropertyOp35
 70
     1
102
RTVSPropertyOp36
 70
     1
102
RTVSPropertyOp37
 70
     1
102
RTVSPropertyOp38
 70
     1
102
RTVSPropertyOp39
 70
     1
102
RTVSPropertyOp40
 70
     1
102
RTVSPropertyOp41
 70
     1
102
RTVSPropertyOp42
 70
     1
102
RTVSPropertyOp43
 70
     1
102
RTVSPropertyOp44
 70
     1
102
RTVSPropertyOp45
 70
     1
102
RTVSPropertyOp46
 70
     1
102
RTVSPropertyOp47
 70
     1
102
RTVSPropertyOp48
 70
     1
102
RTVSPropertyOp49
 70
     1
102
RTVSPropertyOp50
 70
     1
102
RTVSPropertyOp51
 70
     0
102
RTVSPropertyOp52
 70
     0
102
RTVSPropertyOp53
 70
     1
102
RTVSPropertyOp54
 70
     1
102
RTVSPropertyOp55
 70
     1
102
RTVSPropertyOp56
 70
     1
102
RTVSPropertyOp57
 70
     1
102
RTVSPropertyOp58
 70
     1
102
RTVSPropertyOp59
 70
     1
102
RTVSPropertyOp60
 70
     1
102
RTVSPropertyOp61
 70
     1
102
RTVSPropertyOp62
 70
     1
  0
XRECORD
  5
68E
102
{ACAD_REACTORS
330
68D
102
}
330
68D
100
AcDbXrecord
280
     1
102
RTVSPost2010Prop28
280
     0
102
RTVSPost2010PropOp28
 70
     1
102
RTVSPost2010Prop29
280
     1
102
RTVSPost2010PropOp29
 70
     1
102
RTVSPost2010Prop30
280
     1
102
RTVSPost2010PropOp30
 70
     1
102
RTVSPost2010Prop31
280
     0
102
RTVSPost2010PropOp31
 70
     1
102
RTVSPost2010Prop32
280
     0
102
RTVSPost2010PropOp32
 70
     1
102
RTVSPost2010Prop33
280
     0
102
RTVSPost2010PropOp33
 70
     1
102
RTVSPost2010Prop34
280
     0
102
RTVSPost2010PropOp34
 70
     1
102
RTVSPost2010Prop35
280
     0
102
RTVSPost2010PropOp35
 70
     1
102
RTVSPost2010Prop36
280
     0
102
RTVSPost2010PropOp36
 70
     1
102
RTVSPost2010Prop37
 90
       50
102
RTVSPost2010PropOp37
 70
     0
102
RTVSPost2010Prop38
140
0.0
102
RTVSPost2010PropOp38
 70
     0
102
RTVSPost2010Prop39
140
1.0
102
RTVSPost2010PropOp39
 70
     0
102
RTVSPost2010Prop40
 90
        0
102
RTVSPost2010PropOp40
 70
     0
102
RTVSPost2010Prop41ColorIndex
 90
       18
102
RTVSPost2010Prop41ColorRGB
 90
        0
102
RTVSPost2010PropOp41
 70
     0
102
RTVSPost2010Prop42
 90
       50
102
RTVSPost2010PropOp42
 70
     0
102
RTVSPost2010Prop43
 90
        3
102
RTVSPost2010PropOp43
 70
     0
102
RTVSPost2010Prop44ColorIndex
 90
        5
102
RTVSPost2010Prop44ColorRGB
 90
      255
102
RTVSPost2010PropOp44
 70
     0
102
RTVSPost2010Prop45
280
     0
102
RTVSPost2010PropOp45
 70
     1
102
RTVSPost2010Prop46
 90
       50
102
RTVSPost2010PropOp46
 70
     0
102
RTVSPost2010Prop47
 90
       50
102
RTVSPost2010PropOp47
 70
     0
102
RTVSPost2010Prop48
 90
       50
102
RTVSPost2010PropOp48
 70
     0
102
RTVSPost2010Prop49
280
     0
102
RTVSPost2010PropOp49
 70
     1
102
RTVSPost2010Prop50
 90
       50
102
RTVSPost2010PropOp50
 70
     0
102
RTVSPost2010Prop51ColorIndex
 90
      256
102
RTVSPost2010Prop51ColorRGB
 90
-16777216
102
RTVSPost2010PropOp51
 70
     0
102
RTVSPost2010Prop52
140
1.0
102
RTVSPost2010PropOp52
 70
     0
102
RTVSPost2010Prop53
 90
        2
102
RTVSPost2010PropOp53
 70
     0
102
RTVSPost2010Prop54
  1
strokes_ogs.tif
102
RTVSPost2010PropOp54
 70
     0
102
RTVSPost2010Prop55
280
     0
102
RTVSPost2010PropOp55
 70
     1
102
RTVSPost2010Prop56
140
1.0
102
RTVSPost2010PropOp56
 70
     0
102
RTVSPost2010Prop57
140
1.0
102
RTVSPost2010PropOp57
 70
     0
102
RTVSPropertyOp0
 70
     0
102
RTVSPropertyOp1
 70
     0
102
RTVSPropertyOp2
 70
     0
102
RTVSPropertyOp3
 70
     0
102
RTVSPropertyOp4
 70
     0
102
RTVSPropertyOp5
 70
     0
102
RTVSPropertyOp6
 70
     0
102
RTVSPropertyOp7
 70
     0
102
RTVSPropertyOp8
 70
     0
102
RTVSPropertyOp9
 70
     0
102
RTVSPropertyOp10
 70
     0
102
RTVSPropertyOp11
 70
     0
102
RTVSPropertyOp12
 70
     0
102
RTVSPropertyOp13
 70
     0
102
RTVSPropertyOp14
 70
     2
102
RTVSPropertyOp15
 70
     0
102
RTVSPropertyOp16
 70
     0
102
RTVSPropertyOp17
 70
     0
102
RTVSPropertyOp18
 70
     0
102
RTVSPropertyOp19
 70
     0
102
RTVSPropertyOp20
 70
     0
102
RTVSPropertyOp21
 70
     0
102
RTVSPropertyOp22
 70
     0
102
RTVSPropertyOp23
 70
     0
102
RTVSPropertyOp24
 70
     0
102
RTVSPropertyOp25
 70
     0
102
RTVSPropertyOp26
 70
     0
102
RTVSPropertyOp27
 70
     0
102
RTVSPropertyOp28
 70
     1
102
RTVSPropertyOp29
 70
     1
102
RTVSPropertyOp30
 70
     1
102
RTVSPropertyOp31
 70
     1
102
RTVSPropertyOp32
 70
     1
102
RTVSPropertyOp33
 70
     1
102
RTVSPropertyOp34
 70
     1
102
RTVSPropertyOp35
 70
     1
102
RTVSPropertyOp36
 70
     1
102
RTVSPropertyOp37
 70
     0
102
RTVSPropertyOp38
 70
     0
102
RTVSPropertyOp39
 70
     0
102
RTVSPropertyOp40
 70
     0
102
RTVSPropertyOp41
 70
     0
102
RTVSPropertyOp42
 70
     0
102
RTVSPropertyOp43
 70
     0
102
RTVSPropertyOp44
 70
     0
102
RTVSPropertyOp45
 70
     1
102
RTVSPropertyOp46
 70
     0
102
RTVSPropertyOp47
 70
     0
102
RTVSPropertyOp48
 70
     0
102
RTVSPropertyOp49
 70
     1
102
RTVSPropertyOp50
 70
     0
102
RTVSPropertyOp51
 70
     0
102
RTVSPropertyOp52
 70
     0
102
RTVSPropertyOp53
 70
     0
102
RTVSPropertyOp54
 70
     0
102
RTVSPropertyOp55
 70
     1
102
RTVSPropertyOp56
 70
     0
102
RTVSPropertyOp57
 70
     0
102
RTVSPropertyOp58
 70
     0
102
RTVSPropertyOp59
 70
     0
102
RTVSPropertyOp60
 70
     0
102
RTVSPropertyOp61
 70
     0
102
RTVSPropertyOp62
 70
     0
  0
XRECORD
  5
674
102
{ACAD_REACTORS
330
673
102
}
330
673
100
AcDbXrecord
280
     1
102
RTVSPost2010Prop28
280
     0
102
RTVSPost2010PropOp28
 70
     1
102
RTVSPost2010Prop29
280
     1
102
RTVSPost2010PropOp29
 70
     1
102
RTVSPost2010Prop30
280
     1
102
RTVSPost2010PropOp30
 70
     1
102
RTVSPost2010Prop31
280
     0
102
RTVSPost2010PropOp31
 70
     1
102
RTVSPost2010Prop32
280
     0
102
RTVSPost2010PropOp32
 70
     1
102
RTVSPost2010Prop33
280
     0
102
RTVSPost2010PropOp33
 70
     1
102
RTVSPost2010Prop34
280
     0
102
RTVSPost2010PropOp34
 70
     1
102
RTVSPost2010Prop35
280
     0
102
RTVSPost2010PropOp35
 70
     1
102
RTVSPost2010Prop36
280
     0
102
RTVSPost2010PropOp36
 70
     1
102
RTVSPost2010Prop37
 90
       50
102
RTVSPost2010PropOp37
 70
     1
102
RTVSPost2010Prop38
140
0.0
102
RTVSPost2010PropOp38
 70
     1
102
RTVSPost2010Prop39
140
1.0
102
RTVSPost2010PropOp39
 70
     1
102
RTVSPost2010Prop40
 90
        0
102
RTVSPost2010PropOp40
 70
     1
102
RTVSPost2010Prop41ColorIndex
 90
       18
102
RTVSPost2010Prop41ColorRGB
 90
        0
102
RTVSPost2010PropOp41
 70
     1
102
RTVSPost2010Prop42
 90
       50
102
RTVSPost2010PropOp42
 70
     1
102
RTVSPost2010Prop43
 90
        3
102
RTVSPost2010PropOp43
 70
     1
102
RTVSPost2010Prop44ColorIndex
 90
        5
102
RTVSPost2010Prop44ColorRGB
 90
      255
102
RTVSPost2010PropOp44
 70
     1
102
RTVSPost2010Prop45
280
     0
102
RTVSPost2010PropOp45
 70
     1
102
RTVSPost2010Prop46
 90
       50
102
RTVSPost2010PropOp46
 70
     1
102
RTVSPost2010Prop47
 90
       50
102
RTVSPost2010PropOp47
 70
     1
102
RTVSPost2010Prop48
 90
       50
102
RTVSPost2010PropOp48
 70
     1
102
RTVSPost2010Prop49
280
     0
102
RTVSPost2010PropOp49
 70
     1
102
RTVSPost2010Prop50
 90
       50
102
RTVSPost2010PropOp50
 70
     1
102
RTVSPost2010Prop51ColorIndex
 90
      256
102
RTVSPost2010Prop51ColorRGB
 90
-16777216
102
RTVSPost2010PropOp51
 70
     0
102
RTVSPost2010Prop52
140
1.0
102
RTVSPost2010PropOp52
 70
     0
102
RTVSPost2010Prop53
 90
        2
102
RTVSPost2010PropOp53
 70
     1
102
RTVSPost2010Prop54
  1
strokes_ogs.tif
102
RTVSPost2010PropOp54
 70
     1
102
RTVSPost2010Prop55
280
     0
102
RTVSPost2010PropOp55
 70
     1
102
RTVSPost2010Prop56
140
1.0
102
RTVSPost2010PropOp56
 70
     1
102
RTVSPost2010Prop57
140
1.0
102
RTVSPost2010PropOp57
 70
     1
102
RTVSPropertyOp0
 70
     1
102
RTVSPropertyOp1
 70
     1
102
RTVSPropertyOp2
 70
     1
102
RTVSPropertyOp3
 70
     1
102
RTVSPropertyOp4
 70
     1
102
RTVSPropertyOp5
 70
     1
102
RTVSPropertyOp6
 70
     1
102
RTVSPropertyOp7
 70
     1
102
RTVSPropertyOp8
 70
     1
102
RTVSPropertyOp9
 70
     1
102
RTVSPropertyOp10
 70
     1
102
RTVSPropertyOp11
 70
     1
102
RTVSPropertyOp12
 70
     1
102
RTVSPropertyOp13
 70
     1
102
RTVSPropertyOp14
 70
     1
102
RTVSPropertyOp15
 70
     1
102
RTVSPropertyOp16
 70
     1
102
RTVSPropertyOp17
 70
     1
102
RTVSPropertyOp18
 70
     1
102
RTVSPropertyOp19
 70
     1
102
RTVSPropertyOp20
 70
     1
102
RTVSPropertyOp21
 70
     1
102
RTVSPropertyOp22
 70
     1
102
RTVSPropertyOp23
 70
     1
102
RTVSPropertyOp24
 70
     1
102
RTVSPropertyOp25
 70
     1
102
RTVSPropertyOp26
 70
     1
102
RTVSPropertyOp27
 70
     1
102
RTVSPropertyOp28
 70
     1
102
RTVSPropertyOp29
 70
     1
102
RTVSPropertyOp30
 70
     1
102
RTVSPropertyOp31
 70
     1
102
RTVSPropertyOp32
 70
     1
102
RTVSPropertyOp33
 70
     1
102
RTVSPropertyOp34
 70
     1
102
RTVSPropertyOp35
 70
     1
102
RTVSPropertyOp36
 70
     1
102
RTVSPropertyOp37
 70
     1
102
RTVSPropertyOp38
 70
     1
102
RTVSPropertyOp39
 70
     1
102
RTVSPropertyOp40
 70
     1
102
RTVSPropertyOp41
 70
     1
102
RTVSPropertyOp42
 70
     1
102
RTVSPropertyOp43
 70
     1
102
RTVSPropertyOp44
 70
     1
102
RTVSPropertyOp45
 70
     1
102
RTVSPropertyOp46
 70
     1
102
RTVSPropertyOp47
 70
     1
102
RTVSPropertyOp48
 70
     1
102
RTVSPropertyOp49
 70
     1
102
RTVSPropertyOp50
 70
     1
102
RTVSPropertyOp51
 70
     0
102
RTVSPropertyOp52
 70
     0
102
RTVSPropertyOp53
 70
     1
102
RTVSPropertyOp54
 70
     1
102
RTVSPropertyOp55
 70
     1
102
RTVSPropertyOp56
 70
     1
102
RTVSPropertyOp57
 70
     1
102
RTVSPropertyOp58
 70
     1
102
RTVSPropertyOp59
 70
     1
102
RTVSPropertyOp60
 70
     1
102
RTVSPropertyOp61
 70
     1
102
RTVSPropertyOp62
 70
     1
  0
XRECORD
  5
68A
102
{ACAD_REACTORS
330
689
102
}
330
689
100
AcDbXrecord
280
     1
102
RTVSPost2010Prop28
280
     0
102
RTVSPost2010PropOp28
 70
     1
102
RTVSPost2010Prop29
280
     1
102
RTVSPost2010PropOp29
 70
     1
102
RTVSPost2010Prop30
280
     1
102
RTVSPost2010PropOp30
 70
     1
102
RTVSPost2010Prop31
280
     0
102
RTVSPost2010PropOp31
 70
     1
102
RTVSPost2010Prop32
280
     0
102
RTVSPost2010PropOp32
 70
     1
102
RTVSPost2010Prop33
280
     0
102
RTVSPost2010PropOp33
 70
     1
102
RTVSPost2010Prop34
280
     0
102
RTVSPost2010PropOp34
 70
     1
102
RTVSPost2010Prop35
280
     0
102
RTVSPost2010PropOp35
 70
     1
102
RTVSPost2010Prop36
280
     0
102
RTVSPost2010PropOp36
 70
     1
102
RTVSPost2010Prop37
 90
       50
102
RTVSPost2010PropOp37
 70
     1
102
RTVSPost2010Prop38
140
0.0
102
RTVSPost2010PropOp38
 70
     1
102
RTVSPost2010Prop39
140
1.0
102
RTVSPost2010PropOp39
 70
     1
102
RTVSPost2010Prop40
 90
        0
102
RTVSPost2010PropOp40
 70
     1
102
RTVSPost2010Prop41ColorIndex
 90
       18
102
RTVSPost2010Prop41ColorRGB
 90
        0
102
RTVSPost2010PropOp41
 70
     1
102
RTVSPost2010Prop42
 90
       50
102
RTVSPost2010PropOp42
 70
     1
102
RTVSPost2010Prop43
 90
        3
102
RTVSPost2010PropOp43
 70
     1
102
RTVSPost2010Prop44ColorIndex
 90
        5
102
RTVSPost2010Prop44ColorRGB
 90
      255
102
RTVSPost2010PropOp44
 70
     1
102
RTVSPost2010Prop45
280
     0
102
RTVSPost2010PropOp45
 70
     1
102
RTVSPost2010Prop46
 90
       50
102
RTVSPost2010PropOp46
 70
     1
102
RTVSPost2010Prop47
 90
       50
102
RTVSPost2010PropOp47
 70
     1
102
RTVSPost2010Prop48
 90
       50
102
RTVSPost2010PropOp48
 70
     1
102
RTVSPost2010Prop49
280
     0
102
RTVSPost2010PropOp49
 70
     1
102
RTVSPost2010Prop50
 90
       50
102
RTVSPost2010PropOp50
 70
     1
102
RTVSPost2010Prop51ColorIndex
 90
      256
102
RTVSPost2010Prop51ColorRGB
 90
-16777216
102
RTVSPost2010PropOp51
 70
     0
102
RTVSPost2010Prop52
140
1.0
102
RTVSPost2010PropOp52
 70
     0
102
RTVSPost2010Prop53
 90
        2
102
RTVSPost2010PropOp53
 70
     1
102
RTVSPost2010Prop54
  1
strokes_ogs.tif
102
RTVSPost2010PropOp54
 70
     1
102
RTVSPost2010Prop55
280
     0
102
RTVSPost2010PropOp55
 70
     1
102
RTVSPost2010Prop56
140
1.0
102
RTVSPost2010PropOp56
 70
     1
102
RTVSPost2010Prop57
140
1.0
102
RTVSPost2010PropOp57
 70
     1
102
RTVSPropertyOp0
 70
     1
102
RTVSPropertyOp1
 70
     1
102
RTVSPropertyOp2
 70
     1
102
RTVSPropertyOp3
 70
     1
102
RTVSPropertyOp4
 70
     1
102
RTVSPropertyOp5
 70
     1
102
RTVSPropertyOp6
 70
     1
102
RTVSPropertyOp7
 70
     1
102
RTVSPropertyOp8
 70
     1
102
RTVSPropertyOp9
 70
     1
102
RTVSPropertyOp10
 70
     1
102
RTVSPropertyOp11
 70
     1
102
RTVSPropertyOp12
 70
     1
102
RTVSPropertyOp13
 70
     1
102
RTVSPropertyOp14
 70
     1
102
RTVSPropertyOp15
 70
     1
102
RTVSPropertyOp16
 70
     1
102
RTVSPropertyOp17
 70
     1
102
RTVSPropertyOp18
 70
     1
102
RTVSPropertyOp19
 70
     1
102
RTVSPropertyOp20
 70
     1
102
RTVSPropertyOp21
 70
     1
102
RTVSPropertyOp22
 70
     1
102
RTVSPropertyOp23
 70
     1
102
RTVSPropertyOp24
 70
     1
102
RTVSPropertyOp25
 70
     1
102
RTVSPropertyOp26
 70
     1
102
RTVSPropertyOp27
 70
     1
102
RTVSPropertyOp28
 70
     1
102
RTVSPropertyOp29
 70
     1
102
RTVSPropertyOp30
 70
     1
102
RTVSPropertyOp31
 70
     1
102
RTVSPropertyOp32
 70
     1
102
RTVSPropertyOp33
 70
     1
102
RTVSPropertyOp34
 70
     1
102
RTVSPropertyOp35
 70
     1
102
RTVSPropertyOp36
 70
     1
102
RTVSPropertyOp37
 70
     1
102
RTVSPropertyOp38
 70
     1
102
RTVSPropertyOp39
 70
     1
102
RTVSPropertyOp40
 70
     1
102
RTVSPropertyOp41
 70
     1
102
RTVSPropertyOp42
 70
     1
102
RTVSPropertyOp43
 70
     1
102
RTVSPropertyOp44
 70
     1
102
RTVSPropertyOp45
 70
     1
102
RTVSPropertyOp46
 70
     1
102
RTVSPropertyOp47
 70
     1
102
RTVSPropertyOp48
 70
     1
102
RTVSPropertyOp49
 70
     1
102
RTVSPropertyOp50
 70
     1
102
RTVSPropertyOp51
 70
     0
102
RTVSPropertyOp52
 70
     0
102
RTVSPropertyOp53
 70
     1
102
RTVSPropertyOp54
 70
     1
102
RTVSPropertyOp55
 70
     1
102
RTVSPropertyOp56
 70
     1
102
RTVSPropertyOp57
 70
     1
102
RTVSPropertyOp58
 70
     1
102
RTVSPropertyOp59
 70
     1
102
RTVSPropertyOp60
 70
     1
102
RTVSPropertyOp61
 70
     1
102
RTVSPropertyOp62
 70
     1
  0
XRECORD
  5
688
102
{ACAD_REACTORS
330
687
102
}
330
687
100
AcDbXrecord
280
     1
102
RTVSPost2010Prop28
280
     0
102
RTVSPost2010PropOp28
 70
     1
102
RTVSPost2010Prop29
280
     1
102
RTVSPost2010PropOp29
 70
     1
102
RTVSPost2010Prop30
280
     1
102
RTVSPost2010PropOp30
 70
     1
102
RTVSPost2010Prop31
280
     0
102
RTVSPost2010PropOp31
 70
     1
102
RTVSPost2010Prop32
280
     0
102
RTVSPost2010PropOp32
 70
     1
102
RTVSPost2010Prop33
280
     0
102
RTVSPost2010PropOp33
 70
     1
102
RTVSPost2010Prop34
280
     0
102
RTVSPost2010PropOp34
 70
     1
102
RTVSPost2010Prop35
280
     0
102
RTVSPost2010PropOp35
 70
     1
102
RTVSPost2010Prop36
280
     0
102
RTVSPost2010PropOp36
 70
     1
102
RTVSPost2010Prop37
 90
       50
102
RTVSPost2010PropOp37
 70
     1
102
RTVSPost2010Prop38
140
0.0
102
RTVSPost2010PropOp38
 70
     1
102
RTVSPost2010Prop39
140
1.0
102
RTVSPost2010PropOp39
 70
     1
102
RTVSPost2010Prop40
 90
        0
102
RTVSPost2010PropOp40
 70
     1
102
RTVSPost2010Prop41ColorIndex
 90
       18
102
RTVSPost2010Prop41ColorRGB
 90
        0
102
RTVSPost2010PropOp41
 70
     1
102
RTVSPost2010Prop42
 90
       50
102
RTVSPost2010PropOp42
 70
     1
102
RTVSPost2010Prop43
 90
        3
102
RTVSPost2010PropOp43
 70
     1
102
RTVSPost2010Prop44ColorIndex
 90
        5
102
RTVSPost2010Prop44ColorRGB
 90
      255
102
RTVSPost2010PropOp44
 70
     1
102
RTVSPost2010Prop45
280
     0
102
RTVSPost2010PropOp45
 70
     1
102
RTVSPost2010Prop46
 90
       50
102
RTVSPost2010PropOp46
 70
     1
102
RTVSPost2010Prop47
 90
       50
102
RTVSPost2010PropOp47
 70
     1
102
RTVSPost2010Prop48
 90
       50
102
RTVSPost2010PropOp48
 70
     1
102
RTVSPost2010Prop49
280
     0
102
RTVSPost2010PropOp49
 70
     1
102
RTVSPost2010Prop50
 90
       50
102
RTVSPost2010PropOp50
 70
     1
102
RTVSPost2010Prop51ColorIndex
 90
      256
102
RTVSPost2010Prop51ColorRGB
 90
-16777216
102
RTVSPost2010PropOp51
 70
     0
102
RTVSPost2010Prop52
140
1.0
102
RTVSPost2010PropOp52
 70
     0
102
RTVSPost2010Prop53
 90
        2
102
RTVSPost2010PropOp53
 70
     1
102
RTVSPost2010Prop54
  1
strokes_ogs.tif
102
RTVSPost2010PropOp54
 70
     1
102
RTVSPost2010Prop55
280
     0
102
RTVSPost2010PropOp55
 70
     1
102
RTVSPost2010Prop56
140
1.0
102
RTVSPost2010PropOp56
 70
     1
102
RTVSPost2010Prop57
140
1.0
102
RTVSPost2010PropOp57
 70
     1
102
RTVSPropertyOp0
 70
     1
102
RTVSPropertyOp1
 70
     1
102
RTVSPropertyOp2
 70
     1
102
RTVSPropertyOp3
 70
     1
102
RTVSPropertyOp4
 70
     1
102
RTVSPropertyOp5
 70
     1
102
RTVSPropertyOp6
 70
     1
102
RTVSPropertyOp7
 70
     1
102
RTVSPropertyOp8
 70
     1
102
RTVSPropertyOp9
 70
     1
102
RTVSPropertyOp10
 70
     1
102
RTVSPropertyOp11
 70
     1
102
RTVSPropertyOp12
 70
     1
102
RTVSPropertyOp13
 70
     1
102
RTVSPropertyOp14
 70
     1
102
RTVSPropertyOp15
 70
     1
102
RTVSPropertyOp16
 70
     1
102
RTVSPropertyOp17
 70
     1
102
RTVSPropertyOp18
 70
     1
102
RTVSPropertyOp19
 70
     1
102
RTVSPropertyOp20
 70
     1
102
RTVSPropertyOp21
 70
     1
102
RTVSPropertyOp22
 70
     1
102
RTVSPropertyOp23
 70
     1
102
RTVSPropertyOp24
 70
     1
102
RTVSPropertyOp25
 70
     1
102
RTVSPropertyOp26
 70
     1
102
RTVSPropertyOp27
 70
     1
102
RTVSPropertyOp28
 70
     1
102
RTVSPropertyOp29
 70
     1
102
RTVSPropertyOp30
 70
     1
102
RTVSPropertyOp31
 70
     1
102
RTVSPropertyOp32
 70
     1
102
RTVSPropertyOp33
 70
     1
102
RTVSPropertyOp34
 70
     1
102
RTVSPropertyOp35
 70
     1
102
RTVSPropertyOp36
 70
     1
102
RTVSPropertyOp37
 70
     1
102
RTVSPropertyOp38
 70
     1
102
RTVSPropertyOp39
 70
     1
102
RTVSPropertyOp40
 70
     1
102
RTVSPropertyOp41
 70
     1
102
RTVSPropertyOp42
 70
     1
102
RTVSPropertyOp43
 70
     1
102
RTVSPropertyOp44
 70
     1
102
RTVSPropertyOp45
 70
     1
102
RTVSPropertyOp46
 70
     1
102
RTVSPropertyOp47
 70
     1
102
RTVSPropertyOp48
 70
     1
102
RTVSPropertyOp49
 70
     1
102
RTVSPropertyOp50
 70
     1
102
RTVSPropertyOp51
 70
     0
102
RTVSPropertyOp52
 70
     0
102
RTVSPropertyOp53
 70
     1
102
RTVSPropertyOp54
 70
     1
102
RTVSPropertyOp55
 70
     1
102
RTVSPropertyOp56
 70
     1
102
RTVSPropertyOp57
 70
     1
102
RTVSPropertyOp58
 70
     1
102
RTVSPropertyOp59
 70
     1
102
RTVSPropertyOp60
 70
     1
102
RTVSPropertyOp61
 70
     1
102
RTVSPropertyOp62
 70
     1
  0
XRECORD
  5
682
102
{ACAD_REACTORS
330
681
102
}
330
681
100
AcDbXrecord
280
     1
102
RTVSPost2010Prop28
280
     0
102
RTVSPost2010PropOp28
 70
     1
102
RTVSPost2010Prop29
280
     1
102
RTVSPost2010PropOp29
 70
     1
102
RTVSPost2010Prop30
280
     1
102
RTVSPost2010PropOp30
 70
     1
102
RTVSPost2010Prop31
280
     0
102
RTVSPost2010PropOp31
 70
     1
102
RTVSPost2010Prop32
280
     0
102
RTVSPost2010PropOp32
 70
     1
102
RTVSPost2010Prop33
280
     0
102
RTVSPost2010PropOp33
 70
     1
102
RTVSPost2010Prop34
280
     0
102
RTVSPost2010PropOp34
 70
     1
102
RTVSPost2010Prop35
280
     0
102
RTVSPost2010PropOp35
 70
     1
102
RTVSPost2010Prop36
280
     0
102
RTVSPost2010PropOp36
 70
     1
102
RTVSPost2010Prop37
 90
       50
102
RTVSPost2010PropOp37
 70
     1
102
RTVSPost2010Prop38
140
0.0
102
RTVSPost2010PropOp38
 70
     1
102
RTVSPost2010Prop39
140
1.0
102
RTVSPost2010PropOp39
 70
     1
102
RTVSPost2010Prop40
 90
        0
102
RTVSPost2010PropOp40
 70
     1
102
RTVSPost2010Prop41ColorIndex
 90
       18
102
RTVSPost2010Prop41ColorRGB
 90
        0
102
RTVSPost2010PropOp41
 70
     1
102
RTVSPost2010Prop42
 90
       50
102
RTVSPost2010PropOp42
 70
     1
102
RTVSPost2010Prop43
 90
        3
102
RTVSPost2010PropOp43
 70
     1
102
RTVSPost2010Prop44ColorIndex
 90
        5
102
RTVSPost2010Prop44ColorRGB
 90
      255
102
RTVSPost2010PropOp44
 70
     1
102
RTVSPost2010Prop45
280
     0
102
RTVSPost2010PropOp45
 70
     1
102
RTVSPost2010Prop46
 90
       50
102
RTVSPost2010PropOp46
 70
     1
102
RTVSPost2010Prop47
 90
       50
102
RTVSPost2010PropOp47
 70
     1
102
RTVSPost2010Prop48
 90
       50
102
RTVSPost2010PropOp48
 70
     1
102
RTVSPost2010Prop49
280
     0
102
RTVSPost2010PropOp49
 70
     1
102
RTVSPost2010Prop50
 90
       50
102
RTVSPost2010PropOp50
 70
     1
102
RTVSPost2010Prop51ColorIndex
 90
      256
102
RTVSPost2010Prop51ColorRGB
 90
-16777216
102
RTVSPost2010PropOp51
 70
     0
102
RTVSPost2010Prop52
140
1.0
102
RTVSPost2010PropOp52
 70
     0
102
RTVSPost2010Prop53
 90
        2
102
RTVSPost2010PropOp53
 70
     1
102
RTVSPost2010Prop54
  1
strokes_ogs.tif
102
RTVSPost2010PropOp54
 70
     1
102
RTVSPost2010Prop55
280
     0
102
RTVSPost2010PropOp55
 70
     1
102
RTVSPost2010Prop56
140
1.0
102
RTVSPost2010PropOp56
 70
     1
102
RTVSPost2010Prop57
140
1.0
102
RTVSPost2010PropOp57
 70
     1
102
RTVSPropertyOp0
 70
     1
102
RTVSPropertyOp1
 70
     1
102
RTVSPropertyOp2
 70
     1
102
RTVSPropertyOp3
 70
     1
102
RTVSPropertyOp4
 70
     1
102
RTVSPropertyOp5
 70
     1
102
RTVSPropertyOp6
 70
     1
102
RTVSPropertyOp7
 70
     1
102
RTVSPropertyOp8
 70
     1
102
RTVSPropertyOp9
 70
     1
102
RTVSPropertyOp10
 70
     1
102
RTVSPropertyOp11
 70
     1
102
RTVSPropertyOp12
 70
     1
102
RTVSPropertyOp13
 70
     1
102
RTVSPropertyOp14
 70
     1
102
RTVSPropertyOp15
 70
     1
102
RTVSPropertyOp16
 70
     1
102
RTVSPropertyOp17
 70
     1
102
RTVSPropertyOp18
 70
     1
102
RTVSPropertyOp19
 70
     1
102
RTVSPropertyOp20
 70
     1
102
RTVSPropertyOp21
 70
     1
102
RTVSPropertyOp22
 70
     1
102
RTVSPropertyOp23
 70
     1
102
RTVSPropertyOp24
 70
     1
102
RTVSPropertyOp25
 70
     1
102
RTVSPropertyOp26
 70
     1
102
RTVSPropertyOp27
 70
     1
102
RTVSPropertyOp28
 70
     1
102
RTVSPropertyOp29
 70
     1
102
RTVSPropertyOp30
 70
     1
102
RTVSPropertyOp31
 70
     1
102
RTVSPropertyOp32
 70
     1
102
RTVSPropertyOp33
 70
     1
102
RTVSPropertyOp34
 70
     1
102
RTVSPropertyOp35
 70
     1
102
RTVSPropertyOp36
 70
     1
102
RTVSPropertyOp37
 70
     1
102
RTVSPropertyOp38
 70
     1
102
RTVSPropertyOp39
 70
     1
102
RTVSPropertyOp40
 70
     1
102
RTVSPropertyOp41
 70
     1
102
RTVSPropertyOp42
 70
     1
102
RTVSPropertyOp43
 70
     1
102
RTVSPropertyOp44
 70
     1
102
RTVSPropertyOp45
 70
     1
102
RTVSPropertyOp46
 70
     1
102
RTVSPropertyOp47
 70
     1
102
RTVSPropertyOp48
 70
     1
102
RTVSPropertyOp49
 70
     1
102
RTVSPropertyOp50
 70
     1
102
RTVSPropertyOp51
 70
     0
102
RTVSPropertyOp52
 70
     0
102
RTVSPropertyOp53
 70
     1
102
RTVSPropertyOp54
 70
     1
102
RTVSPropertyOp55
 70
     1
102
RTVSPropertyOp56
 70
     1
102
RTVSPropertyOp57
 70
     1
102
RTVSPropertyOp58
 70
     1
102
RTVSPropertyOp59
 70
     1
102
RTVSPropertyOp60
 70
     1
102
RTVSPropertyOp61
 70
     1
102
RTVSPropertyOp62
 70
     1
  0
XRECORD
  5
684
102
{ACAD_REACTORS
330
683
102
}
330
683
100
AcDbXrecord
280
     1
102
RTVSPost2010Prop28
280
     0
102
RTVSPost2010PropOp28
 70
     1
102
RTVSPost2010Prop29
280
     1
102
RTVSPost2010PropOp29
 70
     1
102
RTVSPost2010Prop30
280
     1
102
RTVSPost2010PropOp30
 70
     1
102
RTVSPost2010Prop31
280
     0
102
RTVSPost2010PropOp31
 70
     1
102
RTVSPost2010Prop32
280
     0
102
RTVSPost2010PropOp32
 70
     1
102
RTVSPost2010Prop33
280
     0
102
RTVSPost2010PropOp33
 70
     1
102
RTVSPost2010Prop34
280
     0
102
RTVSPost2010PropOp34
 70
     1
102
RTVSPost2010Prop35
280
     0
102
RTVSPost2010PropOp35
 70
     1
102
RTVSPost2010Prop36
280
     0
102
RTVSPost2010PropOp36
 70
     1
102
RTVSPost2010Prop37
 90
       50
102
RTVSPost2010PropOp37
 70
     1
102
RTVSPost2010Prop38
140
0.0
102
RTVSPost2010PropOp38
 70
     1
102
RTVSPost2010Prop39
140
1.0
102
RTVSPost2010PropOp39
 70
     1
102
RTVSPost2010Prop40
 90
        0
102
RTVSPost2010PropOp40
 70
     1
102
RTVSPost2010Prop41ColorIndex
 90
       18
102
RTVSPost2010Prop41ColorRGB
 90
        0
102
RTVSPost2010PropOp41
 70
     1
102
RTVSPost2010Prop42
 90
       50
102
RTVSPost2010PropOp42
 70
     1
102
RTVSPost2010Prop43
 90
        3
102
RTVSPost2010PropOp43
 70
     1
102
RTVSPost2010Prop44ColorIndex
 90
        5
102
RTVSPost2010Prop44ColorRGB
 90
      255
102
RTVSPost2010PropOp44
 70
     1
102
RTVSPost2010Prop45
280
     0
102
RTVSPost2010PropOp45
 70
     1
102
RTVSPost2010Prop46
 90
       50
102
RTVSPost2010PropOp46
 70
     1
102
RTVSPost2010Prop47
 90
       50
102
RTVSPost2010PropOp47
 70
     1
102
RTVSPost2010Prop48
 90
       50
102
RTVSPost2010PropOp48
 70
     1
102
RTVSPost2010Prop49
280
     0
102
RTVSPost2010PropOp49
 70
     1
102
RTVSPost2010Prop50
 90
       50
102
RTVSPost2010PropOp50
 70
     1
102
RTVSPost2010Prop51ColorIndex
 90
      256
102
RTVSPost2010Prop51ColorRGB
 90
-16777216
102
RTVSPost2010PropOp51
 70
     0
102
RTVSPost2010Prop52
140
1.0
102
RTVSPost2010PropOp52
 70
     0
102
RTVSPost2010Prop53
 90
        2
102
RTVSPost2010PropOp53
 70
     1
102
RTVSPost2010Prop54
  1
strokes_ogs.tif
102
RTVSPost2010PropOp54
 70
     1
102
RTVSPost2010Prop55
280
     0
102
RTVSPost2010PropOp55
 70
     1
102
RTVSPost2010Prop56
140
1.0
102
RTVSPost2010PropOp56
 70
     1
102
RTVSPost2010Prop57
140
1.0
102
RTVSPost2010PropOp57
 70
     1
102
RTVSPropertyOp0
 70
     1
102
RTVSPropertyOp1
 70
     1
102
RTVSPropertyOp2
 70
     1
102
RTVSPropertyOp3
 70
     1
102
RTVSPropertyOp4
 70
     1
102
RTVSPropertyOp5
 70
     1
102
RTVSPropertyOp6
 70
     1
102
RTVSPropertyOp7
 70
     1
102
RTVSPropertyOp8
 70
     1
102
RTVSPropertyOp9
 70
     1
102
RTVSPropertyOp10
 70
     1
102
RTVSPropertyOp11
 70
     1
102
RTVSPropertyOp12
 70
     1
102
RTVSPropertyOp13
 70
     1
102
RTVSPropertyOp14
 70
     1
102
RTVSPropertyOp15
 70
     1
102
RTVSPropertyOp16
 70
     1
102
RTVSPropertyOp17
 70
     1
102
RTVSPropertyOp18
 70
     1
102
RTVSPropertyOp19
 70
     1
102
RTVSPropertyOp20
 70
     1
102
RTVSPropertyOp21
 70
     1
102
RTVSPropertyOp22
 70
     1
102
RTVSPropertyOp23
 70
     1
102
RTVSPropertyOp24
 70
     1
102
RTVSPropertyOp25
 70
     1
102
RTVSPropertyOp26
 70
     1
102
RTVSPropertyOp27
 70
     1
102
RTVSPropertyOp28
 70
     1
102
RTVSPropertyOp29
 70
     1
102
RTVSPropertyOp30
 70
     1
102
RTVSPropertyOp31
 70
     1
102
RTVSPropertyOp32
 70
     1
102
RTVSPropertyOp33
 70
     1
102
RTVSPropertyOp34
 70
     1
102
RTVSPropertyOp35
 70
     1
102
RTVSPropertyOp36
 70
     1
102
RTVSPropertyOp37
 70
     1
102
RTVSPropertyOp38
 70
     1
102
RTVSPropertyOp39
 70
     1
102
RTVSPropertyOp40
 70
     1
102
RTVSPropertyOp41
 70
     1
102
RTVSPropertyOp42
 70
     1
102
RTVSPropertyOp43
 70
     1
102
RTVSPropertyOp44
 70
     1
102
RTVSPropertyOp45
 70
     1
102
RTVSPropertyOp46
 70
     1
102
RTVSPropertyOp47
 70
     1
102
RTVSPropertyOp48
 70
     1
102
RTVSPropertyOp49
 70
     1
102
RTVSPropertyOp50
 70
     1
102
RTVSPropertyOp51
 70
     0
102
RTVSPropertyOp52
 70
     0
102
RTVSPropertyOp53
 70
     1
102
RTVSPropertyOp54
 70
     1
102
RTVSPropertyOp55
 70
     1
102
RTVSPropertyOp56
 70
     1
102
RTVSPropertyOp57
 70
     1
102
RTVSPropertyOp58
 70
     1
102
RTVSPropertyOp59
 70
     1
102
RTVSPropertyOp60
 70
     1
102
RTVSPropertyOp61
 70
     1
102
RTVSPropertyOp62
 70
     1
  0
XRECORD
  5
67A
102
{ACAD_REACTORS
330
679
102
}
330
679
100
AcDbXrecord
280
     1
102
RTVSPost2010Prop28
280
     0
102
RTVSPost2010PropOp28
 70
     1
102
RTVSPost2010Prop29
280
     1
102
RTVSPost2010PropOp29
 70
     1
102
RTVSPost2010Prop30
280
     1
102
RTVSPost2010PropOp30
 70
     1
102
RTVSPost2010Prop31
280
     0
102
RTVSPost2010PropOp31
 70
     1
102
RTVSPost2010Prop32
280
     0
102
RTVSPost2010PropOp32
 70
     1
102
RTVSPost2010Prop33
280
     0
102
RTVSPost2010PropOp33
 70
     1
102
RTVSPost2010Prop34
280
     0
102
RTVSPost2010PropOp34
 70
     1
102
RTVSPost2010Prop35
280
     0
102
RTVSPost2010PropOp35
 70
     1
102
RTVSPost2010Prop36
280
     0
102
RTVSPost2010PropOp36
 70
     1
102
RTVSPost2010Prop37
 90
       50
102
RTVSPost2010PropOp37
 70
     1
102
RTVSPost2010Prop38
140
0.0
102
RTVSPost2010PropOp38
 70
     1
102
RTVSPost2010Prop39
140
1.0
102
RTVSPost2010PropOp39
 70
     1
102
RTVSPost2010Prop40
 90
        0
102
RTVSPost2010PropOp40
 70
     1
102
RTVSPost2010Prop41ColorIndex
 90
       18
102
RTVSPost2010Prop41ColorRGB
 90
        0
102
RTVSPost2010PropOp41
 70
     1
102
RTVSPost2010Prop42
 90
       50
102
RTVSPost2010PropOp42
 70
     1
102
RTVSPost2010Prop43
 90
        3
102
RTVSPost2010PropOp43
 70
     1
102
RTVSPost2010Prop44ColorIndex
 90
        5
102
RTVSPost2010Prop44ColorRGB
 90
      255
102
RTVSPost2010PropOp44
 70
     1
102
RTVSPost2010Prop45
280
     0
102
RTVSPost2010PropOp45
 70
     1
102
RTVSPost2010Prop46
 90
       50
102
RTVSPost2010PropOp46
 70
     1
102
RTVSPost2010Prop47
 90
       50
102
RTVSPost2010PropOp47
 70
     1
102
RTVSPost2010Prop48
 90
       50
102
RTVSPost2010PropOp48
 70
     1
102
RTVSPost2010Prop49
280
     0
102
RTVSPost2010PropOp49
 70
     1
102
RTVSPost2010Prop50
 90
       50
102
RTVSPost2010PropOp50
 70
     1
102
RTVSPost2010Prop51ColorIndex
 90
      256
102
RTVSPost2010Prop51ColorRGB
 90
-16777216
102
RTVSPost2010PropOp51
 70
     0
102
RTVSPost2010Prop52
140
1.0
102
RTVSPost2010PropOp52
 70
     0
102
RTVSPost2010Prop53
 90
        2
102
RTVSPost2010PropOp53
 70
     1
102
RTVSPost2010Prop54
  1
strokes_ogs.tif
102
RTVSPost2010PropOp54
 70
     1
102
RTVSPost2010Prop55
280
     0
102
RTVSPost2010PropOp55
 70
     1
102
RTVSPost2010Prop56
140
1.0
102
RTVSPost2010PropOp56
 70
     1
102
RTVSPost2010Prop57
140
1.0
102
RTVSPost2010PropOp57
 70
     1
102
RTVSPropertyOp0
 70
     1
102
RTVSPropertyOp1
 70
     1
102
RTVSPropertyOp2
 70
     1
102
RTVSPropertyOp3
 70
     1
102
RTVSPropertyOp4
 70
     1
102
RTVSPropertyOp5
 70
     1
102
RTVSPropertyOp6
 70
     1
102
RTVSPropertyOp7
 70
     1
102
RTVSPropertyOp8
 70
     1
102
RTVSPropertyOp9
 70
     1
102
RTVSPropertyOp10
 70
     1
102
RTVSPropertyOp11
 70
     1
102
RTVSPropertyOp12
 70
     1
102
RTVSPropertyOp13
 70
     1
102
RTVSPropertyOp14
 70
     1
102
RTVSPropertyOp15
 70
     1
102
RTVSPropertyOp16
 70
     1
102
RTVSPropertyOp17
 70
     1
102
RTVSPropertyOp18
 70
     1
102
RTVSPropertyOp19
 70
     1
102
RTVSPropertyOp20
 70
     1
102
RTVSPropertyOp21
 70
     1
102
RTVSPropertyOp22
 70
     1
102
RTVSPropertyOp23
 70
     1
102
RTVSPropertyOp24
 70
     1
102
RTVSPropertyOp25
 70
     1
102
RTVSPropertyOp26
 70
     1
102
RTVSPropertyOp27
 70
     1
102
RTVSPropertyOp28
 70
     1
102
RTVSPropertyOp29
 70
     1
102
RTVSPropertyOp30
 70
     1
102
RTVSPropertyOp31
 70
     1
102
RTVSPropertyOp32
 70
     1
102
RTVSPropertyOp33
 70
     1
102
RTVSPropertyOp34
 70
     1
102
RTVSPropertyOp35
 70
     1
102
RTVSPropertyOp36
 70
     1
102
RTVSPropertyOp37
 70
     1
102
RTVSPropertyOp38
 70
     1
102
RTVSPropertyOp39
 70
     1
102
RTVSPropertyOp40
 70
     1
102
RTVSPropertyOp41
 70
     1
102
RTVSPropertyOp42
 70
     1
102
RTVSPropertyOp43
 70
     1
102
RTVSPropertyOp44
 70
     1
102
RTVSPropertyOp45
 70
     1
102
RTVSPropertyOp46
 70
     1
102
RTVSPropertyOp47
 70
     1
102
RTVSPropertyOp48
 70
     1
102
RTVSPropertyOp49
 70
     1
102
RTVSPropertyOp50
 70
     1
102
RTVSPropertyOp51
 70
     0
102
RTVSPropertyOp52
 70
     0
102
RTVSPropertyOp53
 70
     1
102
RTVSPropertyOp54
 70
     1
102
RTVSPropertyOp55
 70
     1
102
RTVSPropertyOp56
 70
     1
102
RTVSPropertyOp57
 70
     1
102
RTVSPropertyOp58
 70
     1
102
RTVSPropertyOp59
 70
     1
102
RTVSPropertyOp60
 70
     1
102
RTVSPropertyOp61
 70
     1
102
RTVSPropertyOp62
 70
     1
  0
XRECORD
  5
66E
102
{ACAD_REACTORS
330
66D
102
}
330
66D
100
AcDbXrecord
280
     1
102
RTVSPost2010Prop28
280
     0
102
RTVSPost2010PropOp28
 70
     1
102
RTVSPost2010Prop29
280
     1
102
RTVSPost2010PropOp29
 70
     1
102
RTVSPost2010Prop30
280
     1
102
RTVSPost2010PropOp30
 70
     1
102
RTVSPost2010Prop31
280
     0
102
RTVSPost2010PropOp31
 70
     1
102
RTVSPost2010Prop32
280
     0
102
RTVSPost2010PropOp32
 70
     1
102
RTVSPost2010Prop33
280
     0
102
RTVSPost2010PropOp33
 70
     1
102
RTVSPost2010Prop34
280
     0
102
RTVSPost2010PropOp34
 70
     1
102
RTVSPost2010Prop35
280
     0
102
RTVSPost2010PropOp35
 70
     1
102
RTVSPost2010Prop36
280
     0
102
RTVSPost2010PropOp36
 70
     1
102
RTVSPost2010Prop37
 90
       50
102
RTVSPost2010PropOp37
 70
     1
102
RTVSPost2010Prop38
140
0.0
102
RTVSPost2010PropOp38
 70
     1
102
RTVSPost2010Prop39
140
1.0
102
RTVSPost2010PropOp39
 70
     1
102
RTVSPost2010Prop40
 90
        0
102
RTVSPost2010PropOp40
 70
     1
102
RTVSPost2010Prop41ColorIndex
 90
       18
102
RTVSPost2010Prop41ColorRGB
 90
        0
102
RTVSPost2010PropOp41
 70
     1
102
RTVSPost2010Prop42
 90
       50
102
RTVSPost2010PropOp42
 70
     1
102
RTVSPost2010Prop43
 90
        3
102
RTVSPost2010PropOp43
 70
     1
102
RTVSPost2010Prop44ColorIndex
 90
        5
102
RTVSPost2010Prop44ColorRGB
 90
      255
102
RTVSPost2010PropOp44
 70
     1
102
RTVSPost2010Prop45
280
     0
102
RTVSPost2010PropOp45
 70
     1
102
RTVSPost2010Prop46
 90
       50
102
RTVSPost2010PropOp46
 70
     1
102
RTVSPost2010Prop47
 90
       50
102
RTVSPost2010PropOp47
 70
     1
102
RTVSPost2010Prop48
 90
       50
102
RTVSPost2010PropOp48
 70
     1
102
RTVSPost2010Prop49
280
     0
102
RTVSPost2010PropOp49
 70
     1
102
RTVSPost2010Prop50
 90
       50
102
RTVSPost2010PropOp50
 70
     1
102
RTVSPost2010Prop51ColorIndex
 90
      256
102
RTVSPost2010Prop51ColorRGB
 90
-16777216
102
RTVSPost2010PropOp51
 70
     0
102
RTVSPost2010Prop52
140
1.0
102
RTVSPost2010PropOp52
 70
     0
102
RTVSPost2010Prop53
 90
        2
102
RTVSPost2010PropOp53
 70
     1
102
RTVSPost2010Prop54
  1
strokes_ogs.tif
102
RTVSPost2010PropOp54
 70
     1
102
RTVSPost2010Prop55
280
     0
102
RTVSPost2010PropOp55
 70
     1
102
RTVSPost2010Prop56
140
1.0
102
RTVSPost2010PropOp56
 70
     1
102
RTVSPost2010Prop57
140
1.0
102
RTVSPost2010PropOp57
 70
     1
102
RTVSPropertyOp0
 70
     1
102
RTVSPropertyOp1
 70
     1
102
RTVSPropertyOp2
 70
     1
102
RTVSPropertyOp3
 70
     1
102
RTVSPropertyOp4
 70
     1
102
RTVSPropertyOp5
 70
     1
102
RTVSPropertyOp6
 70
     1
102
RTVSPropertyOp7
 70
     1
102
RTVSPropertyOp8
 70
     1
102
RTVSPropertyOp9
 70
     1
102
RTVSPropertyOp10
 70
     1
102
RTVSPropertyOp11
 70
     1
102
RTVSPropertyOp12
 70
     1
102
RTVSPropertyOp13
 70
     1
102
RTVSPropertyOp14
 70
     1
102
RTVSPropertyOp15
 70
     1
102
RTVSPropertyOp16
 70
     1
102
RTVSPropertyOp17
 70
     1
102
RTVSPropertyOp18
 70
     1
102
RTVSPropertyOp19
 70
     1
102
RTVSPropertyOp20
 70
     1
102
RTVSPropertyOp21
 70
     1
102
RTVSPropertyOp22
 70
     1
102
RTVSPropertyOp23
 70
     1
102
RTVSPropertyOp24
 70
     1
102
RTVSPropertyOp25
 70
     1
102
RTVSPropertyOp26
 70
     1
102
RTVSPropertyOp27
 70
     1
102
RTVSPropertyOp28
 70
     1
102
RTVSPropertyOp29
 70
     1
102
RTVSPropertyOp30
 70
     1
102
RTVSPropertyOp31
 70
     1
102
RTVSPropertyOp32
 70
     1
102
RTVSPropertyOp33
 70
     1
102
RTVSPropertyOp34
 70
     1
102
RTVSPropertyOp35
 70
     1
102
RTVSPropertyOp36
 70
     1
102
RTVSPropertyOp37
 70
     1
102
RTVSPropertyOp38
 70
     1
102
RTVSPropertyOp39
 70
     1
102
RTVSPropertyOp40
 70
     1
102
RTVSPropertyOp41
 70
     1
102
RTVSPropertyOp42
 70
     1
102
RTVSPropertyOp43
 70
     1
102
RTVSPropertyOp44
 70
     1
102
RTVSPropertyOp45
 70
     1
102
RTVSPropertyOp46
 70
     1
102
RTVSPropertyOp47
 70
     1
102
RTVSPropertyOp48
 70
     1
102
RTVSPropertyOp49
 70
     1
102
RTVSPropertyOp50
 70
     1
102
RTVSPropertyOp51
 70
     0
102
RTVSPropertyOp52
 70
     0
102
RTVSPropertyOp53
 70
     1
102
RTVSPropertyOp54
 70
     1
102
RTVSPropertyOp55
 70
     1
102
RTVSPropertyOp56
 70
     1
102
RTVSPropertyOp57
 70
     1
102
RTVSPropertyOp58
 70
     1
102
RTVSPropertyOp59
 70
     1
102
RTVSPropertyOp60
 70
     1
102
RTVSPropertyOp61
 70
     1
102
RTVSPropertyOp62
 70
     1
  0
XRECORD
  5
686
102
{ACAD_REACTORS
330
685
102
}
330
685
100
AcDbXrecord
280
     1
102
RTVSPost2010Prop28
280
     0
102
RTVSPost2010PropOp28
 70
     1
102
RTVSPost2010Prop29
280
     1
102
RTVSPost2010PropOp29
 70
     1
102
RTVSPost2010Prop30
280
     1
102
RTVSPost2010PropOp30
 70
     1
102
RTVSPost2010Prop31
280
     0
102
RTVSPost2010PropOp31
 70
     1
102
RTVSPost2010Prop32
280
     0
102
RTVSPost2010PropOp32
 70
     1
102
RTVSPost2010Prop33
280
     0
102
RTVSPost2010PropOp33
 70
     1
102
RTVSPost2010Prop34
280
     0
102
RTVSPost2010PropOp34
 70
     1
102
RTVSPost2010Prop35
280
     0
102
RTVSPost2010PropOp35
 70
     1
102
RTVSPost2010Prop36
280
     0
102
RTVSPost2010PropOp36
 70
     1
102
RTVSPost2010Prop37
 90
       50
102
RTVSPost2010PropOp37
 70
     1
102
RTVSPost2010Prop38
140
0.0
102
RTVSPost2010PropOp38
 70
     1
102
RTVSPost2010Prop39
140
1.0
102
RTVSPost2010PropOp39
 70
     1
102
RTVSPost2010Prop40
 90
        0
102
RTVSPost2010PropOp40
 70
     1
102
RTVSPost2010Prop41ColorIndex
 90
       18
102
RTVSPost2010Prop41ColorRGB
 90
        0
102
RTVSPost2010PropOp41
 70
     1
102
RTVSPost2010Prop42
 90
       50
102
RTVSPost2010PropOp42
 70
     1
102
RTVSPost2010Prop43
 90
        3
102
RTVSPost2010PropOp43
 70
     1
102
RTVSPost2010Prop44ColorIndex
 90
        5
102
RTVSPost2010Prop44ColorRGB
 90
      255
102
RTVSPost2010PropOp44
 70
     1
102
RTVSPost2010Prop45
280
     0
102
RTVSPost2010PropOp45
 70
     1
102
RTVSPost2010Prop46
 90
       50
102
RTVSPost2010PropOp46
 70
     1
102
RTVSPost2010Prop47
 90
       50
102
RTVSPost2010PropOp47
 70
     1
102
RTVSPost2010Prop48
 90
       50
102
RTVSPost2010PropOp48
 70
     1
102
RTVSPost2010Prop49
280
     0
102
RTVSPost2010PropOp49
 70
     1
102
RTVSPost2010Prop50
 90
       50
102
RTVSPost2010PropOp50
 70
     1
102
RTVSPost2010Prop51ColorIndex
 90
      256
102
RTVSPost2010Prop51ColorRGB
 90
-16777216
102
RTVSPost2010PropOp51
 70
     0
102
RTVSPost2010Prop52
140
1.0
102
RTVSPost2010PropOp52
 70
     0
102
RTVSPost2010Prop53
 90
        2
102
RTVSPost2010PropOp53
 70
     1
102
RTVSPost2010Prop54
  1
strokes_ogs.tif
102
RTVSPost2010PropOp54
 70
     1
102
RTVSPost2010Prop55
280
     0
102
RTVSPost2010PropOp55
 70
     1
102
RTVSPost2010Prop56
140
1.0
102
RTVSPost2010PropOp56
 70
     1
102
RTVSPost2010Prop57
140
1.0
102
RTVSPost2010PropOp57
 70
     1
102
RTVSPropertyOp0
 70
     1
102
RTVSPropertyOp1
 70
     1
102
RTVSPropertyOp2
 70
     1
102
RTVSPropertyOp3
 70
     1
102
RTVSPropertyOp4
 70
     1
102
RTVSPropertyOp5
 70
     1
102
RTVSPropertyOp6
 70
     1
102
RTVSPropertyOp7
 70
     1
102
RTVSPropertyOp8
 70
     1
102
RTVSPropertyOp9
 70
     1
102
RTVSPropertyOp10
 70
     1
102
RTVSPropertyOp11
 70
     1
102
RTVSPropertyOp12
 70
     1
102
RTVSPropertyOp13
 70
     1
102
RTVSPropertyOp14
 70
     1
102
RTVSPropertyOp15
 70
     1
102
RTVSPropertyOp16
 70
     1
102
RTVSPropertyOp17
 70
     1
102
RTVSPropertyOp18
 70
     1
102
RTVSPropertyOp19
 70
     1
102
RTVSPropertyOp20
 70
     1
102
RTVSPropertyOp21
 70
     1
102
RTVSPropertyOp22
 70
     1
102
RTVSPropertyOp23
 70
     1
102
RTVSPropertyOp24
 70
     1
102
RTVSPropertyOp25
 70
     1
102
RTVSPropertyOp26
 70
     1
102
RTVSPropertyOp27
 70
     1
102
RTVSPropertyOp28
 70
     1
102
RTVSPropertyOp29
 70
     1
102
RTVSPropertyOp30
 70
     1
102
RTVSPropertyOp31
 70
     1
102
RTVSPropertyOp32
 70
     1
102
RTVSPropertyOp33
 70
     1
102
RTVSPropertyOp34
 70
     1
102
RTVSPropertyOp35
 70
     1
102
RTVSPropertyOp36
 70
     1
102
RTVSPropertyOp37
 70
     1
102
RTVSPropertyOp38
 70
     1
102
RTVSPropertyOp39
 70
     1
102
RTVSPropertyOp40
 70
     1
102
RTVSPropertyOp41
 70
     1
102
RTVSPropertyOp42
 70
     1
102
RTVSPropertyOp43
 70
     1
102
RTVSPropertyOp44
 70
     1
102
RTVSPropertyOp45
 70
     1
102
RTVSPropertyOp46
 70
     1
102
RTVSPropertyOp47
 70
     1
102
RTVSPropertyOp48
 70
     1
102
RTVSPropertyOp49
 70
     1
102
RTVSPropertyOp50
 70
     1
102
RTVSPropertyOp51
 70
     0
102
RTVSPropertyOp52
 70
     0
102
RTVSPropertyOp53
 70
     1
102
RTVSPropertyOp54
 70
     1
102
RTVSPropertyOp55
 70
     1
102
RTVSPropertyOp56
 70
     1
102
RTVSPropertyOp57
 70
     1
102
RTVSPropertyOp58
 70
     1
102
RTVSPropertyOp59
 70
     1
102
RTVSPropertyOp60
 70
     1
102
RTVSPropertyOp61
 70
     1
102
RTVSPropertyOp62
 70
     1
  0
ENDSEC
  0
EOF
