0
SECTION
2
HEADER
9
$ACADVER
1
AC1015
9
$DWGCODEPAGE
3
ANSI_1252
9
$HANDSEED
5
186
9
$ANGBASE
50
0
9
$ANGDIR
70
0
9
$ATTMODE
70
1
9
$AUNITS
70
0
9
$AUPREC
70
0
9
$CECOLOR
62
256
9
$CELTSCALE
40
1
9
$CELTYPE
6
ByLayer
9
$CELWEIGHT
370
18
9
$CLAYER
8
0
9
$CMLJUST
70
0
9
$CMLSCALE
40
1
9
$CMLSTYLE
2
Standard
9
$DIMSTYLE
2
Standard
9
$TEXTSIZE
40
0.2
9
$TEXTSTYLE
7
Standard
9
$LUNITS
70
2
9
$LUPREC
70
4
9
$EXTNAMES
290
1
9
$INSUNITS
70
4
9
$LTSCALE
40
1
9
$LWDISPLAY
290
1
9
$PDMODE
70
0
9
$PDSIZE
40
0
9
$PLINEGEN
70
0
0
ENDSEC
0
SECTION
2
CLASSES
0
CLASS
1
RASTERVARIABLES
2
AcDbRasterVariables
3
ISM
90
0
280
0
281
0
0
ENDSEC
0
SECTION
2
TABLES
0
TABLE
2
VPORT
5
17c
100
AcDbSymbolTable
0
VPORT
5
1
100
AcDbSymbolTableRecord
100
AcDbViewportTableRecord
2
*Active
70
0
10
0
20
0
11
1
21
1
12
-1
22
1
13
0
23
0
14
0.5
24
0.5
15
10
25
10
16
0
26
0
36
1
17
0
27
0
37
0
0
ENDTAB
0
TABLE
2
LTYPE
5
17d
100
AcDbSymbolTable
0
LTYPE
5
14
100
AcDbSymbolTableRecord
100
AcDbLinetypeTableRecord
70
0
2
ByBlock
3

72
65
73
0
40
0
0
LTYPE
5
15
100
AcDbSymbolTableRecord
100
AcDbLinetypeTableRecord
70
0
2
ByLayer
3

72
65
73
0
40
0
0
LTYPE
5
16
100
AcDbSymbolTableRecord
100
AcDbLinetypeTableRecord
70
0
2
CONTINUOUS
3
Solid line
72
65
73
0
40
0
0
LTYPE
5
6A
100
AcDbSymbolTableRecord
100
AcDbLinetypeTableRecord
70
0
2
CENTER
3
____ _ ____ _ ____ _ ____
72
65
73
4
40
47.5
49
22
74
0
49
-8.5
74
0
49
8.5
74
0
49
-8.5
74
0
0
LTYPE
5
6B
100
AcDbSymbolTableRecord
100
AcDbLinetypeTableRecord
70
0
2
DASHED
3
__ __ __ __ __ __ __ __ __
72
65
73
2
40
25.72
49
12.86
74
0
49
-12.86
74
0
0
ENDTAB
0
TABLE
2
LAYER
5
17e
100
AcDbSymbolTable
0
LAYER
5
10
100
AcDbSymbolTableRecord
100
AcDbLayerTableRecord
2
0
70
0
62
7
6
CONTINUOUS
290
1
370
-3
390
0
0
LAYER
5
6D
100
AcDbSymbolTableRecord
100
AcDbLayerTableRecord
2
81
70
0
62
-3
6
CONTINUOUS
290
1
370
-3
390
0
0
LAYER
5
6F
100
AcDbSymbolTableRecord
100
AcDbLayerTableRecord
2
80
70
0
62
-6
6
CONTINUOUS
290
1
370
-3
390
0
0
LAYER
5
71
100
AcDbSymbolTableRecord
100
AcDbLayerTableRecord
2
1
70
0
62
4
6
CONTINUOUS
290
1
370
-3
390
0
0
LAYER
5
E7
100
AcDbSymbolTableRecord
100
AcDbLayerTableRecord
2
2
70
0
62
7
6
CONTINUOUS
290
1
370
-3
390
0
0
LAYER
5
169
100
AcDbSymbolTableRecord
100
AcDbLayerTableRecord
2
SK1
70
0
62
4
6
CONTINUOUS
290
1
370
-3
390
0
0
LAYER
5
16a
100
AcDbSymbolTableRecord
100
AcDbLayerTableRecord
2
SK6
70
0
62
5
6
CONTINUOUS
290
1
370
-3
390
0
0
LAYER
5
16b
100
AcDbSymbolTableRecord
100
AcDbLayerTableRecord
2
SK2
70
0
62
7
6
CONTINUOUS
290
1
370
-3
390
0
0
ENDTAB
0
TABLE
2
STYLE
5
17f
100
AcDbSymbolTable
0
STYLE
5
11
100
AcDbSymbolTableRecord
100
AcDbTextStyleTableRecord
2
Standard
3
txt
70
0
71
0
40
0
41
1
42
0
50
0
0
STYLE
5
CC
100
AcDbSymbolTableRecord
100
AcDbTextStyleTableRecord
2
iso_b_vert
3
simplex.shx
70
0
71
0
40
0
41
1
42
0
50
0
0
STYLE
5
CD
100
AcDbSymbolTableRecord
100
AcDbTextStyleTableRecord
2
DWGDirectTextStyle
3
simplex
70
0
71
0
40
0
41
1
42
0
50
0
0
ENDTAB
0
TABLE
2
DIMSTYLE
5
180
100
AcDbSymbolTable
100
AcDbDimStyleTable
0
DIMSTYLE
105
27
100
AcDbSymbolTableRecord
100
AcDbDimStyleTableRecord
2
Standard
70
0
3
<>
41
0.18
42
0.0625
44
0.18
140
0.18
147
0.09
73
0
74
0
77
1
271
2
275
0
278
52
280
0
340
11
0
ENDTAB
0
TABLE
2
VIEW
5
181
100
AcDbSymbolTable
0
ENDTAB
0
TABLE
2
UCS
5
182
100
AcDbSymbolTable
0
ENDTAB
0
TABLE
2
APPID
5
183
100
AcDbSymbolTable
0
APPID
5
12
100
AcDbSymbolTableRecord
100
AcDbRegAppTableRecord
2
ACAD
70
0
0
ENDTAB
0
TABLE
2
BLOCK_RECORD
5
184
100
AcDbSymbolTable
0
BLOCK_RECORD
5
1F
100
AcDbSymbolTableRecord
100
AcDbBlockTableRecord
2
*Model_Space
340
0
70
0
0
BLOCK_RECORD
5
1B
100
AcDbSymbolTableRecord
100
AcDbBlockTableRecord
2
*Paper_Space
340
0
70
0
0
BLOCK_RECORD
5
23
100
AcDbSymbolTableRecord
100
AcDbBlockTableRecord
2
*Paper_Space0
340
0
70
0
0
BLOCK_RECORD
5
CF
100
AcDbSymbolTableRecord
100
AcDbBlockTableRecord
2
DimnDraft3D1
340
0
70
0
0
BLOCK_RECORD
5
DE
100
AcDbSymbolTableRecord
100
AcDbBlockTableRecord
2
_CLOSED
340
0
70
0
0
BLOCK_RECORD
5
E5
100
AcDbSymbolTableRecord
100
AcDbBlockTableRecord
2
DimnDraft3D2
340
0
70
0
0
BLOCK_RECORD
5
F4
100
AcDbSymbolTableRecord
100
AcDbBlockTableRecord
2
DimnDraft3D3
340
0
70
0
0
BLOCK_RECORD
5
102
100
AcDbSymbolTableRecord
100
AcDbBlockTableRecord
2
DimnDraft3D4
340
0
70
0
0
ENDTAB
0
ENDSEC
0
SECTION
2
BLOCKS
0
BLOCK
5
20
100
AcDbEntity
8
0
100
AcDbBlockBegin
2
*Model_Space
70
0
10
0
20
0
30
0
3
*Model_Space
0
ENDBLK
5
21
100
AcDbEntity
8
0
100
AcDbBlockEnd
0
BLOCK
5
1C
100
AcDbEntity
8
0
100
AcDbBlockBegin
2
*Paper_Space
70
0
10
0
20
0
30
0
3
*Paper_Space
0
ENDBLK
5
1D
100
AcDbEntity
8
0
100
AcDbBlockEnd
0
BLOCK
5
24
100
AcDbEntity
8
0
100
AcDbBlockBegin
2
*Paper_Space0
70
0
10
0
20
0
30
0
3
*Paper_Space0
0
ENDBLK
5
25
100
AcDbEntity
8
0
100
AcDbBlockEnd
0
BLOCK
5
DB
100
AcDbEntity
8
0
100
AcDbBlockBegin
2
DimnDraft3D1
70
0
10
0
20
0
30
0
3
DimnDraft3D1
0
MTEXT
5
D0
100
AcDbEntity
8
SK2
62
256
6
ByLayer
370
18
48
1
60
0
100
AcDbMText
10
-14.972865
20
21.979652
30
0
210
0
220
0
230
1
1
\W0.6563;70
40
3
41
0
44
1.084337
50
0
71
8
72
5
7
iso_b_vert
0
LINE
5
D2
100
AcDbEntity
8
SK2
62
256
6
ByLayer
370
13
48
1
60
0
100
AcDbLine
10
-49.972865
20
9.971709
30
0
11
-49.972865
21
23.229652
31
0
39
0
210
0
220
0
230
1
0
LINE
5
D3
100
AcDbEntity
8
SK2
62
256
6
ByLayer
370
13
48
1
60
0
100
AcDbLine
10
20.027135
20
10.221709
30
0
11
20.027135
21
23.229652
31
0
39
0
210
0
220
0
230
1
0
LINE
5
D4
100
AcDbEntity
8
SK2
62
256
6
ByLayer
370
13
48
1
60
0
100
AcDbLine
10
-49.972865
20
21.229652
30
0
11
20.027135
21
21.229652
31
0
39
0
210
0
220
0
230
1
0
LINE
5
D5
100
AcDbEntity
8
SK2
62
256
6
ByLayer
370
13
48
1
60
0
100
AcDbLine
10
-49.972865
20
21.229652
30
0
11
-46.797866
21
21.647648
31
0
39
0
210
0
220
0
230
1
0
LINE
5
D6
100
AcDbEntity
8
SK2
62
256
6
ByLayer
370
13
48
1
60
0
100
AcDbLine
10
-49.972865
20
21.229652
30
0
11
-46.797863
21
20.811655
31
0
39
0
210
0
220
0
230
1
0
LINE
5
D7
100
AcDbEntity
8
SK2
62
256
6
ByLayer
370
13
48
1
60
0
100
AcDbLine
10
-46.797866
20
21.647648
30
0
11
-46.797863
21
20.811655
31
0
39
0
210
0
220
0
230
1
0
LINE
5
D8
100
AcDbEntity
8
SK2
62
256
6
ByLayer
370
13
48
1
60
0
100
AcDbLine
10
20.027135
20
21.229652
30
0
11
16.852137
21
20.811655
31
0
39
0
210
0
220
0
230
1
0
LINE
5
D9
100
AcDbEntity
8
SK2
62
256
6
ByLayer
370
13
48
1
60
0
100
AcDbLine
10
20.027135
20
21.229652
30
0
11
16.852134
21
21.647648
31
0
39
0
210
0
220
0
230
1
0
LINE
5
DA
100
AcDbEntity
8
SK2
62
256
6
ByLayer
370
13
48
1
60
0
100
AcDbLine
10
16.852137
20
20.811655
30
0
11
16.852134
21
21.647648
31
0
39
0
210
0
220
0
230
1
0
ENDBLK
5
DC
100
AcDbEntity
8
0
100
AcDbBlockEnd
0
BLOCK
5
DF
100
AcDbEntity
8
0
100
AcDbBlockBegin
2
_CLOSED
70
0
10
0
20
0
30
0
3
_CLOSED
0
LINE
5
E1
100
AcDbEntity
8
0
62
256
6
ByLayer
370
-2
48
1
60
0
100
AcDbLine
10
-1
20
0.166667
30
0
11
0
21
0
31
0
39
0
210
0
220
0
230
1
0
LINE
5
E2
100
AcDbEntity
8
0
62
256
6
ByLayer
370
-2
48
1
60
0
100
AcDbLine
10
0
20
0
30
0
11
-1
21
-0.166667
31
0
39
0
210
0
220
0
230
1
0
LINE
5
E3
100
AcDbEntity
8
0
62
256
6
ByLayer
370
-2
48
1
60
0
100
AcDbLine
10
-1
20
0.166667
30
0
11
-1
21
-0.166667
31
0
39
0
210
0
220
0
230
1
0
LINE
5
E4
100
AcDbEntity
8
0
62
256
6
ByLayer
370
-2
48
1
60
0
100
AcDbLine
10
0
20
0
30
0
11
-1
21
0
31
0
39
0
210
0
220
0
230
1
0
ENDBLK
5
E0
100
AcDbEntity
8
0
100
AcDbBlockEnd
0
BLOCK
5
F1
100
AcDbEntity
8
0
100
AcDbBlockBegin
2
DimnDraft3D2
70
0
10
0
20
0
30
0
3
DimnDraft3D2
0
MTEXT
5
E6
100
AcDbEntity
8
2
62
256
6
ByLayer
370
18
48
1
60
0
100
AcDbMText
10
10.013568
20
15.051507
30
0
210
0
220
0
230
1
1
\W0.6563;20
40
3
41
0
44
1.084337
50
0
71
8
72
5
7
iso_b_vert
0
LINE
5
E8
100
AcDbEntity
8
2
62
256
6
ByLayer
370
13
48
1
60
0
100
AcDbLine
10
20.027135
20
10.221709
30
0
11
20.027135
21
16.301507
31
0
39
0
210
0
220
0
230
1
0
LINE
5
E9
100
AcDbEntity
8
2
62
256
6
ByLayer
370
13
48
1
60
0
100
AcDbLine
10
0
20
9.403291
30
0
11
0
21
16.301507
31
0
39
0
210
0
220
0
230
1
0
LINE
5
EA
100
AcDbEntity
8
2
62
256
6
ByLayer
370
13
48
1
60
0
100
AcDbLine
10
20.027135
20
14.301507
30
0
11
0
21
14.301507
31
0
39
0
210
0
220
0
230
1
0
LINE
5
EB
100
AcDbEntity
8
2
62
256
6
ByLayer
370
13
48
1
60
0
100
AcDbLine
10
20.027135
20
14.301507
30
0
11
16.852137
21
13.88351
31
0
39
0
210
0
220
0
230
1
0
LINE
5
EC
100
AcDbEntity
8
2
62
256
6
ByLayer
370
13
48
1
60
0
100
AcDbLine
10
20.027135
20
14.301507
30
0
11
16.852134
21
14.719503
31
0
39
0
210
0
220
0
230
1
0
LINE
5
ED
100
AcDbEntity
8
2
62
256
6
ByLayer
370
13
48
1
60
0
100
AcDbLine
10
16.852137
20
13.88351
30
0
11
16.852134
21
14.719503
31
0
39
0
210
0
220
0
230
1
0
LINE
5
EE
100
AcDbEntity
8
2
62
256
6
ByLayer
370
13
48
1
60
0
100
AcDbLine
10
0
20
14.301507
30
0
11
3.174998
21
14.719503
31
0
39
0
210
0
220
0
230
1
0
LINE
5
EF
100
AcDbEntity
8
2
62
256
6
ByLayer
370
13
48
1
60
0
100
AcDbLine
10
0
20
14.301507
30
0
11
3.175002
21
13.88351
31
0
39
0
210
0
220
0
230
1
0
LINE
5
F0
100
AcDbEntity
8
2
62
256
6
ByLayer
370
13
48
1
60
0
100
AcDbLine
10
3.174998
20
14.719503
30
0
11
3.175002
21
13.88351
31
0
39
0
210
0
220
0
230
1
0
ENDBLK
5
F2
100
AcDbEntity
8
0
100
AcDbBlockEnd
0
BLOCK
5
FF
100
AcDbEntity
8
0
100
AcDbBlockBegin
2
DimnDraft3D3
70
0
10
0
20
0
30
0
3
DimnDraft3D3
0
MTEXT
5
F5
100
AcDbEntity
8
SK2
62
256
6
ByLayer
370
18
48
1
60
0
100
AcDbMText
10
31.207429
20
0.284209
30
0
210
0
220
0
230
1
1
\W0.6869;15.875
40
3
41
0
44
1.084337
50
90
71
8
72
5
7
iso_b_vert
0
LINE
5
F6
100
AcDbEntity
8
SK2
62
256
6
ByLayer
370
13
48
1
60
0
100
AcDbLine
10
11.994753
20
-7.653291
30
0
11
33.957429
21
-7.653291
31
0
39
0
210
0
220
0
230
1
0
LINE
5
F7
100
AcDbEntity
8
SK2
62
256
6
ByLayer
370
13
48
1
60
0
100
AcDbLine
10
22.027135
20
8.221709
30
0
11
33.957429
21
8.221709
31
0
39
0
210
0
220
0
230
1
0
LINE
5
F8
100
AcDbEntity
8
SK2
62
256
6
ByLayer
370
13
48
1
60
0
100
AcDbLine
10
31.957429
20
-15.153291
30
0
11
31.957429
21
15.721709
31
0
39
0
210
0
220
0
230
1
0
LINE
5
F9
100
AcDbEntity
8
SK2
62
256
6
ByLayer
370
13
48
1
60
0
100
AcDbLine
10
31.957429
20
-7.653291
30
0
11
32.375425
21
-10.82829
31
0
39
0
210
0
220
0
230
1
0
LINE
5
FA
100
AcDbEntity
8
SK2
62
256
6
ByLayer
370
13
48
1
60
0
100
AcDbLine
10
31.957429
20
-7.653291
30
0
11
31.539432
21
-10.828293
31
0
39
0
210
0
220
0
230
1
0
LINE
5
FB
100
AcDbEntity
8
SK2
62
256
6
ByLayer
370
13
48
1
60
0
100
AcDbLine
10
32.375425
20
-10.82829
30
0
11
31.539432
21
-10.828293
31
0
39
0
210
0
220
0
230
1
0
LINE
5
FC
100
AcDbEntity
8
SK2
62
256
6
ByLayer
370
13
48
1
60
0
100
AcDbLine
10
31.957429
20
8.221709
30
0
11
31.539432
21
11.396707
31
0
39
0
210
0
220
0
230
1
0
LINE
5
FD
100
AcDbEntity
8
SK2
62
256
6
ByLayer
370
13
48
1
60
0
100
AcDbLine
10
31.957429
20
8.221709
30
0
11
32.375425
21
11.39671
31
0
39
0
210
0
220
0
230
1
0
LINE
5
FE
100
AcDbEntity
8
SK2
62
256
6
ByLayer
370
13
48
1
60
0
100
AcDbLine
10
31.539432
20
11.396707
30
0
11
32.375425
21
11.39671
31
0
39
0
210
0
220
0
230
1
0
ENDBLK
5
100
100
AcDbEntity
8
0
100
AcDbBlockEnd
0
BLOCK
5
10D
100
AcDbEntity
8
0
100
AcDbBlockBegin
2
DimnDraft3D4
70
0
10
0
20
0
30
0
3
DimnDraft3D4
0
MTEXT
5
103
100
AcDbEntity
8
SK2
62
256
6
ByLayer
370
18
48
1
60
0
100
AcDbMText
10
-62.162647
20
0.284209
30
0
210
0
220
0
230
1
1
\W0.6869;15.875
40
3
41
0
44
1.084337
50
90
71
8
72
5
7
iso_b_vert
0
LINE
5
104
100
AcDbEntity
8
SK2
62
256
6
ByLayer
370
13
48
1
60
0
100
AcDbLine
10
-48.972865
20
-7.653291
30
0
11
-63.412647
21
-7.653291
31
0
39
0
210
0
220
0
230
1
0
LINE
5
105
100
AcDbEntity
8
SK2
62
256
6
ByLayer
370
13
48
1
60
0
100
AcDbLine
10
-51.722865
20
8.221709
30
0
11
-63.412647
21
8.221709
31
0
39
0
210
0
220
0
230
1
0
LINE
5
106
100
AcDbEntity
8
SK2
62
256
6
ByLayer
370
13
48
1
60
0
100
AcDbLine
10
-61.412647
20
-15.153291
30
0
11
-61.412647
21
15.721709
31
0
39
0
210
0
220
0
230
1
0
LINE
5
107
100
AcDbEntity
8
SK2
62
256
6
ByLayer
370
13
48
1
60
0
100
AcDbLine
10
-61.412647
20
-7.653291
30
0
11
-60.99465
21
-10.82829
31
0
39
0
210
0
220
0
230
1
0
LINE
5
108
100
AcDbEntity
8
SK2
62
256
6
ByLayer
370
13
48
1
60
0
100
AcDbLine
10
-61.412647
20
-7.653291
30
0
11
-61.830644
21
-10.828293
31
0
39
0
210
0
220
0
230
1
0
LINE
5
109
100
AcDbEntity
8
SK2
62
256
6
ByLayer
370
13
48
1
60
0
100
AcDbLine
10
-60.99465
20
-10.82829
30
0
11
-61.830644
21
-10.828293
31
0
39
0
210
0
220
0
230
1
0
LINE
5
10A
100
AcDbEntity
8
SK2
62
256
6
ByLayer
370
13
48
1
60
0
100
AcDbLine
10
-61.412647
20
8.221709
30
0
11
-61.830644
21
11.396707
31
0
39
0
210
0
220
0
230
1
0
LINE
5
10B
100
AcDbEntity
8
SK2
62
256
6
ByLayer
370
13
48
1
60
0
100
AcDbLine
10
-61.412647
20
8.221709
30
0
11
-60.99465
21
11.39671
31
0
39
0
210
0
220
0
230
1
0
LINE
5
10C
100
AcDbEntity
8
SK2
62
256
6
ByLayer
370
13
48
1
60
0
100
AcDbLine
10
-61.830644
20
11.396707
30
0
11
-60.99465
21
11.39671
31
0
39
0
210
0
220
0
230
1
0
ENDBLK
5
10E
100
AcDbEntity
8
0
100
AcDbBlockEnd
0
ENDSEC
0
SECTION
2
ENTITIES
0
ARC
5
96
100
AcDbEntity
8
1
62
256
6
ByLayer
370
18
48
1
60
0
100
AcDbCircle
39
0
10
-19.233135
20
7.427709
30
0
40
0.794000000000003
210
0
220
0
230
-1
100
AcDbArc
50
87
51
212
0
ARC
5
99
100
AcDbEntity
8
1
62
256
6
ByLayer
370
18
48
1
60
0
100
AcDbCircle
39
0
10
-3.900872
20
-1.603684
30
0
40
1.5
210
0
220
0
230
-1
100
AcDbArc
50
197.055616
51
225.535248
0
ARC
5
9A
100
AcDbEntity
8
1
62
256
6
ByLayer
370
18
48
1
60
0
100
AcDbCircle
39
0
10
-4.422586
20
-1.296372
30
0
40
0.794000000000003
210
0
220
0
230
-1
100
AcDbArc
50
267
51
32
0
ARC
5
9B
100
AcDbEntity
8
1
62
256
6
ByLayer
370
18
48
1
60
0
100
AcDbCircle
39
0
10
5.685922
20
-1.224599
30
0
40
1.80147399353409
210
0
220
0
230
1
100
AcDbArc
50
240.851885
51
328
0
ARC
5
9C
100
AcDbEntity
8
1
62
256
6
ByLayer
370
18
48
1
60
0
100
AcDbCircle
39
0
10
0.334066
20
-7.183291
30
0
40
0.399999999999636
210
0
220
0
230
1
100
AcDbArc
50
213.367013
51
270
0
ARC
5
9D
100
AcDbEntity
8
1
62
256
6
ByLayer
370
18
48
1
60
0
100
AcDbCircle
39
0
10
3.900872
20
-1.603684
30
0
40
1.5
210
0
220
0
230
1
100
AcDbArc
50
77.008003
51
307.234028
0
ARC
5
9E
100
AcDbEntity
8
1
62
256
6
ByLayer
370
18
48
1
60
0
100
AcDbCircle
39
0
10
5.685922
20
-1.224599
30
0
40
1.625
210
0
220
0
230
1
100
AcDbArc
50
243.134066
51
328
0
ARC
5
A0
100
AcDbEntity
8
1
62
256
6
ByLayer
370
18
48
1
60
0
100
AcDbCircle
39
0
10
-14.098595
20
-0.789274
30
0
40
0.794
210
0
220
0
230
-1
100
AcDbArc
50
212
51
267
0
ARC
5
A3
100
AcDbEntity
8
1
62
256
6
ByLayer
370
18
48
1
60
0
100
AcDbCircle
39
0
10
-11.82786
20
3.065669
30
0
40
1.6765
210
0
220
0
230
-1
100
AcDbArc
50
89.659887
51
149.5
0
ARC
5
A4
100
AcDbEntity
8
1
62
256
6
ByLayer
370
18
48
1
60
0
100
AcDbCircle
39
0
10
-11.82786
20
3.065669
30
0
40
1.6765
210
0
220
0
230
-1
100
AcDbArc
50
29.340113
51
89.659887
0
ARC
5
A5
100
AcDbEntity
8
1
62
256
6
ByLayer
370
18
48
1
60
0
100
AcDbCircle
39
0
10
11.82786
20
3.065669
30
0
40
1.2065
210
0
220
0
230
1
100
AcDbArc
50
240.420057
51
296.544721
0
ARC
5
A6
100
AcDbEntity
8
1
62
256
6
ByLayer
370
18
48
1
60
0
100
AcDbCircle
39
0
10
11.82786
20
3.065669
30
0
40
1.2065
210
0
220
0
230
1
100
AcDbArc
50
124.455279
51
180.579943
0
ARC
5
A7
100
AcDbEntity
8
1
62
256
6
ByLayer
370
18
48
1
60
0
100
AcDbCircle
39
0
10
11.82786
20
3.065669
30
0
40
1.2065
210
0
220
0
230
1
100
AcDbArc
50
0.579943
51
60.420057
0
ARC
5
A8
100
AcDbEntity
8
1
62
256
6
ByLayer
370
18
48
1
60
0
100
AcDbCircle
39
0
10
-11.82786
20
3.065669
30
0
40
1.2065
210
0
220
0
230
-1
100
AcDbArc
50
179.420057
51
235.544721
0
ARC
5
A9
100
AcDbEntity
8
1
62
256
6
ByLayer
370
18
48
1
60
0
100
AcDbCircle
39
0
10
11.82786
20
3.065669
30
0
40
1.2065
210
0
220
0
230
1
100
AcDbArc
50
60.420057
51
116.544721
0
ARC
5
AA
100
AcDbEntity
8
1
62
256
6
ByLayer
370
18
48
1
60
0
100
AcDbCircle
39
0
10
11.82786
20
3.065669
30
0
40
1.2065
210
0
220
0
230
1
100
AcDbArc
50
180.579943
51
240.420057
0
ARC
5
AB
100
AcDbEntity
8
1
62
256
6
ByLayer
370
18
48
1
60
0
100
AcDbCircle
39
0
10
-11.82786
20
3.065669
30
0
40
1.2065
210
0
220
0
230
-1
100
AcDbArc
50
55.544721
51
63.455279
0
ARC
5
AC
100
AcDbEntity
8
1
62
256
6
ByLayer
370
18
48
1
60
0
100
AcDbCircle
39
0
10
-11.82786
20
3.065669
30
0
40
1.6765
210
0
220
0
230
-1
100
AcDbArc
50
149.5
51
209.340113
0
ARC
5
AD
100
AcDbEntity
8
1
62
256
6
ByLayer
370
18
48
1
60
0
100
AcDbCircle
39
0
10
-11.82786
20
3.065669
30
0
40
1.6765
210
0
220
0
230
-1
100
AcDbArc
50
329.5
51
29.340113
0
ARC
5
AE
100
AcDbEntity
8
1
62
256
6
ByLayer
370
18
48
1
60
0
100
AcDbCircle
39
0
10
-11.82786
20
3.065669
30
0
40
1.6765
210
0
220
0
230
-1
100
AcDbArc
50
269.659887
51
329.5
0
ARC
5
AF
100
AcDbEntity
8
1
62
256
6
ByLayer
370
18
48
1
60
0
100
AcDbCircle
39
0
10
-11.82786
20
3.065669
30
0
40
1.2065
210
0
220
0
230
-1
100
AcDbArc
50
235.544721
51
243.455279
0
ARC
5
B0
100
AcDbEntity
8
1
62
256
6
ByLayer
370
18
48
1
60
0
100
AcDbCircle
39
0
10
-11.82786
20
3.065669
30
0
40
1.6765
210
0
220
0
230
-1
100
AcDbArc
50
209.340113
51
269.659887
0
ARC
5
B1
100
AcDbEntity
8
1
62
256
6
ByLayer
370
18
48
1
60
0
100
AcDbCircle
39
0
10
-2.527135
20
11.717638
30
0
40
5
210
0
220
0
230
-1
100
AcDbArc
50
267
51
296.015472
0
ARC
5
B2
100
AcDbEntity
8
SK1
62
256
6
ByLayer
370
18
48
1
60
0
100
AcDbCircle
39
0
10
2.527135
20
11.717638
30
0
40
5
210
0
220
0
230
1
100
AcDbArc
50
228.519907
51
239.640297
0
ARC
5
B3
100
AcDbEntity
8
SK1
62
256
6
ByLayer
370
18
48
1
60
0
100
AcDbCircle
39
0
10
2.527135
20
11.717638
30
0
40
5.00000000053332
210
0
220
0
230
1
100
AcDbArc
50
224.361725
51
228.519907
0
ARC
5
B4
100
AcDbEntity
8
1
62
256
6
ByLayer
370
18
48
1
60
0
100
AcDbCircle
39
0
10
-9.557126
20
6.920611
30
0
40
0.794
210
0
220
0
230
-1
100
AcDbArc
50
32
51
87
0
CIRCLE
5
97
100
AcDbEntity
8
1
62
256
6
ByLayer
370
18
48
1
60
0
100
AcDbCircle
10
-11.82786
20
3.065669
30
0
40
2.94486584643912
39
0
210
0
220
0
230
-1
0
CIRCLE
5
98
100
AcDbEntity
8
1
62
256
6
ByLayer
370
18
48
1
60
0
100
AcDbCircle
10
-11.82786
20
3.065669
30
0
40
3
39
0
210
0
220
0
230
-1
0
CIRCLE
5
9F
100
AcDbEntity
8
1
62
256
6
ByLayer
370
18
48
1
60
0
100
AcDbCircle
10
-11.82786
20
3.065669
30
0
40
3.07132534818238
39
0
210
0
220
0
230
-1
0
CIRCLE
5
A1
100
AcDbEntity
8
1
62
256
6
ByLayer
370
18
48
1
60
0
100
AcDbCircle
10
-11.82786
20
3.065669
30
0
40
2.625
39
0
210
0
220
0
230
-1
0
CIRCLE
5
A2
100
AcDbEntity
8
1
62
256
6
ByLayer
370
18
48
1
60
0
100
AcDbCircle
10
-11.82786
20
3.065669
30
0
40
1.8
39
0
210
0
220
0
230
-1
0
POINT
5
6C
100
AcDbEntity
8
81
62
256
6
ByLayer
370
18
48
1
60
0
100
AcDbPoint
10
20.027135
20
8.221709
30
0
39
0
210
0
220
0
230
1
50
360
0
POINT
5
6E
100
AcDbEntity
8
80
62
256
6
ByLayer
370
18
48
1
60
0
100
AcDbPoint
10
0
20
0
30
0
39
0
210
0
220
0
230
1
50
360
0
SPLINE
5
B5
100
AcDbEntity
8
1
62
256
6
ByLayer
370
18
48
1
60
0
100
AcDbSpline
70
4
71
3
72
8
73
4
40
0
40
0
40
0
40
0
40
1
40
1
40
1
40
1
41
1
10
4.95157761506749
20
-2.67420669116004
30
0
41
1
10
4.90725442238252
20
-2.71770940502819
30
0
41
1
10
4.85958319941955
20
-2.7591033420963
30
0
41
1
10
4.80848019628408
20
-2.79794049065691
30
0
0
SPLINE
5
B6
100
AcDbEntity
8
1
62
256
6
ByLayer
370
18
48
1
60
0
100
AcDbSpline
70
4
71
3
72
16
73
12
40
0
40
0
40
0
40
0
40
0.062445008261402
40
0.062445008261402
40
0.283207995985756
40
0.283207995985756
40
0.506745688833501
40
0.506745688833501
40
0.744607284736919
40
0.744607284736919
40
1
40
1
40
1
40
1
41
1
10
11.8179085560544
20
4.74213896685865
30
0
41
1
10
11.8094750229864
20
4.74208890398697
30
0
41
1
10
11.8010340041262
20
4.74167241654786
30
0
41
1
10
11.7631773538851
20
4.73815713661153
30
0
41
1
10
11.7338528526017
20
4.73077367331268
30
0
41
1
10
11.6797400665353
20
4.70814224114
30
0
41
1
10
11.6543155357419
20
4.69253041443093
30
0
41
1
10
11.6089714184385
20
4.65461993620346
30
0
41
1
10
11.5889206209018
20
4.63150669446736
30
0
41
1
10
11.5562955030097
20
4.58016202796026
30
0
41
1
10
11.5439592249506
20
4.55107763205336
30
0
41
1
10
11.5365189751483
20
4.52159631213149
30
0
0
SPLINE
5
B7
100
AcDbEntity
8
1
62
256
6
ByLayer
370
18
48
1
60
0
100
AcDbSpline
70
4
71
3
72
14
73
10
40
0
40
0
40
0
40
0
40
0.283961749036714
40
0.283961749036714
40
0.570285189259028
40
0.570285189259028
40
0.829451094335682
40
0.829451094335682
40
1
40
1
40
1
40
1
41
1
10
12.101021023381
20
4.52818116305602
30
0
41
1
10
12.0920611010675
20
4.56048806285406
30
0
41
1
10
12.0771142588981
20
4.59223180410612
30
0
41
1
10
12.036280473244
20
4.64904738345081
30
0
41
1
10
12.0096204538126
20
4.67490494100815
30
0
41
1
10
11.9510168307077
20
4.71303046136225
30
0
41
1
10
11.9188964294093
20
4.7268797231076
30
0
41
1
10
11.8635657636173
20
4.7397042233313
30
0
41
1
10
11.8406377864754
20
4.74227389139585
30
0
41
1
10
11.8179085560544
20
4.74213896685865
30
0
0
SPLINE
5
B8
100
AcDbEntity
8
1
62
256
6
ByLayer
370
18
48
1
60
0
100
AcDbSpline
70
4
71
3
72
18
73
14
40
0
40
0
40
0
40
0
40
0.212491695755302
40
0.212491695755302
40
0.386618276853805
40
0.386618276853805
40
0.562426360907933
40
0.562426360907933
40
0.715388416645937
40
0.715388416645937
40
0.918249208689863
40
0.918249208689863
40
1
40
1
40
1
40
1
41
1
10
12.101021023381
20
4.52818116305602
30
0
41
1
10
12.1199886392978
20
4.45978940190079
30
0
41
1
10
12.1503742358748
20
4.39207810042495
30
0
41
1
10
12.226263045275
20
4.27875047117121
30
0
41
1
10
12.2690363408396
20
4.23016308949417
30
0
41
1
10
12.3680015889795
20
4.14623538156707
30
0
41
1
10
12.4259084703721
20
4.10992844946779
30
0
41
1
10
12.5386722856868
20
4.06036564721717
30
0
41
1
10
12.5942568812156
20
4.04405624790348
30
0
41
1
10
12.7210566763251
20
4.02284142317464
30
0
41
1
10
12.79361514438
20
4.02278060636399
30
0
41
1
10
12.8896204547858
20
4.03689218867743
30
0
41
1
10
12.9169245911457
20
4.04265187954337
30
0
41
1
10
12.9435412894885
20
4.04995306686106
30
0
0
SPLINE
5
B9
100
AcDbEntity
8
1
62
256
6
ByLayer
370
18
48
1
60
0
100
AcDbSpline
70
4
71
3
72
12
73
8
40
0
40
0
40
0
40
0
40
0.422118633920707
40
0.422118633920707
40
0.843213619146828
40
0.843213619146828
40
1
40
1
40
1
40
1
41
1
10
11.2886800940913
20
4.14498629053293
30
0
41
1
10
11.3426110372352
20
4.18632108077139
30
0
41
1
10
11.3900325492483
20
4.23583339716714
30
0
41
1
10
11.4657881610672
20
4.34093122312879
30
0
41
1
10
11.4953578718389
20
4.39785599263709
30
0
41
1
10
11.5242153065828
20
4.47749564912831
30
0
41
1
10
11.5309390998089
20
4.49948655851085
30
0
41
1
10
11.5365189751483
20
4.52159631213149
30
0
0
SPLINE
5
BA
100
AcDbEntity
8
1
62
256
6
ByLayer
370
18
48
1
60
0
100
AcDbSpline
70
4
71
3
72
12
73
8
40
0
40
0
40
0
40
0
40
0.495779676780359
40
0.495779676780359
40
0.900233025448797
40
0.900233025448797
40
1
40
1
40
1
40
1
41
1
10
10.6957223235557
20
4.02632923468778
30
0
41
1
10
10.7646681234434
20
4.00806670063716
30
0
41
1
10
10.8388086785639
20
4.0001108172587
30
0
41
1
10
10.9752997723243
20
4.0085968017531
30
0
41
1
10
11.0388302031992
20
4.02106944805513
30
0
41
1
10
11.1151371583147
20
4.04802606984791
30
0
41
1
10
11.1303011309897
20
4.053992310556
30
0
41
1
10
11.1452675441595
20
4.06050984270345
30
0
0
SPLINE
5
BB
100
AcDbEntity
8
1
62
256
6
ByLayer
370
18
48
1
60
0
100
AcDbSpline
70
4
71
3
72
14
73
10
40
0
40
0
40
0
40
0
40
0.283961457856589
40
0.283961457856589
40
0.570284934646621
40
0.570284934646621
40
0.829450869060465
40
0.829450869060465
40
1
40
1
40
1
40
1
41
1
10
13.229627887036
20
3.56427440127115
30
0
41
1
10
13.253059676173
20
3.58825282786128
30
0
41
1
10
13.272996633551
20
3.6171247557181
30
0
41
1
10
13.3016054179225
20
3.68097568180971
30
0
41
1
10
13.3105681812118
20
3.71701786593843
30
0
41
1
10
13.3140892265367
20
3.78684295477709
30
0
41
1
10
13.3099259169227
20
3.821573190978
30
0
41
1
10
13.2932153882657
20
3.87585681962088
30
0
41
1
10
13.2839178291865
20
3.89697203136563
30
0
41
1
10
13.2723816543557
20
3.91655656991404
30
0
0
SPLINE
5
BC
100
AcDbEntity
8
1
62
256
6
ByLayer
370
18
48
1
60
0
100
AcDbSpline
70
4
71
3
72
16
73
12
40
0
40
0
40
0
40
0
40
0.0630415689509303
40
0.0630415689509303
40
0.285914332024977
40
0.285914332024977
40
0.511588305408906
40
0.511588305408906
40
0.751723061839373
40
0.751723061839373
40
1
40
1
40
1
40
1
41
1
10
13.2723816543557
20
3.91655656991404
30
0
41
1
10
13.2681012514956
20
3.92382325198554
30
0
41
1
10
13.2635002693137
20
3.93091231051949
30
0
41
1
10
13.2414411499101
20
3.96187803911315
30
0
41
1
10
13.2203241538682
20
3.98352323358142
30
0
41
1
10
13.1735693602058
20
4.01894024479438
30
0
41
1
10
13.1472973022888
20
4.03307936994594
30
0
41
1
10
13.0917373425976
20
4.05323833933511
30
0
41
1
10
13.061679201944
20
4.05896237059687
30
0
41
1
10
13.0020355300429
20
4.06132931555464
30
0
41
1
10
12.9718305292874
20
4.05771304656204
30
0
41
1
10
12.9435412894885
20
4.04995306686106
30
0
0
SPLINE
5
BD
100
AcDbEntity
8
1
62
256
6
ByLayer
370
18
48
1
60
0
100
AcDbSpline
70
4
71
3
72
16
73
12
40
0
40
0
40
0
40
0
40
0.0569446172824999
40
0.0569446172824999
40
0.279906644834072
40
0.279906644834072
40
0.505321967306684
40
0.505321967306684
40
0.744915047128813
40
0.744915047128813
40
1
40
1
40
1
40
1
41
1
10
10.3664109956061
20
3.88714156252999
30
0
41
1
10
10.362675662006
20
3.8804961821522
30
0
41
1
10
10.3591976446543
20
3.87369797278035
30
0
41
1
10
10.3435510212622
20
3.83991657536404
30
0
41
1
10
10.3351969545609
20
3.81082332100817
30
0
41
1
10
10.3275932211635
20
3.75264373672709
30
0
41
1
10
10.3283246845776
20
3.72282300000668
30
0
41
1
10
10.3383287418822
20
3.6646123940892
30
0
41
1
10
10.3482295864125
20
3.6356960094441
30
0
41
1
10
10.3760758004808
20
3.58197827568867
30
0
41
1
10
10.3948020645184
20
3.55691078064933
30
0
41
1
10
10.4162870595365
20
3.53579701765904
30
0
0
SPLINE
5
BE
100
AcDbEntity
8
1
62
256
6
ByLayer
370
18
48
1
60
0
100
AcDbSpline
70
4
71
3
72
14
73
10
40
0
40
0
40
0
40
0
40
0.282169922576107
40
0.282169922576107
40
0.566902245317967
40
0.566902245317967
40
0.824523972080263
40
0.824523972080263
40
1
40
1
40
1
40
1
41
1
10
10.6957223235557
20
4.02632923468778
30
0
41
1
10
10.6632501462061
20
4.03493054536241
30
0
41
1
10
10.628241034117
20
4.0380568126605
30
0
41
1
10
10.5584402945734
20
4.03145315089233
30
0
41
1
10
10.5225766520593
20
4.02144117096424
30
0
41
1
10
10.4599639988098
20
3.98994076778678
30
0
41
1
10
10.4317527192934
20
3.96910436050874
30
0
41
1
10
10.3921864268321
20
3.92703529238401
30
0
41
1
10
10.3779753960494
20
3.90771531791958
30
0
41
1
10
10.3664109956061
20
3.88714156252999
30
0
0
SPLINE
5
BF
100
AcDbEntity
8
1
62
256
6
ByLayer
370
18
48
1
60
0
100
AcDbSpline
70
4
71
3
72
16
73
12
40
0
40
0
40
0
40
0
40
0.0569446172824982
40
0.0569446172824982
40
0.279906644834072
40
0.279906644834072
40
0.505321967306684
40
0.505321967306684
40
0.744915047128815
40
0.744915047128815
40
1
40
1
40
1
40
1
41
1
10
13.2893097381449
20
2.24419544629086
30
0
41
1
10
13.293045071745
20
2.25084082666868
30
0
41
1
10
13.2965230890967
20
2.2576390360405
30
0
41
1
10
13.3121697124888
20
2.29142043345681
30
0
41
1
10
13.3205237791901
20
2.32051368781268
30
0
41
1
10
13.3281275125875
20
2.37869327209378
30
0
41
1
10
13.3273960491734
20
2.40851400881419
30
0
41
1
10
13.3173919918688
20
2.46672461473168
30
0
41
1
10
13.3074911473384
20
2.49564099937675
30
0
41
1
10
13.2796449332702
20
2.54935873313218
30
0
41
1
10
13.2609186692326
20
2.57442622817152
30
0
41
1
10
13.2394336742145
20
2.59553999116181
30
0
0
SPLINE
5
C0
100
AcDbEntity
8
1
62
256
6
ByLayer
370
18
48
1
60
0
100
AcDbSpline
70
4
71
3
72
18
73
14
40
0
40
0
40
0
40
0
40
0.212491592102414
40
0.212491592102414
40
0.386618191488472
40
0.386618191488472
40
0.56242629505081
40
0.56242629505081
40
0.715388354469454
40
0.715388354469454
40
0.918249128147155
40
0.918249128147155
40
1
40
1
40
1
40
1
41
1
10
13.229627887036
20
3.56427440127115
30
0
41
1
10
13.1800241741742
20
3.51351348922555
30
0
41
1
10
13.1367453608532
20
3.45322216852452
30
0
41
1
10
13.0768869113545
20
3.33066924313968
30
0
41
1
10
13.0563668839626
20
3.26927528933047
30
0
41
1
10
13.0335223207235
20
3.14154076237119
30
0
41
1
10
13.0312236370215
20
3.07323177824418
30
0
41
1
10
13.0450245018478
20
2.9508320727563
30
0
41
1
10
13.0588494732309
20
2.89457805744851
30
0
41
1
10
13.1042126405168
20
2.77428491880247
30
0
41
1
10
13.1406144907631
20
2.71151837049877
30
0
41
1
10
13.2010502305163
20
2.63559945112053
30
0
41
1
10
13.2197482313589
20
2.61488529584815
30
0
41
1
10
13.2394336742144
20
2.59553999116181
30
0
0
SPLINE
5
C1
100
AcDbEntity
8
1
62
256
6
ByLayer
370
18
48
1
60
0
100
AcDbSpline
70
4
71
3
72
18
73
14
40
0
40
0
40
0
40
0
40
0.212491592102414
40
0.212491592102414
40
0.386618191488472
40
0.386618191488472
40
0.56242629505081
40
0.56242629505081
40
0.715388354469454
40
0.715388354469454
40
0.918249128147155
40
0.918249128147155
40
1
40
1
40
1
40
1
41
1
10
10.426092846715
20
2.5670626075497
30
0
41
1
10
10.4756965595768
20
2.61782351959533
30
0
41
1
10
10.5189753728978
20
2.67811484029633
30
0
41
1
10
10.5788338223965
20
2.80066776568117
30
0
41
1
10
10.5993538497883
20
2.86206171949038
30
0
41
1
10
10.6221984130275
20
2.98979624644966
30
0
41
1
10
10.6244970967295
20
3.0581052305767
30
0
41
1
10
10.6106962319032
20
3.18050493606455
30
0
41
1
10
10.59687126052
20
3.23675895137234
30
0
41
1
10
10.5515080932342
20
3.35705209001839
30
0
41
1
10
10.5151062429879
20
3.41981863832208
30
0
41
1
10
10.4546705032347
20
3.49573755770032
30
0
41
1
10
10.4359725023921
20
3.5164517129727
30
0
41
1
10
10.4162870595366
20
3.53579701765904
30
0
0
SPLINE
5
C2
100
AcDbEntity
8
1
62
256
6
ByLayer
370
18
48
1
60
0
100
AcDbSpline
70
4
71
3
72
16
73
12
40
0
40
0
40
0
40
0
40
0.0630415689509295
40
0.0630415689509295
40
0.285914332024976
40
0.285914332024976
40
0.511588305408905
40
0.511588305408905
40
0.751723061839372
40
0.751723061839372
40
1
40
1
40
1
40
1
41
1
10
10.3833390793953
20
2.21478043890681
30
0
41
1
10
10.3876194822554
20
2.20751375683531
30
0
41
1
10
10.3922204644373
20
2.20042469830136
30
0
41
1
10
10.4142795838409
20
2.1694589697077
30
0
41
1
10
10.4353965798828
20
2.14781377523943
30
0
41
1
10
10.4821513735452
20
2.11239676402647
30
0
41
1
10
10.5084234314622
20
2.09825763887491
30
0
41
1
10
10.5639833911534
20
2.07809866948574
30
0
41
1
10
10.594041531807
20
2.07237463822401
30
0
41
1
10
10.6536852037081
20
2.07000769326621
30
0
41
1
10
10.6838902044636
20
2.07362396225881
30
0
41
1
10
10.7121794442625
20
2.08138394195979
30
0
0
SPLINE
5
C3
100
AcDbEntity
8
1
62
256
6
ByLayer
370
18
48
1
60
0
100
AcDbSpline
70
4
71
3
72
14
73
10
40
0
40
0
40
0
40
0
40
0.283961457856589
40
0.283961457856589
40
0.570284934646621
40
0.570284934646621
40
0.829450869060465
40
0.829450869060465
40
1
40
1
40
1
40
1
41
1
10
10.426092846715
20
2.5670626075497
30
0
41
1
10
10.402661057578
20
2.54308418095957
30
0
41
1
10
10.3827241002
20
2.51421225310275
30
0
41
1
10
10.3541153158285
20
2.45036132701117
30
0
41
1
10
10.3451525525392
20
2.41431914288242
30
0
41
1
10
10.3416315072143
20
2.34449405404376
30
0
41
1
10
10.3457948168283
20
2.30976381784285
30
0
41
1
10
10.3625053454853
20
2.2554801892
30
0
41
1
10
10.3718029045645
20
2.23436497745521
30
0
41
1
10
10.3833390793953
20
2.21478043890681
30
0
0
SPLINE
5
C4
100
AcDbEntity
8
1
62
256
6
ByLayer
370
18
48
1
60
0
100
AcDbSpline
70
4
71
3
72
14
73
10
40
0
40
0
40
0
40
0
40
0.283961749036713
40
0.283961749036713
40
0.570285189259025
40
0.570285189259025
40
0.82945109433568
40
0.82945109433568
40
1
40
1
40
1
40
1
41
1
10
11.55469971037
20
1.60315584576483
30
0
41
1
10
11.5636596326835
20
1.57084894596679
30
0
41
1
10
11.5786064748529
20
1.53910520471476
30
0
41
1
10
11.6194402605069
20
1.48228962537004
30
0
41
1
10
11.6461002799384
20
1.45643206781273
30
0
41
1
10
11.7047039030433
20
1.41830654745863
30
0
41
1
10
11.7368243043417
20
1.40445728571325
30
0
41
1
10
11.7921549701337
20
1.39163278548955
30
0
41
1
10
11.8150829472756
20
1.389063117425
30
0
41
1
10
11.8378121776966
20
1.3891980419622
30
0
0
SPLINE
5
C5
100
AcDbEntity
8
1
62
256
6
ByLayer
370
18
48
1
60
0
100
AcDbSpline
70
4
71
3
72
14
73
10
40
0
40
0
40
0
40
0
40
0.282169922576107
40
0.282169922576107
40
0.566902245317965
40
0.566902245317965
40
0.824523972080262
40
0.824523972080262
40
1
40
1
40
1
40
1
41
1
10
12.9599984101953
20
2.10500777413307
30
0
41
1
10
12.9924705875449
20
2.09640646345844
30
0
41
1
10
13.027479699634
20
2.09328019616035
30
0
41
1
10
13.0972804391776
20
2.09988385792852
30
0
41
1
10
13.1331440816917
20
2.10989583785661
30
0
41
1
10
13.1957567349412
20
2.14139624103407
30
0
41
1
10
13.2239680144576
20
2.16223264831211
30
0
41
1
10
13.2635343069189
20
2.20430171643687
30
0
41
1
10
13.2777453377016
20
2.22362169090127
30
0
41
1
10
13.2893097381449
20
2.24419544629086
30
0
0
SPLINE
5
C6
100
AcDbEntity
8
1
62
256
6
ByLayer
370
18
48
1
60
0
100
AcDbSpline
70
4
71
3
72
18
73
14
40
0
40
0
40
0
40
0
40
0.212491695755302
40
0.212491695755302
40
0.386618276853805
40
0.386618276853805
40
0.562426360907933
40
0.562426360907933
40
0.715388416645937
40
0.715388416645937
40
0.918249208689863
40
0.918249208689863
40
1
40
1
40
1
40
1
41
1
10
11.55469971037
20
1.60315584576483
30
0
41
1
10
11.5357320944532
20
1.67154760692006
30
0
41
1
10
11.5053464978762
20
1.7392589083959
30
0
41
1
10
11.429457688476
20
1.85258653764964
30
0
41
1
10
11.3866843929114
20
1.90117391932668
30
0
41
1
10
11.2877191447715
20
1.98510162725378
30
0
41
1
10
11.2298122633789
20
2.02140855935306
30
0
41
1
10
11.1170484480642
20
2.07097136160368
30
0
41
1
10
11.0614638525354
20
2.08728076091737
30
0
41
1
10
10.9346640574259
20
2.10849558564621
30
0
41
1
10
10.862105589371
20
2.10855640245686
30
0
41
1
10
10.7661002789652
20
2.09444482014342
30
0
41
1
10
10.7387961426053
20
2.08868512927748
30
0
41
1
10
10.7121794442625
20
2.08138394195979
30
0
0
SPLINE
5
C7
100
AcDbEntity
8
1
62
256
6
ByLayer
370
18
48
1
60
0
100
AcDbSpline
70
4
71
3
72
16
73
12
40
0
40
0
40
0
40
0
40
0.0624450082614034
40
0.0624450082614034
40
0.283207995985775
40
0.283207995985775
40
0.506745688833536
40
0.506745688833536
40
0.744607284736972
40
0.744607284736972
40
1
40
1
40
1
40
1
41
1
10
11.8378121776966
20
1.3891980419622
30
0
41
1
10
11.8462457107645
20
1.38924810483388
30
0
41
1
10
11.8546867296248
20
1.38966459227299
30
0
41
1
10
11.8925433798659
20
1.39317987220932
30
0
41
1
10
11.9218678811493
20
1.40056333550817
30
0
41
1
10
11.9759806672156
20
1.42319476768085
30
0
41
1
10
12.0014051980091
20
1.43880659438992
30
0
41
1
10
12.0467493153125
20
1.47671707261739
30
0
41
1
10
12.0668001128492
20
1.49983031435349
30
0
41
1
10
12.0994252307413
20
1.55117498086059
30
0
41
1
10
12.1117615088004
20
1.58025937676746
30
0
41
1
10
12.1192017586027
20
1.60974069668933
30
0
0
SPLINE
5
C8
100
AcDbEntity
8
1
62
256
6
ByLayer
370
18
48
1
60
0
100
AcDbSpline
70
4
71
3
72
12
73
8
40
0
40
0
40
0
40
0
40
0.422118633920774
40
0.422118633920774
40
0.843213619146908
40
0.843213619146908
40
1
40
1
40
1
40
1
41
1
10
12.3670406396597
20
1.98635071828795
30
0
41
1
10
12.3131096965157
20
1.94501592804946
30
0
41
1
10
12.2656881845027
20
1.89550361165371
30
0
41
1
10
12.1899325726838
20
1.79040578569203
30
0
41
1
10
12.1603628619121
20
1.73348101618373
30
0
41
1
10
12.1315054271682
20
1.65384135969253
30
0
41
1
10
12.1247816339421
20
1.63185045031
30
0
41
1
10
12.1192017586027
20
1.60974069668936
30
0
0
SPLINE
5
C9
100
AcDbEntity
8
1
62
256
6
ByLayer
370
18
48
1
60
0
100
AcDbSpline
70
4
71
3
72
12
73
8
40
0
40
0
40
0
40
0
40
0.49577967678036
40
0.49577967678036
40
0.900233025448792
40
0.900233025448792
40
1
40
1
40
1
40
1
41
1
10
12.9599984101953
20
2.10500777413307
30
0
41
1
10
12.8910526103076
20
2.12327030818369
30
0
41
1
10
12.8169120551871
20
2.13122619156215
30
0
41
1
10
12.6804209614267
20
2.12274020706775
30
0
41
1
10
12.6168905305518
20
2.11026756076572
30
0
41
1
10
12.5405835754363
20
2.08331093897294
30
0
41
1
10
12.5254196027612
20
2.07734469826485
30
0
41
1
10
12.5104531895915
20
2.0708271661174
30
0
0
SPLINE
5
CA
100
AcDbEntity
8
1
62
256
6
ByLayer
370
18
48
1
60
0
100
AcDbSpline
70
4
71
3
72
12
73
8
40
0
40
0
40
0
40
0
40
0.386387223223559
40
0.386387223223559
40
0.773484313967947
40
0.773484313967947
40
1
40
1
40
1
40
1
41
1
10
0.334065861769801
20
7.22425996429419
30
0
41
1
10
0.284080524690893
20
7.24865615332249
30
0
41
1
10
0.233841882667264
20
7.27426493489716
30
0
41
1
10
0.14095788346691
20
7.32344624172183
30
0
41
1
10
0.0969106878100945
20
7.34775704594099
30
0
41
1
10
0.0373769566732562
20
7.38153956106189
30
0
41
1
10
0.0172203400992714
20
7.39320449864474
30
0
41
1
10
0
20
7.40329133850452
30
0
0
LINE
5
70
100
AcDbEntity
8
1
62
256
6
ByLayer
370
18
48
1
60
1
100
AcDbLine
10
140.125
20
154.948517
30
0
11
140.125
21
183.563983
31
0
39
0
210
0
220
0
230
1
0
LINE
5
72
100
AcDbEntity
8
1
62
256
6
ByLayer
370
18
48
1
60
1
100
AcDbLine
10
236.825
20
183.563983
30
0
11
140.125
21
183.563983
31
0
39
0
210
0
220
0
230
1
0
LINE
5
73
100
AcDbEntity
8
1
62
256
6
ByLayer
370
18
48
1
60
1
100
AcDbLine
10
236.825
20
183.563983
30
0
11
236.825
21
154.948517
31
0
39
0
210
0
220
0
230
1
0
LINE
5
74
100
AcDbEntity
8
1
62
256
6
ByLayer
370
18
48
1
60
1
100
AcDbLine
10
140.125
20
154.948517
30
0
11
236.825
21
154.948517
31
0
39
0
210
0
220
0
230
1
0
LINE
5
75
100
AcDbEntity
8
1
62
256
6
ByLayer
370
18
48
1
60
1
100
AcDbLine
10
0
20
0
30
0
11
0
21
297
31
0
39
0
210
0
220
0
230
1
0
LINE
5
76
100
AcDbEntity
8
1
62
256
6
ByLayer
370
18
48
1
60
1
100
AcDbLine
10
420
20
297
30
0
11
0
21
297
31
0
39
0
210
0
220
0
230
1
0
LINE
5
77
100
AcDbEntity
8
1
62
256
6
ByLayer
370
18
48
1
60
1
100
AcDbLine
10
420
20
297
30
0
11
420
21
0
31
0
39
0
210
0
220
0
230
1
0
LINE
5
78
100
AcDbEntity
8
1
62
256
6
ByLayer
370
18
48
1
60
1
100
AcDbLine
10
0
20
0
30
0
11
420
21
0
31
0
39
0
210
0
220
0
230
1
0
LINE
5
79
100
AcDbEntity
8
80
62
256
6
ByLayer
370
18
48
1
60
0
100
AcDbLine
10
0
20
0
30
0
11
-7
21
0
31
0
39
0
210
0
220
0
230
1
0
LINE
5
7A
100
AcDbEntity
8
81
62
256
6
ByLayer
370
18
48
1
60
0
100
AcDbLine
10
20.027135
20
8.221709
30
0
11
27.027135
21
8.221709
31
0
39
0
210
0
220
0
230
1
0
LINE
5
7B
100
AcDbEntity
8
1
62
256
6
ByLayer
370
18
48
1
60
0
100
AcDbLine
10
13.776445
20
-1.601318
30
0
11
10.038494
21
-7.583291
31
0
39
0
210
0
220
0
230
1
0
LINE
5
7C
100
AcDbEntity
8
1
62
256
6
ByLayer
370
18
48
1
60
0
100
AcDbLine
10
7.064
20
-2.085718
30
0
11
7.149721
21
-1.948537
31
0
39
0
210
0
220
0
230
1
0
LINE
5
7D
100
AcDbEntity
8
1
62
256
6
ByLayer
370
18
48
1
60
0
100
AcDbLine
10
7.213659
20
-2.179235
30
0
11
7.364858
21
-1.937266
31
0
39
0
210
0
220
0
230
1
0
LINE
5
7E
100
AcDbEntity
8
1
62
256
6
ByLayer
370
18
48
1
60
0
100
AcDbLine
10
0.334066
20
-7.583291
30
0
11
0.334066
21
7.22426
31
0
39
0
210
0
220
0
230
1
0
LINE
5
7F
100
AcDbEntity
8
1
62
256
6
ByLayer
370
18
48
1
60
0
100
AcDbLine
10
7.213659
20
-2.179235
30
0
11
7.064
21
-2.085718
31
0
39
0
210
0
220
0
230
1
0
LINE
5
80
100
AcDbEntity
8
1
62
256
6
ByLayer
370
18
48
1
60
0
100
AcDbLine
10
2.788815
20
6.72449
30
0
11
8.691524
21
7.033838
31
0
39
0
210
0
220
0
230
1
0
LINE
5
81
100
AcDbEntity
8
SK1
62
256
6
ByLayer
370
18
48
1
60
0
100
AcDbLine
10
-47.222865
20
-7.403291
30
0
11
0
21
-7.403291
31
0
39
0
210
0
220
0
230
1
0
LINE
5
83
100
AcDbEntity
8
SK1
62
256
6
ByLayer
370
18
48
1
60
0
100
AcDbLine
10
-49.972865
20
-4.653291
30
0
11
-49.972865
21
7.971709
31
0
39
0
210
0
220
0
230
1
0
LINE
5
84
100
AcDbEntity
8
1
62
256
6
ByLayer
370
18
48
1
60
0
100
AcDbLine
10
9.994753
20
-7.653291
30
0
11
10.038494
21
-7.583291
31
0
39
0
210
0
220
0
230
1
0
LINE
5
85
100
AcDbEntity
8
SK1
62
256
6
ByLayer
370
18
48
1
60
0
100
AcDbLine
10
-49.722865
20
-4.903291
30
0
11
-49.972865
21
-4.653291
31
0
39
0
210
0
220
0
230
1
0
LINE
5
86
100
AcDbEntity
8
SK1
62
256
6
ByLayer
370
18
48
1
60
0
100
AcDbLine
10
-47.222865
20
-7.403291
30
0
11
-49.722865
21
-4.903291
31
0
39
0
210
0
220
0
230
1
0
LINE
5
87
100
AcDbEntity
8
SK1
62
256
6
ByLayer
370
18
48
1
60
0
100
AcDbLine
10
-46.972865
20
-7.653291
30
0
11
-47.222865
21
-7.403291
31
0
39
0
210
0
220
0
230
1
0
LINE
5
88
100
AcDbEntity
8
1
62
256
6
ByLayer
370
18
48
1
60
0
100
AcDbLine
10
0.334066
20
-7.583291
30
0
11
10.038494
21
-7.583291
31
0
39
0
210
0
220
0
230
1
0
LINE
5
89
100
AcDbEntity
8
SK1
62
256
6
ByLayer
370
18
48
1
60
0
100
AcDbLine
10
-49.722865
20
7.971709
30
0
11
-49.722865
21
-4.903291
31
0
39
0
210
0
220
0
230
1
0
LINE
5
8A
100
AcDbEntity
8
1
62
256
6
ByLayer
370
18
48
1
60
0
100
AcDbLine
10
0
20
7.403291
30
0
11
0
21
-7.403291
31
0
39
0
210
0
220
0
230
1
0
LINE
5
8B
100
AcDbEntity
8
1
62
256
6
ByLayer
370
18
48
1
60
0
100
AcDbLine
10
14.771945
20
-1.210029
30
0
11
19.906485
21
7.006953
31
0
39
0
210
0
220
0
230
1
0
LINE
5
8C
100
AcDbEntity
8
1
62
256
6
ByLayer
370
18
48
1
60
0
100
AcDbLine
10
9.994753
20
-7.653291
30
0
11
0
21
-7.653291
31
0
39
0
210
0
220
0
230
1
0
LINE
5
8D
100
AcDbEntity
8
1
62
256
6
ByLayer
370
18
48
1
60
0
100
AcDbLine
10
4.46414
20
-2.089284
30
0
11
14.140149
21
-1.582185
31
0
39
0
210
0
220
0
230
1
0
LINE
5
8E
100
AcDbEntity
8
1
62
256
6
ByLayer
370
18
48
1
60
0
100
AcDbLine
10
19.19158
20
8.220621
30
0
11
9.515571
21
7.713522
31
0
39
0
210
0
220
0
230
1
0
LINE
5
8F
100
AcDbEntity
8
SK1
62
256
6
ByLayer
370
18
48
1
60
0
100
AcDbLine
10
-0.784664
20
7.971709
30
0
11
-49.722865
21
7.971709
31
0
39
0
210
0
220
0
230
1
0
LINE
5
90
100
AcDbEntity
8
SK1
62
256
6
ByLayer
370
18
48
1
60
0
100
AcDbLine
10
-49.722865
20
8.221709
30
0
11
-1.047565
21
8.221709
31
0
39
0
210
0
220
0
230
1
0
LINE
5
91
100
AcDbEntity
8
SK1
62
256
6
ByLayer
370
18
48
1
60
0
100
AcDbLine
10
-49.972865
20
7.971709
30
0
11
-49.722865
21
8.221709
31
0
39
0
210
0
220
0
230
1
0
LINE
5
92
100
AcDbEntity
8
SK1
62
256
6
ByLayer
370
18
48
1
60
0
100
AcDbLine
10
-49.972865
20
7.971709
30
0
11
-49.722865
21
7.971709
31
0
39
0
210
0
220
0
230
1
0
LINE
5
93
100
AcDbEntity
8
SK1
62
256
6
ByLayer
370
18
48
1
60
0
100
AcDbLine
10
-49.722865
20
7.971709
30
0
11
-49.722865
21
8.221709
31
0
39
0
210
0
220
0
230
1
0
LINE
5
94
100
AcDbEntity
8
1
62
256
6
ByLayer
370
18
48
1
60
0
100
AcDbLine
10
8.883776
20
7.341366
30
0
11
3.749235
21
-0.875616
31
0
39
0
210
0
220
0
230
1
0
LINE
5
95
100
AcDbEntity
8
SK1
62
256
6
ByLayer
370
18
48
1
60
0
100
AcDbLine
10
0
20
-7.653291
30
0
11
-46.972865
21
-7.653291
31
0
39
0
210
0
220
0
230
1
0
MTEXT
5
CB
100
AcDbEntity
8
SK6
62
256
6
ByLayer
370
18
48
1
60
0
100
AcDbMText
10
-18.388984
20
-18.106377
30
0
210
0
220
0
230
1
1
\W0.7732;QS-SDJCR103X
40
3
41
0
44
1.084337
50
0
71
8
72
5
7
iso_b_vert
0
DIMENSION
5
DD
100
AcDbEntity
8
SK2
62
256
6
ByLayer
370
13
48
1
60
0
100
AcDbDimension
2
DimnDraft3D1
10
20.027135
20
21.229652
30
0
11
-16.725497
21
21.229652
31
0
70
32
71
5
72
1
41
1
210
0
220
0
230
1
3
Standard
100
AcDbAlignedDimension
13
-49.972865
23
9.971709
33
0
14
20.027135
24
10.221709
34
0
50
0
100
AcDbRotatedDimension
1001
ACAD
1000
DSTYLE
1002
{
1070
   279
1070
     0
1070
   172
1070
     1
1070
   173
1070
     1
1070
   340
1005
CC
1070
    77
1070
     1
1070
    73
1070
     0
1070
   171
1070
     3
1070
   274
1070
     4
1070
   177
1070
   254
1070
   176
1070
   254
1070
   178
1070
   254
1070
    78
1070
     8
1070
    41
1041
3.175
1070
   147
1041
1.5
1070
    42
1041
2.0
1070
    44
1041
2.0
1070
   140
1041
3.0
1070
   343
1005
DE
1070
   344
1005
DE
1002
}
0
DIMENSION
5
F3
100
AcDbEntity
8
2
62
256
6
ByLayer
370
13
48
1
60
0
100
AcDbDimension
2
DimnDraft3D2
10
0
20
14.301507
30
0
11
8.260936
21
14.301507
31
0
70
32
71
5
72
1
41
1
210
0
220
0
230
1
3
Standard
100
AcDbAlignedDimension
13
20.027135
23
10.221709
33
0
14
0
24
9.403291
34
0
50
0
100
AcDbRotatedDimension
1001
ACAD
1000
DSTYLE
1002
{
1070
   279
1070
     0
1070
   172
1070
     1
1070
   173
1070
     1
1070
   340
1005
CC
1070
   271
1070
     1
1070
    77
1070
     1
1070
    73
1070
     0
1070
   171
1070
     3
1070
   274
1070
     4
1070
   177
1070
   254
1070
   176
1070
   254
1070
   178
1070
   254
1070
    78
1070
     8
1070
    41
1041
3.175
1070
   147
1041
1.5
1070
    42
1041
2.0
1070
    44
1041
2.0
1070
   140
1041
3.0
1070
   343
1005
DE
1070
   344
1005
DE
1002
}
0
DIMENSION
5
101
100
AcDbEntity
8
SK2
62
256
6
ByLayer
370
13
48
1
60
0
100
AcDbDimension
2
DimnDraft3D3
10
31.957429
20
8.221709
30
0
11
31.957429
21
-4.985528
31
0
70
32
71
5
72
1
41
1
210
0
220
0
230
1
3
Standard
100
AcDbAlignedDimension
13
11.994753
23
-7.653291
33
0
14
22.027135
24
8.221709
34
0
50
90
100
AcDbRotatedDimension
1001
ACAD
1000
DSTYLE
1002
{
1070
    74
1070
     0
1070
   279
1070
     0
1070
   172
1070
     1
1070
   173
1070
     1
1070
   340
1005
CC
1070
   271
1070
     3
1070
    77
1070
     1
1070
    73
1070
     0
1070
   171
1070
     3
1070
   274
1070
     4
1070
   177
1070
   254
1070
   176
1070
   254
1070
   178
1070
   254
1070
    78
1070
     8
1070
    41
1041
3.175
1070
   147
1041
1.5
1070
    42
1041
2.0
1070
    44
1041
2.0
1070
   140
1041
3.0
1070
   343
1005
DE
1070
   344
1005
DE
1002
}
0
DIMENSION
5
10F
100
AcDbEntity
8
SK2
62
256
6
ByLayer
370
13
48
1
60
0
100
AcDbDimension
2
DimnDraft3D4
10
-61.412647
20
8.221709
30
0
11
-61.412647
21
-4.985528
31
0
70
32
71
5
72
1
41
1
210
0
220
0
230
1
3
Standard
100
AcDbAlignedDimension
13
-48.972865
23
-7.653291
33
0
14
-51.722865
24
8.221709
34
0
50
90
100
AcDbRotatedDimension
1001
ACAD
1000
DSTYLE
1002
{
1070
    74
1070
     0
1070
   279
1070
     0
1070
   172
1070
     1
1070
   173
1070
     1
1070
   340
1005
CC
1070
   271
1070
     3
1070
    77
1070
     1
1070
    73
1070
     0
1070
   171
1070
     3
1070
   274
1070
     4
1070
   177
1070
   254
1070
   176
1070
   254
1070
   178
1070
   254
1070
    78
1070
     8
1070
    41
1041
3.175
1070
   147
1041
1.5
1070
    42
1041
2.0
1070
    44
1041
2.0
1070
   140
1041
3.0
1070
   343
1005
DE
1070
   344
1005
DE
1002
}
0
ENDSEC
0
SECTION
2
OBJECTS
0
DICTIONARY
5
179
330
0
100
AcDbDictionary
280
0
281
1
3
ACAD_GROUP
350
17a
3
ACAD_MLINESTYLE
350
17b
0
DICTIONARY
5
17a
330
0
100
AcDbDictionary
280
0
281
1
0
DICTIONARY
5
17b
330
0
100
AcDbDictionary
280
0
281
1
3
Standard
350
18
0
MLINESTYLE
5
18
330
17b
100
AcDbMlineStyle
2
Standard
70
0
3

62
256
51
90
52
90
71
2
49
-0.5
62
256
6
ByLayer
49
0.5
62
256
6
ByLayer
0
RASTERVARIABLES
5
168
330

100
AcDbRasterVariables
90
0
70
1
71
1
72
1
0
ENDSEC
0
EOF
