0
SECTION
2
HEADER
9
$ACADVER
1
AC1015
9
$DWGCODEPAGE
3
ANSI_1252
9
$HANDSEED
5
186
9
$ANGBASE
50
0
9
$ANGDIR
70
0
9
$ATTMODE
70
1
9
$AUNITS
70
0
9
$AUPREC
70
0
9
$CECOLOR
62
256
9
$CELTSCALE
40
1
9
$CELTYPE
6
ByLayer
9
$CELWEIGHT
370
18
9
$CLAYER
8
0
9
$CMLJUST
70
0
9
$CMLSCALE
40
1
9
$CMLSTYLE
2
Standard
9
$DIMSTYLE
2
Standard
9
$TEXTSIZE
40
0.2
9
$TEXTSTYLE
7
Standard
9
$LUNITS
70
2
9
$LUPREC
70
4
9
$EXTNAMES
290
1
9
$INSUNITS
70
4
9
$LTSCALE
40
1
9
$LWDISPLAY
290
1
9
$PDMODE
70
0
9
$PDSIZE
40
0
9
$PLINEGEN
70
0
0
ENDSEC
0
SECTION
2
CLASSES
0
CLASS
1
RASTERVARIABLES
2
AcDbRasterVariables
3
ISM
90
0
280
0
281
0
0
ENDSEC
0
SECTION
2
TABLES
0
TABLE
2
VPORT
5
17c
100
AcDbSymbolTable
0
VPORT
5
1
100
AcDbSymbolTableRecord
100
AcDbViewportTableRecord
2
*Active
70
0
10
0
20
0
11
1
21
1
12
-1
22
1
13
0
23
0
14
0.5
24
0.5
15
10
25
10
16
0
26
0
36
1
17
0
27
0
37
0
0
ENDTAB
0
TABLE
2
LTYPE
5
17d
100
AcDbSymbolTable
0
LTYPE
5
14
100
AcDbSymbolTableRecord
100
AcDbLinetypeTableRecord
70
0
2
ByBlock
3

72
65
73
0
40
0
0
LTYPE
5
15
100
AcDbSymbolTableRecord
100
AcDbLinetypeTableRecord
70
0
2
ByLayer
3

72
65
73
0
40
0
0
LTYPE
5
16
100
AcDbSymbolTableRecord
100
AcDbLinetypeTableRecord
70
0
2
CONTINUOUS
3
Solid line
72
65
73
0
40
0
0
LTYPE
5
6A
100
AcDbSymbolTableRecord
100
AcDbLinetypeTableRecord
70
0
2
CENTER
3
____ _ ____ _ ____ _ ____
72
65
73
4
40
47.5
49
22
74
0
49
-8.5
74
0
49
8.5
74
0
49
-8.5
74
0
0
LTYPE
5
6B
100
AcDbSymbolTableRecord
100
AcDbLinetypeTableRecord
70
0
2
DASHED
3
__ __ __ __ __ __ __ __ __
72
65
73
2
40
25.72
49
12.86
74
0
49
-12.86
74
0
0
ENDTAB
0
TABLE
2
LAYER
5
17e
100
AcDbSymbolTable
0
LAYER
5
10
100
AcDbSymbolTableRecord
100
AcDbLayerTableRecord
2
0
70
0
62
7
6
CONTINUOUS
290
1
370
-3
390
0
0
LAYER
5
6D
100
AcDbSymbolTableRecord
100
AcDbLayerTableRecord
2
81
70
0
62
-3
6
CONTINUOUS
290
1
370
-3
390
0
0
LAYER
5
6F
100
AcDbSymbolTableRecord
100
AcDbLayerTableRecord
2
80
70
0
62
-6
6
CONTINUOUS
290
1
370
-3
390
0
0
LAYER
5
71
100
AcDbSymbolTableRecord
100
AcDbLayerTableRecord
2
1
70
0
62
4
6
CONTINUOUS
290
1
370
-3
390
0
0
LAYER
5
D1
100
AcDbSymbolTableRecord
100
AcDbLayerTableRecord
2
2
70
0
62
7
6
CONTINUOUS
290
1
370
-3
390
0
0
LAYER
5
169
100
AcDbSymbolTableRecord
100
AcDbLayerTableRecord
2
SK1
70
0
62
4
6
CONTINUOUS
290
1
370
-3
390
0
0
LAYER
5
16a
100
AcDbSymbolTableRecord
100
AcDbLayerTableRecord
2
SK6
70
0
62
5
6
CONTINUOUS
290
1
370
-3
390
0
0
LAYER
5
16b
100
AcDbSymbolTableRecord
100
AcDbLayerTableRecord
2
SK2
70
0
62
7
6
CONTINUOUS
290
1
370
-3
390
0
0
ENDTAB
0
TABLE
2
STYLE
5
17f
100
AcDbSymbolTable
0
STYLE
5
11
100
AcDbSymbolTableRecord
100
AcDbTextStyleTableRecord
2
Standard
3
txt
70
0
71
0
40
0
41
1
42
0
50
0
0
STYLE
5
CC
100
AcDbSymbolTableRecord
100
AcDbTextStyleTableRecord
2
iso_b_vert
3
simplex.shx
70
0
71
0
40
0
41
1
42
0
50
0
0
STYLE
5
CD
100
AcDbSymbolTableRecord
100
AcDbTextStyleTableRecord
2
DWGDirectTextStyle
3
simplex
70
0
71
0
40
0
41
1
42
0
50
0
0
ENDTAB
0
TABLE
2
DIMSTYLE
5
180
100
AcDbSymbolTable
100
AcDbDimStyleTable
0
DIMSTYLE
105
27
100
AcDbSymbolTableRecord
100
AcDbDimStyleTableRecord
2
Standard
70
0
3
<>
41
0.18
42
0.0625
44
0.18
140
0.18
147
0.09
73
0
74
0
77
1
271
2
275
0
278
52
280
0
340
11
0
ENDTAB
0
TABLE
2
VIEW
5
181
100
AcDbSymbolTable
0
ENDTAB
0
TABLE
2
UCS
5
182
100
AcDbSymbolTable
0
ENDTAB
0
TABLE
2
APPID
5
183
100
AcDbSymbolTable
0
APPID
5
12
100
AcDbSymbolTableRecord
100
AcDbRegAppTableRecord
2
ACAD
70
0
0
ENDTAB
0
TABLE
2
BLOCK_RECORD
5
184
100
AcDbSymbolTable
0
BLOCK_RECORD
5
1F
100
AcDbSymbolTableRecord
100
AcDbBlockTableRecord
2
*Model_Space
340
0
70
0
0
BLOCK_RECORD
5
1B
100
AcDbSymbolTableRecord
100
AcDbBlockTableRecord
2
*Paper_Space
340
0
70
0
0
BLOCK_RECORD
5
23
100
AcDbSymbolTableRecord
100
AcDbBlockTableRecord
2
*Paper_Space0
340
0
70
0
0
BLOCK_RECORD
5
CF
100
AcDbSymbolTableRecord
100
AcDbBlockTableRecord
2
DimnDraft3D1
340
0
70
0
0
BLOCK_RECORD
5
DE
100
AcDbSymbolTableRecord
100
AcDbBlockTableRecord
2
_CLOSED
340
0
70
0
0
BLOCK_RECORD
5
E5
100
AcDbSymbolTableRecord
100
AcDbBlockTableRecord
2
DimnDraft3D2
340
0
70
0
0
BLOCK_RECORD
5
F4
100
AcDbSymbolTableRecord
100
AcDbBlockTableRecord
2
DimnDraft3D3
340
0
70
0
0
BLOCK_RECORD
5
102
100
AcDbSymbolTableRecord
100
AcDbBlockTableRecord
2
DimnDraft3D4
340
0
70
0
0
ENDTAB
0
ENDSEC
0
SECTION
2
BLOCKS
0
BLOCK
5
20
100
AcDbEntity
8
0
100
AcDbBlockBegin
2
*Model_Space
70
0
10
0
20
0
30
0
3
*Model_Space
0
ENDBLK
5
21
100
AcDbEntity
8
0
100
AcDbBlockEnd
0
BLOCK
5
1C
100
AcDbEntity
8
0
100
AcDbBlockBegin
2
*Paper_Space
70
0
10
0
20
0
30
0
3
*Paper_Space
0
ENDBLK
5
1D
100
AcDbEntity
8
0
100
AcDbBlockEnd
0
BLOCK
5
24
100
AcDbEntity
8
0
100
AcDbBlockBegin
2
*Paper_Space0
70
0
10
0
20
0
30
0
3
*Paper_Space0
0
ENDBLK
5
25
100
AcDbEntity
8
0
100
AcDbBlockEnd
0
BLOCK
5
DB
100
AcDbEntity
8
0
100
AcDbBlockBegin
2
DimnDraft3D1
70
0
10
0
20
0
30
0
3
DimnDraft3D1
0
MTEXT
5
D0
100
AcDbEntity
8
2
62
256
6
ByLayer
370
18
48
1
60
0
100
AcDbMText
10
10.013568
20
16.911101
30
0
210
0
220
0
230
1
1
\W0.6563;20
40
3
41
0
44
1.084337
50
0
71
8
72
5
7
iso_b_vert
0
LINE
5
D2
100
AcDbEntity
8
2
62
256
6
ByLayer
370
13
48
1
60
0
100
AcDbLine
10
20.027135
20
8.634209
30
0
11
20.027135
21
18.161101
31
0
39
0
210
0
220
0
230
1
0
LINE
5
D3
100
AcDbEntity
8
2
62
256
6
ByLayer
370
13
48
1
60
0
100
AcDbLine
10
0
20
7.815791
30
0
11
0
21
18.161101
31
0
39
0
210
0
220
0
230
1
0
LINE
5
D4
100
AcDbEntity
8
2
62
256
6
ByLayer
370
13
48
1
60
0
100
AcDbLine
10
20.027135
20
16.161101
30
0
11
0
21
16.161101
31
0
39
0
210
0
220
0
230
1
0
LINE
5
D5
100
AcDbEntity
8
2
62
256
6
ByLayer
370
13
48
1
60
0
100
AcDbLine
10
20.027135
20
16.161101
30
0
11
16.852137
21
15.743104
31
0
39
0
210
0
220
0
230
1
0
LINE
5
D6
100
AcDbEntity
8
2
62
256
6
ByLayer
370
13
48
1
60
0
100
AcDbLine
10
20.027135
20
16.161101
30
0
11
16.852134
21
16.579098
31
0
39
0
210
0
220
0
230
1
0
LINE
5
D7
100
AcDbEntity
8
2
62
256
6
ByLayer
370
13
48
1
60
0
100
AcDbLine
10
16.852137
20
15.743104
30
0
11
16.852134
21
16.579098
31
0
39
0
210
0
220
0
230
1
0
LINE
5
D8
100
AcDbEntity
8
2
62
256
6
ByLayer
370
13
48
1
60
0
100
AcDbLine
10
0
20
16.161101
30
0
11
3.174998
21
16.579098
31
0
39
0
210
0
220
0
230
1
0
LINE
5
D9
100
AcDbEntity
8
2
62
256
6
ByLayer
370
13
48
1
60
0
100
AcDbLine
10
0
20
16.161101
30
0
11
3.175002
21
15.743104
31
0
39
0
210
0
220
0
230
1
0
LINE
5
DA
100
AcDbEntity
8
2
62
256
6
ByLayer
370
13
48
1
60
0
100
AcDbLine
10
3.174998
20
16.579098
30
0
11
3.175002
21
15.743104
31
0
39
0
210
0
220
0
230
1
0
ENDBLK
5
DC
100
AcDbEntity
8
0
100
AcDbBlockEnd
0
BLOCK
5
DF
100
AcDbEntity
8
0
100
AcDbBlockBegin
2
_CLOSED
70
0
10
0
20
0
30
0
3
_CLOSED
0
LINE
5
E1
100
AcDbEntity
8
0
62
256
6
ByLayer
370
-2
48
1
60
0
100
AcDbLine
10
-1
20
0.166667
30
0
11
0
21
0
31
0
39
0
210
0
220
0
230
1
0
LINE
5
E2
100
AcDbEntity
8
0
62
256
6
ByLayer
370
-2
48
1
60
0
100
AcDbLine
10
0
20
0
30
0
11
-1
21
-0.166667
31
0
39
0
210
0
220
0
230
1
0
LINE
5
E3
100
AcDbEntity
8
0
62
256
6
ByLayer
370
-2
48
1
60
0
100
AcDbLine
10
-1
20
0.166667
30
0
11
-1
21
-0.166667
31
0
39
0
210
0
220
0
230
1
0
LINE
5
E4
100
AcDbEntity
8
0
62
256
6
ByLayer
370
-2
48
1
60
0
100
AcDbLine
10
0
20
0
30
0
11
-1
21
0
31
0
39
0
210
0
220
0
230
1
0
ENDBLK
5
E0
100
AcDbEntity
8
0
100
AcDbBlockEnd
0
BLOCK
5
F1
100
AcDbEntity
8
0
100
AcDbBlockBegin
2
DimnDraft3D2
70
0
10
0
20
0
30
0
3
DimnDraft3D2
0
MTEXT
5
E6
100
AcDbEntity
8
SK2
62
256
6
ByLayer
370
18
48
1
60
0
100
AcDbMText
10
-14.972865
20
24.689701
30
0
210
0
220
0
230
1
1
\W0.6563;70
40
3
41
0
44
1.084337
50
0
71
8
72
5
7
iso_b_vert
0
LINE
5
E8
100
AcDbEntity
8
SK2
62
256
6
ByLayer
370
13
48
1
60
0
100
AcDbLine
10
-49.972865
20
8.384209
30
0
11
-49.972865
21
25.939701
31
0
39
0
210
0
220
0
230
1
0
LINE
5
E9
100
AcDbEntity
8
SK2
62
256
6
ByLayer
370
13
48
1
60
0
100
AcDbLine
10
20.027135
20
8.634209
30
0
11
20.027135
21
25.939701
31
0
39
0
210
0
220
0
230
1
0
LINE
5
EA
100
AcDbEntity
8
SK2
62
256
6
ByLayer
370
13
48
1
60
0
100
AcDbLine
10
-49.972865
20
23.939701
30
0
11
20.027135
21
23.939701
31
0
39
0
210
0
220
0
230
1
0
LINE
5
EB
100
AcDbEntity
8
SK2
62
256
6
ByLayer
370
13
48
1
60
0
100
AcDbLine
10
-49.972865
20
23.939701
30
0
11
-46.797866
21
24.357698
31
0
39
0
210
0
220
0
230
1
0
LINE
5
EC
100
AcDbEntity
8
SK2
62
256
6
ByLayer
370
13
48
1
60
0
100
AcDbLine
10
-49.972865
20
23.939701
30
0
11
-46.797863
21
23.521705
31
0
39
0
210
0
220
0
230
1
0
LINE
5
ED
100
AcDbEntity
8
SK2
62
256
6
ByLayer
370
13
48
1
60
0
100
AcDbLine
10
-46.797866
20
24.357698
30
0
11
-46.797863
21
23.521705
31
0
39
0
210
0
220
0
230
1
0
LINE
5
EE
100
AcDbEntity
8
SK2
62
256
6
ByLayer
370
13
48
1
60
0
100
AcDbLine
10
20.027135
20
23.939701
30
0
11
16.852137
21
23.521705
31
0
39
0
210
0
220
0
230
1
0
LINE
5
EF
100
AcDbEntity
8
SK2
62
256
6
ByLayer
370
13
48
1
60
0
100
AcDbLine
10
20.027135
20
23.939701
30
0
11
16.852134
21
24.357698
31
0
39
0
210
0
220
0
230
1
0
LINE
5
F0
100
AcDbEntity
8
SK2
62
256
6
ByLayer
370
13
48
1
60
0
100
AcDbLine
10
16.852137
20
23.521705
30
0
11
16.852134
21
24.357698
31
0
39
0
210
0
220
0
230
1
0
ENDBLK
5
F2
100
AcDbEntity
8
0
100
AcDbBlockEnd
0
BLOCK
5
FF
100
AcDbEntity
8
0
100
AcDbBlockBegin
2
DimnDraft3D3
70
0
10
0
20
0
30
0
3
DimnDraft3D3
0
MTEXT
5
F5
100
AcDbEntity
8
SK2
62
256
6
ByLayer
370
18
48
1
60
0
100
AcDbMText
10
-61.919435
20
0.284209
30
0
210
0
220
0
230
1
1
\W0.6367;12.7
40
3
41
0
44
1.084337
50
90
71
8
72
5
7
iso_b_vert
0
LINE
5
F6
100
AcDbEntity
8
SK2
62
256
6
ByLayer
370
13
48
1
60
0
100
AcDbLine
10
-48.972865
20
-6.065791
30
0
11
-63.169435
21
-6.065791
31
0
39
0
210
0
220
0
230
1
0
LINE
5
F7
100
AcDbEntity
8
SK2
62
256
6
ByLayer
370
13
48
1
60
0
100
AcDbLine
10
-51.722865
20
6.634209
30
0
11
-63.169435
21
6.634209
31
0
39
0
210
0
220
0
230
1
0
LINE
5
F8
100
AcDbEntity
8
SK2
62
256
6
ByLayer
370
13
48
1
60
0
100
AcDbLine
10
-61.169435
20
-13.565791
30
0
11
-61.169435
21
14.134209
31
0
39
0
210
0
220
0
230
1
0
LINE
5
F9
100
AcDbEntity
8
SK2
62
256
6
ByLayer
370
13
48
1
60
0
100
AcDbLine
10
-61.169435
20
-6.065791
30
0
11
-60.751439
21
-9.24079
31
0
39
0
210
0
220
0
230
1
0
LINE
5
FA
100
AcDbEntity
8
SK2
62
256
6
ByLayer
370
13
48
1
60
0
100
AcDbLine
10
-61.169435
20
-6.065791
30
0
11
-61.587432
21
-9.240793
31
0
39
0
210
0
220
0
230
1
0
LINE
5
FB
100
AcDbEntity
8
SK2
62
256
6
ByLayer
370
13
48
1
60
0
100
AcDbLine
10
-60.751439
20
-9.24079
30
0
11
-61.587432
21
-9.240793
31
0
39
0
210
0
220
0
230
1
0
LINE
5
FC
100
AcDbEntity
8
SK2
62
256
6
ByLayer
370
13
48
1
60
0
100
AcDbLine
10
-61.169435
20
6.634209
30
0
11
-61.587432
21
9.809207
31
0
39
0
210
0
220
0
230
1
0
LINE
5
FD
100
AcDbEntity
8
SK2
62
256
6
ByLayer
370
13
48
1
60
0
100
AcDbLine
10
-61.169435
20
6.634209
30
0
11
-60.751439
21
9.80921
31
0
39
0
210
0
220
0
230
1
0
LINE
5
FE
100
AcDbEntity
8
SK2
62
256
6
ByLayer
370
13
48
1
60
0
100
AcDbLine
10
-61.587432
20
9.809207
30
0
11
-60.751439
21
9.80921
31
0
39
0
210
0
220
0
230
1
0
ENDBLK
5
100
100
AcDbEntity
8
0
100
AcDbBlockEnd
0
BLOCK
5
10D
100
AcDbEntity
8
0
100
AcDbBlockBegin
2
DimnDraft3D4
70
0
10
0
20
0
30
0
3
DimnDraft3D4
0
MTEXT
5
103
100
AcDbEntity
8
SK2
62
256
6
ByLayer
370
18
48
1
60
0
100
AcDbMText
10
30.846648
20
0.284209
30
0
210
0
220
0
230
1
1
\W0.6367;12.7
40
3
41
0
44
1.084337
50
90
71
8
72
5
7
iso_b_vert
0
LINE
5
104
100
AcDbEntity
8
SK2
62
256
6
ByLayer
370
13
48
1
60
0
100
AcDbLine
10
13.978713
20
-6.065791
30
0
11
33.596648
21
-6.065791
31
0
39
0
210
0
220
0
230
1
0
LINE
5
105
100
AcDbEntity
8
SK2
62
256
6
ByLayer
370
13
48
1
60
0
100
AcDbLine
10
22.027135
20
6.634209
30
0
11
33.596648
21
6.634209
31
0
39
0
210
0
220
0
230
1
0
LINE
5
106
100
AcDbEntity
8
SK2
62
256
6
ByLayer
370
13
48
1
60
0
100
AcDbLine
10
31.596648
20
-13.565791
30
0
11
31.596648
21
14.134209
31
0
39
0
210
0
220
0
230
1
0
LINE
5
107
100
AcDbEntity
8
SK2
62
256
6
ByLayer
370
13
48
1
60
0
100
AcDbLine
10
31.596648
20
-6.065791
30
0
11
32.014645
21
-9.24079
31
0
39
0
210
0
220
0
230
1
0
LINE
5
108
100
AcDbEntity
8
SK2
62
256
6
ByLayer
370
13
48
1
60
0
100
AcDbLine
10
31.596648
20
-6.065791
30
0
11
31.178652
21
-9.240793
31
0
39
0
210
0
220
0
230
1
0
LINE
5
109
100
AcDbEntity
8
SK2
62
256
6
ByLayer
370
13
48
1
60
0
100
AcDbLine
10
32.014645
20
-9.24079
30
0
11
31.178652
21
-9.240793
31
0
39
0
210
0
220
0
230
1
0
LINE
5
10A
100
AcDbEntity
8
SK2
62
256
6
ByLayer
370
13
48
1
60
0
100
AcDbLine
10
31.596648
20
6.634209
30
0
11
31.178652
21
9.809207
31
0
39
0
210
0
220
0
230
1
0
LINE
5
10B
100
AcDbEntity
8
SK2
62
256
6
ByLayer
370
13
48
1
60
0
100
AcDbLine
10
31.596648
20
6.634209
30
0
11
32.014645
21
9.80921
31
0
39
0
210
0
220
0
230
1
0
LINE
5
10C
100
AcDbEntity
8
SK2
62
256
6
ByLayer
370
13
48
1
60
0
100
AcDbLine
10
31.178652
20
9.809207
30
0
11
32.014645
21
9.80921
31
0
39
0
210
0
220
0
230
1
0
ENDBLK
5
10E
100
AcDbEntity
8
0
100
AcDbBlockEnd
0
ENDSEC
0
SECTION
2
ENTITIES
0
ARC
5
96
100
AcDbEntity
8
1
62
256
6
ByLayer
370
18
48
1
60
0
100
AcDbCircle
39
0
10
-19.233135
20
5.840209
30
0
40
0.794000000000003
210
0
220
0
230
-1
100
AcDbArc
50
87
51
212
0
ARC
5
99
100
AcDbEntity
8
1
62
256
6
ByLayer
370
18
48
1
60
0
100
AcDbCircle
39
0
10
-3.900872
20
-3.191184
30
0
40
1.5
210
0
220
0
230
-1
100
AcDbArc
50
197.055616
51
225.535248
0
ARC
5
9A
100
AcDbEntity
8
1
62
256
6
ByLayer
370
18
48
1
60
0
100
AcDbCircle
39
0
10
-4.422586
20
-2.883872
30
0
40
0.794000000000003
210
0
220
0
230
-1
100
AcDbArc
50
267
51
32
0
ARC
5
9B
100
AcDbEntity
8
1
62
256
6
ByLayer
370
18
48
1
60
0
100
AcDbCircle
39
0
10
5.685922
20
-2.812099
30
0
40
1.625
210
0
220
0
230
1
100
AcDbArc
50
243.134066
51
328
0
ARC
5
9C
100
AcDbEntity
8
1
62
256
6
ByLayer
370
18
48
1
60
0
100
AcDbCircle
39
0
10
5.685922
20
-2.812099
30
0
40
1.80147399353409
210
0
220
0
230
1
100
AcDbArc
50
240.851885
51
328
0
ARC
5
9D
100
AcDbEntity
8
1
62
256
6
ByLayer
370
18
48
1
60
0
100
AcDbCircle
39
0
10
0.334066
20
-5.595791
30
0
40
0.400000000000535
210
0
220
0
230
1
100
AcDbArc
50
213.367013
51
270
0
ARC
5
9E
100
AcDbEntity
8
1
62
256
6
ByLayer
370
18
48
1
60
0
100
AcDbCircle
39
0
10
3.900872
20
-3.191184
30
0
40
1.5
210
0
220
0
230
1
100
AcDbArc
50
77.008003
51
307.234028
0
ARC
5
A0
100
AcDbEntity
8
1
62
256
6
ByLayer
370
18
48
1
60
0
100
AcDbCircle
39
0
10
-14.098595
20
-2.376774
30
0
40
0.794
210
0
220
0
230
-1
100
AcDbArc
50
212
51
267
0
ARC
5
A3
100
AcDbEntity
8
1
62
256
6
ByLayer
370
18
48
1
60
0
100
AcDbCircle
39
0
10
-11.82786
20
1.478169
30
0
40
1.6765
210
0
220
0
230
-1
100
AcDbArc
50
89.659887
51
149.5
0
ARC
5
A4
100
AcDbEntity
8
1
62
256
6
ByLayer
370
18
48
1
60
0
100
AcDbCircle
39
0
10
-11.82786
20
1.478169
30
0
40
1.6765
210
0
220
0
230
-1
100
AcDbArc
50
29.340113
51
89.659887
0
ARC
5
A5
100
AcDbEntity
8
1
62
256
6
ByLayer
370
18
48
1
60
0
100
AcDbCircle
39
0
10
11.82786
20
1.478169
30
0
40
1.2065
210
0
220
0
230
1
100
AcDbArc
50
240.420057
51
296.544721
0
ARC
5
A6
100
AcDbEntity
8
1
62
256
6
ByLayer
370
18
48
1
60
0
100
AcDbCircle
39
0
10
11.82786
20
1.478169
30
0
40
1.2065
210
0
220
0
230
1
100
AcDbArc
50
124.455279
51
180.579943
0
ARC
5
A7
100
AcDbEntity
8
1
62
256
6
ByLayer
370
18
48
1
60
0
100
AcDbCircle
39
0
10
11.82786
20
1.478169
30
0
40
1.2065
210
0
220
0
230
1
100
AcDbArc
50
0.579943
51
60.420057
0
ARC
5
A8
100
AcDbEntity
8
1
62
256
6
ByLayer
370
18
48
1
60
0
100
AcDbCircle
39
0
10
-11.82786
20
1.478169
30
0
40
1.2065
210
0
220
0
230
-1
100
AcDbArc
50
179.420057
51
235.544721
0
ARC
5
A9
100
AcDbEntity
8
1
62
256
6
ByLayer
370
18
48
1
60
0
100
AcDbCircle
39
0
10
11.82786
20
1.478169
30
0
40
1.2065
210
0
220
0
230
1
100
AcDbArc
50
60.420057
51
116.544721
0
ARC
5
AA
100
AcDbEntity
8
1
62
256
6
ByLayer
370
18
48
1
60
0
100
AcDbCircle
39
0
10
11.82786
20
1.478169
30
0
40
1.2065
210
0
220
0
230
1
100
AcDbArc
50
180.579943
51
240.420057
0
ARC
5
AB
100
AcDbEntity
8
1
62
256
6
ByLayer
370
18
48
1
60
0
100
AcDbCircle
39
0
10
-11.82786
20
1.478169
30
0
40
1.2065
210
0
220
0
230
-1
100
AcDbArc
50
55.544721
51
63.455279
0
ARC
5
AC
100
AcDbEntity
8
1
62
256
6
ByLayer
370
18
48
1
60
0
100
AcDbCircle
39
0
10
-11.82786
20
1.478169
30
0
40
1.6765
210
0
220
0
230
-1
100
AcDbArc
50
149.5
51
209.340113
0
ARC
5
AD
100
AcDbEntity
8
1
62
256
6
ByLayer
370
18
48
1
60
0
100
AcDbCircle
39
0
10
-11.82786
20
1.478169
30
0
40
1.6765
210
0
220
0
230
-1
100
AcDbArc
50
329.5
51
29.340113
0
ARC
5
AE
100
AcDbEntity
8
1
62
256
6
ByLayer
370
18
48
1
60
0
100
AcDbCircle
39
0
10
-11.82786
20
1.478169
30
0
40
1.6765
210
0
220
0
230
-1
100
AcDbArc
50
269.659887
51
329.5
0
ARC
5
AF
100
AcDbEntity
8
1
62
256
6
ByLayer
370
18
48
1
60
0
100
AcDbCircle
39
0
10
-11.82786
20
1.478169
30
0
40
1.2065
210
0
220
0
230
-1
100
AcDbArc
50
235.544721
51
243.455279
0
ARC
5
B0
100
AcDbEntity
8
1
62
256
6
ByLayer
370
18
48
1
60
0
100
AcDbCircle
39
0
10
-11.82786
20
1.478169
30
0
40
1.6765
210
0
220
0
230
-1
100
AcDbArc
50
209.340113
51
269.659887
0
ARC
5
B1
100
AcDbEntity
8
SK1
62
256
6
ByLayer
370
18
48
1
60
0
100
AcDbCircle
39
0
10
2.527135
20
10.130138
30
0
40
5
210
0
220
0
230
1
100
AcDbArc
50
228.519907
51
239.640297
0
ARC
5
B2
100
AcDbEntity
8
1
62
256
6
ByLayer
370
18
48
1
60
0
100
AcDbCircle
39
0
10
-2.527135
20
10.130138
30
0
40
5
210
0
220
0
230
-1
100
AcDbArc
50
267
51
296.015472
0
ARC
5
B3
100
AcDbEntity
8
SK1
62
256
6
ByLayer
370
18
48
1
60
0
100
AcDbCircle
39
0
10
2.527135
20
10.130138
30
0
40
5.00000000053332
210
0
220
0
230
1
100
AcDbArc
50
224.361725
51
228.519907
0
ARC
5
B4
100
AcDbEntity
8
1
62
256
6
ByLayer
370
18
48
1
60
0
100
AcDbCircle
39
0
10
-9.557126
20
5.333111
30
0
40
0.794
210
0
220
0
230
-1
100
AcDbArc
50
32
51
87
0
CIRCLE
5
97
100
AcDbEntity
8
1
62
256
6
ByLayer
370
18
48
1
60
0
100
AcDbCircle
10
-11.82786
20
1.478169
30
0
40
2.94486584643912
39
0
210
0
220
0
230
-1
0
CIRCLE
5
98
100
AcDbEntity
8
1
62
256
6
ByLayer
370
18
48
1
60
0
100
AcDbCircle
10
-11.82786
20
1.478169
30
0
40
3
39
0
210
0
220
0
230
-1
0
CIRCLE
5
9F
100
AcDbEntity
8
1
62
256
6
ByLayer
370
18
48
1
60
0
100
AcDbCircle
10
-11.82786
20
1.478169
30
0
40
3.07132534818238
39
0
210
0
220
0
230
-1
0
CIRCLE
5
A1
100
AcDbEntity
8
1
62
256
6
ByLayer
370
18
48
1
60
0
100
AcDbCircle
10
-11.82786
20
1.478169
30
0
40
2.625
39
0
210
0
220
0
230
-1
0
CIRCLE
5
A2
100
AcDbEntity
8
1
62
256
6
ByLayer
370
18
48
1
60
0
100
AcDbCircle
10
-11.82786
20
1.478169
30
0
40
1.8
39
0
210
0
220
0
230
-1
0
POINT
5
6C
100
AcDbEntity
8
81
62
256
6
ByLayer
370
18
48
1
60
0
100
AcDbPoint
10
20.027135
20
6.634209
30
0
39
0
210
0
220
0
230
1
50
360
0
POINT
5
6E
100
AcDbEntity
8
80
62
256
6
ByLayer
370
18
48
1
60
0
100
AcDbPoint
10
0
20
0
30
0
39
0
210
0
220
0
230
1
50
360
0
SPLINE
5
B5
100
AcDbEntity
8
1
62
256
6
ByLayer
370
18
48
1
60
0
100
AcDbSpline
70
4
71
3
72
8
73
4
40
0
40
0
40
0
40
0
40
1
40
1
40
1
40
1
41
1
10
4.95157761506752
20
-4.26170669116004
30
0
41
1
10
4.90725442238255
20
-4.30520940502819
30
0
41
1
10
4.85958319941957
20
-4.3466033420963
30
0
41
1
10
4.80848019628411
20
-4.38544049065692
30
0
0
SPLINE
5
B6
100
AcDbEntity
8
1
62
256
6
ByLayer
370
18
48
1
60
0
100
AcDbSpline
70
4
71
3
72
16
73
12
40
0
40
0
40
0
40
0
40
0.062445008261402
40
0.062445008261402
40
0.283207995985756
40
0.283207995985756
40
0.506745688833501
40
0.506745688833501
40
0.744607284736919
40
0.744607284736919
40
1
40
1
40
1
40
1
41
1
10
11.8179085560544
20
3.15463896685864
30
0
41
1
10
11.8094750229864
20
3.15458890398696
30
0
41
1
10
11.8010340041262
20
3.15417241654785
30
0
41
1
10
11.7631773538851
20
3.15065713661153
30
0
41
1
10
11.7338528526017
20
3.14327367331268
30
0
41
1
10
11.6797400665354
20
3.12064224113999
30
0
41
1
10
11.6543155357419
20
3.10503041443093
30
0
41
1
10
11.6089714184385
20
3.06711993620345
30
0
41
1
10
11.5889206209018
20
3.04400669446736
30
0
41
1
10
11.5562955030097
20
2.99266202796025
30
0
41
1
10
11.5439592249506
20
2.96357763205336
30
0
41
1
10
11.5365189751483
20
2.93409631213149
30
0
0
SPLINE
5
B7
100
AcDbEntity
8
1
62
256
6
ByLayer
370
18
48
1
60
0
100
AcDbSpline
70
4
71
3
72
14
73
10
40
0
40
0
40
0
40
0
40
0.283961749036714
40
0.283961749036714
40
0.570285189259028
40
0.570285189259028
40
0.829451094335682
40
0.829451094335682
40
1
40
1
40
1
40
1
41
1
10
12.101021023381
20
2.94068116305601
30
0
41
1
10
12.0920611010675
20
2.97298806285406
30
0
41
1
10
12.0771142588981
20
3.00473180410609
30
0
41
1
10
12.0362804732441
20
3.0615473834508
30
0
41
1
10
12.0096204538127
20
3.08740494100815
30
0
41
1
10
11.9510168307077
20
3.12553046136225
30
0
41
1
10
11.9188964294094
20
3.1393797231076
30
0
41
1
10
11.8635657636173
20
3.1522042233313
30
0
41
1
10
11.8406377864754
20
3.15477389139585
30
0
41
1
10
11.8179085560544
20
3.15463896685864
30
0
0
SPLINE
5
B8
100
AcDbEntity
8
1
62
256
6
ByLayer
370
18
48
1
60
0
100
AcDbSpline
70
4
71
3
72
18
73
14
40
0
40
0
40
0
40
0
40
0.212491695755302
40
0.212491695755302
40
0.386618276853805
40
0.386618276853805
40
0.562426360907933
40
0.562426360907933
40
0.715388416645937
40
0.715388416645937
40
0.918249208689863
40
0.918249208689863
40
1
40
1
40
1
40
1
41
1
10
12.101021023381
20
2.94068116305601
30
0
41
1
10
12.1199886392979
20
2.87228940190079
30
0
41
1
10
12.1503742358748
20
2.80457810042495
30
0
41
1
10
12.226263045275
20
2.6912504711712
30
0
41
1
10
12.2690363408396
20
2.64266308949416
30
0
41
1
10
12.3680015889795
20
2.55873538156706
30
0
41
1
10
12.4259084703721
20
2.52242844946778
30
0
41
1
10
12.5386722856869
20
2.47286564721716
30
0
41
1
10
12.5942568812157
20
2.45655624790348
30
0
41
1
10
12.7210566763251
20
2.43534142317463
30
0
41
1
10
12.79361514438
20
2.43528060636399
30
0
41
1
10
12.8896204547858
20
2.44939218867742
30
0
41
1
10
12.9169245911457
20
2.45515187954337
30
0
41
1
10
12.9435412894885
20
2.46245306686106
30
0
0
SPLINE
5
B9
100
AcDbEntity
8
1
62
256
6
ByLayer
370
18
48
1
60
0
100
AcDbSpline
70
4
71
3
72
12
73
8
40
0
40
0
40
0
40
0
40
0.422118633920707
40
0.422118633920707
40
0.843213619146828
40
0.843213619146828
40
1
40
1
40
1
40
1
41
1
10
11.2886800940913
20
2.55748629053292
30
0
41
1
10
11.3426110372353
20
2.59882108077139
30
0
41
1
10
11.3900325492483
20
2.64833339716714
30
0
41
1
10
11.4657881610672
20
2.75343122312879
30
0
41
1
10
11.4953578718389
20
2.81035599263708
30
0
41
1
10
11.5242153065828
20
2.88999564912831
30
0
41
1
10
11.5309390998089
20
2.91198655851085
30
0
41
1
10
11.5365189751483
20
2.93409631213149
30
0
0
SPLINE
5
BA
100
AcDbEntity
8
1
62
256
6
ByLayer
370
18
48
1
60
0
100
AcDbSpline
70
4
71
3
72
12
73
8
40
0
40
0
40
0
40
0
40
0.495779676780359
40
0.495779676780359
40
0.900233025448797
40
0.900233025448797
40
1
40
1
40
1
40
1
41
1
10
10.6957223235557
20
2.43882923468777
30
0
41
1
10
10.7646681234434
20
2.42056670063715
30
0
41
1
10
10.8388086785639
20
2.41261081725869
30
0
41
1
10
10.9752997723244
20
2.42109680175309
30
0
41
1
10
11.0388302031992
20
2.43356944805512
30
0
41
1
10
11.1151371583147
20
2.4605260698479
30
0
41
1
10
11.1303011309898
20
2.46649231055599
30
0
41
1
10
11.1452675441596
20
2.47300984270345
30
0
0
SPLINE
5
BB
100
AcDbEntity
8
1
62
256
6
ByLayer
370
18
48
1
60
0
100
AcDbSpline
70
4
71
3
72
14
73
10
40
0
40
0
40
0
40
0
40
0.283961457856589
40
0.283961457856589
40
0.570284934646621
40
0.570284934646621
40
0.829450869060465
40
0.829450869060465
40
1
40
1
40
1
40
1
41
1
10
13.229627887036
20
1.97677440127114
30
0
41
1
10
13.253059676173
20
2.00075282786128
30
0
41
1
10
13.272996633551
20
2.02962475571809
30
0
41
1
10
13.3016054179225
20
2.09347568180971
30
0
41
1
10
13.3105681812118
20
2.12951786593842
30
0
41
1
10
13.3140892265367
20
2.19934295477708
30
0
41
1
10
13.3099259169227
20
2.234073190978
30
0
41
1
10
13.2932153882657
20
2.28835681962087
30
0
41
1
10
13.2839178291866
20
2.30947203136563
30
0
41
1
10
13.2723816543557
20
2.32905656991403
30
0
0
SPLINE
5
BC
100
AcDbEntity
8
1
62
256
6
ByLayer
370
18
48
1
60
0
100
AcDbSpline
70
4
71
3
72
16
73
12
40
0
40
0
40
0
40
0
40
0.0630415689509303
40
0.0630415689509303
40
0.285914332024977
40
0.285914332024977
40
0.511588305408906
40
0.511588305408906
40
0.751723061839373
40
0.751723061839373
40
1
40
1
40
1
40
1
41
1
10
13.2723816543557
20
2.32905656991403
30
0
41
1
10
13.2681012514956
20
2.33632325198553
30
0
41
1
10
13.2635002693137
20
2.34341231051948
30
0
41
1
10
13.2414411499101
20
2.37437803911314
30
0
41
1
10
13.2203241538683
20
2.39602323358142
30
0
41
1
10
13.1735693602058
20
2.43144024479437
30
0
41
1
10
13.1472973022888
20
2.44557936994593
30
0
41
1
10
13.0917373425977
20
2.4657383393351
30
0
41
1
10
13.0616792019441
20
2.47146237059684
30
0
41
1
10
13.0020355300429
20
2.47382931555464
30
0
41
1
10
12.9718305292874
20
2.47021304656204
30
0
41
1
10
12.9435412894885
20
2.46245306686106
30
0
0
SPLINE
5
BD
100
AcDbEntity
8
1
62
256
6
ByLayer
370
18
48
1
60
0
100
AcDbSpline
70
4
71
3
72
16
73
12
40
0
40
0
40
0
40
0
40
0.0569446172824999
40
0.0569446172824999
40
0.279906644834072
40
0.279906644834072
40
0.505321967306684
40
0.505321967306684
40
0.744915047128813
40
0.744915047128813
40
1
40
1
40
1
40
1
41
1
10
10.3664109956062
20
2.29964156252999
30
0
41
1
10
10.362675662006
20
2.29299618215219
30
0
41
1
10
10.3591976446544
20
2.28619797278034
30
0
41
1
10
10.3435510212622
20
2.25241657536404
30
0
41
1
10
10.3351969545609
20
2.22332332100817
30
0
41
1
10
10.3275932211635
20
2.16514373672709
30
0
41
1
10
10.3283246845777
20
2.13532300000668
30
0
41
1
10
10.3383287418822
20
2.0771123940892
30
0
41
1
10
10.3482295864126
20
2.0481960094441
30
0
41
1
10
10.3760758004809
20
1.99447827568866
30
0
41
1
10
10.3948020645184
20
1.96941078064933
30
0
41
1
10
10.4162870595366
20
1.94829701765903
30
0
0
SPLINE
5
BE
100
AcDbEntity
8
1
62
256
6
ByLayer
370
18
48
1
60
0
100
AcDbSpline
70
4
71
3
72
14
73
10
40
0
40
0
40
0
40
0
40
0.282169922576107
40
0.282169922576107
40
0.566902245317967
40
0.566902245317967
40
0.824523972080263
40
0.824523972080263
40
1
40
1
40
1
40
1
41
1
10
10.6957223235557
20
2.43882923468777
30
0
41
1
10
10.6632501462061
20
2.44743054536241
30
0
41
1
10
10.628241034117
20
2.45055681266049
30
0
41
1
10
10.5584402945734
20
2.44395315089233
30
0
41
1
10
10.5225766520594
20
2.43394117096423
30
0
41
1
10
10.4599639988098
20
2.40244076778677
30
0
41
1
10
10.4317527192934
20
2.38160436050873
30
0
41
1
10
10.3921864268321
20
2.33953529238397
30
0
41
1
10
10.3779753960494
20
2.32021531791958
30
0
41
1
10
10.3664109956062
20
2.29964156252999
30
0
0
SPLINE
5
BF
100
AcDbEntity
8
1
62
256
6
ByLayer
370
18
48
1
60
0
100
AcDbSpline
70
4
71
3
72
16
73
12
40
0
40
0
40
0
40
0
40
0.0569446172824982
40
0.0569446172824982
40
0.279906644834072
40
0.279906644834072
40
0.505321967306684
40
0.505321967306684
40
0.744915047128815
40
0.744915047128815
40
1
40
1
40
1
40
1
41
1
10
13.2893097381449
20
0.656695446290854
30
0
41
1
10
13.293045071745
20
0.663340826668673
30
0
41
1
10
13.2965230890967
20
0.670139036040496
30
0
41
1
10
13.3121697124889
20
0.703920433456801
30
0
41
1
10
13.3205237791902
20
0.733013687812672
30
0
41
1
10
13.3281275125876
20
0.791193272093778
30
0
41
1
10
13.3273960491734
20
0.821014008814188
30
0
41
1
10
13.3173919918688
20
0.879224614731669
30
0
41
1
10
13.3074911473385
20
0.908140999376741
30
0
41
1
10
13.2796449332702
20
0.961858733132175
30
0
41
1
10
13.2609186692326
20
0.986926228171512
30
0
41
1
10
13.2394336742145
20
1.00803999116181
30
0
0
SPLINE
5
C0
100
AcDbEntity
8
1
62
256
6
ByLayer
370
18
48
1
60
0
100
AcDbSpline
70
4
71
3
72
18
73
14
40
0
40
0
40
0
40
0
40
0.212491592102414
40
0.212491592102414
40
0.386618191488472
40
0.386618191488472
40
0.56242629505081
40
0.56242629505081
40
0.715388354469454
40
0.715388354469454
40
0.918249128147155
40
0.918249128147155
40
1
40
1
40
1
40
1
41
1
10
13.229627887036
20
1.97677440127114
30
0
41
1
10
13.1800241741742
20
1.92601348922554
30
0
41
1
10
13.1367453608532
20
1.86572216852451
30
0
41
1
10
13.0768869113545
20
1.74316924313968
30
0
41
1
10
13.0563668839627
20
1.68177528933046
30
0
41
1
10
13.0335223207236
20
1.55404076237119
30
0
41
1
10
13.0312236370215
20
1.48573177824417
30
0
41
1
10
13.0450245018479
20
1.36333207275629
30
0
41
1
10
13.058849473231
20
1.30707805744851
30
0
41
1
10
13.1042126405168
20
1.18678491880246
30
0
41
1
10
13.1406144907631
20
1.12401837049876
30
0
41
1
10
13.2010502305163
20
1.04809945112052
30
0
41
1
10
13.219748231359
20
1.02738529584815
30
0
41
1
10
13.2394336742145
20
1.00803999116181
30
0
0
SPLINE
5
C1
100
AcDbEntity
8
1
62
256
6
ByLayer
370
18
48
1
60
0
100
AcDbSpline
70
4
71
3
72
18
73
14
40
0
40
0
40
0
40
0
40
0.212491592102414
40
0.212491592102414
40
0.386618191488472
40
0.386618191488472
40
0.56242629505081
40
0.56242629505081
40
0.715388354469454
40
0.715388354469454
40
0.918249128147155
40
0.918249128147155
40
1
40
1
40
1
40
1
41
1
10
10.4260928467151
20
0.979562607549695
30
0
41
1
10
10.4756965595768
20
1.03032351959533
30
0
41
1
10
10.5189753728978
20
1.09061484029632
30
0
41
1
10
10.5788338223966
20
1.21316776568116
30
0
41
1
10
10.5993538497884
20
1.27456171949038
30
0
41
1
10
10.6221984130275
20
1.40229624644965
30
0
41
1
10
10.6244970967295
20
1.4706052305767
30
0
41
1
10
10.6106962319032
20
1.59300493606455
30
0
41
1
10
10.5968712605201
20
1.64925895137233
30
0
41
1
10
10.5515080932342
20
1.76955209001838
30
0
41
1
10
10.5151062429879
20
1.83231863832208
30
0
41
1
10
10.4546705032347
20
1.90823755770032
30
0
41
1
10
10.4359725023921
20
1.92895171297269
30
0
41
1
10
10.4162870595366
20
1.94829701765903
30
0
0
SPLINE
5
C2
100
AcDbEntity
8
1
62
256
6
ByLayer
370
18
48
1
60
0
100
AcDbSpline
70
4
71
3
72
16
73
12
40
0
40
0
40
0
40
0
40
0.0630415689509294
40
0.0630415689509294
40
0.285914332024976
40
0.285914332024976
40
0.511588305408905
40
0.511588305408905
40
0.751723061839372
40
0.751723061839372
40
1
40
1
40
1
40
1
41
1
10
10.3833390793953
20
0.627280438906809
30
0
41
1
10
10.3876194822555
20
0.620013756835306
30
0
41
1
10
10.3922204644373
20
0.612924698301356
30
0
41
1
10
10.4142795838409
20
0.581958969707699
30
0
41
1
10
10.4353965798828
20
0.560313775239422
30
0
41
1
10
10.4821513735452
20
0.524896764026465
30
0
41
1
10
10.5084234314622
20
0.510757638874907
30
0
41
1
10
10.5639833911534
20
0.490598669485735
30
0
41
1
10
10.594041531807
20
0.484874638224
30
0
41
1
10
10.6536852037082
20
0.4825076932662
30
0
41
1
10
10.6838902044636
20
0.486123962258802
30
0
41
1
10
10.7121794442625
20
0.49388394195978
30
0
0
SPLINE
5
C3
100
AcDbEntity
8
1
62
256
6
ByLayer
370
18
48
1
60
0
100
AcDbSpline
70
4
71
3
72
14
73
10
40
0
40
0
40
0
40
0
40
0.283961457856589
40
0.283961457856589
40
0.570284934646621
40
0.570284934646621
40
0.829450869060465
40
0.829450869060465
40
1
40
1
40
1
40
1
41
1
10
10.4260928467151
20
0.979562607549695
30
0
41
1
10
10.4026610575781
20
0.955584180959562
30
0
41
1
10
10.3827241002
20
0.92671225310275
30
0
41
1
10
10.3541153158285
20
0.86286132701116
30
0
41
1
10
10.3451525525393
20
0.826819142882414
30
0
41
1
10
10.3416315072143
20
0.756994054043759
30
0
41
1
10
10.3457948168283
20
0.722263817842844
30
0
41
1
10
10.3625053454853
20
0.667980189199994
30
0
41
1
10
10.3718029045645
20
0.646864977455209
30
0
41
1
10
10.3833390793953
20
0.627280438906809
30
0
0
SPLINE
5
C4
100
AcDbEntity
8
1
62
256
6
ByLayer
370
18
48
1
60
0
100
AcDbSpline
70
4
71
3
72
14
73
10
40
0
40
0
40
0
40
0
40
0.283961749036713
40
0.283961749036713
40
0.570285189259025
40
0.570285189259025
40
0.82945109433568
40
0.82945109433568
40
1
40
1
40
1
40
1
41
1
10
11.55469971037
20
0.0156558457648259
30
0
41
1
10
11.5636596326835
20
-0.0166510540332183
30
0
41
1
10
11.578606474853
20
-0.0483947952852475
30
0
41
1
10
11.619440260507
20
-0.105210374629962
30
0
41
1
10
11.6461002799384
20
-0.131067932187278
30
0
41
1
10
11.7047039030434
20
-0.169193452541378
30
0
41
1
10
11.7368243043417
20
-0.183042714286756
30
0
41
1
10
11.7921549701338
20
-0.195867214510457
30
0
41
1
10
11.8150829472756
20
-0.19843688257501
30
0
41
1
10
11.8378121776966
20
-0.198301958037803
30
0
0
SPLINE
5
C5
100
AcDbEntity
8
1
62
256
6
ByLayer
370
18
48
1
60
0
100
AcDbSpline
70
4
71
3
72
14
73
10
40
0
40
0
40
0
40
0
40
0.282169922576107
40
0.282169922576107
40
0.566902245317965
40
0.566902245317965
40
0.824523972080262
40
0.824523972080262
40
1
40
1
40
1
40
1
41
1
10
12.9599984101953
20
0.517507774133065
30
0
41
1
10
12.9924705875449
20
0.50890646345843
30
0
41
1
10
13.027479699634
20
0.505780196160345
30
0
41
1
10
13.0972804391777
20
0.512383857928512
30
0
41
1
10
13.1331440816917
20
0.522395837856607
30
0
41
1
10
13.1957567349412
20
0.553896241034067
30
0
41
1
10
13.2239680144576
20
0.574732648312107
30
0
41
1
10
13.263534306919
20
0.616801716436868
30
0
41
1
10
13.2777453377017
20
0.636121690901263
30
0
41
1
10
13.2893097381449
20
0.656695446290854
30
0
0
SPLINE
5
C6
100
AcDbEntity
8
1
62
256
6
ByLayer
370
18
48
1
60
0
100
AcDbSpline
70
4
71
3
72
18
73
14
40
0
40
0
40
0
40
0
40
0.212491695755302
40
0.212491695755302
40
0.386618276853805
40
0.386618276853805
40
0.562426360907933
40
0.562426360907933
40
0.715388416645937
40
0.715388416645937
40
0.918249208689863
40
0.918249208689863
40
1
40
1
40
1
40
1
41
1
10
11.55469971037
20
0.0156558457648259
30
0
41
1
10
11.5357320944532
20
0.084047606920052
30
0
41
1
10
11.5053464978762
20
0.151758908395891
30
0
41
1
10
11.4294576884761
20
0.265086537649637
30
0
41
1
10
11.3866843929114
20
0.313673919326675
30
0
41
1
10
11.2877191447716
20
0.397601627253778
30
0
41
1
10
11.2298122633789
20
0.433908559353057
30
0
41
1
10
11.1170484480642
20
0.483471361603676
30
0
41
1
10
11.0614638525354
20
0.499780760917361
30
0
41
1
10
10.9346640574259
20
0.520995585646205
30
0
41
1
10
10.862105589371
20
0.52105640245685
30
0
41
1
10
10.7661002789652
20
0.506944820143417
30
0
41
1
10
10.7387961426053
20
0.501185129277474
30
0
41
1
10
10.7121794442626
20
0.49388394195978
30
0
0
SPLINE
5
C7
100
AcDbEntity
8
1
62
256
6
ByLayer
370
18
48
1
60
0
100
AcDbSpline
70
4
71
3
72
16
73
12
40
0
40
0
40
0
40
0
40
0.0624450082614033
40
0.0624450082614033
40
0.283207995985775
40
0.283207995985775
40
0.506745688833536
40
0.506745688833536
40
0.744607284736972
40
0.744607284736972
40
1
40
1
40
1
40
1
41
1
10
11.8378121776966
20
-0.198301958037803
30
0
41
1
10
11.8462457107646
20
-0.198251895166123
30
0
41
1
10
11.8546867296248
20
-0.197835407727013
30
0
41
1
10
11.8925433798659
20
-0.194320127790689
30
0
41
1
10
11.9218678811493
20
-0.186936664491839
30
0
41
1
10
11.9759806672157
20
-0.164305232319151
30
0
41
1
10
12.0014051980091
20
-0.148693405610089
30
0
41
1
10
12.0467493153125
20
-0.110782927382615
30
0
41
1
10
12.0668001128493
20
-0.0876696856465173
30
0
41
1
10
12.0994252307413
20
-0.0363250191394116
30
0
41
1
10
12.1117615088004
20
-0.0072406232325477
30
0
41
1
10
12.1192017586027
20
0.0222406966893232
30
0
0
SPLINE
5
C8
100
AcDbEntity
8
1
62
256
6
ByLayer
370
18
48
1
60
0
100
AcDbSpline
70
4
71
3
72
12
73
8
40
0
40
0
40
0
40
0
40
0.422118633920774
40
0.422118633920774
40
0.843213619146908
40
0.843213619146908
40
1
40
1
40
1
40
1
41
1
10
12.3670406396597
20
0.398850718287946
30
0
41
1
10
12.3131096965158
20
0.357515928049452
30
0
41
1
10
12.2656881845027
20
0.308003611653703
30
0
41
1
10
12.1899325726838
20
0.202905785692025
30
0
41
1
10
12.1603628619121
20
0.145981016183725
30
0
41
1
10
12.1315054271682
20
0.0663413596925295
30
0
41
1
10
12.1247816339421
20
0.0443504503099916
30
0
41
1
10
12.1192017586027
20
0.0222406966893516
30
0
0
SPLINE
5
C9
100
AcDbEntity
8
1
62
256
6
ByLayer
370
18
48
1
60
0
100
AcDbSpline
70
4
71
3
72
12
73
8
40
0
40
0
40
0
40
0
40
0.49577967678036
40
0.49577967678036
40
0.900233025448792
40
0.900233025448792
40
1
40
1
40
1
40
1
41
1
10
12.9599984101953
20
0.517507774133065
30
0
41
1
10
12.8910526103077
20
0.535770308183686
30
0
41
1
10
12.8169120551872
20
0.543726191562143
30
0
41
1
10
12.6804209614267
20
0.535240207067744
30
0
41
1
10
12.6168905305519
20
0.522767560765715
30
0
41
1
10
12.5405835754363
20
0.495810938972937
30
0
41
1
10
12.5254196027613
20
0.489844698264847
30
0
41
1
10
12.5104531895915
20
0.483327166117391
30
0
0
SPLINE
5
CA
100
AcDbEntity
8
1
62
256
6
ByLayer
370
18
48
1
60
0
100
AcDbSpline
70
4
71
3
72
12
73
8
40
0
40
0
40
0
40
0
40
0.386387223223559
40
0.386387223223559
40
0.773484313967948
40
0.773484313967948
40
1
40
1
40
1
40
1
41
1
10
0.33406586176983
20
5.63675996429418
30
0
41
1
10
0.284080524690921
20
5.66115615332248
30
0
41
1
10
0.233841882667292
20
5.68676493489716
30
0
41
1
10
0.140957883466939
20
5.73594624172182
30
0
41
1
10
0.0969106878101229
20
5.76025704594099
30
0
41
1
10
0.0373769566732847
20
5.79403956106188
30
0
41
1
10
0.0172203400992998
20
5.80570449864473
30
0
41
1
10
0
20
5.81579133850454
30
0
0
LINE
5
70
100
AcDbEntity
8
1
62
256
6
ByLayer
370
18
48
1
60
1
100
AcDbLine
10
151.271875
20
160.379767
30
0
11
151.271875
21
185.820233
31
0
39
0
210
0
220
0
230
1
0
LINE
5
72
100
AcDbEntity
8
1
62
256
6
ByLayer
370
18
48
1
60
1
100
AcDbLine
10
247.971875
20
185.820233
30
0
11
151.271875
21
185.820233
31
0
39
0
210
0
220
0
230
1
0
LINE
5
73
100
AcDbEntity
8
1
62
256
6
ByLayer
370
18
48
1
60
1
100
AcDbLine
10
247.971875
20
185.820233
30
0
11
247.971875
21
160.379767
31
0
39
0
210
0
220
0
230
1
0
LINE
5
74
100
AcDbEntity
8
1
62
256
6
ByLayer
370
18
48
1
60
1
100
AcDbLine
10
151.271875
20
160.379767
30
0
11
247.971875
21
160.379767
31
0
39
0
210
0
220
0
230
1
0
LINE
5
75
100
AcDbEntity
8
1
62
256
6
ByLayer
370
18
48
1
60
1
100
AcDbLine
10
0
20
0
30
0
11
0
21
297
31
0
39
0
210
0
220
0
230
1
0
LINE
5
76
100
AcDbEntity
8
1
62
256
6
ByLayer
370
18
48
1
60
1
100
AcDbLine
10
420
20
297
30
0
11
0
21
297
31
0
39
0
210
0
220
0
230
1
0
LINE
5
77
100
AcDbEntity
8
1
62
256
6
ByLayer
370
18
48
1
60
1
100
AcDbLine
10
420
20
297
30
0
11
420
21
0
31
0
39
0
210
0
220
0
230
1
0
LINE
5
78
100
AcDbEntity
8
1
62
256
6
ByLayer
370
18
48
1
60
1
100
AcDbLine
10
0
20
0
30
0
11
420
21
0
31
0
39
0
210
0
220
0
230
1
0
LINE
5
79
100
AcDbEntity
8
80
62
256
6
ByLayer
370
18
48
1
60
0
100
AcDbLine
10
0
20
0
30
0
11
-7
21
0
31
0
39
0
210
0
220
0
230
1
0
LINE
5
7A
100
AcDbEntity
8
81
62
256
6
ByLayer
370
18
48
1
60
0
100
AcDbLine
10
20.027135
20
6.634209
30
0
11
27.027135
21
6.634209
31
0
39
0
210
0
220
0
230
1
0
LINE
5
7B
100
AcDbEntity
8
1
62
256
6
ByLayer
370
18
48
1
60
0
100
AcDbLine
10
0.334066
20
-5.995791
30
0
11
0.334066
21
5.63676
31
0
39
0
210
0
220
0
230
1
0
LINE
5
7C
100
AcDbEntity
8
1
62
256
6
ByLayer
370
18
48
1
60
0
100
AcDbLine
10
7.213659
20
-3.766735
30
0
11
7.064
21
-3.673218
31
0
39
0
210
0
220
0
230
1
0
LINE
5
7D
100
AcDbEntity
8
1
62
256
6
ByLayer
370
18
48
1
60
0
100
AcDbLine
10
7.064
20
-3.673218
30
0
11
7.149721
21
-3.536037
31
0
39
0
210
0
220
0
230
1
0
LINE
5
7E
100
AcDbEntity
8
1
62
256
6
ByLayer
370
18
48
1
60
0
100
AcDbLine
10
13.776478
20
-3.188766
30
0
11
12.022454
21
-5.995791
31
0
39
0
210
0
220
0
230
1
0
LINE
5
7F
100
AcDbEntity
8
1
62
256
6
ByLayer
370
18
48
1
60
0
100
AcDbLine
10
2.788815
20
5.13699
30
0
11
8.691524
21
5.446338
31
0
39
0
210
0
220
0
230
1
0
LINE
5
80
100
AcDbEntity
8
1
62
256
6
ByLayer
370
18
48
1
60
0
100
AcDbLine
10
7.213659
20
-3.766735
30
0
11
7.364858
21
-3.524766
31
0
39
0
210
0
220
0
230
1
0
LINE
5
81
100
AcDbEntity
8
SK1
62
256
6
ByLayer
370
18
48
1
60
0
100
AcDbLine
10
-49.972865
20
-3.065791
30
0
11
-49.972865
21
6.384209
31
0
39
0
210
0
220
0
230
1
0
LINE
5
83
100
AcDbEntity
8
SK1
62
256
6
ByLayer
370
18
48
1
60
0
100
AcDbLine
10
-49.722865
20
6.384209
30
0
11
-49.722865
21
-3.315791
31
0
39
0
210
0
220
0
230
1
0
LINE
5
84
100
AcDbEntity
8
SK1
62
256
6
ByLayer
370
18
48
1
60
0
100
AcDbLine
10
-47.222865
20
-5.815791
30
0
11
0
21
-5.815791
31
0
39
0
210
0
220
0
230
1
0
LINE
5
85
100
AcDbEntity
8
1
62
256
6
ByLayer
370
18
48
1
60
0
100
AcDbLine
10
0.334066
20
-5.995791
30
0
11
12.022454
21
-5.995791
31
0
39
0
210
0
220
0
230
1
0
LINE
5
86
100
AcDbEntity
8
1
62
256
6
ByLayer
370
18
48
1
60
0
100
AcDbLine
10
0
20
5.815791
30
0
11
0
21
-5.815791
31
0
39
0
210
0
220
0
230
1
0
LINE
5
87
100
AcDbEntity
8
1
62
256
6
ByLayer
370
18
48
1
60
0
100
AcDbLine
10
4.46414
20
-3.676784
30
0
11
14.140149
21
-3.169685
31
0
39
0
210
0
220
0
230
1
0
LINE
5
88
100
AcDbEntity
8
1
62
256
6
ByLayer
370
18
48
1
60
0
100
AcDbLine
10
11.978713
20
-6.065791
30
0
11
12.022454
21
-5.995791
31
0
39
0
210
0
220
0
230
1
0
LINE
5
89
100
AcDbEntity
8
SK1
62
256
6
ByLayer
370
18
48
1
60
0
100
AcDbLine
10
-46.972865
20
-6.065791
30
0
11
-47.222865
21
-5.815791
31
0
39
0
210
0
220
0
230
1
0
LINE
5
8A
100
AcDbEntity
8
1
62
256
6
ByLayer
370
18
48
1
60
0
100
AcDbLine
10
11.978713
20
-6.065791
30
0
11
0
21
-6.065791
31
0
39
0
210
0
220
0
230
1
0
LINE
5
8B
100
AcDbEntity
8
SK1
62
256
6
ByLayer
370
18
48
1
60
0
100
AcDbLine
10
-47.222865
20
-5.815791
30
0
11
-49.722865
21
-3.315791
31
0
39
0
210
0
220
0
230
1
0
LINE
5
8C
100
AcDbEntity
8
SK1
62
256
6
ByLayer
370
18
48
1
60
0
100
AcDbLine
10
-49.722865
20
-3.315791
30
0
11
-49.972865
21
-3.065791
31
0
39
0
210
0
220
0
230
1
0
LINE
5
8D
100
AcDbEntity
8
1
62
256
6
ByLayer
370
18
48
1
60
0
100
AcDbLine
10
14.771945
20
-2.797529
30
0
11
19.906485
21
5.419453
31
0
39
0
210
0
220
0
230
1
0
LINE
5
8E
100
AcDbEntity
8
1
62
256
6
ByLayer
370
18
48
1
60
0
100
AcDbLine
10
19.19158
20
6.633121
30
0
11
9.515571
21
6.126022
31
0
39
0
210
0
220
0
230
1
0
LINE
5
8F
100
AcDbEntity
8
SK1
62
256
6
ByLayer
370
18
48
1
60
0
100
AcDbLine
10
-0.784664
20
6.384209
30
0
11
-49.722865
21
6.384209
31
0
39
0
210
0
220
0
230
1
0
LINE
5
90
100
AcDbEntity
8
SK1
62
256
6
ByLayer
370
18
48
1
60
0
100
AcDbLine
10
-49.722865
20
6.634209
30
0
11
-1.047565
21
6.634209
31
0
39
0
210
0
220
0
230
1
0
LINE
5
91
100
AcDbEntity
8
SK1
62
256
6
ByLayer
370
18
48
1
60
0
100
AcDbLine
10
-49.972865
20
6.384209
30
0
11
-49.722865
21
6.634209
31
0
39
0
210
0
220
0
230
1
0
LINE
5
92
100
AcDbEntity
8
SK1
62
256
6
ByLayer
370
18
48
1
60
0
100
AcDbLine
10
-49.972865
20
6.384209
30
0
11
-49.722865
21
6.384209
31
0
39
0
210
0
220
0
230
1
0
LINE
5
93
100
AcDbEntity
8
SK1
62
256
6
ByLayer
370
18
48
1
60
0
100
AcDbLine
10
-49.722865
20
6.384209
30
0
11
-49.722865
21
6.634209
31
0
39
0
210
0
220
0
230
1
0
LINE
5
94
100
AcDbEntity
8
1
62
256
6
ByLayer
370
18
48
1
60
0
100
AcDbLine
10
8.883776
20
5.753866
30
0
11
3.749235
21
-2.463116
31
0
39
0
210
0
220
0
230
1
0
LINE
5
95
100
AcDbEntity
8
SK1
62
256
6
ByLayer
370
18
48
1
60
0
100
AcDbLine
10
0
20
-6.065791
30
0
11
-46.972865
21
-6.065791
31
0
39
0
210
0
220
0
230
1
0
MTEXT
5
CB
100
AcDbEntity
8
SK6
62
256
6
ByLayer
370
18
48
1
60
0
100
AcDbMText
10
-19.427737
20
-16.711088
30
0
210
0
220
0
230
1
1
\W0.7948;QS-SDJCR083X
40
3
41
0
44
1.084337
50
0
71
8
72
5
7
iso_b_vert
0
DIMENSION
5
DD
100
AcDbEntity
8
2
62
256
6
ByLayer
370
13
48
1
60
0
100
AcDbDimension
2
DimnDraft3D1
10
0
20
16.161101
30
0
11
8.260936
21
16.161101
31
0
70
32
71
5
72
1
41
1
210
0
220
0
230
1
3
Standard
100
AcDbAlignedDimension
13
20.027135
23
8.634209
33
0
14
0
24
7.815791
34
0
50
0
100
AcDbRotatedDimension
1001
ACAD
1000
DSTYLE
1002
{
1070
   279
1070
     0
1070
   172
1070
     1
1070
   173
1070
     1
1070
   340
1005
CC
1070
   271
1070
     1
1070
    77
1070
     1
1070
    73
1070
     0
1070
   171
1070
     3
1070
   274
1070
     4
1070
   177
1070
   254
1070
   176
1070
   254
1070
   178
1070
   254
1070
    78
1070
     8
1070
    41
1041
3.175
1070
   147
1041
1.5
1070
    42
1041
2.0
1070
    44
1041
2.0
1070
   140
1041
3.0
1070
   343
1005
DE
1070
   344
1005
DE
1002
}
0
DIMENSION
5
F3
100
AcDbEntity
8
SK2
62
256
6
ByLayer
370
13
48
1
60
0
100
AcDbDimension
2
DimnDraft3D2
10
20.027135
20
23.939701
30
0
11
-16.725497
21
23.939701
31
0
70
32
71
5
72
1
41
1
210
0
220
0
230
1
3
Standard
100
AcDbAlignedDimension
13
-49.972865
23
8.384209
33
0
14
20.027135
24
8.634209
34
0
50
0
100
AcDbRotatedDimension
1001
ACAD
1000
DSTYLE
1002
{
1070
   279
1070
     0
1070
   172
1070
     1
1070
   173
1070
     1
1070
   340
1005
CC
1070
    77
1070
     1
1070
    73
1070
     0
1070
   171
1070
     3
1070
   274
1070
     4
1070
   177
1070
   254
1070
   176
1070
   254
1070
   178
1070
   254
1070
    78
1070
     8
1070
    41
1041
3.175
1070
   147
1041
1.5
1070
    42
1041
2.0
1070
    44
1041
2.0
1070
   140
1041
3.0
1070
   343
1005
DE
1070
   344
1005
DE
1002
}
0
DIMENSION
5
101
100
AcDbEntity
8
SK2
62
256
6
ByLayer
370
13
48
1
60
0
100
AcDbDimension
2
DimnDraft3D3
10
-61.169435
20
6.634209
30
0
11
-61.169435
21
-2.782897
31
0
70
32
71
5
72
1
41
1
210
0
220
0
230
1
3
Standard
100
AcDbAlignedDimension
13
-48.972865
23
-6.065791
33
0
14
-51.722865
24
6.634209
34
0
50
90
100
AcDbRotatedDimension
1001
ACAD
1000
DSTYLE
1002
{
1070
    74
1070
     0
1070
   279
1070
     0
1070
   172
1070
     1
1070
   173
1070
     1
1070
   340
1005
CC
1070
    77
1070
     1
1070
    73
1070
     0
1070
   171
1070
     3
1070
   274
1070
     4
1070
   177
1070
   254
1070
   176
1070
   254
1070
   178
1070
   254
1070
    78
1070
     8
1070
    41
1041
3.175
1070
   147
1041
1.5
1070
    42
1041
2.0
1070
    44
1041
2.0
1070
   140
1041
3.0
1070
   343
1005
DE
1070
   344
1005
DE
1002
}
0
DIMENSION
5
10F
100
AcDbEntity
8
SK2
62
256
6
ByLayer
370
13
48
1
60
0
100
AcDbDimension
2
DimnDraft3D4
10
31.596648
20
6.634209
30
0
11
31.596648
21
-2.782897
31
0
70
32
71
5
72
1
41
1
210
0
220
0
230
1
3
Standard
100
AcDbAlignedDimension
13
13.978713
23
-6.065791
33
0
14
22.027135
24
6.634209
34
0
50
90
100
AcDbRotatedDimension
1001
ACAD
1000
DSTYLE
1002
{
1070
    74
1070
     0
1070
   279
1070
     0
1070
   172
1070
     1
1070
   173
1070
     1
1070
   340
1005
CC
1070
    77
1070
     1
1070
    73
1070
     0
1070
   171
1070
     3
1070
   274
1070
     4
1070
   177
1070
   254
1070
   176
1070
   254
1070
   178
1070
   254
1070
    78
1070
     8
1070
    41
1041
3.175
1070
   147
1041
1.5
1070
    42
1041
2.0
1070
    44
1041
2.0
1070
   140
1041
3.0
1070
   343
1005
DE
1070
   344
1005
DE
1002
}
0
ENDSEC
0
SECTION
2
OBJECTS
0
DICTIONARY
5
179
330
0
100
AcDbDictionary
280
0
281
1
3
ACAD_GROUP
350
17a
3
ACAD_MLINESTYLE
350
17b
0
DICTIONARY
5
17a
330
0
100
AcDbDictionary
280
0
281
1
0
DICTIONARY
5
17b
330
0
100
AcDbDictionary
280
0
281
1
3
Standard
350
18
0
MLINESTYLE
5
18
330
17b
100
AcDbMlineStyle
2
Standard
70
0
3

62
256
51
90
52
90
71
2
49
-0.5
62
256
6
ByLayer
49
0.5
62
256
6
ByLayer
0
RASTERVARIABLES
5
168
330

100
AcDbRasterVariables
90
0
70
1
71
1
72
1
0
ENDSEC
0
EOF
