0
SECTION
2
HEADER
9
$ACADVER
1
AC1015
9
$DWGCODEPAGE
3
ANSI_1252
9
$HANDSEED
5
187
9
$ANGBASE
50
0
9
$ANGDIR
70
0
9
$ATTMODE
70
1
9
$AUNITS
70
0
9
$AUPREC
70
0
9
$CECOLOR
62
256
9
$CELTSCALE
40
1
9
$CELTYPE
6
ByLayer
9
$CELWEIGHT
370
18
9
$CLAYER
8
0
9
$CMLJUST
70
0
9
$CMLSCALE
40
1
9
$CMLSTYLE
2
Standard
9
$DIMSTYLE
2
Standard
9
$TEXTSIZE
40
0.2
9
$TEXTSTYLE
7
Standard
9
$LUNITS
70
2
9
$LUPREC
70
4
9
$EXTNAMES
290
1
9
$INSUNITS
70
4
9
$LTSCALE
40
1
9
$LWDISPLAY
290
1
9
$PDMODE
70
0
9
$PDSIZE
40
0
9
$PLINEGEN
70
0
0
ENDSEC
0
SECTION
2
CLASSES
0
CLASS
1
RASTERVARIABLES
2
AcDbRasterVariables
3
ISM
90
0
280
0
281
0
0
ENDSEC
0
SECTION
2
TABLES
0
TABLE
2
VPORT
5
17d
100
AcDbSymbolTable
0
VPORT
5
1
100
AcDbSymbolTableRecord
100
AcDbViewportTableRecord
2
*Active
70
0
10
0
20
0
11
1
21
1
12
-1
22
1
13
0
23
0
14
0.5
24
0.5
15
10
25
10
16
0
26
0
36
1
17
0
27
0
37
0
0
ENDTAB
0
TABLE
2
LTYPE
5
17e
100
AcDbSymbolTable
0
LTYPE
5
14
100
AcDbSymbolTableRecord
100
AcDbLinetypeTableRecord
70
0
2
ByBlock
3

72
65
73
0
40
0
0
LTYPE
5
15
100
AcDbSymbolTableRecord
100
AcDbLinetypeTableRecord
70
0
2
ByLayer
3

72
65
73
0
40
0
0
LTYPE
5
16
100
AcDbSymbolTableRecord
100
AcDbLinetypeTableRecord
70
0
2
CONTINUOUS
3
Solid line
72
65
73
0
40
0
0
LTYPE
5
6A
100
AcDbSymbolTableRecord
100
AcDbLinetypeTableRecord
70
0
2
CENTER
3
____ _ ____ _ ____ _ ____
72
65
73
4
40
47.5
49
22
74
0
49
-8.5
74
0
49
8.5
74
0
49
-8.5
74
0
0
LTYPE
5
6B
100
AcDbSymbolTableRecord
100
AcDbLinetypeTableRecord
70
0
2
DASHED
3
__ __ __ __ __ __ __ __ __
72
65
73
2
40
25.72
49
12.86
74
0
49
-12.86
74
0
0
ENDTAB
0
TABLE
2
LAYER
5
17f
100
AcDbSymbolTable
0
LAYER
5
10
100
AcDbSymbolTableRecord
100
AcDbLayerTableRecord
2
0
70
0
62
7
6
CONTINUOUS
290
1
370
-3
390
0
0
LAYER
5
6D
100
AcDbSymbolTableRecord
100
AcDbLayerTableRecord
2
81
70
0
62
-3
6
CONTINUOUS
290
1
370
-3
390
0
0
LAYER
5
6F
100
AcDbSymbolTableRecord
100
AcDbLayerTableRecord
2
80
70
0
62
-6
6
CONTINUOUS
290
1
370
-3
390
0
0
LAYER
5
71
100
AcDbSymbolTableRecord
100
AcDbLayerTableRecord
2
1
70
0
62
4
6
CONTINUOUS
290
1
370
-3
390
0
0
LAYER
5
E8
100
AcDbSymbolTableRecord
100
AcDbLayerTableRecord
2
2
70
0
62
7
6
CONTINUOUS
290
1
370
-3
390
0
0
LAYER
5
16a
100
AcDbSymbolTableRecord
100
AcDbLayerTableRecord
2
SK1
70
0
62
4
6
CONTINUOUS
290
1
370
-3
390
0
0
LAYER
5
16b
100
AcDbSymbolTableRecord
100
AcDbLayerTableRecord
2
SK6
70
0
62
5
6
CONTINUOUS
290
1
370
-3
390
0
0
LAYER
5
16c
100
AcDbSymbolTableRecord
100
AcDbLayerTableRecord
2
SK2
70
0
62
7
6
CONTINUOUS
290
1
370
-3
390
0
0
ENDTAB
0
TABLE
2
STYLE
5
180
100
AcDbSymbolTable
0
STYLE
5
11
100
AcDbSymbolTableRecord
100
AcDbTextStyleTableRecord
2
Standard
3
txt
70
0
71
0
40
0
41
1
42
0
50
0
0
STYLE
5
CD
100
AcDbSymbolTableRecord
100
AcDbTextStyleTableRecord
2
iso_b_vert
3
simplex.shx
70
0
71
0
40
0
41
1
42
0
50
0
0
STYLE
5
CE
100
AcDbSymbolTableRecord
100
AcDbTextStyleTableRecord
2
DWGDirectTextStyle
3
simplex
70
0
71
0
40
0
41
1
42
0
50
0
0
ENDTAB
0
TABLE
2
DIMSTYLE
5
181
100
AcDbSymbolTable
100
AcDbDimStyleTable
0
DIMSTYLE
105
27
100
AcDbSymbolTableRecord
100
AcDbDimStyleTableRecord
2
Standard
70
0
3
<>
41
0.18
42
0.0625
44
0.18
140
0.18
147
0.09
73
0
74
0
77
1
271
2
275
0
278
52
280
0
340
11
0
ENDTAB
0
TABLE
2
VIEW
5
182
100
AcDbSymbolTable
0
ENDTAB
0
TABLE
2
UCS
5
183
100
AcDbSymbolTable
0
ENDTAB
0
TABLE
2
APPID
5
184
100
AcDbSymbolTable
0
APPID
5
12
100
AcDbSymbolTableRecord
100
AcDbRegAppTableRecord
2
ACAD
70
0
0
ENDTAB
0
TABLE
2
BLOCK_RECORD
5
185
100
AcDbSymbolTable
0
BLOCK_RECORD
5
1F
100
AcDbSymbolTableRecord
100
AcDbBlockTableRecord
2
*Model_Space
340
0
70
0
0
BLOCK_RECORD
5
1B
100
AcDbSymbolTableRecord
100
AcDbBlockTableRecord
2
*Paper_Space
340
0
70
0
0
BLOCK_RECORD
5
23
100
AcDbSymbolTableRecord
100
AcDbBlockTableRecord
2
*Paper_Space0
340
0
70
0
0
BLOCK_RECORD
5
D0
100
AcDbSymbolTableRecord
100
AcDbBlockTableRecord
2
DimnDraft3D1
340
0
70
0
0
BLOCK_RECORD
5
DF
100
AcDbSymbolTableRecord
100
AcDbBlockTableRecord
2
_CLOSED
340
0
70
0
0
BLOCK_RECORD
5
E6
100
AcDbSymbolTableRecord
100
AcDbBlockTableRecord
2
DimnDraft3D2
340
0
70
0
0
BLOCK_RECORD
5
F5
100
AcDbSymbolTableRecord
100
AcDbBlockTableRecord
2
DimnDraft3D3
340
0
70
0
0
BLOCK_RECORD
5
103
100
AcDbSymbolTableRecord
100
AcDbBlockTableRecord
2
DimnDraft3D4
340
0
70
0
0
ENDTAB
0
ENDSEC
0
SECTION
2
BLOCKS
0
BLOCK
5
20
100
AcDbEntity
8
0
100
AcDbBlockBegin
2
*Model_Space
70
0
10
0
20
0
30
0
3
*Model_Space
0
ENDBLK
5
21
100
AcDbEntity
8
0
100
AcDbBlockEnd
0
BLOCK
5
1C
100
AcDbEntity
8
0
100
AcDbBlockBegin
2
*Paper_Space
70
0
10
0
20
0
30
0
3
*Paper_Space
0
ENDBLK
5
1D
100
AcDbEntity
8
0
100
AcDbBlockEnd
0
BLOCK
5
24
100
AcDbEntity
8
0
100
AcDbBlockBegin
2
*Paper_Space0
70
0
10
0
20
0
30
0
3
*Paper_Space0
0
ENDBLK
5
25
100
AcDbEntity
8
0
100
AcDbBlockEnd
0
BLOCK
5
DC
100
AcDbEntity
8
0
100
AcDbBlockBegin
2
DimnDraft3D1
70
0
10
0
20
0
30
0
3
DimnDraft3D1
0
MTEXT
5
D1
100
AcDbEntity
8
SK2
62
256
6
ByLayer
370
18
48
1
60
0
100
AcDbMText
10
-19.900859
20
20.590692
30
0
210
0
220
0
230
1
1
\W0.6562;70
40
3
41
0
44
1.084337
50
0
71
8
72
5
7
iso_b_vert
0
LINE
5
D3
100
AcDbEntity
8
SK2
62
256
6
ByLayer
370
13
48
1
60
0
100
AcDbLine
10
-54.900859
20
9.724407
30
0
11
-54.900859
21
21.840692
31
0
39
0
210
0
220
0
230
1
0
LINE
5
D4
100
AcDbEntity
8
SK2
62
256
6
ByLayer
370
13
48
1
60
0
100
AcDbLine
10
15.099141
20
9.974407
30
0
11
15.099141
21
21.840692
31
0
39
0
210
0
220
0
230
1
0
LINE
5
D5
100
AcDbEntity
8
SK2
62
256
6
ByLayer
370
13
48
1
60
0
100
AcDbLine
10
-54.900859
20
19.840692
30
0
11
15.099141
21
19.840692
31
0
39
0
210
0
220
0
230
1
0
LINE
5
D6
100
AcDbEntity
8
SK2
62
256
6
ByLayer
370
13
48
1
60
0
100
AcDbLine
10
-54.900859
20
19.840692
30
0
11
-51.72586
21
20.258689
31
0
39
0
210
0
220
0
230
1
0
LINE
5
D7
100
AcDbEntity
8
SK2
62
256
6
ByLayer
370
13
48
1
60
0
100
AcDbLine
10
-54.900859
20
19.840692
30
0
11
-51.725857
21
19.422696
31
0
39
0
210
0
220
0
230
1
0
LINE
5
D8
100
AcDbEntity
8
SK2
62
256
6
ByLayer
370
13
48
1
60
0
100
AcDbLine
10
-51.72586
20
20.258689
30
0
11
-51.725857
21
19.422696
31
0
39
0
210
0
220
0
230
1
0
LINE
5
D9
100
AcDbEntity
8
SK2
62
256
6
ByLayer
370
13
48
1
60
0
100
AcDbLine
10
15.099141
20
19.840692
30
0
11
11.924143
21
19.422696
31
0
39
0
210
0
220
0
230
1
0
LINE
5
DA
100
AcDbEntity
8
SK2
62
256
6
ByLayer
370
13
48
1
60
0
100
AcDbLine
10
15.099141
20
19.840692
30
0
11
11.92414
21
20.258689
31
0
39
0
210
0
220
0
230
1
0
LINE
5
DB
100
AcDbEntity
8
SK2
62
256
6
ByLayer
370
13
48
1
60
0
100
AcDbLine
10
11.924143
20
19.422696
30
0
11
11.92414
21
20.258689
31
0
39
0
210
0
220
0
230
1
0
ENDBLK
5
DD
100
AcDbEntity
8
0
100
AcDbBlockEnd
0
BLOCK
5
E0
100
AcDbEntity
8
0
100
AcDbBlockBegin
2
_CLOSED
70
0
10
0
20
0
30
0
3
_CLOSED
0
LINE
5
E2
100
AcDbEntity
8
0
62
256
6
ByLayer
370
-2
48
1
60
0
100
AcDbLine
10
-1
20
0.166667
30
0
11
0
21
0
31
0
39
0
210
0
220
0
230
1
0
LINE
5
E3
100
AcDbEntity
8
0
62
256
6
ByLayer
370
-2
48
1
60
0
100
AcDbLine
10
0
20
0
30
0
11
-1
21
-0.166667
31
0
39
0
210
0
220
0
230
1
0
LINE
5
E4
100
AcDbEntity
8
0
62
256
6
ByLayer
370
-2
48
1
60
0
100
AcDbLine
10
-1
20
0.166667
30
0
11
-1
21
-0.166667
31
0
39
0
210
0
220
0
230
1
0
LINE
5
E5
100
AcDbEntity
8
0
62
256
6
ByLayer
370
-2
48
1
60
0
100
AcDbLine
10
0
20
0
30
0
11
-1
21
0
31
0
39
0
210
0
220
0
230
1
0
ENDBLK
5
E1
100
AcDbEntity
8
0
100
AcDbBlockEnd
0
BLOCK
5
F2
100
AcDbEntity
8
0
100
AcDbBlockBegin
2
DimnDraft3D2
70
0
10
0
20
0
30
0
3
DimnDraft3D2
0
MTEXT
5
E7
100
AcDbEntity
8
2
62
256
6
ByLayer
370
18
48
1
60
0
100
AcDbMText
10
7.549571
20
13.524301
30
0
210
0
220
0
230
1
1
\W0.5144;15
40
3
41
0
44
1.084337
50
0
71
8
72
5
7
iso_b_vert
0
LINE
5
E9
100
AcDbEntity
8
2
62
256
6
ByLayer
370
13
48
1
60
0
100
AcDbLine
10
15.099141
20
9.974407
30
0
11
15.099141
21
14.774301
31
0
39
0
210
0
220
0
230
1
0
LINE
5
EA
100
AcDbEntity
8
2
62
256
6
ByLayer
370
13
48
1
60
0
100
AcDbLine
10
0
20
9.650593
30
0
11
0
21
14.774301
31
0
39
0
210
0
220
0
230
1
0
LINE
5
EB
100
AcDbEntity
8
2
62
256
6
ByLayer
370
13
48
1
60
0
100
AcDbLine
10
15.099141
20
12.774301
30
0
11
0
21
12.774301
31
0
39
0
210
0
220
0
230
1
0
LINE
5
EC
100
AcDbEntity
8
2
62
256
6
ByLayer
370
13
48
1
60
0
100
AcDbLine
10
15.099141
20
12.774301
30
0
11
11.924143
21
12.356304
31
0
39
0
210
0
220
0
230
1
0
LINE
5
ED
100
AcDbEntity
8
2
62
256
6
ByLayer
370
13
48
1
60
0
100
AcDbLine
10
15.099141
20
12.774301
30
0
11
11.92414
21
13.192298
31
0
39
0
210
0
220
0
230
1
0
LINE
5
EE
100
AcDbEntity
8
2
62
256
6
ByLayer
370
13
48
1
60
0
100
AcDbLine
10
11.924143
20
12.356304
30
0
11
11.92414
21
13.192298
31
0
39
0
210
0
220
0
230
1
0
LINE
5
EF
100
AcDbEntity
8
2
62
256
6
ByLayer
370
13
48
1
60
0
100
AcDbLine
10
0
20
12.774301
30
0
11
3.174998
21
13.192298
31
0
39
0
210
0
220
0
230
1
0
LINE
5
F0
100
AcDbEntity
8
2
62
256
6
ByLayer
370
13
48
1
60
0
100
AcDbLine
10
0
20
12.774301
30
0
11
3.175002
21
12.356304
31
0
39
0
210
0
220
0
230
1
0
LINE
5
F1
100
AcDbEntity
8
2
62
256
6
ByLayer
370
13
48
1
60
0
100
AcDbLine
10
3.174998
20
13.192298
30
0
11
3.175002
21
12.356304
31
0
39
0
210
0
220
0
230
1
0
ENDBLK
5
F3
100
AcDbEntity
8
0
100
AcDbBlockEnd
0
BLOCK
5
100
100
AcDbEntity
8
0
100
AcDbBlockBegin
2
DimnDraft3D3
70
0
10
0
20
0
30
0
3
DimnDraft3D3
0
MTEXT
5
F6
100
AcDbEntity
8
SK2
62
256
6
ByLayer
370
18
48
1
60
0
100
AcDbMText
10
-66.890302
20
0.036907
30
0
210
0
220
0
230
1
1
\W0.6869;15.875
40
3
41
0
44
1.084337
50
90
71
8
72
5
7
iso_b_vert
0
LINE
5
F7
100
AcDbEntity
8
SK2
62
256
6
ByLayer
370
13
48
1
60
0
100
AcDbLine
10
-56.650859
20
7.974407
30
0
11
-68.140302
21
7.974407
31
0
39
0
210
0
220
0
230
1
0
LINE
5
F8
100
AcDbEntity
8
SK2
62
256
6
ByLayer
370
13
48
1
60
0
100
AcDbLine
10
-53.900859
20
-7.900593
30
0
11
-68.140302
21
-7.900593
31
0
39
0
210
0
220
0
230
1
0
LINE
5
F9
100
AcDbEntity
8
SK2
62
256
6
ByLayer
370
13
48
1
60
0
100
AcDbLine
10
-66.140302
20
15.474407
30
0
11
-66.140302
21
-15.400593
31
0
39
0
210
0
220
0
230
1
0
LINE
5
FA
100
AcDbEntity
8
SK2
62
256
6
ByLayer
370
13
48
1
60
0
100
AcDbLine
10
-66.140302
20
7.974407
30
0
11
-66.558299
21
11.149406
31
0
39
0
210
0
220
0
230
1
0
LINE
5
FB
100
AcDbEntity
8
SK2
62
256
6
ByLayer
370
13
48
1
60
0
100
AcDbLine
10
-66.140302
20
7.974407
30
0
11
-65.722306
21
11.149409
31
0
39
0
210
0
220
0
230
1
0
LINE
5
FC
100
AcDbEntity
8
SK2
62
256
6
ByLayer
370
13
48
1
60
0
100
AcDbLine
10
-66.558299
20
11.149406
30
0
11
-65.722306
21
11.149409
31
0
39
0
210
0
220
0
230
1
0
LINE
5
FD
100
AcDbEntity
8
SK2
62
256
6
ByLayer
370
13
48
1
60
0
100
AcDbLine
10
-66.140302
20
-7.900593
30
0
11
-65.722306
21
-11.075591
31
0
39
0
210
0
220
0
230
1
0
LINE
5
FE
100
AcDbEntity
8
SK2
62
256
6
ByLayer
370
13
48
1
60
0
100
AcDbLine
10
-66.140302
20
-7.900593
30
0
11
-66.558299
21
-11.075594
31
0
39
0
210
0
220
0
230
1
0
LINE
5
FF
100
AcDbEntity
8
SK2
62
256
6
ByLayer
370
13
48
1
60
0
100
AcDbLine
10
-65.722306
20
-11.075591
30
0
11
-66.558299
21
-11.075594
31
0
39
0
210
0
220
0
230
1
0
ENDBLK
5
101
100
AcDbEntity
8
0
100
AcDbBlockEnd
0
BLOCK
5
10E
100
AcDbEntity
8
0
100
AcDbBlockBegin
2
DimnDraft3D4
70
0
10
0
20
0
30
0
3
DimnDraft3D4
0
MTEXT
5
104
100
AcDbEntity
8
2
62
256
6
ByLayer
370
18
48
1
60
0
100
AcDbMText
10
25.656627
20
0.036907
30
0
210
0
220
0
230
1
1
\W0.6869;15.875
40
3
41
0
44
1.084337
50
90
71
8
72
5
7
iso_b_vert
0
LINE
5
105
100
AcDbEntity
8
2
62
256
6
ByLayer
370
13
48
1
60
0
100
AcDbLine
10
15.065016
20
-7.900593
30
0
11
28.406627
21
-7.900593
31
0
39
0
210
0
220
0
230
1
0
LINE
5
106
100
AcDbEntity
8
2
62
256
6
ByLayer
370
13
48
1
60
0
100
AcDbLine
10
17.099141
20
7.974407
30
0
11
28.406627
21
7.974407
31
0
39
0
210
0
220
0
230
1
0
LINE
5
107
100
AcDbEntity
8
2
62
256
6
ByLayer
370
13
48
1
60
0
100
AcDbLine
10
26.406627
20
-15.400593
30
0
11
26.406627
21
15.474407
31
0
39
0
210
0
220
0
230
1
0
LINE
5
108
100
AcDbEntity
8
2
62
256
6
ByLayer
370
13
48
1
60
0
100
AcDbLine
10
26.406627
20
-7.900593
30
0
11
26.824624
21
-11.075591
31
0
39
0
210
0
220
0
230
1
0
LINE
5
109
100
AcDbEntity
8
2
62
256
6
ByLayer
370
13
48
1
60
0
100
AcDbLine
10
26.406627
20
-7.900593
30
0
11
25.988631
21
-11.075594
31
0
39
0
210
0
220
0
230
1
0
LINE
5
10A
100
AcDbEntity
8
2
62
256
6
ByLayer
370
13
48
1
60
0
100
AcDbLine
10
26.824624
20
-11.075591
30
0
11
25.988631
21
-11.075594
31
0
39
0
210
0
220
0
230
1
0
LINE
5
10B
100
AcDbEntity
8
2
62
256
6
ByLayer
370
13
48
1
60
0
100
AcDbLine
10
26.406627
20
7.974407
30
0
11
25.988631
21
11.149406
31
0
39
0
210
0
220
0
230
1
0
LINE
5
10C
100
AcDbEntity
8
2
62
256
6
ByLayer
370
13
48
1
60
0
100
AcDbLine
10
26.406627
20
7.974407
30
0
11
26.824624
21
11.149409
31
0
39
0
210
0
220
0
230
1
0
LINE
5
10D
100
AcDbEntity
8
2
62
256
6
ByLayer
370
13
48
1
60
0
100
AcDbLine
10
25.988631
20
11.149406
30
0
11
26.824624
21
11.149409
31
0
39
0
210
0
220
0
230
1
0
ENDBLK
5
10F
100
AcDbEntity
8
0
100
AcDbBlockEnd
0
ENDSEC
0
SECTION
2
ENTITIES
0
ARC
5
94
100
AcDbEntity
8
1
62
256
6
ByLayer
370
18
48
1
60
0
100
AcDbCircle
39
0
10
-14.305141
20
7.180407
30
0
40
0.793999999999996
210
0
220
0
230
-1
100
AcDbArc
50
85
51
185
0
ARC
5
96
100
AcDbEntity
8
1
62
256
6
ByLayer
370
18
48
1
60
0
100
AcDbCircle
39
0
10
6.735321
20
-1.456465
30
0
40
1.5
210
0
220
0
230
1
100
AcDbArc
50
275.25
51
333.364956
0
ARC
5
97
100
AcDbEntity
8
1
62
256
6
ByLayer
370
18
48
1
60
0
100
AcDbCircle
39
0
10
6.735321
20
-1.456465
30
0
40
1.65538590625643
210
0
220
0
230
1
100
AcDbArc
50
275.25
51
336.623114
0
ARC
5
98
100
AcDbEntity
8
1
62
256
6
ByLayer
370
18
48
1
60
0
100
AcDbCircle
39
0
10
5.343348
20
-1.781386
30
0
40
1.5
210
0
220
0
230
1
100
AcDbArc
50
107.929348
51
299.730141
0
ARC
5
9A
100
AcDbEntity
8
1
62
256
6
ByLayer
370
18
48
1
60
0
100
AcDbCircle
39
0
10
-5.343348
20
-1.781386
30
0
40
1.5
210
0
220
0
230
-1
100
AcDbArc
50
197.92862
51
231.917661
0
ARC
5
9B
100
AcDbEntity
8
1
62
256
6
ByLayer
370
18
48
1
60
0
100
AcDbCircle
39
0
10
-5.573942
20
-1.550792
30
0
40
0.793999999999988
210
0
220
0
230
-1
100
AcDbArc
50
265
51
5
0
ARC
5
9C
100
AcDbEntity
8
SK1
62
256
6
ByLayer
370
18
48
1
60
0
100
AcDbCircle
39
0
10
0.406072
20
-7.620593
30
0
40
0.399999999998826
210
0
220
0
230
1
100
AcDbArc
50
195
51
224.427004
0
ARC
5
9D
100
AcDbEntity
8
1
62
256
6
ByLayer
370
18
48
1
60
0
100
AcDbCircle
39
0
10
6.492045
20
-1.478819
30
0
40
1.65538590625643
210
0
220
0
230
1
100
AcDbArc
50
255.844776
51
275.25
0
ARC
5
9E
100
AcDbEntity
8
1
62
256
6
ByLayer
370
18
48
1
60
0
100
AcDbCircle
39
0
10
6.492045
20
-1.478819
30
0
40
1.5
210
0
220
0
230
1
100
AcDbArc
50
261.430729
51
275.25
0
ARC
5
A0
100
AcDbEntity
8
1
62
256
6
ByLayer
370
18
48
1
60
0
100
AcDbCircle
39
0
10
-13.602715
20
-0.848365
30
0
40
0.793999999999995
210
0
220
0
230
-1
100
AcDbArc
50
185
51
265
0
ARC
5
A3
100
AcDbEntity
8
1
62
256
6
ByLayer
370
18
48
1
60
0
100
AcDbCircle
39
0
10
-9.939542
20
2.814808
30
0
40
1.6765
210
0
220
0
230
-1
100
AcDbArc
50
75.159887
51
135
0
ARC
5
A4
100
AcDbEntity
8
1
62
256
6
ByLayer
370
18
48
1
60
0
100
AcDbCircle
39
0
10
-9.939542
20
2.814808
30
0
40
1.6765
210
0
220
0
230
-1
100
AcDbArc
50
14.840113
51
75.159887
0
ARC
5
A5
100
AcDbEntity
8
1
62
256
6
ByLayer
370
18
48
1
60
0
100
AcDbCircle
39
0
10
9.939542
20
2.814808
30
0
40
1.2065
210
0
220
0
230
1
100
AcDbArc
50
15.079943
51
74.920057
0
ARC
5
A6
100
AcDbEntity
8
1
62
256
6
ByLayer
370
18
48
1
60
0
100
AcDbCircle
39
0
10
9.939542
20
2.814808
30
0
40
1.2065
210
0
220
0
230
1
100
AcDbArc
50
318.955279
51
15.079943
0
ARC
5
A7
100
AcDbEntity
8
1
62
256
6
ByLayer
370
18
48
1
60
0
100
AcDbCircle
39
0
10
9.939542
20
2.814808
30
0
40
1.2065
210
0
220
0
230
1
100
AcDbArc
50
254.920057
51
311.044721
0
ARC
5
A8
100
AcDbEntity
8
1
62
256
6
ByLayer
370
18
48
1
60
0
100
AcDbCircle
39
0
10
-9.939542
20
2.814808
30
0
40
1.2065
210
0
220
0
230
-1
100
AcDbArc
50
344.920057
51
41.044721
0
ARC
5
A9
100
AcDbEntity
8
1
62
256
6
ByLayer
370
18
48
1
60
0
100
AcDbCircle
39
0
10
9.939542
20
2.814808
30
0
40
1.2065
210
0
220
0
230
1
100
AcDbArc
50
74.920057
51
131.044721
0
ARC
5
AA
100
AcDbEntity
8
1
62
256
6
ByLayer
370
18
48
1
60
0
100
AcDbCircle
39
0
10
9.939542
20
2.814808
30
0
40
1.2065
210
0
220
0
230
1
100
AcDbArc
50
195.079943
51
254.920057
0
ARC
5
AB
100
AcDbEntity
8
1
62
256
6
ByLayer
370
18
48
1
60
0
100
AcDbCircle
39
0
10
-9.939542
20
2.814808
30
0
40
1.6765
210
0
220
0
230
-1
100
AcDbArc
50
135
51
194.840113
0
ARC
5
AC
100
AcDbEntity
8
1
62
256
6
ByLayer
370
18
48
1
60
0
100
AcDbCircle
39
0
10
-9.939542
20
2.814808
30
0
40
1.2065
210
0
220
0
230
-1
100
AcDbArc
50
41.044721
51
48.955279
0
ARC
5
AD
100
AcDbEntity
8
1
62
256
6
ByLayer
370
18
48
1
60
0
100
AcDbCircle
39
0
10
-9.939542
20
2.814808
30
0
40
1.6765
210
0
220
0
230
-1
100
AcDbArc
50
315
51
14.840113
0
ARC
5
AE
100
AcDbEntity
8
1
62
256
6
ByLayer
370
18
48
1
60
0
100
AcDbCircle
39
0
10
-9.939542
20
2.814808
30
0
40
1.2065
210
0
220
0
230
-1
100
AcDbArc
50
221.044721
51
228.955279
0
ARC
5
AF
100
AcDbEntity
8
1
62
256
6
ByLayer
370
18
48
1
60
0
100
AcDbCircle
39
0
10
-9.939542
20
2.814808
30
0
40
1.6765
210
0
220
0
230
-1
100
AcDbArc
50
194.840113
51
255.159887
0
ARC
5
B0
100
AcDbEntity
8
1
62
256
6
ByLayer
370
18
48
1
60
0
100
AcDbCircle
39
0
10
-9.939542
20
2.814808
30
0
40
1.6765
210
0
220
0
230
-1
100
AcDbArc
50
255.159887
51
315
0
ARC
5
B1
100
AcDbEntity
8
SK1
62
256
6
ByLayer
370
18
48
1
60
0
100
AcDbCircle
39
0
10
3.392034
20
11.324025
30
0
40
5
210
0
220
0
230
1
100
AcDbArc
50
226.048158
51
227.280724
0
ARC
5
B2
100
AcDbEntity
8
1
62
256
6
ByLayer
370
18
48
1
60
0
100
AcDbCircle
39
0
10
-3.392034
20
11.324025
30
0
40
5
210
0
220
0
230
-1
100
AcDbArc
50
265
51
306.669088
0
ARC
5
B3
100
AcDbEntity
8
SK1
62
256
6
ByLayer
370
18
48
1
60
0
100
AcDbCircle
39
0
10
3.392034
20
11.324025
30
0
40
5.00000000119922
210
0
220
0
230
1
100
AcDbArc
50
222.061155
51
226.048158
0
ARC
5
B4
100
AcDbEntity
8
1
62
256
6
ByLayer
370
18
48
1
60
0
100
AcDbCircle
39
0
10
-6.276369
20
6.477981
30
0
40
0.793999999999988
210
0
220
0
230
-1
100
AcDbArc
50
5
51
85
0
CIRCLE
5
95
100
AcDbEntity
8
1
62
256
6
ByLayer
370
18
48
1
60
0
100
AcDbCircle
10
9.939542
20
2.814808
30
0
40
2.95049568210608
39
0
210
0
220
0
230
1
0
CIRCLE
5
99
100
AcDbEntity
8
1
62
256
6
ByLayer
370
18
48
1
60
0
100
AcDbCircle
10
-9.939542
20
2.814808
30
0
40
3.00605207334198
39
0
210
0
220
0
230
-1
0
CIRCLE
5
9F
100
AcDbEntity
8
1
62
256
6
ByLayer
370
18
48
1
60
0
100
AcDbCircle
10
-9.939542
20
2.814808
30
0
40
3.07132534818238
39
0
210
0
220
0
230
-1
0
CIRCLE
5
A1
100
AcDbEntity
8
1
62
256
6
ByLayer
370
18
48
1
60
0
100
AcDbCircle
10
-9.939542
20
2.814808
30
0
40
2.625
39
0
210
0
220
0
230
-1
0
CIRCLE
5
A2
100
AcDbEntity
8
1
62
256
6
ByLayer
370
18
48
1
60
0
100
AcDbCircle
10
-9.939542
20
2.814808
30
0
40
1.8
39
0
210
0
220
0
230
-1
0
ELLIPSE
5
B5
100
AcDbEntity
8
1
62
256
6
ByLayer
370
18
48
1
60
0
100
AcDbEllipse
10
3.392346
20
11.324364
30
0
11
-3.38271664327484
21
-3.68263976713285
31
0
210
0
220
0
230
1
40
0.999954
41
-0.0026180954437791
42
0.00273175408322752
0
POINT
5
6C
100
AcDbEntity
8
81
62
256
6
ByLayer
370
18
48
1
60
0
100
AcDbPoint
10
15.099141
20
7.974407
30
0
39
0
210
0
220
0
230
1
50
360
0
POINT
5
6E
100
AcDbEntity
8
80
62
256
6
ByLayer
370
18
48
1
60
0
100
AcDbPoint
10
0
20
0
30
0
39
0
210
0
220
0
230
1
50
360
0
SPLINE
5
B6
100
AcDbEntity
8
1
62
256
6
ByLayer
370
18
48
1
60
0
100
AcDbSpline
70
4
71
3
72
8
73
4
40
0
40
0
40
0
40
0
40
1
40
1
40
1
40
1
41
1
10
6.26853755468247
20
-2.96207390264902
30
0
41
1
10
6.21244461503812
20
-3.00602847197141
30
0
41
1
10
6.15206257989198
20
-3.04691203540054
30
0
41
1
10
6.08722095430065
20
-3.0839422670401
30
0
0
SPLINE
5
B7
100
AcDbEntity
8
1
62
256
6
ByLayer
370
18
48
1
60
0
100
AcDbSpline
70
4
71
3
72
18
73
14
40
0
40
0
40
0
40
0
40
0.212491695755302
40
0.212491695755302
40
0.386618276853805
40
0.386618276853805
40
0.562426360907933
40
0.562426360907933
40
0.715388416645937
40
0.715388416645937
40
0.918249208689863
40
0.918249208689863
40
1
40
1
40
1
40
1
41
1
10
9.83781763066239
20
4.29913009048471
30
0
41
1
10
9.87330501269122
20
4.23766588005111
30
0
41
1
10
9.91967631225671
20
4.17971928909446
30
0
41
1
10
10.0215228562807
20
4.08900245264812
30
0
41
1
10
10.075099030274
20
4.05267227164225
30
0
41
1
10
10.1919258215911
20
3.99619677848079
30
0
41
1
10
10.2570787619793
20
3.97554503303735
30
0
41
1
10
10.3786603183247
20
3.95579472752362
30
0
41
1
10
10.4365579607936
20
3.95392209231593
30
0
41
1
10
10.5646306511309
20
3.96513114302729
30
0
41
1
10
10.634893188081
20
3.98323945290136
30
0
41
1
10
10.7243072447773
20
4.02093935802873
30
0
41
1
10
10.7492995685443
20
4.03335199892243
30
0
41
1
10
10.7732403909293
20
4.04708491523496
30
0
0
SPLINE
5
B8
100
AcDbEntity
8
1
62
256
6
ByLayer
370
18
48
1
60
0
100
AcDbSpline
70
4
71
3
72
16
73
12
40
0
40
0
40
0
40
0
40
0.0624450082614033
40
0.0624450082614033
40
0.283207995985775
40
0.283207995985775
40
0.506745688833536
40
0.506745688833536
40
0.744607284736972
40
0.744607284736972
40
1
40
1
40
1
40
1
41
1
10
9.51015220767496
20
4.4353871326596
30
0
41
1
10
9.50199983727714
20
4.43322707636474
30
0
41
1
10
9.49393196491195
20
4.43071039269688
30
0
41
1
10
9.45816129411307
20
4.41782853448041
30
0
41
1
10
9.43161951896101
20
4.40333798315956
30
0
41
1
10
9.38489681089573
20
4.3678786559085
30
0
41
1
10
9.36419100063503
20
4.34639830859501
30
0
41
1
10
9.329783226155
20
4.2983421082792
30
0
41
1
10
9.31615818739175
20
4.27094475906236
30
0
41
1
10
9.29742793429574
20
4.21306686418743
30
0
41
1
10
9.29276674696683
20
4.18182011756792
30
0
41
1
10
9.29294501967848
20
4.15141495747466
30
0
0
SPLINE
5
B9
100
AcDbEntity
8
1
62
256
6
ByLayer
370
18
48
1
60
0
100
AcDbSpline
70
4
71
3
72
14
73
10
40
0
40
0
40
0
40
0
40
0.283961749036713
40
0.283961749036713
40
0.570285189259025
40
0.570285189259025
40
0.82945109433568
40
0.82945109433568
40
1
40
1
40
1
40
1
41
1
10
9.83781763066239
20
4.29913009048471
30
0
41
1
10
9.82105410131419
20
4.3281645539069
30
0
41
1
10
9.79863535327334
20
4.35515479169388
30
0
41
1
10
9.74487673505803
20
4.39993669735554
30
0
41
1
10
9.71259168478701
20
4.41829549491729
30
0
41
1
10
9.64630885741951
20
4.44053345209568
30
0
41
1
10
9.61174398848257
20
4.44589927596812
30
0
41
1
10
9.55496473653741
20
4.44446159327336
30
0
41
1
10
9.53212367606844
20
4.44120870433687
30
0
41
1
10
9.51015220767496
20
4.4353871326596
30
0
0
SPLINE
5
BA
100
AcDbEntity
8
1
62
256
6
ByLayer
370
18
48
1
60
0
100
AcDbSpline
70
4
71
3
72
14
73
10
40
0
40
0
40
0
40
0
40
0.283961457856589
40
0.283961457856589
40
0.570284934646621
40
0.570284934646621
40
0.829450869060465
40
0.829450869060465
40
1
40
1
40
1
40
1
41
1
10
11.1718186815483
20
3.64850662461598
30
0
41
1
10
11.1885003943642
20
3.6775881331983
30
0
41
1
10
11.2005733591922
20
3.71053223749519
30
0
41
1
10
11.2122838911419
20
3.77951242847368
30
0
41
1
10
11.2119369270634
20
3.81665068070069
30
0
41
1
10
11.1978630127599
20
3.88513327504177
30
0
41
1
10
11.1851365577001
20
3.91771486179141
30
0
41
1
10
11.1553667636517
20
3.96608544654026
30
0
41
1
10
11.1410785269657
20
3.98420016608711
30
0
41
1
10
11.1250062296831
20
4.00027246336973
30
0
0
SPLINE
5
BB
100
AcDbEntity
8
1
62
256
6
ByLayer
370
18
48
1
60
0
100
AcDbSpline
70
4
71
3
72
16
73
12
40
0
40
0
40
0
40
0
40
0.0630415689509294
40
0.0630415689509294
40
0.285914332024976
40
0.285914332024976
40
0.511588305408905
40
0.511588305408905
40
0.751723061839372
40
0.751723061839372
40
1
40
1
40
1
40
1
41
1
10
11.1250062296831
20
4.00027246336973
30
0
41
1
10
11.1190427358676
20
4.00623595718517
30
0
41
1
10
11.1128133473203
20
4.01194721853992
30
0
41
1
10
11.0837036636701
20
4.03640345320477
30
0
41
1
10
11.0578397699016
20
4.05207192360018
30
0
41
1
10
11.0037065153298
20
4.07465435400849
30
0
41
1
10
10.9747311302368
20
4.08176511669319
30
0
41
1
10
10.9158934835249
20
4.08737087240703
30
0
41
1
10
10.8853595826065
20
4.08538662238783
30
0
41
1
10
10.8270230667037
20
4.07274459175119
30
0
41
1
10
10.7986856079397
20
4.06168078124742
30
0
41
1
10
10.7732403909293
20
4.04708491523499
30
0
0
SPLINE
5
BC
100
AcDbEntity
8
1
62
256
6
ByLayer
370
18
48
1
60
0
100
AcDbSpline
70
4
71
3
72
12
73
8
40
0
40
0
40
0
40
0
40
0.422118633920774
40
0.422118633920774
40
0.843213619146908
40
0.843213619146908
40
1
40
1
40
1
40
1
41
1
10
9.14729601052397
20
3.72474695367731
30
0
41
1
10
9.18915972092466
20
3.77826836307526
30
0
41
1
10
9.22267385190329
20
3.83807699373355
30
0
41
1
10
9.26970207464083
20
3.9587948963416
30
0
41
1
10
9.28407709633078
20
4.02131014192301
30
0
41
1
10
9.29207517617036
20
4.10563841206368
30
0
41
1
10
9.29307871673623
20
4.12861236246735
30
0
41
1
10
9.29294501967848
20
4.15141495747463
30
0
0
SPLINE
5
BD
100
AcDbEntity
8
1
62
256
6
ByLayer
370
18
48
1
60
0
100
AcDbSpline
70
4
71
3
72
18
73
14
40
0
40
0
40
0
40
0
40
0.212491592102414
40
0.212491592102414
40
0.386618191488472
40
0.386618191488472
40
0.56242629505081
40
0.56242629505081
40
0.715388354469454
40
0.715388354469454
40
0.918249128147155
40
0.918249128147155
40
1
40
1
40
1
40
1
41
1
10
11.1718186815483
20
3.64850662461598
30
0
41
1
10
11.136504481351
20
3.58694278956813
30
0
41
1
10
11.1096999414775
20
3.51773574024136
30
0
41
1
10
11.0824329267933
20
3.38409905588043
30
0
41
1
10
11.0779383290971
20
3.31952283982497
30
0
41
1
10
11.0878035904796
20
3.19013713711811
30
0
41
1
10
11.1026813290002
20
3.12342841088429
30
0
41
1
10
11.1466890424733
20
3.00838288542437
30
0
41
1
10
11.174158536477
20
2.95738218963334
30
0
41
1
10
11.2481957763868
20
2.85227870130842
30
0
41
1
10
11.2991536304269
20
2.80062571108576
30
0
41
1
10
11.3766729286052
20
2.74225688919412
30
0
41
1
10
11.3999617642819
20
2.72688413417154
30
0
41
1
10
11.423863856798
20
2.71308386434904
30
0
0
SPLINE
5
BE
100
AcDbEntity
8
1
62
256
6
ByLayer
370
18
48
1
60
0
100
AcDbSpline
70
4
71
3
72
12
73
8
40
0
40
0
40
0
40
0
40
0.49577967678036
40
0.49577967678036
40
0.900233025448792
40
0.900233025448792
40
1
40
1
40
1
40
1
41
1
10
8.60293469825967
20
3.46140463605582
30
0
41
1
10
8.67425698508453
20
3.46098645646279
30
0
41
1
10
8.74802798269332
20
3.4718472992345
30
0
41
1
10
8.87804679221804
20
3.51423762570815
30
0
41
1
10
8.93643072773003
20
3.54221973833478
30
0
41
1
10
9.00355772719578
20
3.58742346384722
30
0
41
1
10
9.01674486418725
20
3.59699642125054
30
0
41
1
10
9.02960270205699
20
3.60705364521033
30
0
0
SPLINE
5
BF
100
AcDbEntity
8
1
62
256
6
ByLayer
370
18
48
1
60
0
100
AcDbSpline
70
4
71
3
72
16
73
12
40
0
40
0
40
0
40
0
40
0.0569446172824999
40
0.0569446172824999
40
0.279906644834072
40
0.279906644834072
40
0.505321967306684
40
0.505321967306684
40
0.744915047128813
40
0.744915047128813
40
1
40
1
40
1
40
1
41
1
10
11.5601208989729
20
2.38541844136162
30
0
41
1
10
11.5620733830179
20
2.39278740353575
30
0
41
1
10
11.5637384816201
20
2.40023989989652
30
0
41
1
10
11.570428536715
20
2.43686288172216
30
0
41
1
10
11.5712321375359
20
2.46712113853224
30
0
41
1
10
11.5640266695345
20
2.52535138857104
30
0
41
1
10
11.555851988775
20
2.55403912064864
30
0
41
1
10
11.5315918125558
20
2.60789076550415
30
0
41
1
10
11.5147662487813
20
2.6334071215729
30
0
41
1
10
11.4743571559421
20
2.67844168356336
30
0
41
1
10
11.4499509680915
20
2.69802203767023
30
0
41
1
10
11.4238638567981
20
2.71308386434904
30
0
0
SPLINE
5
C0
100
AcDbEntity
8
1
62
256
6
ByLayer
370
18
48
1
60
0
100
AcDbSpline
70
4
71
3
72
16
73
12
40
0
40
0
40
0
40
0
40
0.0569446172824982
40
0.0569446172824982
40
0.279906644834072
40
0.279906644834072
40
0.505321967306684
40
0.505321967306684
40
0.744915047128815
40
0.744915047128815
40
1
40
1
40
1
40
1
41
1
10
8.3189625230747
20
3.24419744805934
30
0
41
1
10
8.3170100390297
20
3.23682848588521
30
0
41
1
10
8.31534494042754
20
3.22937598952444
30
0
41
1
10
8.30865488533257
20
3.19275300769883
30
0
41
1
10
8.30785128451174
20
3.16249475088873
30
0
41
1
10
8.31505675251313
20
3.10426450084992
30
0
41
1
10
8.32323143327258
20
3.07557676877235
30
0
41
1
10
8.34749160949184
20
3.02172512391684
30
0
41
1
10
8.3643171732663
20
2.99620876784806
30
0
41
1
10
8.40472626610548
20
2.9511742058576
30
0
41
1
10
8.42913245395613
20
2.93159385175073
30
0
41
1
10
8.45521956524956
20
2.91653202507195
30
0
0
SPLINE
5
C1
100
AcDbEntity
8
1
62
256
6
ByLayer
370
18
48
1
60
0
100
AcDbSpline
70
4
71
3
72
14
73
10
40
0
40
0
40
0
40
0
40
0.282169922576107
40
0.282169922576107
40
0.566902245317965
40
0.566902245317965
40
0.824523972080262
40
0.824523972080262
40
1
40
1
40
1
40
1
41
1
10
8.60293469825967
20
3.46140463605582
30
0
41
1
10
8.56934324017914
20
3.46160159079318
30
0
41
1
10
8.53466649609956
20
3.45586269747417
30
0
41
1
10
8.46874249967402
20
3.43199266846554
30
0
41
1
10
8.43652799837372
20
3.41332005476457
30
0
41
1
10
8.38379677694763
20
3.36714605738288
30
0
41
1
10
8.36170111299055
20
3.33990979856301
30
0
41
1
10
8.33392835375324
20
3.28927412105824
30
0
41
1
10
8.32500731311833
20
3.26701137542335
30
0
41
1
10
8.3189625230747
20
3.24419744805934
30
0
0
SPLINE
5
C2
100
AcDbEntity
8
1
62
256
6
ByLayer
370
18
48
1
60
0
100
AcDbSpline
70
4
71
3
72
18
73
14
40
0
40
0
40
0
40
0
40
0.212491592102414
40
0.212491592102414
40
0.386618191488472
40
0.386618191488472
40
0.56242629505081
40
0.56242629505081
40
0.715388354469454
40
0.715388354469454
40
0.918249128147155
40
0.918249128147155
40
1
40
1
40
1
40
1
41
1
10
8.70726474049931
20
1.98110926480501
30
0
41
1
10
8.74257894069666
20
2.04267309985286
30
0
41
1
10
8.76938348057018
20
2.1118801491796
30
0
41
1
10
8.79665049525434
20
2.24551683354056
30
0
41
1
10
8.80114509295055
20
2.31009304959599
30
0
41
1
10
8.79127983156801
20
2.43947875230285
30
0
41
1
10
8.77640209304741
20
2.5061874785367
30
0
41
1
10
8.73239437957432
20
2.62123300399659
30
0
41
1
10
8.70492488557062
20
2.67223369978763
30
0
41
1
10
8.63088764566083
20
2.77733718811254
30
0
41
1
10
8.57992979162074
20
2.8289901783352
30
0
41
1
10
8.50241049344243
20
2.88735900022684
30
0
41
1
10
8.47912165776575
20
2.90273175524945
30
0
41
1
10
8.45521956524959
20
2.91653202507192
30
0
0
SPLINE
5
C3
100
AcDbEntity
8
1
62
256
6
ByLayer
370
18
48
1
60
0
100
AcDbSpline
70
4
71
3
72
14
73
10
40
0
40
0
40
0
40
0
40
0.282169922576107
40
0.282169922576107
40
0.566902245317967
40
0.566902245317967
40
0.824523972080263
40
0.824523972080263
40
1
40
1
40
1
40
1
41
1
10
11.2761487237879
20
2.16821125336514
30
0
41
1
10
11.3097401818685
20
2.16801429862781
30
0
41
1
10
11.344416925948
20
2.17375319194679
30
0
41
1
10
11.4103409223736
20
2.19762322095542
30
0
41
1
10
11.4425554236739
20
2.21629583465639
30
0
41
1
10
11.4952866451
20
2.26246983203808
30
0
41
1
10
11.5173823090571
20
2.28970609085798
30
0
41
1
10
11.5451550682944
20
2.34034176836275
30
0
41
1
10
11.5540761089293
20
2.36260451399761
30
0
41
1
10
11.5601208989729
20
2.38541844136162
30
0
0
SPLINE
5
C4
100
AcDbEntity
8
1
62
256
6
ByLayer
370
18
48
1
60
0
100
AcDbSpline
70
4
71
3
72
14
73
10
40
0
40
0
40
0
40
0
40
0.283961457856589
40
0.283961457856589
40
0.570284934646621
40
0.570284934646621
40
0.829450869060465
40
0.829450869060465
40
1
40
1
40
1
40
1
41
1
10
8.70726474049931
20
1.98110926480501
30
0
41
1
10
8.69058302768337
20
1.95202775622266
30
0
41
1
10
8.67851006285537
20
1.91908365192577
30
0
41
1
10
8.66679953090568
20
1.85010346094731
30
0
41
1
10
8.66714649498419
20
1.81296520872027
30
0
41
1
10
8.6812204092877
20
1.74448261437922
30
0
41
1
10
8.69394686434748
20
1.71190102762955
30
0
41
1
10
8.72371665839594
20
1.66353044288073
30
0
41
1
10
8.73800489508193
20
1.64541572333386
30
0
41
1
10
8.75407719236455
20
1.62934342605124
30
0
0
SPLINE
5
C5
100
AcDbEntity
8
1
62
256
6
ByLayer
370
18
48
1
60
0
100
AcDbSpline
70
4
71
3
72
16
73
12
40
0
40
0
40
0
40
0
40
0.062445008261402
40
0.062445008261402
40
0.283207995985756
40
0.283207995985756
40
0.506745688833501
40
0.506745688833501
40
0.744607284736919
40
0.744607284736919
40
1
40
1
40
1
40
1
41
1
10
10.3689312143726
20
1.19422875676136
30
0
41
1
10
10.3770835847705
20
1.19638881305622
30
0
41
1
10
10.3851514571357
20
1.19890549672408
30
0
41
1
10
10.4209221279345
20
1.21178735494055
30
0
41
1
10
10.4474639030866
20
1.2262779062614
30
0
41
1
10
10.4941866111519
20
1.26173723351246
30
0
41
1
10
10.5148924214126
20
1.28321758082595
30
0
41
1
10
10.5493001958926
20
1.33127378114176
30
0
41
1
10
10.5629252346559
20
1.3586711303586
30
0
41
1
10
10.5816554877519
20
1.41654902523354
30
0
41
1
10
10.5863166750808
20
1.44779577185307
30
0
41
1
10
10.5861384023691
20
1.47820093194633
30
0
0
SPLINE
5
C6
100
AcDbEntity
8
1
62
256
6
ByLayer
370
18
48
1
60
0
100
AcDbSpline
70
4
71
3
72
12
73
8
40
0
40
0
40
0
40
0
40
0.422118633920707
40
0.422118633920707
40
0.843213619146828
40
0.843213619146828
40
1
40
1
40
1
40
1
41
1
10
10.7317874115236
20
1.90486893574365
30
0
41
1
10
10.689923701123
20
1.85134752634573
30
0
41
1
10
10.6564095701443
20
1.79153889568744
30
0
41
1
10
10.6093813474068
20
1.67082099307939
30
0
41
1
10
10.5950063257168
20
1.60830574749798
30
0
41
1
10
10.5870082458773
20
1.52397747735731
30
0
41
1
10
10.5860047053114
20
1.50100352695361
30
0
41
1
10
10.5861384023691
20
1.47820093194633
30
0
0
SPLINE
5
C7
100
AcDbEntity
8
1
62
256
6
ByLayer
370
18
48
1
60
0
100
AcDbSpline
70
4
71
3
72
12
73
8
40
0
40
0
40
0
40
0
40
0.495779676780359
40
0.495779676780359
40
0.900233025448797
40
0.900233025448797
40
1
40
1
40
1
40
1
41
1
10
11.2761487237879
20
2.16821125336514
30
0
41
1
10
11.2048264369631
20
2.16862943295817
30
0
41
1
10
11.1310554393543
20
2.15776859018646
30
0
41
1
10
11.0010366298296
20
2.11537826371281
30
0
41
1
10
10.9426526943176
20
2.08739615108618
30
0
41
1
10
10.8755256948518
20
2.04219242557375
30
0
41
1
10
10.8623385578604
20
2.03261946817042
30
0
41
1
10
10.8494807199906
20
2.02256224421063
30
0
0
SPLINE
5
C8
100
AcDbEntity
8
1
62
256
6
ByLayer
370
18
48
1
60
0
100
AcDbSpline
70
4
71
3
72
14
73
10
40
0
40
0
40
0
40
0
40
0.283961749036714
40
0.283961749036714
40
0.570285189259028
40
0.570285189259028
40
0.829451094335682
40
0.829451094335682
40
1
40
1
40
1
40
1
41
1
10
10.0412657913852
20
1.33048579893628
30
0
41
1
10
10.0580293207334
20
1.30145133551406
30
0
41
1
10
10.0804480687743
20
1.27446109772711
30
0
41
1
10
10.1342066869896
20
1.22967919206542
30
0
41
1
10
10.1664917372606
20
1.21132039450367
30
0
41
1
10
10.2327745646281
20
1.18908243732531
30
0
41
1
10
10.267339433565
20
1.18371661345284
30
0
41
1
10
10.3241186855102
20
1.1851542961476
30
0
41
1
10
10.3469597459792
20
1.18840718508412
30
0
41
1
10
10.3689312143726
20
1.19422875676136
30
0
0
SPLINE
5
C9
100
AcDbEntity
8
1
62
256
6
ByLayer
370
18
48
1
60
0
100
AcDbSpline
70
4
71
3
72
16
73
12
40
0
40
0
40
0
40
0
40
0.0630415689509303
40
0.0630415689509303
40
0.285914332024977
40
0.285914332024977
40
0.511588305408906
40
0.511588305408906
40
0.751723061839373
40
0.751723061839373
40
1
40
1
40
1
40
1
41
1
10
8.75407719236455
20
1.62934342605124
30
0
41
1
10
8.76004068617999
20
1.62337993223582
30
0
41
1
10
8.76627007472729
20
1.61766867088105
30
0
41
1
10
8.79537975837755
20
1.59321243621619
30
0
41
1
10
8.82124365214605
20
1.57754396582078
30
0
41
1
10
8.87537690671783
20
1.5549615354125
30
0
41
1
10
8.9043522918108
20
1.54785077272777
30
0
41
1
10
8.9631899385227
20
1.54224501701393
30
0
41
1
10
8.99372383944117
20
1.54422926703313
30
0
41
1
10
9.05206035534388
20
1.55687129766977
30
0
41
1
10
9.0803978141079
20
1.56793510817354
30
0
41
1
10
9.1058430311183
20
1.582530974186
30
0
0
SPLINE
5
CA
100
AcDbEntity
8
1
62
256
6
ByLayer
370
18
48
1
60
0
100
AcDbSpline
70
4
71
3
72
18
73
14
40
0
40
0
40
0
40
0
40
0.212491695755302
40
0.212491695755302
40
0.386618276853805
40
0.386618276853805
40
0.562426360907933
40
0.562426360907933
40
0.715388416645937
40
0.715388416645937
40
0.918249208689863
40
0.918249208689863
40
1
40
1
40
1
40
1
41
1
10
10.0412657913852
20
1.33048579893628
30
0
41
1
10
10.0057784093564
20
1.39195000936985
30
0
41
1
10
9.95940710979093
20
1.4498966003265
30
0
41
1
10
9.85756056576696
20
1.54061343677284
30
0
41
1
10
9.80398439177358
20
1.57694361777871
30
0
41
1
10
9.68715760045649
20
1.63341911094017
30
0
41
1
10
9.62200466006834
20
1.65407085638361
30
0
41
1
10
9.50042310372288
20
1.67382116189737
30
0
41
1
10
9.44252546125398
20
1.67569379710503
30
0
41
1
10
9.31445277091674
20
1.66448474639367
30
0
41
1
10
9.24419023396661
20
1.64637643651963
30
0
41
1
10
9.15477617727032
20
1.60867653139223
30
0
41
1
10
9.12978385350331
20
1.59626389049856
30
0
41
1
10
9.10584303111833
20
1.582530974186
30
0
0
SPLINE
5
CB
100
AcDbEntity
8
1
62
256
6
ByLayer
370
18
48
1
60
0
100
AcDbSpline
70
4
71
3
72
14
73
10
40
0
40
0
40
0
40
0
40
0.330207179669697
40
0.330207179669697
40
0.674929917673091
40
0.674929917673091
40
0.887160236538106
40
0.887160236538106
40
1
40
1
40
1
40
1
41
1
10
0.406071996391091
20
7.31353474651925
30
0
41
1
10
0.351885089443158
20
7.35387896286801
30
0
41
1
10
0.297860261351502
20
7.39589634588972
30
0
41
1
10
0.196223859813955
20
7.47808695284644
30
0
41
1
10
0.147145770060064
20
7.51961081281925
30
0
41
1
10
0.0817202248055935
20
7.57663536702017
30
0
41
1
10
0.0594641384748229
20
7.59649172407146
30
0
41
1
10
0.0333168701243949
20
7.62008508262122
30
0
41
1
10
0.0255958804523573
20
7.62711295393652
30
0
41
1
10
0.0197016658754592
20
7.63249751504881
30
0
0
LINE
5
70
100
AcDbEntity
8
1
62
256
6
ByLayer
370
18
48
1
60
1
100
AcDbLine
10
0
20
0
30
0
11
0
21
297
31
0
39
0
210
0
220
0
230
1
0
LINE
5
72
100
AcDbEntity
8
1
62
256
6
ByLayer
370
18
48
1
60
1
100
AcDbLine
10
420
20
297
30
0
11
0
21
297
31
0
39
0
210
0
220
0
230
1
0
LINE
5
73
100
AcDbEntity
8
1
62
256
6
ByLayer
370
18
48
1
60
1
100
AcDbLine
10
420
20
297
30
0
11
420
21
0
31
0
39
0
210
0
220
0
230
1
0
LINE
5
74
100
AcDbEntity
8
1
62
256
6
ByLayer
370
18
48
1
60
1
100
AcDbLine
10
0
20
0
30
0
11
420
21
0
31
0
39
0
210
0
220
0
230
1
0
LINE
5
75
100
AcDbEntity
8
80
62
256
6
ByLayer
370
18
48
1
60
0
100
AcDbLine
10
0
20
0
30
0
11
-7
21
0
31
0
39
0
210
0
220
0
230
1
0
LINE
5
76
100
AcDbEntity
8
81
62
256
6
ByLayer
370
18
48
1
60
0
100
AcDbLine
10
15.099141
20
7.974407
30
0
11
22.099141
21
7.974407
31
0
39
0
210
0
220
0
230
1
0
LINE
5
77
100
AcDbEntity
8
1
62
256
6
ByLayer
370
18
48
1
60
0
100
AcDbLine
10
0.019702
20
7.632498
30
0
11
0.019702
21
-7.72412
31
0
39
0
210
0
220
0
230
1
0
LINE
5
78
100
AcDbEntity
8
1
62
256
6
ByLayer
370
18
48
1
60
0
100
AcDbLine
10
0.406072
20
-7.900593
30
0
11
0.406072
21
7.313535
31
0
39
0
210
0
220
0
230
1
0
LINE
5
79
100
AcDbEntity
8
1
62
256
6
ByLayer
370
18
48
1
60
0
100
AcDbLine
10
13.612342
20
-1.644621
30
0
11
13.065016
21
-7.900593
31
0
39
0
210
0
220
0
230
1
0
LINE
5
7A
100
AcDbEntity
8
1
62
256
6
ByLayer
370
18
48
1
60
0
100
AcDbLine
10
6.643516
20
-3.127261
30
0
11
6.629298
21
-2.972527
31
0
39
0
210
0
220
0
230
1
0
LINE
5
7B
100
AcDbEntity
8
1
62
256
6
ByLayer
370
18
48
1
60
0
100
AcDbLine
10
3.827813
20
6.343051
30
0
11
5.480156
21
6.487612
31
0
39
0
210
0
220
0
230
1
0
LINE
5
7C
100
AcDbEntity
8
1
62
256
6
ByLayer
370
18
48
1
60
0
100
AcDbLine
10
6.886791
20
-3.104907
30
0
11
6.872573
21
-2.950173
31
0
39
0
210
0
220
0
230
1
0
LINE
5
7D
100
AcDbEntity
8
SK1
62
256
6
ByLayer
370
18
48
1
60
0
100
AcDbLine
10
-51.900859
20
-7.900593
30
0
11
-52.150859
21
-7.650593
31
0
39
0
210
0
220
0
230
1
0
LINE
5
7F
100
AcDbEntity
8
1
62
256
6
ByLayer
370
18
48
1
60
0
100
AcDbLine
10
0
20
7.650593
30
0
11
0
21
-7.650593
31
0
39
0
210
0
220
0
230
1
0
LINE
5
80
100
AcDbEntity
8
SK1
62
256
6
ByLayer
370
18
48
1
60
0
100
AcDbLine
10
-54.650859
20
-5.150593
30
0
11
-54.900859
21
-4.900593
31
0
39
0
210
0
220
0
230
1
0
LINE
5
81
100
AcDbEntity
8
SK1
62
256
6
ByLayer
370
18
48
1
60
0
100
AcDbLine
10
-54.900859
20
-4.900593
30
0
11
-54.900859
21
7.724407
31
0
39
0
210
0
220
0
230
1
0
LINE
5
82
100
AcDbEntity
8
SK1
62
256
6
ByLayer
370
18
48
1
60
0
100
AcDbLine
10
-52.150859
20
-7.650593
30
0
11
0
21
-7.650593
31
0
39
0
210
0
220
0
230
1
0
LINE
5
83
100
AcDbEntity
8
SK1
62
256
6
ByLayer
370
18
48
1
60
0
100
AcDbLine
10
0
20
-7.650593
30
0
11
0.019702
21
-7.72412
31
0
39
0
210
0
220
0
230
1
0
LINE
5
84
100
AcDbEntity
8
SK1
62
256
6
ByLayer
370
18
48
1
60
0
100
AcDbLine
10
-54.650859
20
7.724407
30
0
11
-54.650859
21
-5.150593
31
0
39
0
210
0
220
0
230
1
0
LINE
5
85
100
AcDbEntity
8
SK1
62
256
6
ByLayer
370
18
48
1
60
0
100
AcDbLine
10
-52.150859
20
-7.650593
30
0
11
-54.650859
21
-5.150593
31
0
39
0
210
0
220
0
230
1
0
LINE
5
86
100
AcDbEntity
8
1
62
256
6
ByLayer
370
18
48
1
60
0
100
AcDbLine
10
6.872573
20
-2.950173
30
0
11
6.629298
21
-2.972527
31
0
39
0
210
0
220
0
230
1
0
LINE
5
87
100
AcDbEntity
8
1
62
256
6
ByLayer
370
18
48
1
60
0
100
AcDbLine
10
6.886791
20
-3.104907
30
0
11
6.643516
21
-3.127261
31
0
39
0
210
0
220
0
230
1
0
LINE
5
88
100
AcDbEntity
8
1
62
256
6
ByLayer
370
18
48
1
60
0
100
AcDbLine
10
0.406072
20
-7.900593
30
0
11
13.065016
21
-7.900593
31
0
39
0
210
0
220
0
230
1
0
LINE
5
89
100
AcDbEntity
8
1
62
256
6
ByLayer
370
18
48
1
60
0
100
AcDbLine
10
14.393693
20
-0.917567
30
0
11
15.09612
21
7.111206
31
0
39
0
210
0
220
0
230
1
0
LINE
5
8A
100
AcDbEntity
8
1
62
256
6
ByLayer
370
18
48
1
60
0
100
AcDbLine
10
5.643144
20
-2.34177
30
0
11
13.671916
21
-1.639344
31
0
39
0
210
0
220
0
230
1
0
LINE
5
8B
100
AcDbEntity
8
1
62
256
6
ByLayer
370
18
48
1
60
0
100
AcDbLine
10
0.120415
20
-7.900593
30
0
11
0.406072
21
-7.900593
31
0
39
0
210
0
220
0
230
1
0
LINE
5
8C
100
AcDbEntity
8
SK1
62
256
6
ByLayer
370
18
48
1
60
0
100
AcDbLine
10
0.120415
20
-7.900593
30
0
11
-51.900859
21
-7.900593
31
0
39
0
210
0
220
0
230
1
0
LINE
5
8D
100
AcDbEntity
8
1
62
256
6
ByLayer
370
18
48
1
60
0
100
AcDbLine
10
14.23594
20
7.971386
30
0
11
6.207167
21
7.268959
31
0
39
0
210
0
220
0
230
1
0
LINE
5
8E
100
AcDbEntity
8
SK1
62
256
6
ByLayer
370
18
48
1
60
0
100
AcDbLine
10
-0.078233
20
7.724407
30
0
11
-54.650859
21
7.724407
31
0
39
0
210
0
220
0
230
1
0
LINE
5
8F
100
AcDbEntity
8
SK1
62
256
6
ByLayer
370
18
48
1
60
0
100
AcDbLine
10
-54.650859
20
7.974407
30
0
11
-0.320117
21
7.974407
31
0
39
0
210
0
220
0
230
1
0
LINE
5
90
100
AcDbEntity
8
SK1
62
256
6
ByLayer
370
18
48
1
60
0
100
AcDbLine
10
-54.900859
20
7.724407
30
0
11
-54.650859
21
7.974407
31
0
39
0
210
0
220
0
230
1
0
LINE
5
91
100
AcDbEntity
8
SK1
62
256
6
ByLayer
370
18
48
1
60
0
100
AcDbLine
10
-54.900859
20
7.724407
30
0
11
-54.650859
21
7.724407
31
0
39
0
210
0
220
0
230
1
0
LINE
5
92
100
AcDbEntity
8
SK1
62
256
6
ByLayer
370
18
48
1
60
0
100
AcDbLine
10
-54.650859
20
7.724407
30
0
11
-54.650859
21
7.974407
31
0
39
0
210
0
220
0
230
1
0
LINE
5
93
100
AcDbEntity
8
1
62
256
6
ByLayer
370
18
48
1
60
0
100
AcDbLine
10
5.48539
20
6.547183
30
0
11
4.782964
21
-1.48159
31
0
39
0
210
0
220
0
230
1
0
MTEXT
5
CC
100
AcDbEntity
8
SK6
62
256
6
ByLayer
370
18
48
1
60
0
100
AcDbMText
10
-16.658837
20
-24.556945
30
0
210
0
220
0
230
1
1
\W0.7714;QS-SCLCR103X
40
3
41
0
44
1.084337
50
0
71
8
72
5
7
iso_b_vert
0
DIMENSION
5
DE
100
AcDbEntity
8
SK2
62
256
6
ByLayer
370
13
48
1
60
0
100
AcDbDimension
2
DimnDraft3D1
10
15.099141
20
19.840692
30
0
11
-21.65349
21
19.840692
31
0
70
32
71
5
72
1
41
1
210
0
220
0
230
1
3
Standard
100
AcDbAlignedDimension
13
-54.900859
23
9.724407
33
0
14
15.099141
24
9.974407
34
0
50
0
100
AcDbRotatedDimension
1001
ACAD
1000
DSTYLE
1002
{
1070
   279
1070
     0
1070
   172
1070
     1
1070
   173
1070
     1
1070
   340
1005
CD
1070
    77
1070
     1
1070
    73
1070
     0
1070
   171
1070
     3
1070
   274
1070
     4
1070
   177
1070
   254
1070
   176
1070
   254
1070
   178
1070
   254
1070
    78
1070
     8
1070
    41
1041
3.175
1070
   147
1041
1.5
1070
    42
1041
2.0
1070
    44
1041
2.0
1070
   140
1041
3.0
1070
   343
1005
DF
1070
   344
1005
DF
1002
}
0
DIMENSION
5
F4
100
AcDbEntity
8
2
62
256
6
ByLayer
370
13
48
1
60
0
100
AcDbDimension
2
DimnDraft3D2
10
0
20
12.774301
30
0
11
6.171939
21
12.774301
31
0
70
32
71
5
72
1
41
1
210
0
220
0
230
1
3
Standard
100
AcDbAlignedDimension
13
15.099141
23
9.974407
33
0
14
0
24
9.650593
34
0
50
0
100
AcDbRotatedDimension
1001
ACAD
1000
DSTYLE
1002
{
1070
   279
1070
     0
1070
   172
1070
     1
1070
   173
1070
     1
1070
   340
1005
CD
1070
   271
1070
     0
1070
    77
1070
     1
1070
    73
1070
     0
1070
   171
1070
     3
1070
   274
1070
     4
1070
   177
1070
   254
1070
   176
1070
   254
1070
   178
1070
   254
1070
    78
1070
     8
1070
    41
1041
3.175
1070
   147
1041
1.5
1070
    42
1041
2.0
1070
    44
1041
2.0
1070
   140
1041
3.0
1070
   343
1005
DF
1070
   344
1005
DF
1002
}
0
DIMENSION
5
102
100
AcDbEntity
8
SK2
62
256
6
ByLayer
370
13
48
1
60
0
100
AcDbDimension
2
DimnDraft3D3
10
-66.140302
20
-7.900593
30
0
11
-66.140302
21
-5.232829
31
0
70
32
71
5
72
1
41
1
210
0
220
0
230
1
3
Standard
100
AcDbAlignedDimension
13
-56.650859
23
7.974407
33
0
14
-53.900859
24
-7.900593
34
0
50
90
100
AcDbRotatedDimension
1001
ACAD
1000
DSTYLE
1002
{
1070
    74
1070
     0
1070
   279
1070
     0
1070
   172
1070
     1
1070
   173
1070
     1
1070
   340
1005
CD
1070
   271
1070
     3
1070
    77
1070
     1
1070
    73
1070
     0
1070
   171
1070
     3
1070
   274
1070
     4
1070
   177
1070
   254
1070
   176
1070
   254
1070
   178
1070
   254
1070
    78
1070
     8
1070
    41
1041
3.175
1070
   147
1041
1.5
1070
    42
1041
2.0
1070
    44
1041
2.0
1070
   140
1041
3.0
1070
   343
1005
DF
1070
   344
1005
DF
1002
}
0
DIMENSION
5
110
100
AcDbEntity
8
2
62
256
6
ByLayer
370
13
48
1
60
0
100
AcDbDimension
2
DimnDraft3D4
10
26.406627
20
7.974407
30
0
11
26.406627
21
-5.232829
31
0
70
32
71
5
72
1
41
1
210
0
220
0
230
1
3
Standard
100
AcDbAlignedDimension
13
15.065016
23
-7.900593
33
0
14
17.099141
24
7.974407
34
0
50
90
100
AcDbRotatedDimension
1001
ACAD
1000
DSTYLE
1002
{
1070
    74
1070
     0
1070
   279
1070
     0
1070
   172
1070
     1
1070
   173
1070
     1
1070
   340
1005
CD
1070
   271
1070
     3
1070
    77
1070
     1
1070
    73
1070
     0
1070
   171
1070
     3
1070
   274
1070
     4
1070
   177
1070
   254
1070
   176
1070
   254
1070
   178
1070
   254
1070
    78
1070
     8
1070
    41
1041
3.175
1070
   147
1041
1.5
1070
    42
1041
2.0
1070
    44
1041
2.0
1070
   140
1041
3.0
1070
   343
1005
DF
1070
   344
1005
DF
1002
}
0
ENDSEC
0
SECTION
2
OBJECTS
0
DICTIONARY
5
17a
330
0
100
AcDbDictionary
280
0
281
1
3
ACAD_GROUP
350
17b
3
ACAD_MLINESTYLE
350
17c
0
DICTIONARY
5
17b
330
0
100
AcDbDictionary
280
0
281
1
0
DICTIONARY
5
17c
330
0
100
AcDbDictionary
280
0
281
1
3
Standard
350
18
0
MLINESTYLE
5
18
330
17c
100
AcDbMlineStyle
2
Standard
70
0
3

62
256
51
90
52
90
71
2
49
-0.5
62
256
6
ByLayer
49
0.5
62
256
6
ByLayer
0
RASTERVARIABLES
5
169
330

100
AcDbRasterVariables
90
0
70
1
71
1
72
1
0
ENDSEC
0
EOF
