0
SECTION
2
HEADER
9
$ACADVER
1
AC1015
9
$DWGCODEPAGE
3
ANSI_1252
9
$HANDSEED
5
183
9
$ANGBASE
50
0
9
$ANGDIR
70
0
9
$ATTMODE
70
1
9
$AUNITS
70
0
9
$AUPREC
70
0
9
$CECOLOR
62
256
9
$CELTSCALE
40
1
9
$CELTYPE
6
ByLayer
9
$CELWEIGHT
370
18
9
$CLAYER
8
0
9
$CMLJUST
70
0
9
$CMLSCALE
40
1
9
$CMLSTYLE
2
Standard
9
$DIMSTYLE
2
Standard
9
$TEXTSIZE
40
0.2
9
$TEXTSTYLE
7
Standard
9
$LUNITS
70
2
9
$LUPREC
70
4
9
$EXTNAMES
290
1
9
$INSUNITS
70
4
9
$LTSCALE
40
1
9
$LWDISPLAY
290
1
9
$PDMODE
70
0
9
$PDSIZE
40
0
9
$PLINEGEN
70
0
0
ENDSEC
0
SECTION
2
CLASSES
0
CLASS
1
RASTERVARIABLES
2
AcDbRasterVariables
3
ISM
90
0
280
0
281
0
0
ENDSEC
0
SECTION
2
TABLES
0
TABLE
2
VPORT
5
179
100
AcDbSymbolTable
0
VPORT
5
1
100
AcDbSymbolTableRecord
100
AcDbViewportTableRecord
2
*Active
70
0
10
0
20
0
11
1
21
1
12
-1
22
1
13
0
23
0
14
0.5
24
0.5
15
10
25
10
16
0
26
0
36
1
17
0
27
0
37
0
0
ENDTAB
0
TABLE
2
LTYPE
5
17a
100
AcDbSymbolTable
0
LTYPE
5
14
100
AcDbSymbolTableRecord
100
AcDbLinetypeTableRecord
70
0
2
ByBlock
3

72
65
73
0
40
0
0
LTYPE
5
15
100
AcDbSymbolTableRecord
100
AcDbLinetypeTableRecord
70
0
2
ByLayer
3

72
65
73
0
40
0
0
LTYPE
5
16
100
AcDbSymbolTableRecord
100
AcDbLinetypeTableRecord
70
0
2
CONTINUOUS
3
Solid line
72
65
73
0
40
0
0
LTYPE
5
6A
100
AcDbSymbolTableRecord
100
AcDbLinetypeTableRecord
70
0
2
CENTER
3
____ _ ____ _ ____ _ ____
72
65
73
4
40
47.5
49
22
74
0
49
-8.5
74
0
49
8.5
74
0
49
-8.5
74
0
0
LTYPE
5
6B
100
AcDbSymbolTableRecord
100
AcDbLinetypeTableRecord
70
0
2
DASHED
3
__ __ __ __ __ __ __ __ __
72
65
73
2
40
25.72
49
12.86
74
0
49
-12.86
74
0
0
ENDTAB
0
TABLE
2
LAYER
5
17b
100
AcDbSymbolTable
0
LAYER
5
10
100
AcDbSymbolTableRecord
100
AcDbLayerTableRecord
2
0
70
0
62
7
6
CONTINUOUS
290
1
370
-3
390
0
0
LAYER
5
6D
100
AcDbSymbolTableRecord
100
AcDbLayerTableRecord
2
81
70
0
62
-3
6
CONTINUOUS
290
1
370
-3
390
0
0
LAYER
5
6F
100
AcDbSymbolTableRecord
100
AcDbLayerTableRecord
2
80
70
0
62
-6
6
CONTINUOUS
290
1
370
-3
390
0
0
LAYER
5
73
100
AcDbSymbolTableRecord
100
AcDbLayerTableRecord
2
1
70
0
62
4
6
CONTINUOUS
290
1
370
-3
390
0
0
LAYER
5
E4
100
AcDbSymbolTableRecord
100
AcDbLayerTableRecord
2
2
70
0
62
7
6
CONTINUOUS
290
1
370
-3
390
0
0
LAYER
5
166
100
AcDbSymbolTableRecord
100
AcDbLayerTableRecord
2
SK1
70
0
62
4
6
CONTINUOUS
290
1
370
-3
390
0
0
LAYER
5
167
100
AcDbSymbolTableRecord
100
AcDbLayerTableRecord
2
SK6
70
0
62
5
6
CONTINUOUS
290
1
370
-3
390
0
0
LAYER
5
168
100
AcDbSymbolTableRecord
100
AcDbLayerTableRecord
2
SK2
70
0
62
7
6
CONTINUOUS
290
1
370
-3
390
0
0
ENDTAB
0
TABLE
2
STYLE
5
17c
100
AcDbSymbolTable
0
STYLE
5
11
100
AcDbSymbolTableRecord
100
AcDbTextStyleTableRecord
2
Standard
3
txt
70
0
71
0
40
0
41
1
42
0
50
0
0
STYLE
5
C9
100
AcDbSymbolTableRecord
100
AcDbTextStyleTableRecord
2
iso_b_vert
3
simplex.shx
70
0
71
0
40
0
41
1
42
0
50
0
0
STYLE
5
CA
100
AcDbSymbolTableRecord
100
AcDbTextStyleTableRecord
2
DWGDirectTextStyle
3
simplex
70
0
71
0
40
0
41
1
42
0
50
0
0
ENDTAB
0
TABLE
2
DIMSTYLE
5
17d
100
AcDbSymbolTable
100
AcDbDimStyleTable
0
DIMSTYLE
105
27
100
AcDbSymbolTableRecord
100
AcDbDimStyleTableRecord
2
Standard
70
0
3
<>
41
0.18
42
0.0625
44
0.18
140
0.18
147
0.09
73
0
74
0
77
1
271
2
275
0
278
52
280
0
340
11
0
ENDTAB
0
TABLE
2
VIEW
5
17e
100
AcDbSymbolTable
0
ENDTAB
0
TABLE
2
UCS
5
17f
100
AcDbSymbolTable
0
ENDTAB
0
TABLE
2
APPID
5
180
100
AcDbSymbolTable
0
APPID
5
12
100
AcDbSymbolTableRecord
100
AcDbRegAppTableRecord
2
ACAD
70
0
0
ENDTAB
0
TABLE
2
BLOCK_RECORD
5
181
100
AcDbSymbolTable
0
BLOCK_RECORD
5
1F
100
AcDbSymbolTableRecord
100
AcDbBlockTableRecord
2
*Model_Space
340
0
70
0
0
BLOCK_RECORD
5
1B
100
AcDbSymbolTableRecord
100
AcDbBlockTableRecord
2
*Paper_Space
340
0
70
0
0
BLOCK_RECORD
5
23
100
AcDbSymbolTableRecord
100
AcDbBlockTableRecord
2
*Paper_Space0
340
0
70
0
0
BLOCK_RECORD
5
CC
100
AcDbSymbolTableRecord
100
AcDbBlockTableRecord
2
DimnDraft3D1
340
0
70
0
0
BLOCK_RECORD
5
DB
100
AcDbSymbolTableRecord
100
AcDbBlockTableRecord
2
_CLOSED
340
0
70
0
0
BLOCK_RECORD
5
E2
100
AcDbSymbolTableRecord
100
AcDbBlockTableRecord
2
DimnDraft3D2
340
0
70
0
0
BLOCK_RECORD
5
F1
100
AcDbSymbolTableRecord
100
AcDbBlockTableRecord
2
DimnDraft3D3
340
0
70
0
0
BLOCK_RECORD
5
FF
100
AcDbSymbolTableRecord
100
AcDbBlockTableRecord
2
DimnDraft3D4
340
0
70
0
0
ENDTAB
0
ENDSEC
0
SECTION
2
BLOCKS
0
BLOCK
5
20
100
AcDbEntity
8
0
100
AcDbBlockBegin
2
*Model_Space
70
0
10
0
20
0
30
0
3
*Model_Space
0
ENDBLK
5
21
100
AcDbEntity
8
0
100
AcDbBlockEnd
0
BLOCK
5
1C
100
AcDbEntity
8
0
100
AcDbBlockBegin
2
*Paper_Space
70
0
10
0
20
0
30
0
3
*Paper_Space
0
ENDBLK
5
1D
100
AcDbEntity
8
0
100
AcDbBlockEnd
0
BLOCK
5
24
100
AcDbEntity
8
0
100
AcDbBlockBegin
2
*Paper_Space0
70
0
10
0
20
0
30
0
3
*Paper_Space0
0
ENDBLK
5
25
100
AcDbEntity
8
0
100
AcDbBlockEnd
0
BLOCK
5
D8
100
AcDbEntity
8
0
100
AcDbBlockBegin
2
DimnDraft3D1
70
0
10
0
20
0
30
0
3
DimnDraft3D1
0
MTEXT
5
CD
100
AcDbEntity
8
SK2
62
256
6
ByLayer
370
18
48
1
60
0
100
AcDbMText
10
-20.006218
20
19.656156
30
0
210
0
220
0
230
1
1
\W0.6563;70
40
3
41
0
44
1.084337
50
0
71
8
72
5
7
iso_b_vert
0
LINE
5
CF
100
AcDbEntity
8
SK2
62
256
6
ByLayer
370
13
48
1
60
0
100
AcDbLine
10
-55.006218
20
8.135004
30
0
11
-55.006218
21
20.906156
31
0
39
0
210
0
220
0
230
1
0
LINE
5
D0
100
AcDbEntity
8
SK2
62
256
6
ByLayer
370
13
48
1
60
0
100
AcDbLine
10
14.993782
20
8.385004
30
0
11
14.993782
21
20.906156
31
0
39
0
210
0
220
0
230
1
0
LINE
5
D1
100
AcDbEntity
8
SK2
62
256
6
ByLayer
370
13
48
1
60
0
100
AcDbLine
10
-55.006218
20
18.906156
30
0
11
14.993782
21
18.906156
31
0
39
0
210
0
220
0
230
1
0
LINE
5
D2
100
AcDbEntity
8
SK2
62
256
6
ByLayer
370
13
48
1
60
0
100
AcDbLine
10
-55.006218
20
18.906156
30
0
11
-51.831219
21
19.324152
31
0
39
0
210
0
220
0
230
1
0
LINE
5
D3
100
AcDbEntity
8
SK2
62
256
6
ByLayer
370
13
48
1
60
0
100
AcDbLine
10
-55.006218
20
18.906156
30
0
11
-51.831216
21
18.488159
31
0
39
0
210
0
220
0
230
1
0
LINE
5
D4
100
AcDbEntity
8
SK2
62
256
6
ByLayer
370
13
48
1
60
0
100
AcDbLine
10
-51.831219
20
19.324152
30
0
11
-51.831216
21
18.488159
31
0
39
0
210
0
220
0
230
1
0
LINE
5
D5
100
AcDbEntity
8
SK2
62
256
6
ByLayer
370
13
48
1
60
0
100
AcDbLine
10
14.993782
20
18.906156
30
0
11
11.818784
21
18.488159
31
0
39
0
210
0
220
0
230
1
0
LINE
5
D6
100
AcDbEntity
8
SK2
62
256
6
ByLayer
370
13
48
1
60
0
100
AcDbLine
10
14.993782
20
18.906156
30
0
11
11.818781
21
19.324152
31
0
39
0
210
0
220
0
230
1
0
LINE
5
D7
100
AcDbEntity
8
SK2
62
256
6
ByLayer
370
13
48
1
60
0
100
AcDbLine
10
11.818784
20
18.488159
30
0
11
11.818781
21
19.324152
31
0
39
0
210
0
220
0
230
1
0
ENDBLK
5
D9
100
AcDbEntity
8
0
100
AcDbBlockEnd
0
BLOCK
5
DC
100
AcDbEntity
8
0
100
AcDbBlockBegin
2
_CLOSED
70
0
10
0
20
0
30
0
3
_CLOSED
0
LINE
5
DE
100
AcDbEntity
8
0
62
256
6
ByLayer
370
-2
48
1
60
0
100
AcDbLine
10
-1
20
0.166667
30
0
11
0
21
0
31
0
39
0
210
0
220
0
230
1
0
LINE
5
DF
100
AcDbEntity
8
0
62
256
6
ByLayer
370
-2
48
1
60
0
100
AcDbLine
10
0
20
0
30
0
11
-1
21
-0.166667
31
0
39
0
210
0
220
0
230
1
0
LINE
5
E0
100
AcDbEntity
8
0
62
256
6
ByLayer
370
-2
48
1
60
0
100
AcDbLine
10
-1
20
0.166667
30
0
11
-1
21
-0.166667
31
0
39
0
210
0
220
0
230
1
0
LINE
5
E1
100
AcDbEntity
8
0
62
256
6
ByLayer
370
-2
48
1
60
0
100
AcDbLine
10
0
20
0
30
0
11
-1
21
0
31
0
39
0
210
0
220
0
230
1
0
ENDBLK
5
DD
100
AcDbEntity
8
0
100
AcDbBlockEnd
0
BLOCK
5
EE
100
AcDbEntity
8
0
100
AcDbBlockBegin
2
DimnDraft3D2
70
0
10
0
20
0
30
0
3
DimnDraft3D2
0
MTEXT
5
E3
100
AcDbEntity
8
2
62
256
6
ByLayer
370
18
48
1
60
0
100
AcDbMText
10
7.496891
20
12.698462
30
0
210
0
220
0
230
1
1
\W0.5144;15
40
3
41
0
44
1.084337
50
0
71
8
72
5
7
iso_b_vert
0
LINE
5
E5
100
AcDbEntity
8
2
62
256
6
ByLayer
370
13
48
1
60
0
100
AcDbLine
10
14.993782
20
8.385004
30
0
11
14.993782
21
13.948462
31
0
39
0
210
0
220
0
230
1
0
LINE
5
E6
100
AcDbEntity
8
2
62
256
6
ByLayer
370
13
48
1
60
0
100
AcDbLine
10
0
20
8.064996
30
0
11
0
21
13.948462
31
0
39
0
210
0
220
0
230
1
0
LINE
5
E7
100
AcDbEntity
8
2
62
256
6
ByLayer
370
13
48
1
60
0
100
AcDbLine
10
14.993782
20
11.948462
30
0
11
0
21
11.948462
31
0
39
0
210
0
220
0
230
1
0
LINE
5
E8
100
AcDbEntity
8
2
62
256
6
ByLayer
370
13
48
1
60
0
100
AcDbLine
10
14.993782
20
11.948462
30
0
11
11.818784
21
11.530465
31
0
39
0
210
0
220
0
230
1
0
LINE
5
E9
100
AcDbEntity
8
2
62
256
6
ByLayer
370
13
48
1
60
0
100
AcDbLine
10
14.993782
20
11.948462
30
0
11
11.818781
21
12.366459
31
0
39
0
210
0
220
0
230
1
0
LINE
5
EA
100
AcDbEntity
8
2
62
256
6
ByLayer
370
13
48
1
60
0
100
AcDbLine
10
11.818784
20
11.530465
30
0
11
11.818781
21
12.366459
31
0
39
0
210
0
220
0
230
1
0
LINE
5
EB
100
AcDbEntity
8
2
62
256
6
ByLayer
370
13
48
1
60
0
100
AcDbLine
10
0
20
11.948462
30
0
11
3.174998
21
12.366459
31
0
39
0
210
0
220
0
230
1
0
LINE
5
EC
100
AcDbEntity
8
2
62
256
6
ByLayer
370
13
48
1
60
0
100
AcDbLine
10
0
20
11.948462
30
0
11
3.175002
21
11.530465
31
0
39
0
210
0
220
0
230
1
0
LINE
5
ED
100
AcDbEntity
8
2
62
256
6
ByLayer
370
13
48
1
60
0
100
AcDbLine
10
3.174998
20
12.366459
30
0
11
3.175002
21
11.530465
31
0
39
0
210
0
220
0
230
1
0
ENDBLK
5
EF
100
AcDbEntity
8
0
100
AcDbBlockEnd
0
BLOCK
5
FC
100
AcDbEntity
8
0
100
AcDbBlockBegin
2
DimnDraft3D3
70
0
10
0
20
0
30
0
3
DimnDraft3D3
0
MTEXT
5
F2
100
AcDbEntity
8
2
62
256
6
ByLayer
370
18
48
1
60
0
100
AcDbMText
10
25.884396
20
0.035004
30
0
210
0
220
0
230
1
1
\W0.6367;12.7
40
3
41
0
44
1.084337
50
90
71
8
72
5
7
iso_b_vert
0
LINE
5
F3
100
AcDbEntity
8
2
62
256
6
ByLayer
370
13
48
1
60
0
100
AcDbLine
10
15.237433
20
-6.314996
30
0
11
28.634396
21
-6.314996
31
0
39
0
210
0
220
0
230
1
0
LINE
5
F4
100
AcDbEntity
8
2
62
256
6
ByLayer
370
13
48
1
60
0
100
AcDbLine
10
16.993782
20
6.385004
30
0
11
28.634396
21
6.385004
31
0
39
0
210
0
220
0
230
1
0
LINE
5
F5
100
AcDbEntity
8
2
62
256
6
ByLayer
370
13
48
1
60
0
100
AcDbLine
10
26.634396
20
-13.814996
30
0
11
26.634396
21
13.885004
31
0
39
0
210
0
220
0
230
1
0
LINE
5
F6
100
AcDbEntity
8
2
62
256
6
ByLayer
370
13
48
1
60
0
100
AcDbLine
10
26.634396
20
-6.314996
30
0
11
27.052393
21
-9.489995
31
0
39
0
210
0
220
0
230
1
0
LINE
5
F7
100
AcDbEntity
8
2
62
256
6
ByLayer
370
13
48
1
60
0
100
AcDbLine
10
26.634396
20
-6.314996
30
0
11
26.216399
21
-9.489998
31
0
39
0
210
0
220
0
230
1
0
LINE
5
F8
100
AcDbEntity
8
2
62
256
6
ByLayer
370
13
48
1
60
0
100
AcDbLine
10
27.052393
20
-9.489995
30
0
11
26.216399
21
-9.489998
31
0
39
0
210
0
220
0
230
1
0
LINE
5
F9
100
AcDbEntity
8
2
62
256
6
ByLayer
370
13
48
1
60
0
100
AcDbLine
10
26.634396
20
6.385004
30
0
11
26.216399
21
9.560002
31
0
39
0
210
0
220
0
230
1
0
LINE
5
FA
100
AcDbEntity
8
2
62
256
6
ByLayer
370
13
48
1
60
0
100
AcDbLine
10
26.634396
20
6.385004
30
0
11
27.052393
21
9.560005
31
0
39
0
210
0
220
0
230
1
0
LINE
5
FB
100
AcDbEntity
8
2
62
256
6
ByLayer
370
13
48
1
60
0
100
AcDbLine
10
26.216399
20
9.560002
30
0
11
27.052393
21
9.560005
31
0
39
0
210
0
220
0
230
1
0
ENDBLK
5
FD
100
AcDbEntity
8
0
100
AcDbBlockEnd
0
BLOCK
5
10A
100
AcDbEntity
8
0
100
AcDbBlockBegin
2
DimnDraft3D4
70
0
10
0
20
0
30
0
3
DimnDraft3D4
0
MTEXT
5
100
100
AcDbEntity
8
SK2
62
256
6
ByLayer
370
18
48
1
60
0
100
AcDbMText
10
-65.053881
20
0.035004
30
0
210
0
220
0
230
1
1
\W0.6367;12.7
40
3
41
0
44
1.084337
50
90
71
8
72
5
7
iso_b_vert
0
LINE
5
101
100
AcDbEntity
8
SK2
62
256
6
ByLayer
370
13
48
1
60
0
100
AcDbLine
10
-54.006218
20
-6.314996
30
0
11
-66.303881
21
-6.314996
31
0
39
0
210
0
220
0
230
1
0
LINE
5
102
100
AcDbEntity
8
SK2
62
256
6
ByLayer
370
13
48
1
60
0
100
AcDbLine
10
-56.756218
20
6.385004
30
0
11
-66.303881
21
6.385004
31
0
39
0
210
0
220
0
230
1
0
LINE
5
103
100
AcDbEntity
8
SK2
62
256
6
ByLayer
370
13
48
1
60
0
100
AcDbLine
10
-64.303881
20
-13.814996
30
0
11
-64.303881
21
13.885004
31
0
39
0
210
0
220
0
230
1
0
LINE
5
104
100
AcDbEntity
8
SK2
62
256
6
ByLayer
370
13
48
1
60
0
100
AcDbLine
10
-64.303881
20
-6.314996
30
0
11
-63.885885
21
-9.489995
31
0
39
0
210
0
220
0
230
1
0
LINE
5
105
100
AcDbEntity
8
SK2
62
256
6
ByLayer
370
13
48
1
60
0
100
AcDbLine
10
-64.303881
20
-6.314996
30
0
11
-64.721878
21
-9.489998
31
0
39
0
210
0
220
0
230
1
0
LINE
5
106
100
AcDbEntity
8
SK2
62
256
6
ByLayer
370
13
48
1
60
0
100
AcDbLine
10
-63.885885
20
-9.489995
30
0
11
-64.721878
21
-9.489998
31
0
39
0
210
0
220
0
230
1
0
LINE
5
107
100
AcDbEntity
8
SK2
62
256
6
ByLayer
370
13
48
1
60
0
100
AcDbLine
10
-64.303881
20
6.385004
30
0
11
-64.721878
21
9.560002
31
0
39
0
210
0
220
0
230
1
0
LINE
5
108
100
AcDbEntity
8
SK2
62
256
6
ByLayer
370
13
48
1
60
0
100
AcDbLine
10
-64.303881
20
6.385004
30
0
11
-63.885885
21
9.560005
31
0
39
0
210
0
220
0
230
1
0
LINE
5
109
100
AcDbEntity
8
SK2
62
256
6
ByLayer
370
13
48
1
60
0
100
AcDbLine
10
-64.721878
20
9.560002
30
0
11
-63.885885
21
9.560005
31
0
39
0
210
0
220
0
230
1
0
ENDBLK
5
10B
100
AcDbEntity
8
0
100
AcDbBlockEnd
0
ENDSEC
0
SECTION
2
ENTITIES
0
ARC
5
90
100
AcDbEntity
8
1
62
256
6
ByLayer
370
18
48
1
60
0
100
AcDbCircle
39
0
10
-14.199782
20
5.591004
30
0
40
0.793999999999996
210
0
220
0
230
-1
100
AcDbArc
50
85
51
185
0
ARC
5
91
100
AcDbEntity
8
1
62
256
6
ByLayer
370
18
48
1
60
0
100
AcDbCircle
39
0
10
6.629962
20
-3.045869
30
0
40
1.65760570491723
210
0
220
0
230
1
100
AcDbArc
50
275.25
51
336.66467
0
ARC
5
93
100
AcDbEntity
8
1
62
256
6
ByLayer
370
18
48
1
60
0
100
AcDbCircle
39
0
10
-5.237989
20
-3.37079
30
0
40
1.5
210
0
220
0
230
-1
100
AcDbArc
50
197.92862
51
231.917661
0
ARC
5
94
100
AcDbEntity
8
1
62
256
6
ByLayer
370
18
48
1
60
0
100
AcDbCircle
39
0
10
6.629962
20
-3.045869
30
0
40
1.5
210
0
220
0
230
1
100
AcDbArc
50
275.25
51
333.364956
0
ARC
5
96
100
AcDbEntity
8
1
62
256
6
ByLayer
370
18
48
1
60
0
100
AcDbCircle
39
0
10
5.237989
20
-3.37079
30
0
40
1.5
210
0
220
0
230
1
100
AcDbArc
50
107.930364
51
299.60778
0
ARC
5
97
100
AcDbEntity
8
1
62
256
6
ByLayer
370
18
48
1
60
0
100
AcDbCircle
39
0
10
-5.468583
20
-3.140195
30
0
40
0.793999999999988
210
0
220
0
230
-1
100
AcDbArc
50
265
51
5
0
ARC
5
98
100
AcDbEntity
8
1
62
256
6
ByLayer
370
18
48
1
60
0
100
AcDbCircle
39
0
10
-6.17101
20
4.888577
30
0
40
0.793999999999988
210
0
220
0
230
-1
100
AcDbArc
50
5
51
85
0
ARC
5
99
100
AcDbEntity
8
SK1
62
256
6
ByLayer
370
18
48
1
60
0
100
AcDbCircle
39
0
10
3.386675
20
9.74337
30
0
40
4.99999999989047
210
0
220
0
230
1
100
AcDbArc
50
222.196334
51
226.192796
0
ARC
5
9A
100
AcDbEntity
8
1
62
256
6
ByLayer
370
18
48
1
60
0
100
AcDbCircle
39
0
10
-3.386675
20
9.74337
30
0
40
5
210
0
220
0
230
-1
100
AcDbArc
50
265
51
306.669088
0
ARC
5
9B
100
AcDbEntity
8
SK1
62
256
6
ByLayer
370
18
48
1
60
0
100
AcDbCircle
39
0
10
3.386675
20
9.74337
30
0
40
5
210
0
220
0
230
1
100
AcDbArc
50
226.192796
51
227.364253
0
ARC
5
9C
100
AcDbEntity
8
1
62
256
6
ByLayer
370
18
48
1
60
0
100
AcDbCircle
39
0
10
6.386686
20
-3.068223
30
0
40
1.65760570491723
210
0
220
0
230
1
100
AcDbArc
50
255.76489
51
275.25
0
ARC
5
9D
100
AcDbEntity
8
SK1
62
256
6
ByLayer
370
18
48
1
60
0
100
AcDbCircle
39
0
10
0.400713
20
-6.014996
30
0
40
0.400000000003432
210
0
220
0
230
1
100
AcDbArc
50
195
51
228.590378
0
ARC
5
9E
100
AcDbEntity
8
1
62
256
6
ByLayer
370
18
48
1
60
0
100
AcDbCircle
39
0
10
6.386686
20
-3.068223
30
0
40
1.5
210
0
220
0
230
1
100
AcDbArc
50
261.430729
51
275.25
0
ARC
5
A1
100
AcDbEntity
8
1
62
256
6
ByLayer
370
18
48
1
60
0
100
AcDbCircle
39
0
10
-9.834183
20
1.225404
30
0
40
1.6765
210
0
220
0
230
-1
100
AcDbArc
50
75.159887
51
135
0
ARC
5
A2
100
AcDbEntity
8
1
62
256
6
ByLayer
370
18
48
1
60
0
100
AcDbCircle
39
0
10
-9.834183
20
1.225404
30
0
40
1.6765
210
0
220
0
230
-1
100
AcDbArc
50
14.840113
51
75.159887
0
ARC
5
A3
100
AcDbEntity
8
1
62
256
6
ByLayer
370
18
48
1
60
0
100
AcDbCircle
39
0
10
9.834183
20
1.225404
30
0
40
1.2065
210
0
220
0
230
1
100
AcDbArc
50
15.079943
51
74.920057
0
ARC
5
A4
100
AcDbEntity
8
1
62
256
6
ByLayer
370
18
48
1
60
0
100
AcDbCircle
39
0
10
9.834183
20
1.225404
30
0
40
1.2065
210
0
220
0
230
1
100
AcDbArc
50
318.955279
51
15.079943
0
ARC
5
A5
100
AcDbEntity
8
1
62
256
6
ByLayer
370
18
48
1
60
0
100
AcDbCircle
39
0
10
9.834183
20
1.225404
30
0
40
1.2065
210
0
220
0
230
1
100
AcDbArc
50
254.920057
51
311.044721
0
ARC
5
A6
100
AcDbEntity
8
1
62
256
6
ByLayer
370
18
48
1
60
0
100
AcDbCircle
39
0
10
-9.834183
20
1.225404
30
0
40
1.2065
210
0
220
0
230
-1
100
AcDbArc
50
344.920057
51
41.044721
0
ARC
5
A7
100
AcDbEntity
8
1
62
256
6
ByLayer
370
18
48
1
60
0
100
AcDbCircle
39
0
10
9.834183
20
1.225404
30
0
40
1.2065
210
0
220
0
230
1
100
AcDbArc
50
74.920057
51
131.044721
0
ARC
5
A8
100
AcDbEntity
8
1
62
256
6
ByLayer
370
18
48
1
60
0
100
AcDbCircle
39
0
10
-9.834183
20
1.225404
30
0
40
1.6765
210
0
220
0
230
-1
100
AcDbArc
50
135
51
194.840113
0
ARC
5
A9
100
AcDbEntity
8
1
62
256
6
ByLayer
370
18
48
1
60
0
100
AcDbCircle
39
0
10
-9.834183
20
1.225404
30
0
40
1.2065
210
0
220
0
230
-1
100
AcDbArc
50
41.044721
51
48.955279
0
ARC
5
AA
100
AcDbEntity
8
1
62
256
6
ByLayer
370
18
48
1
60
0
100
AcDbCircle
39
0
10
9.834183
20
1.225404
30
0
40
1.2065
210
0
220
0
230
1
100
AcDbArc
50
195.079943
51
254.920057
0
ARC
5
AB
100
AcDbEntity
8
1
62
256
6
ByLayer
370
18
48
1
60
0
100
AcDbCircle
39
0
10
-9.834183
20
1.225404
30
0
40
1.6765
210
0
220
0
230
-1
100
AcDbArc
50
315
51
14.840113
0
ARC
5
AC
100
AcDbEntity
8
1
62
256
6
ByLayer
370
18
48
1
60
0
100
AcDbCircle
39
0
10
-9.834183
20
1.225404
30
0
40
1.2065
210
0
220
0
230
-1
100
AcDbArc
50
221.044721
51
228.955279
0
ARC
5
AD
100
AcDbEntity
8
1
62
256
6
ByLayer
370
18
48
1
60
0
100
AcDbCircle
39
0
10
-9.834183
20
1.225404
30
0
40
1.6765
210
0
220
0
230
-1
100
AcDbArc
50
194.840113
51
255.159887
0
ARC
5
AE
100
AcDbEntity
8
1
62
256
6
ByLayer
370
18
48
1
60
0
100
AcDbCircle
39
0
10
-9.834183
20
1.225404
30
0
40
1.6765
210
0
220
0
230
-1
100
AcDbArc
50
255.159887
51
315
0
ARC
5
B0
100
AcDbEntity
8
1
62
256
6
ByLayer
370
18
48
1
60
0
100
AcDbCircle
39
0
10
-13.497356
20
-2.437769
30
0
40
0.793999999999995
210
0
220
0
230
-1
100
AcDbArc
50
185
51
265
0
CIRCLE
5
92
100
AcDbEntity
8
1
62
256
6
ByLayer
370
18
48
1
60
0
100
AcDbCircle
10
9.834183
20
1.225404
30
0
40
2.95049568210608
39
0
210
0
220
0
230
1
0
CIRCLE
5
95
100
AcDbEntity
8
1
62
256
6
ByLayer
370
18
48
1
60
0
100
AcDbCircle
10
-9.834183
20
1.225404
30
0
40
3.00605207334198
39
0
210
0
220
0
230
-1
0
CIRCLE
5
9F
100
AcDbEntity
8
1
62
256
6
ByLayer
370
18
48
1
60
0
100
AcDbCircle
10
-9.834183
20
1.225404
30
0
40
2.625
39
0
210
0
220
0
230
-1
0
CIRCLE
5
A0
100
AcDbEntity
8
1
62
256
6
ByLayer
370
18
48
1
60
0
100
AcDbCircle
10
-9.834183
20
1.225404
30
0
40
1.8
39
0
210
0
220
0
230
-1
0
CIRCLE
5
AF
100
AcDbEntity
8
1
62
256
6
ByLayer
370
18
48
1
60
0
100
AcDbCircle
10
-9.834183
20
1.225404
30
0
40
3.07132534818238
39
0
210
0
220
0
230
-1
0
ELLIPSE
5
B1
100
AcDbEntity
8
SK1
62
256
6
ByLayer
370
18
48
1
60
0
100
AcDbEllipse
10
3.385344
20
9.741918
30
0
11
3.68366697514
21
-3.37946012814447
31
0
210
0
220
0
230
1
40
0.999803
41
-1.57257578268779
42
-1.56868278851022
0
POINT
5
6C
100
AcDbEntity
8
81
62
256
6
ByLayer
370
18
48
1
60
0
100
AcDbPoint
10
14.993782
20
6.385004
30
0
39
0
210
0
220
0
230
1
50
360
0
POINT
5
6E
100
AcDbEntity
8
80
62
256
6
ByLayer
370
18
48
1
60
0
100
AcDbPoint
10
0
20
0
30
0
39
0
210
0
220
0
230
1
50
360
0
SPLINE
5
B2
100
AcDbEntity
8
1
62
256
6
ByLayer
370
18
48
1
60
0
100
AcDbSpline
70
4
71
3
72
14
73
10
40
0
40
0
40
0
40
0
40
0.330207179669697
40
0.330207179669697
40
0.674929917673088
40
0.674929917673088
40
0.887160236538103
40
0.887160236538103
40
1
40
1
40
1
40
1
41
1
10
0.400713012542468
20
5.73287979716261
30
0
41
1
10
0.346526105594535
20
5.77322401351137
30
0
41
1
10
0.292501277502879
20
5.81524139653305
30
0
41
1
10
0.190864875965332
20
5.8974320034898
30
0
41
1
10
0.141786786211441
20
5.93895586346261
30
0
41
1
10
0.0763612409569703
20
5.99598041766353
30
0
41
1
10
0.0541051546261997
20
6.01583677471479
30
0
41
1
10
0.0279578862757717
20
6.03943013326454
30
0
41
1
10
0.0202368966037625
20
6.04645800457987
30
0
41
1
10
0.014342682026836
20
6.05184256569217
30
0
0
SPLINE
5
B3
100
AcDbEntity
8
1
62
256
6
ByLayer
370
18
48
1
60
0
100
AcDbSpline
70
4
71
3
72
18
73
14
40
0
40
0
40
0
40
0
40
0.212491592102414
40
0.212491592102414
40
0.386618191488472
40
0.386618191488472
40
0.56242629505081
40
0.56242629505081
40
0.715388354469454
40
0.715388354469454
40
0.918249128147155
40
0.918249128147155
40
1
40
1
40
1
40
1
41
1
10
8.60190575665069
20
0.391705449095781
30
0
41
1
10
8.63721995684804
20
0.45326928414363
30
0
41
1
10
8.66402449672157
20
0.522476333470365
30
0
41
1
10
8.69129151140572
20
0.656113017831331
30
0
41
1
10
8.69578610910193
20
0.720689233886759
30
0
41
1
10
8.68592084771939
20
0.850074936593614
30
0
41
1
10
8.67104310919879
20
0.91678366282747
30
0
41
1
10
8.6270353957257
20
1.03182918828736
30
0
41
1
10
8.599565901722
20
1.08282988407839
30
0
41
1
10
8.52552866181222
20
1.18793337240331
30
0
41
1
10
8.47457080777212
20
1.23958636262597
30
0
41
1
10
8.39705150959381
20
1.2979551845176
30
0
41
1
10
8.37376267391713
20
1.31332793954022
30
0
41
1
10
8.34986058140098
20
1.32712820936268
30
0
0
SPLINE
5
B4
100
AcDbEntity
8
1
62
256
6
ByLayer
370
18
48
1
60
0
100
AcDbSpline
70
4
71
3
72
8
73
4
40
0
40
0
40
0
40
0
40
1
40
1
40
1
40
1
41
1
10
6.16317857083385
20
-4.55147771835826
30
0
41
1
10
6.10628385283215
20
-4.59606056322855
30
0
41
1
10
6.0449765926387
20
-4.63748458510042
30
0
41
1
10
5.97907853645671
20
-4.67493172758162
30
0
0
SPLINE
5
B5
100
AcDbEntity
8
1
62
256
6
ByLayer
370
18
48
1
60
0
100
AcDbSpline
70
4
71
3
72
18
73
14
40
0
40
0
40
0
40
0
40
0.212491695755302
40
0.212491695755302
40
0.386618276853805
40
0.386618276853805
40
0.562426360907933
40
0.562426360907933
40
0.715388416645937
40
0.715388416645937
40
0.918249208689863
40
0.918249208689863
40
1
40
1
40
1
40
1
41
1
10
9.73245864681377
20
2.70972627477548
30
0
41
1
10
9.7679460288426
20
2.64826206434188
30
0
41
1
10
9.81431732840809
20
2.59031547338523
30
0
41
1
10
9.91616387243204
20
2.49959863693889
30
0
41
1
10
9.96974004642541
20
2.46326845593302
30
0
41
1
10
10.0865668377425
20
2.40679296277156
30
0
41
1
10
10.1517197781307
20
2.38614121732812
30
0
41
1
10
10.2733013344761
20
2.36639091181439
30
0
41
1
10
10.331198976945
20
2.3645182766067
30
0
41
1
10
10.4592716672823
20
2.37572732731806
30
0
41
1
10
10.5295342042324
20
2.39383563719213
30
0
41
1
10
10.6189482609287
20
2.43153554231949
30
0
41
1
10
10.6439405846957
20
2.4439481832132
30
0
41
1
10
10.6678814070807
20
2.45768109952573
30
0
0
SPLINE
5
B6
100
AcDbEntity
8
1
62
256
6
ByLayer
370
18
48
1
60
0
100
AcDbSpline
70
4
71
3
72
16
73
12
40
0
40
0
40
0
40
0
40
0.0624450082614033
40
0.0624450082614033
40
0.283207995985775
40
0.283207995985775
40
0.506745688833536
40
0.506745688833536
40
0.744607284736972
40
0.744607284736972
40
1
40
1
40
1
40
1
41
1
10
9.40479322382635
20
2.84598331695037
30
0
41
1
10
9.39664085342852
20
2.84382326065551
30
0
41
1
10
9.38857298106333
20
2.84130657698765
30
0
41
1
10
9.35280231026445
20
2.82842471877117
30
0
41
1
10
9.3262605351124
20
2.81393416745033
30
0
41
1
10
9.27953782704711
20
2.77847484019927
30
0
41
1
10
9.25883201678641
20
2.75699449288578
30
0
41
1
10
9.22442424230638
20
2.70893829256997
30
0
41
1
10
9.21079920354313
20
2.68154094335313
30
0
41
1
10
9.19206895044712
20
2.62366304847822
30
0
41
1
10
9.18740776311822
20
2.59241630185869
30
0
41
1
10
9.18758603582987
20
2.56201114176542
30
0
0
SPLINE
5
B7
100
AcDbEntity
8
1
62
256
6
ByLayer
370
18
48
1
60
0
100
AcDbSpline
70
4
71
3
72
14
73
10
40
0
40
0
40
0
40
0
40
0.283961749036713
40
0.283961749036713
40
0.570285189259025
40
0.570285189259025
40
0.82945109433568
40
0.82945109433568
40
1
40
1
40
1
40
1
41
1
10
9.73245864681377
20
2.70972627477548
30
0
41
1
10
9.71569511746557
20
2.73876073819767
30
0
41
1
10
9.69327636942472
20
2.76575097598464
30
0
41
1
10
9.63951775120941
20
2.81053288164631
30
0
41
1
10
9.6072327009384
20
2.82889167920806
30
0
41
1
10
9.5409498735709
20
2.85112963638645
30
0
41
1
10
9.50638500463396
20
2.85649546025888
30
0
41
1
10
9.4496057526888
20
2.85505777756413
30
0
41
1
10
9.42676469221982
20
2.85180488862764
30
0
41
1
10
9.40479322382635
20
2.84598331695037
30
0
0
SPLINE
5
B8
100
AcDbEntity
8
1
62
256
6
ByLayer
370
18
48
1
60
0
100
AcDbSpline
70
4
71
3
72
14
73
10
40
0
40
0
40
0
40
0
40
0.283961457856589
40
0.283961457856589
40
0.570284934646621
40
0.570284934646621
40
0.829450869060465
40
0.829450869060465
40
1
40
1
40
1
40
1
41
1
10
11.0664596976997
20
2.05910280890672
30
0
41
1
10
11.0831414105156
20
2.08818431748907
30
0
41
1
10
11.0952143753436
20
2.12112842178595
30
0
41
1
10
11.1069249072933
20
2.19010861276445
30
0
41
1
10
11.1065779432148
20
2.22724686499146
30
0
41
1
10
11.0925040289113
20
2.29572945933253
30
0
41
1
10
11.0797775738515
20
2.32831104608218
30
0
41
1
10
11.050007779803
20
2.37668163083103
30
0
41
1
10
11.0357195431171
20
2.39479635037787
30
0
41
1
10
11.0196472458345
20
2.41086864766049
30
0
0
SPLINE
5
B9
100
AcDbEntity
8
1
62
256
6
ByLayer
370
18
48
1
60
0
100
AcDbSpline
70
4
71
3
72
16
73
12
40
0
40
0
40
0
40
0
40
0.0630415689509294
40
0.0630415689509294
40
0.285914332024976
40
0.285914332024976
40
0.511588305408905
40
0.511588305408905
40
0.751723061839372
40
0.751723061839372
40
1
40
1
40
1
40
1
41
1
10
11.0196472458345
20
2.41086864766049
30
0
41
1
10
11.013683752019
20
2.41683214147591
30
0
41
1
10
11.0074543634717
20
2.42254340283068
30
0
41
1
10
10.9783446798215
20
2.44699963749554
30
0
41
1
10
10.952480786053
20
2.46266810789095
30
0
41
1
10
10.8983475314812
20
2.48525053829926
30
0
41
1
10
10.8693721463882
20
2.49236130098396
30
0
41
1
10
10.8105344996763
20
2.4979670566978
30
0
41
1
10
10.7800005987578
20
2.4959828066786
30
0
41
1
10
10.7216640828551
20
2.48334077604196
30
0
41
1
10
10.6933266240911
20
2.47227696553818
30
0
41
1
10
10.6678814070807
20
2.45768109952576
30
0
0
SPLINE
5
BA
100
AcDbEntity
8
1
62
256
6
ByLayer
370
18
48
1
60
0
100
AcDbSpline
70
4
71
3
72
12
73
8
40
0
40
0
40
0
40
0
40
0.422118633920774
40
0.422118633920774
40
0.843213619146908
40
0.843213619146908
40
1
40
1
40
1
40
1
41
1
10
9.04193702667536
20
2.13534313796808
30
0
41
1
10
9.08380073707605
20
2.18886454736602
30
0
41
1
10
9.11731486805468
20
2.24867317802432
30
0
41
1
10
9.16434309079222
20
2.36939108063237
30
0
41
1
10
9.17871811248216
20
2.43190632621378
30
0
41
1
10
9.18671619232174
20
2.51623459635445
30
0
41
1
10
9.18771973288762
20
2.53920854675812
30
0
41
1
10
9.18758603582987
20
2.5620111417654
30
0
0
SPLINE
5
BB
100
AcDbEntity
8
1
62
256
6
ByLayer
370
18
48
1
60
0
100
AcDbSpline
70
4
71
3
72
18
73
14
40
0
40
0
40
0
40
0
40
0.212491592102414
40
0.212491592102414
40
0.386618191488472
40
0.386618191488472
40
0.56242629505081
40
0.56242629505081
40
0.715388354469454
40
0.715388354469454
40
0.918249128147155
40
0.918249128147155
40
1
40
1
40
1
40
1
41
1
10
11.0664596976997
20
2.05910280890672
30
0
41
1
10
11.0311454975024
20
1.99753897385889
30
0
41
1
10
11.0043409576288
20
1.92833192453213
30
0
41
1
10
10.9770739429447
20
1.79469524017119
30
0
41
1
10
10.9725793452484
20
1.73011902411574
30
0
41
1
10
10.982444606631
20
1.60073332140888
30
0
41
1
10
10.9973223451516
20
1.53402459517506
30
0
41
1
10
11.0413300586247
20
1.41897906971513
30
0
41
1
10
11.0687995526284
20
1.3679783739241
30
0
41
1
10
11.1428367925382
20
1.26287488559919
30
0
41
1
10
11.1937946465782
20
1.21122189537653
30
0
41
1
10
11.2713139447566
20
1.15285307348489
30
0
41
1
10
11.2946027804332
20
1.13748031846231
30
0
41
1
10
11.3185048729494
20
1.12368004863981
30
0
0
SPLINE
5
BC
100
AcDbEntity
8
1
62
256
6
ByLayer
370
18
48
1
60
0
100
AcDbSpline
70
4
71
3
72
12
73
8
40
0
40
0
40
0
40
0
40
0.49577967678036
40
0.49577967678036
40
0.900233025448792
40
0.900233025448792
40
1
40
1
40
1
40
1
41
1
10
8.49757571441106
20
1.87200082034658
30
0
41
1
10
8.56889800123591
20
1.87158264075356
30
0
41
1
10
8.6426689988447
20
1.88244348352527
30
0
41
1
10
8.77268780836943
20
1.92483380999892
30
0
41
1
10
8.83107174388141
20
1.95281592262555
30
0
41
1
10
8.89819874334717
20
1.99801964813798
30
0
41
1
10
8.91138588033863
20
2.0075926055413
30
0
41
1
10
8.92424371820837
20
2.0176498295011
30
0
0
SPLINE
5
BD
100
AcDbEntity
8
1
62
256
6
ByLayer
370
18
48
1
60
0
100
AcDbSpline
70
4
71
3
72
16
73
12
40
0
40
0
40
0
40
0
40
0.0569446172824999
40
0.0569446172824999
40
0.279906644834072
40
0.279906644834072
40
0.505321967306684
40
0.505321967306684
40
0.744915047128813
40
0.744915047128813
40
1
40
1
40
1
40
1
41
1
10
11.4547619151243
20
0.79601462565239
30
0
41
1
10
11.4567143991693
20
0.803383587826517
30
0
41
1
10
11.4583794977715
20
0.810836084187287
30
0
41
1
10
11.4650695528664
20
0.847459066012931
30
0
41
1
10
11.4658731536873
20
0.877717322823003
30
0
41
1
10
11.4586676856859
20
0.935947572861807
30
0
41
1
10
11.4504930049264
20
0.964635304939407
30
0
41
1
10
11.4262328287072
20
1.01848694979489
30
0
41
1
10
11.4094072649327
20
1.04400330586367
30
0
41
1
10
11.3689981720935
20
1.08903786785413
30
0
41
1
10
11.3445919842429
20
1.108618221961
30
0
41
1
10
11.3185048729494
20
1.12368004863981
30
0
0
SPLINE
5
BE
100
AcDbEntity
8
1
62
256
6
ByLayer
370
18
48
1
60
0
100
AcDbSpline
70
4
71
3
72
14
73
10
40
0
40
0
40
0
40
0
40
0.282169922576107
40
0.282169922576107
40
0.566902245317965
40
0.566902245317965
40
0.824523972080262
40
0.824523972080262
40
1
40
1
40
1
40
1
41
1
10
8.49757571441106
20
1.87200082034658
30
0
41
1
10
8.46398425633052
20
1.87219777508395
30
0
41
1
10
8.42930751225094
20
1.86645888176494
30
0
41
1
10
8.3633835158254
20
1.84258885275631
30
0
41
1
10
8.3311690145251
20
1.82391623905534
30
0
41
1
10
8.27843779309902
20
1.77774224167365
30
0
41
1
10
8.25634212914193
20
1.75050598285378
30
0
41
1
10
8.22856936990462
20
1.69987030534901
30
0
41
1
10
8.21964832926972
20
1.67760755971412
30
0
41
1
10
8.21360353922609
20
1.65479363235011
30
0
0
SPLINE
5
BF
100
AcDbEntity
8
1
62
256
6
ByLayer
370
18
48
1
60
0
100
AcDbSpline
70
4
71
3
72
16
73
12
40
0
40
0
40
0
40
0
40
0.0569446172824982
40
0.0569446172824982
40
0.279906644834072
40
0.279906644834072
40
0.505321967306684
40
0.505321967306684
40
0.744915047128815
40
0.744915047128815
40
1
40
1
40
1
40
1
41
1
10
8.21360353922609
20
1.65479363235011
30
0
41
1
10
8.21165105518108
20
1.64742467017598
30
0
41
1
10
8.20998595657892
20
1.63997217381521
30
0
41
1
10
8.20329590148395
20
1.60334919198959
30
0
41
1
10
8.20249230066312
20
1.57309093517949
30
0
41
1
10
8.20969776866451
20
1.51486068514069
30
0
41
1
10
8.21787244942396
20
1.48617295306312
30
0
41
1
10
8.24213262564322
20
1.4323213082076
30
0
41
1
10
8.25895818941768
20
1.40680495213883
30
0
41
1
10
8.29936728225687
20
1.36177039014837
30
0
41
1
10
8.32377347010751
20
1.3421900360415
30
0
41
1
10
8.34986058140095
20
1.32712820936271
30
0
0
SPLINE
5
C0
100
AcDbEntity
8
1
62
256
6
ByLayer
370
18
48
1
60
0
100
AcDbSpline
70
4
71
3
72
14
73
10
40
0
40
0
40
0
40
0
40
0.282169922576107
40
0.282169922576107
40
0.566902245317967
40
0.566902245317967
40
0.824523972080263
40
0.824523972080263
40
1
40
1
40
1
40
1
41
1
10
11.1707897399393
20
0.578807437655911
30
0
41
1
10
11.2043811980199
20
0.578610482918577
30
0
41
1
10
11.2390579420994
20
0.584349376237554
30
0
41
1
10
11.304981938525
20
0.608219405246189
30
0
41
1
10
11.3371964398253
20
0.62689201894716
30
0
41
1
10
11.3899276612514
20
0.673066016328846
30
0
41
1
10
11.4120233252085
20
0.700302275148744
30
0
41
1
10
11.4397960844458
20
0.750937952653516
30
0
41
1
10
11.4487171250807
20
0.773200698288377
30
0
41
1
10
11.4547619151243
20
0.79601462565239
30
0
0
SPLINE
5
C1
100
AcDbEntity
8
1
62
256
6
ByLayer
370
18
48
1
60
0
100
AcDbSpline
70
4
71
3
72
16
73
12
40
0
40
0
40
0
40
0
40
0.062445008261402
40
0.062445008261402
40
0.283207995985756
40
0.283207995985756
40
0.506745688833501
40
0.506745688833501
40
0.744607284736919
40
0.744607284736919
40
1
40
1
40
1
40
1
41
1
10
10.263572230524
20
-0.395175058947871
30
0
41
1
10
10.2717246009219
20
-0.393015002653016
30
0
41
1
10
10.279792473287
20
-0.390498318985152
30
0
41
1
10
10.3155631440859
20
-0.377616460768678
30
0
41
1
10
10.342104919238
20
-0.363125909447831
30
0
41
1
10
10.3888276273033
20
-0.32766658219677
30
0
41
1
10
10.409533437564
20
-0.306186234883285
30
0
41
1
10
10.443941212044
20
-0.258130034567472
30
0
41
1
10
10.4575662508073
20
-0.230732685350631
30
0
41
1
10
10.4762965039033
20
-0.172854790475696
30
0
41
1
10
10.4809576912322
20
-0.141608043856166
30
0
41
1
10
10.4807794185205
20
-0.1112028837629
30
0
0
SPLINE
5
C2
100
AcDbEntity
8
1
62
256
6
ByLayer
370
18
48
1
60
0
100
AcDbSpline
70
4
71
3
72
12
73
8
40
0
40
0
40
0
40
0
40
0.422118633920707
40
0.422118633920707
40
0.843213619146828
40
0.843213619146828
40
1
40
1
40
1
40
1
41
1
10
10.626428427675
20
0.315465120034418
30
0
41
1
10
10.5845647172743
20
0.261943710636501
30
0
41
1
10
10.5510505862957
20
0.202135079978206
30
0
41
1
10
10.5040223635582
20
0.081417177370156
30
0
41
1
10
10.4896473418682
20
0.0189019317887471
30
0
41
1
10
10.4816492620287
20
-0.0654263383519265
30
0
41
1
10
10.4806457214628
20
-0.0884002887556221
30
0
41
1
10
10.4807794185205
20
-0.1112028837629
30
0
0
SPLINE
5
C3
100
AcDbEntity
8
1
62
256
6
ByLayer
370
18
48
1
60
0
100
AcDbSpline
70
4
71
3
72
12
73
8
40
0
40
0
40
0
40
0
40
0.495779676780359
40
0.495779676780359
40
0.900233025448797
40
0.900233025448797
40
1
40
1
40
1
40
1
41
1
10
11.1707897399393
20
0.578807437655911
30
0
41
1
10
11.0994674531145
20
0.579225617248937
30
0
41
1
10
11.0256964555057
20
0.568364774477232
30
0
41
1
10
10.8956776459809
20
0.525974448003581
30
0
41
1
10
10.837293710469
20
0.497992335376949
30
0
41
1
10
10.7701667110032
20
0.452788609864513
30
0
41
1
10
10.7569795740117
20
0.443215652461191
30
0
41
1
10
10.744121736142
20
0.4331584285014
30
0
0
SPLINE
5
C4
100
AcDbEntity
8
1
62
256
6
ByLayer
370
18
48
1
60
0
100
AcDbSpline
70
4
71
3
72
14
73
10
40
0
40
0
40
0
40
0
40
0.283961749036714
40
0.283961749036714
40
0.570285189259028
40
0.570285189259028
40
0.829451094335682
40
0.829451094335682
40
1
40
1
40
1
40
1
41
1
10
9.93590680753661
20
-0.258918016772952
30
0
41
1
10
9.95267033688481
20
-0.287952480195173
30
0
41
1
10
9.97508908492566
20
-0.31494271798212
30
0
41
1
10
10.028847703141
20
-0.359724623643814
30
0
41
1
10
10.061132753412
20
-0.378083421205559
30
0
41
1
10
10.1274155807795
20
-0.40032137838395
30
0
41
1
10
10.1619804497164
20
-0.405687202256388
30
0
41
1
10
10.2187597016616
20
-0.404249519561631
30
0
41
1
10
10.2416007621306
20
-0.400996630625144
30
0
41
1
10
10.263572230524
20
-0.395175058947871
30
0
0
SPLINE
5
C5
100
AcDbEntity
8
1
62
256
6
ByLayer
370
18
48
1
60
0
100
AcDbSpline
70
4
71
3
72
16
73
12
40
0
40
0
40
0
40
0
40
0.0630415689509303
40
0.0630415689509303
40
0.285914332024977
40
0.285914332024977
40
0.511588305408906
40
0.511588305408906
40
0.751723061839373
40
0.751723061839373
40
1
40
1
40
1
40
1
41
1
10
8.64871820851593
20
0.0399396103420031
30
0
41
1
10
8.65468170233137
20
0.0339761165265884
30
0
41
1
10
8.66091109087867
20
0.0282648551718125
30
0
41
1
10
8.69002077452893
20
0.003808620506959
30
0
41
1
10
8.71588466829743
20
-0.0118598498884523
30
0
41
1
10
8.77001792286922
20
-0.0344422802967586
30
0
41
1
10
8.79899330796218
20
-0.0415530429814623
30
0
41
1
10
8.85783095467409
20
-0.0471587986953068
30
0
41
1
10
8.88836485559256
20
-0.0451745486761013
30
0
41
1
10
8.94670137149527
20
-0.03253251803946
30
0
41
1
10
8.97503883025928
20
-0.0214687075356892
30
0
41
1
10
9.00048404726968
20
-0.0068728415232329
30
0
0
SPLINE
5
C6
100
AcDbEntity
8
1
62
256
6
ByLayer
370
18
48
1
60
0
100
AcDbSpline
70
4
71
3
72
18
73
14
40
0
40
0
40
0
40
0
40
0.212491695755302
40
0.212491695755302
40
0.386618276853805
40
0.386618276853805
40
0.562426360907933
40
0.562426360907933
40
0.715388416645937
40
0.715388416645937
40
0.918249208689863
40
0.918249208689863
40
1
40
1
40
1
40
1
41
1
10
9.93590680753661
20
-0.258918016772952
30
0
41
1
10
9.90041942550778
20
-0.197453806339382
30
0
41
1
10
9.85404812594231
20
-0.139507215382736
30
0
41
1
10
9.75220158191834
20
-0.0487903789363884
30
0
41
1
10
9.69862540792496
20
-0.0124601979305226
30
0
41
1
10
9.58179861660787
20
0.0440152952309347
30
0
41
1
10
9.51664567621972
20
0.0646670406743795
30
0
41
1
10
9.39506411987426
20
0.0844173461881326
30
0
41
1
10
9.33716647740536
20
0.0862899813957938
30
0
41
1
10
9.20909378706813
20
0.075080930684436
30
0
41
1
10
9.13883125011799
20
0.0569726208103987
30
0
41
1
10
9.0494171934217
20
0.0192727156830017
30
0
41
1
10
9.02442486965469
20
0.0068600747893299
30
0
41
1
10
9.00048404726971
20
-0.0068728415232329
30
0
0
SPLINE
5
C7
100
AcDbEntity
8
1
62
256
6
ByLayer
370
18
48
1
60
0
100
AcDbSpline
70
4
71
3
72
14
73
10
40
0
40
0
40
0
40
0
40
0.283961457856589
40
0.283961457856589
40
0.570284934646621
40
0.570284934646621
40
0.829450869060465
40
0.829450869060465
40
1
40
1
40
1
40
1
41
1
10
8.60190575665069
20
0.391705449095781
30
0
41
1
10
8.58522404383476
20
0.36262394051343
30
0
41
1
10
8.57315107900675
20
0.329679836216542
30
0
41
1
10
8.56144054705706
20
0.260699645238077
30
0
41
1
10
8.56178751113558
20
0.223561393011039
30
0
41
1
10
8.57586142543909
20
0.15507879866999
30
0
41
1
10
8.58858788049886
20
0.122497211920319
30
0
41
1
10
8.61835767454733
20
0.0741266271714949
30
0
41
1
10
8.63264591123331
20
0.0560119076246224
30
0
41
1
10
8.64871820851593
20
0.0399396103420031
30
0
0
LINE
5
70
100
AcDbEntity
8
80
62
256
6
ByLayer
370
18
48
1
60
0
100
AcDbLine
10
0
20
0
30
0
11
-7
21
0
31
0
39
0
210
0
220
0
230
1
0
LINE
5
71
100
AcDbEntity
8
81
62
256
6
ByLayer
370
18
48
1
60
0
100
AcDbLine
10
14.993782
20
6.385004
30
0
11
21.993782
21
6.385004
31
0
39
0
210
0
220
0
230
1
0
LINE
5
72
100
AcDbEntity
8
1
62
256
6
ByLayer
370
18
48
1
60
0
100
AcDbLine
10
13.506986
20
-3.233999
30
0
11
13.237433
21
-6.314996
31
0
39
0
210
0
220
0
230
1
0
LINE
5
74
100
AcDbEntity
8
1
62
256
6
ByLayer
370
18
48
1
60
0
100
AcDbLine
10
6.781635
20
-4.696521
30
0
11
6.767214
21
-4.539577
31
0
39
0
210
0
220
0
230
1
0
LINE
5
75
100
AcDbEntity
8
1
62
256
6
ByLayer
370
18
48
1
60
0
100
AcDbLine
10
0.014343
20
6.051843
30
0
11
0.014343
21
-6.118524
31
0
39
0
210
0
220
0
230
1
0
LINE
5
76
100
AcDbEntity
8
1
62
256
6
ByLayer
370
18
48
1
60
0
100
AcDbLine
10
3.822454
20
4.762396
30
0
11
5.37481
21
4.89821
31
0
39
0
210
0
220
0
230
1
0
LINE
5
77
100
AcDbEntity
8
1
62
256
6
ByLayer
370
18
48
1
60
0
100
AcDbLine
10
6.53836
20
-4.718875
30
0
11
6.523939
21
-4.56193
31
0
39
0
210
0
220
0
230
1
0
LINE
5
78
100
AcDbEntity
8
1
62
256
6
ByLayer
370
18
48
1
60
0
100
AcDbLine
10
0.400713
20
-6.314996
30
0
11
0.400713
21
5.73288
31
0
39
0
210
0
220
0
230
1
0
LINE
5
79
100
AcDbEntity
8
1
62
256
6
ByLayer
370
18
48
1
60
0
100
AcDbLine
10
14.130581
20
6.381982
30
0
11
6.101808
21
5.679556
31
0
39
0
210
0
220
0
230
1
0
LINE
5
7A
100
AcDbEntity
8
1
62
256
6
ByLayer
370
18
48
1
60
0
100
AcDbLine
10
5.380031
20
4.957779
30
0
11
4.677605
21
-3.070994
31
0
39
0
210
0
220
0
230
1
0
LINE
5
7B
100
AcDbEntity
8
SK1
62
256
6
ByLayer
370
18
48
1
60
0
100
AcDbLine
10
-55.006218
20
6.135004
30
0
11
-54.756218
21
6.385004
31
0
39
0
210
0
220
0
230
1
0
LINE
5
7D
100
AcDbEntity
8
SK1
62
256
6
ByLayer
370
18
48
1
60
0
100
AcDbLine
10
-54.756218
20
6.135004
30
0
11
-54.756218
21
6.385004
31
0
39
0
210
0
220
0
230
1
0
LINE
5
7E
100
AcDbEntity
8
SK1
62
256
6
ByLayer
370
18
48
1
60
0
100
AcDbLine
10
-55.006218
20
6.135004
30
0
11
-54.756218
21
6.135004
31
0
39
0
210
0
220
0
230
1
0
LINE
5
7F
100
AcDbEntity
8
SK1
62
256
6
ByLayer
370
18
48
1
60
0
100
AcDbLine
10
-0.074494
20
6.135004
30
0
11
-54.756218
21
6.135004
31
0
39
0
210
0
220
0
230
1
0
LINE
5
80
100
AcDbEntity
8
SK1
62
256
6
ByLayer
370
18
48
1
60
0
100
AcDbLine
10
-54.756218
20
6.385004
30
0
11
-0.317562
21
6.385004
31
0
39
0
210
0
220
0
230
1
0
LINE
5
81
100
AcDbEntity
8
SK1
62
256
6
ByLayer
370
18
48
1
60
0
100
AcDbLine
10
0
20
-6.064996
30
0
11
0.014343
21
-6.118524
31
0
39
0
210
0
220
0
230
1
0
LINE
5
82
100
AcDbEntity
8
SK1
62
256
6
ByLayer
370
18
48
1
60
0
100
AcDbLine
10
-52.006218
20
-6.314996
30
0
11
-52.256218
21
-6.064996
31
0
39
0
210
0
220
0
230
1
0
LINE
5
83
100
AcDbEntity
8
SK1
62
256
6
ByLayer
370
18
48
1
60
0
100
AcDbLine
10
-52.256218
20
-6.064996
30
0
11
-54.756218
21
-3.564996
31
0
39
0
210
0
220
0
230
1
0
LINE
5
84
100
AcDbEntity
8
1
62
256
6
ByLayer
370
18
48
1
60
0
100
AcDbLine
10
5.537785
20
-3.931174
30
0
11
13.566557
21
-3.228747
31
0
39
0
210
0
220
0
230
1
0
LINE
5
85
100
AcDbEntity
8
SK1
62
256
6
ByLayer
370
18
48
1
60
0
100
AcDbLine
10
-55.006218
20
-3.314996
30
0
11
-55.006218
21
6.135004
31
0
39
0
210
0
220
0
230
1
0
LINE
5
86
100
AcDbEntity
8
SK1
62
256
6
ByLayer
370
18
48
1
60
0
100
AcDbLine
10
-52.256218
20
-6.064996
30
0
11
0
21
-6.064996
31
0
39
0
210
0
220
0
230
1
0
LINE
5
87
100
AcDbEntity
8
SK1
62
256
6
ByLayer
370
18
48
1
60
0
100
AcDbLine
10
-54.756218
20
6.135004
30
0
11
-54.756218
21
-3.564996
31
0
39
0
210
0
220
0
230
1
0
LINE
5
88
100
AcDbEntity
8
1
62
256
6
ByLayer
370
18
48
1
60
0
100
AcDbLine
10
0
20
6.064996
30
0
11
0
21
-6.064996
31
0
39
0
210
0
220
0
230
1
0
LINE
5
89
100
AcDbEntity
8
SK1
62
256
6
ByLayer
370
18
48
1
60
0
100
AcDbLine
10
-54.756218
20
-3.564996
30
0
11
-55.006218
21
-3.314996
31
0
39
0
210
0
220
0
230
1
0
LINE
5
8A
100
AcDbEntity
8
1
62
256
6
ByLayer
370
18
48
1
60
0
100
AcDbLine
10
6.767214
20
-4.539577
30
0
11
6.523939
21
-4.56193
31
0
39
0
210
0
220
0
230
1
0
LINE
5
8B
100
AcDbEntity
8
1
62
256
6
ByLayer
370
18
48
1
60
0
100
AcDbLine
10
6.781635
20
-4.696521
30
0
11
6.53836
21
-4.718875
31
0
39
0
210
0
220
0
230
1
0
LINE
5
8C
100
AcDbEntity
8
1
62
256
6
ByLayer
370
18
48
1
60
0
100
AcDbLine
10
0.136138
20
-6.314996
30
0
11
0.400713
21
-6.314996
31
0
39
0
210
0
220
0
230
1
0
LINE
5
8D
100
AcDbEntity
8
1
62
256
6
ByLayer
370
18
48
1
60
0
100
AcDbLine
10
0.400713
20
-6.314996
30
0
11
13.237433
21
-6.314996
31
0
39
0
210
0
220
0
230
1
0
LINE
5
8E
100
AcDbEntity
8
SK1
62
256
6
ByLayer
370
18
48
1
60
0
100
AcDbLine
10
0.136138
20
-6.314996
30
0
11
-52.006218
21
-6.314996
31
0
39
0
210
0
220
0
230
1
0
LINE
5
8F
100
AcDbEntity
8
1
62
256
6
ByLayer
370
18
48
1
60
0
100
AcDbLine
10
14.288334
20
-2.50697
30
0
11
14.990761
21
5.521802
31
0
39
0
210
0
220
0
230
1
0
MTEXT
5
C8
100
AcDbEntity
8
SK6
62
256
6
ByLayer
370
18
48
1
60
0
100
AcDbMText
10
-20.080146
20
-18.929926
30
0
210
0
220
0
230
1
1
\W0.7929;QS-SCLCR083X
40
3
41
0
44
1.084337
50
0
71
8
72
5
7
iso_b_vert
0
DIMENSION
5
DA
100
AcDbEntity
8
SK2
62
256
6
ByLayer
370
13
48
1
60
0
100
AcDbDimension
2
DimnDraft3D1
10
14.993782
20
18.906156
30
0
11
-21.758849
21
18.906156
31
0
70
32
71
5
72
1
41
1
210
0
220
0
230
1
3
Standard
100
AcDbAlignedDimension
13
-55.006218
23
8.135004
33
0
14
14.993782
24
8.385004
34
0
50
0
100
AcDbRotatedDimension
1001
ACAD
1000
DSTYLE
1002
{
1070
   279
1070
     0
1070
   172
1070
     1
1070
   173
1070
     1
1070
   340
1005
C9
1070
    77
1070
     1
1070
    73
1070
     0
1070
   171
1070
     3
1070
   274
1070
     4
1070
   177
1070
   254
1070
   176
1070
   254
1070
   178
1070
   254
1070
    78
1070
     8
1070
    41
1041
3.175
1070
   147
1041
1.5
1070
    42
1041
2.0
1070
    44
1041
2.0
1070
   140
1041
3.0
1070
   343
1005
DB
1070
   344
1005
DB
1002
}
0
DIMENSION
5
F0
100
AcDbEntity
8
2
62
256
6
ByLayer
370
13
48
1
60
0
100
AcDbDimension
2
DimnDraft3D2
10
0
20
11.948462
30
0
11
6.11926
21
11.948462
31
0
70
32
71
5
72
1
41
1
210
0
220
0
230
1
3
Standard
100
AcDbAlignedDimension
13
14.993782
23
8.385004
33
0
14
0
24
8.064996
34
0
50
0
100
AcDbRotatedDimension
1001
ACAD
1000
DSTYLE
1002
{
1070
   279
1070
     0
1070
   172
1070
     1
1070
   173
1070
     1
1070
   340
1005
C9
1070
   271
1070
     0
1070
    77
1070
     1
1070
    73
1070
     0
1070
   171
1070
     3
1070
   274
1070
     4
1070
   177
1070
   254
1070
   176
1070
   254
1070
   178
1070
   254
1070
    78
1070
     8
1070
    41
1041
3.175
1070
   147
1041
1.5
1070
    42
1041
2.0
1070
    44
1041
2.0
1070
   140
1041
3.0
1070
   343
1005
DB
1070
   344
1005
DB
1002
}
0
DIMENSION
5
FE
100
AcDbEntity
8
2
62
256
6
ByLayer
370
13
48
1
60
0
100
AcDbDimension
2
DimnDraft3D3
10
26.634396
20
6.385004
30
0
11
26.634396
21
-3.032102
31
0
70
32
71
5
72
1
41
1
210
0
220
0
230
1
3
Standard
100
AcDbAlignedDimension
13
15.237433
23
-6.314996
33
0
14
16.993782
24
6.385004
34
0
50
90
100
AcDbRotatedDimension
1001
ACAD
1000
DSTYLE
1002
{
1070
    74
1070
     0
1070
   279
1070
     0
1070
   172
1070
     1
1070
   173
1070
     1
1070
   340
1005
C9
1070
    77
1070
     1
1070
    73
1070
     0
1070
   171
1070
     3
1070
   274
1070
     4
1070
   177
1070
   254
1070
   176
1070
   254
1070
   178
1070
   254
1070
    78
1070
     8
1070
    41
1041
3.175
1070
   147
1041
1.5
1070
    42
1041
2.0
1070
    44
1041
2.0
1070
   140
1041
3.0
1070
   343
1005
DB
1070
   344
1005
DB
1002
}
0
DIMENSION
5
10C
100
AcDbEntity
8
SK2
62
256
6
ByLayer
370
13
48
1
60
0
100
AcDbDimension
2
DimnDraft3D4
10
-64.303881
20
6.385004
30
0
11
-64.303881
21
-3.032102
31
0
70
32
71
5
72
1
41
1
210
0
220
0
230
1
3
Standard
100
AcDbAlignedDimension
13
-54.006218
23
-6.314996
33
0
14
-56.756218
24
6.385004
34
0
50
90
100
AcDbRotatedDimension
1001
ACAD
1000
DSTYLE
1002
{
1070
    74
1070
     0
1070
   279
1070
     0
1070
   172
1070
     1
1070
   173
1070
     1
1070
   340
1005
C9
1070
    77
1070
     1
1070
    73
1070
     0
1070
   171
1070
     3
1070
   274
1070
     4
1070
   177
1070
   254
1070
   176
1070
   254
1070
   178
1070
   254
1070
    78
1070
     8
1070
    41
1041
3.175
1070
   147
1041
1.5
1070
    42
1041
2.0
1070
    44
1041
2.0
1070
   140
1041
3.0
1070
   343
1005
DB
1070
   344
1005
DB
1002
}
0
ENDSEC
0
SECTION
2
OBJECTS
0
DICTIONARY
5
176
330
0
100
AcDbDictionary
280
0
281
1
3
ACAD_GROUP
350
177
3
ACAD_MLINESTYLE
350
178
0
DICTIONARY
5
177
330
0
100
AcDbDictionary
280
0
281
1
0
DICTIONARY
5
178
330
0
100
AcDbDictionary
280
0
281
1
3
Standard
350
18
0
MLINESTYLE
5
18
330
178
100
AcDbMlineStyle
2
Standard
70
0
3

62
256
51
90
52
90
71
2
49
-0.5
62
256
6
ByLayer
49
0.5
62
256
6
ByLayer
0
RASTERVARIABLES
5
165
330

100
AcDbRasterVariables
90
0
70
1
71
1
72
1
0
ENDSEC
0
EOF
