0
SECTION
2
HEADER
9
$ACADVER
1
AC1015
9
$DWGCODEPAGE
3
ANSI_1252
9
$HANDSEED
5
183
9
$ANGBASE
50
0
9
$ANGDIR
70
0
9
$ATTMODE
70
1
9
$AUNITS
70
0
9
$AUPREC
70
0
9
$CECOLOR
62
256
9
$CELTSCALE
40
1
9
$CELTYPE
6
ByLayer
9
$CELWEIGHT
370
18
9
$CLAYER
8
0
9
$CMLJUST
70
0
9
$CMLSCALE
40
1
9
$CMLSTYLE
2
Standard
9
$DIMSTYLE
2
Standard
9
$TEXTSIZE
40
0.2
9
$TEXTSTYLE
7
Standard
9
$LUNITS
70
2
9
$LUPREC
70
4
9
$EXTNAMES
290
1
9
$INSUNITS
70
4
9
$LTSCALE
40
1
9
$LWDISPLAY
290
1
9
$PDMODE
70
0
9
$PDSIZE
40
0
9
$PLINEGEN
70
0
0
ENDSEC
0
SECTION
2
CLASSES
0
CLASS
1
RASTERVARIABLES
2
AcDbRasterVariables
3
ISM
90
0
280
0
281
0
0
ENDSEC
0
SECTION
2
TABLES
0
TABLE
2
VPORT
5
179
100
AcDbSymbolTable
0
VPORT
5
1
100
AcDbSymbolTableRecord
100
AcDbViewportTableRecord
2
*Active
70
0
10
0
20
0
11
1
21
1
12
-1
22
1
13
0
23
0
14
0.5
24
0.5
15
10
25
10
16
0
26
0
36
1
17
0
27
0
37
0
0
ENDTAB
0
TABLE
2
LTYPE
5
17a
100
AcDbSymbolTable
0
LTYPE
5
14
100
AcDbSymbolTableRecord
100
AcDbLinetypeTableRecord
70
0
2
ByBlock
3

72
65
73
0
40
0
0
LTYPE
5
15
100
AcDbSymbolTableRecord
100
AcDbLinetypeTableRecord
70
0
2
ByLayer
3

72
65
73
0
40
0
0
LTYPE
5
16
100
AcDbSymbolTableRecord
100
AcDbLinetypeTableRecord
70
0
2
CONTINUOUS
3
Solid line
72
65
73
0
40
0
0
LTYPE
5
6A
100
AcDbSymbolTableRecord
100
AcDbLinetypeTableRecord
70
0
2
CENTER
3
____ _ ____ _ ____ _ ____
72
65
73
4
40
47.5
49
22
74
0
49
-8.5
74
0
49
8.5
74
0
49
-8.5
74
0
0
LTYPE
5
6B
100
AcDbSymbolTableRecord
100
AcDbLinetypeTableRecord
70
0
2
DASHED
3
__ __ __ __ __ __ __ __ __
72
65
73
2
40
25.72
49
12.86
74
0
49
-12.86
74
0
0
ENDTAB
0
TABLE
2
LAYER
5
17b
100
AcDbSymbolTable
0
LAYER
5
10
100
AcDbSymbolTableRecord
100
AcDbLayerTableRecord
2
0
70
0
62
7
6
CONTINUOUS
290
1
370
-3
390
0
0
LAYER
5
6D
100
AcDbSymbolTableRecord
100
AcDbLayerTableRecord
2
81
70
0
62
-3
6
CONTINUOUS
290
1
370
-3
390
0
0
LAYER
5
6F
100
AcDbSymbolTableRecord
100
AcDbLayerTableRecord
2
80
70
0
62
-6
6
CONTINUOUS
290
1
370
-3
390
0
0
LAYER
5
73
100
AcDbSymbolTableRecord
100
AcDbLayerTableRecord
2
1
70
0
62
4
6
CONTINUOUS
290
1
370
-3
390
0
0
LAYER
5
E4
100
AcDbSymbolTableRecord
100
AcDbLayerTableRecord
2
2
70
0
62
7
6
CONTINUOUS
290
1
370
-3
390
0
0
LAYER
5
166
100
AcDbSymbolTableRecord
100
AcDbLayerTableRecord
2
SK1
70
0
62
4
6
CONTINUOUS
290
1
370
-3
390
0
0
LAYER
5
167
100
AcDbSymbolTableRecord
100
AcDbLayerTableRecord
2
SK6
70
0
62
5
6
CONTINUOUS
290
1
370
-3
390
0
0
LAYER
5
168
100
AcDbSymbolTableRecord
100
AcDbLayerTableRecord
2
SK2
70
0
62
7
6
CONTINUOUS
290
1
370
-3
390
0
0
ENDTAB
0
TABLE
2
STYLE
5
17c
100
AcDbSymbolTable
0
STYLE
5
11
100
AcDbSymbolTableRecord
100
AcDbTextStyleTableRecord
2
Standard
3
txt
70
0
71
0
40
0
41
1
42
0
50
0
0
STYLE
5
C9
100
AcDbSymbolTableRecord
100
AcDbTextStyleTableRecord
2
iso_b_vert
3
simplex.shx
70
0
71
0
40
0
41
1
42
0
50
0
0
STYLE
5
CA
100
AcDbSymbolTableRecord
100
AcDbTextStyleTableRecord
2
DWGDirectTextStyle
3
simplex
70
0
71
0
40
0
41
1
42
0
50
0
0
ENDTAB
0
TABLE
2
DIMSTYLE
5
17d
100
AcDbSymbolTable
100
AcDbDimStyleTable
0
DIMSTYLE
105
27
100
AcDbSymbolTableRecord
100
AcDbDimStyleTableRecord
2
Standard
70
0
3
<>
41
0.18
42
0.0625
44
0.18
140
0.18
147
0.09
73
0
74
0
77
1
271
2
275
0
278
52
280
0
340
11
0
ENDTAB
0
TABLE
2
VIEW
5
17e
100
AcDbSymbolTable
0
ENDTAB
0
TABLE
2
UCS
5
17f
100
AcDbSymbolTable
0
ENDTAB
0
TABLE
2
APPID
5
180
100
AcDbSymbolTable
0
APPID
5
12
100
AcDbSymbolTableRecord
100
AcDbRegAppTableRecord
2
ACAD
70
0
0
ENDTAB
0
TABLE
2
BLOCK_RECORD
5
181
100
AcDbSymbolTable
0
BLOCK_RECORD
5
1F
100
AcDbSymbolTableRecord
100
AcDbBlockTableRecord
2
*Model_Space
340
0
70
0
0
BLOCK_RECORD
5
1B
100
AcDbSymbolTableRecord
100
AcDbBlockTableRecord
2
*Paper_Space
340
0
70
0
0
BLOCK_RECORD
5
23
100
AcDbSymbolTableRecord
100
AcDbBlockTableRecord
2
*Paper_Space0
340
0
70
0
0
BLOCK_RECORD
5
CC
100
AcDbSymbolTableRecord
100
AcDbBlockTableRecord
2
DimnDraft3D1
340
0
70
0
0
BLOCK_RECORD
5
DB
100
AcDbSymbolTableRecord
100
AcDbBlockTableRecord
2
_CLOSED
340
0
70
0
0
BLOCK_RECORD
5
E2
100
AcDbSymbolTableRecord
100
AcDbBlockTableRecord
2
DimnDraft3D2
340
0
70
0
0
BLOCK_RECORD
5
F1
100
AcDbSymbolTableRecord
100
AcDbBlockTableRecord
2
DimnDraft3D3
340
0
70
0
0
BLOCK_RECORD
5
FF
100
AcDbSymbolTableRecord
100
AcDbBlockTableRecord
2
DimnDraft3D44
340
0
70
0
0
ENDTAB
0
ENDSEC
0
SECTION
2
BLOCKS
0
BLOCK
5
20
100
AcDbEntity
8
0
100
AcDbBlockBegin
2
*Model_Space
70
0
10
0
20
0
30
0
3
*Model_Space
0
ENDBLK
5
21
100
AcDbEntity
8
0
100
AcDbBlockEnd
0
BLOCK
5
1C
100
AcDbEntity
8
0
100
AcDbBlockBegin
2
*Paper_Space
70
0
10
0
20
0
30
0
3
*Paper_Space
0
ENDBLK
5
1D
100
AcDbEntity
8
0
100
AcDbBlockEnd
0
BLOCK
5
24
100
AcDbEntity
8
0
100
AcDbBlockBegin
2
*Paper_Space0
70
0
10
0
20
0
30
0
3
*Paper_Space0
0
ENDBLK
5
25
100
AcDbEntity
8
0
100
AcDbBlockEnd
0
BLOCK
5
D8
100
AcDbEntity
8
0
100
AcDbBlockBegin
2
DimnDraft3D1
70
0
10
0
20
0
30
0
3
DimnDraft3D1
0
MTEXT
5
CD
100
AcDbEntity
8
SK2
62
256
6
ByLayer
370
18
48
1
60
0
100
AcDbMText
10
-19.916218
20
20.51157
30
0
210
0
220
0
230
1
1
\W0.6563;70
40
3
41
0
44
1.084337
50
0
71
8
72
5
7
iso_b_vert
0
LINE
5
CF
100
AcDbEntity
8
SK2
62
256
6
ByLayer
370
13
48
1
60
0
100
AcDbLine
10
-54.916218
20
8.1
30
0
11
-54.916218
21
21.76157
31
0
39
0
210
0
220
0
230
1
0
LINE
5
D0
100
AcDbEntity
8
SK2
62
256
6
ByLayer
370
13
48
1
60
0
100
AcDbLine
10
15.083782
20
8.35
30
0
11
15.083782
21
21.76157
31
0
39
0
210
0
220
0
230
1
0
LINE
5
D1
100
AcDbEntity
8
SK2
62
256
6
ByLayer
370
13
48
1
60
0
100
AcDbLine
10
-54.916218
20
19.76157
30
0
11
15.083782
21
19.76157
31
0
39
0
210
0
220
0
230
1
0
LINE
5
D2
100
AcDbEntity
8
SK2
62
256
6
ByLayer
370
13
48
1
60
0
100
AcDbLine
10
-54.916218
20
19.76157
30
0
11
-51.741219
21
20.179566
31
0
39
0
210
0
220
0
230
1
0
LINE
5
D3
100
AcDbEntity
8
SK2
62
256
6
ByLayer
370
13
48
1
60
0
100
AcDbLine
10
-54.916218
20
19.76157
30
0
11
-51.741216
21
19.343573
31
0
39
0
210
0
220
0
230
1
0
LINE
5
D4
100
AcDbEntity
8
SK2
62
256
6
ByLayer
370
13
48
1
60
0
100
AcDbLine
10
-51.741219
20
20.179566
30
0
11
-51.741216
21
19.343573
31
0
39
0
210
0
220
0
230
1
0
LINE
5
D5
100
AcDbEntity
8
SK2
62
256
6
ByLayer
370
13
48
1
60
0
100
AcDbLine
10
15.083782
20
19.76157
30
0
11
11.908784
21
19.343573
31
0
39
0
210
0
220
0
230
1
0
LINE
5
D6
100
AcDbEntity
8
SK2
62
256
6
ByLayer
370
13
48
1
60
0
100
AcDbLine
10
15.083782
20
19.76157
30
0
11
11.908781
21
20.179566
31
0
39
0
210
0
220
0
230
1
0
LINE
5
D7
100
AcDbEntity
8
SK2
62
256
6
ByLayer
370
13
48
1
60
0
100
AcDbLine
10
11.908784
20
19.343573
30
0
11
11.908781
21
20.179566
31
0
39
0
210
0
220
0
230
1
0
ENDBLK
5
D9
100
AcDbEntity
8
0
100
AcDbBlockEnd
0
BLOCK
5
DC
100
AcDbEntity
8
0
100
AcDbBlockBegin
2
_CLOSED
70
0
10
0
20
0
30
0
3
_CLOSED
0
LINE
5
DE
100
AcDbEntity
8
0
62
256
6
ByLayer
370
-2
48
1
60
0
100
AcDbLine
10
-1
20
0.166667
30
0
11
0
21
0
31
0
39
0
210
0
220
0
230
1
0
LINE
5
DF
100
AcDbEntity
8
0
62
256
6
ByLayer
370
-2
48
1
60
0
100
AcDbLine
10
0
20
0
30
0
11
-1
21
-0.166667
31
0
39
0
210
0
220
0
230
1
0
LINE
5
E0
100
AcDbEntity
8
0
62
256
6
ByLayer
370
-2
48
1
60
0
100
AcDbLine
10
-1
20
0.166667
30
0
11
-1
21
-0.166667
31
0
39
0
210
0
220
0
230
1
0
LINE
5
E1
100
AcDbEntity
8
0
62
256
6
ByLayer
370
-2
48
1
60
0
100
AcDbLine
10
0
20
0
30
0
11
-1
21
0
31
0
39
0
210
0
220
0
230
1
0
ENDBLK
5
DD
100
AcDbEntity
8
0
100
AcDbBlockEnd
0
BLOCK
5
EE
100
AcDbEntity
8
0
100
AcDbBlockBegin
2
DimnDraft3D2
70
0
10
0
20
0
30
0
3
DimnDraft3D2
0
MTEXT
5
E3
100
AcDbEntity
8
2
62
256
6
ByLayer
370
18
48
1
60
0
100
AcDbMText
10
24.543483
20
0
30
0
210
0
220
0
230
1
1
\W0.6367;12.7
40
3
41
0
44
1.084337
50
90
71
8
72
5
7
iso_b_vert
0
LINE
5
E5
100
AcDbEntity
8
2
62
256
6
ByLayer
370
13
48
1
60
0
100
AcDbLine
10
14.262005
20
-6.35
30
0
11
27.293483
21
-6.35
31
0
39
0
210
0
220
0
230
1
0
LINE
5
E6
100
AcDbEntity
8
2
62
256
6
ByLayer
370
13
48
1
60
0
100
AcDbLine
10
17.083782
20
6.35
30
0
11
27.293483
21
6.35
31
0
39
0
210
0
220
0
230
1
0
LINE
5
E7
100
AcDbEntity
8
2
62
256
6
ByLayer
370
13
48
1
60
0
100
AcDbLine
10
25.293483
20
-13.85
30
0
11
25.293483
21
13.85
31
0
39
0
210
0
220
0
230
1
0
LINE
5
E8
100
AcDbEntity
8
2
62
256
6
ByLayer
370
13
48
1
60
0
100
AcDbLine
10
25.293483
20
-6.35
30
0
11
25.71148
21
-9.524998
31
0
39
0
210
0
220
0
230
1
0
LINE
5
E9
100
AcDbEntity
8
2
62
256
6
ByLayer
370
13
48
1
60
0
100
AcDbLine
10
25.293483
20
-6.35
30
0
11
24.875486
21
-9.525002
31
0
39
0
210
0
220
0
230
1
0
LINE
5
EA
100
AcDbEntity
8
2
62
256
6
ByLayer
370
13
48
1
60
0
100
AcDbLine
10
25.71148
20
-9.524998
30
0
11
24.875486
21
-9.525002
31
0
39
0
210
0
220
0
230
1
0
LINE
5
EB
100
AcDbEntity
8
2
62
256
6
ByLayer
370
13
48
1
60
0
100
AcDbLine
10
25.293483
20
6.35
30
0
11
24.875486
21
9.524998
31
0
39
0
210
0
220
0
230
1
0
LINE
5
EC
100
AcDbEntity
8
2
62
256
6
ByLayer
370
13
48
1
60
0
100
AcDbLine
10
25.293483
20
6.35
30
0
11
25.71148
21
9.525002
31
0
39
0
210
0
220
0
230
1
0
LINE
5
ED
100
AcDbEntity
8
2
62
256
6
ByLayer
370
13
48
1
60
0
100
AcDbLine
10
24.875486
20
9.524998
30
0
11
25.71148
21
9.525002
31
0
39
0
210
0
220
0
230
1
0
ENDBLK
5
EF
100
AcDbEntity
8
0
100
AcDbBlockEnd
0
BLOCK
5
FC
100
AcDbEntity
8
0
100
AcDbBlockBegin
2
DimnDraft3D3
70
0
10
0
20
0
30
0
3
DimnDraft3D3
0
MTEXT
5
F2
100
AcDbEntity
8
SK2
62
256
6
ByLayer
370
18
48
1
60
0
100
AcDbMText
10
-63.793442
20
0
30
0
210
0
220
0
230
1
1
\W0.6367;12.7
40
3
41
0
44
1.084337
50
90
71
8
72
5
7
iso_b_vert
0
LINE
5
F3
100
AcDbEntity
8
SK2
62
256
6
ByLayer
370
13
48
1
60
0
100
AcDbLine
10
-53.916218
20
-6.35
30
0
11
-65.043442
21
-6.35
31
0
39
0
210
0
220
0
230
1
0
LINE
5
F4
100
AcDbEntity
8
SK2
62
256
6
ByLayer
370
13
48
1
60
0
100
AcDbLine
10
-56.666218
20
6.35
30
0
11
-65.043442
21
6.35
31
0
39
0
210
0
220
0
230
1
0
LINE
5
F5
100
AcDbEntity
8
SK2
62
256
6
ByLayer
370
13
48
1
60
0
100
AcDbLine
10
-63.043442
20
-13.85
30
0
11
-63.043442
21
13.85
31
0
39
0
210
0
220
0
230
1
0
LINE
5
F6
100
AcDbEntity
8
SK2
62
256
6
ByLayer
370
13
48
1
60
0
100
AcDbLine
10
-63.043442
20
-6.35
30
0
11
-62.625446
21
-9.524998
31
0
39
0
210
0
220
0
230
1
0
LINE
5
F7
100
AcDbEntity
8
SK2
62
256
6
ByLayer
370
13
48
1
60
0
100
AcDbLine
10
-63.043442
20
-6.35
30
0
11
-63.461439
21
-9.525002
31
0
39
0
210
0
220
0
230
1
0
LINE
5
F8
100
AcDbEntity
8
SK2
62
256
6
ByLayer
370
13
48
1
60
0
100
AcDbLine
10
-62.625446
20
-9.524998
30
0
11
-63.461439
21
-9.525002
31
0
39
0
210
0
220
0
230
1
0
LINE
5
F9
100
AcDbEntity
8
SK2
62
256
6
ByLayer
370
13
48
1
60
0
100
AcDbLine
10
-63.043442
20
6.35
30
0
11
-63.461439
21
9.524998
31
0
39
0
210
0
220
0
230
1
0
LINE
5
FA
100
AcDbEntity
8
SK2
62
256
6
ByLayer
370
13
48
1
60
0
100
AcDbLine
10
-63.043442
20
6.35
30
0
11
-62.625446
21
9.525002
31
0
39
0
210
0
220
0
230
1
0
LINE
5
FB
100
AcDbEntity
8
SK2
62
256
6
ByLayer
370
13
48
1
60
0
100
AcDbLine
10
-63.461439
20
9.524998
30
0
11
-62.625446
21
9.525002
31
0
39
0
210
0
220
0
230
1
0
ENDBLK
5
FD
100
AcDbEntity
8
0
100
AcDbBlockEnd
0
BLOCK
5
100
100
AcDbEntity
8
0
100
AcDbBlockBegin
2
DimnDraft3D44
70
0
10
0
20
0
30
0
3
DimnDraft3D44
0
LINE
5
102
100
AcDbEntity
8
2
62
256
6
ByLayer
370
25
48
1
60
0
100
AcDbLine
10
15.083782
20
8.35
30
0
11
15.083782
21
14.174655
31
0
39
0
210
0
220
0
230
1
0
LINE
5
103
100
AcDbEntity
8
2
62
256
6
ByLayer
370
25
48
1
60
0
100
AcDbLine
10
0
20
8.1
30
0
11
0
21
14.174655
31
0
39
0
210
0
220
0
230
1
0
LINE
5
104
100
AcDbEntity
8
2
62
256
6
ByLayer
370
25
48
1
60
0
100
AcDbLine
10
15.083782
20
12.174655
30
0
11
0
21
12.174655
31
0
39
0
210
0
220
0
230
1
0
LINE
5
105
100
AcDbEntity
8
2
62
256
6
ByLayer
370
25
48
1
60
0
100
AcDbLine
10
15.083782
20
12.174655
30
0
11
11.908784
21
11.756659
31
0
39
0
210
0
220
0
230
1
0
LINE
5
106
100
AcDbEntity
8
2
62
256
6
ByLayer
370
25
48
1
60
0
100
AcDbLine
10
15.083782
20
12.174655
30
0
11
11.908781
21
12.592652
31
0
39
0
210
0
220
0
230
1
0
LINE
5
107
100
AcDbEntity
8
2
62
256
6
ByLayer
370
25
48
1
60
0
100
AcDbLine
10
11.908784
20
11.756659
30
0
11
11.908781
21
12.592652
31
0
39
0
210
0
220
0
230
1
0
LINE
5
108
100
AcDbEntity
8
2
62
256
6
ByLayer
370
25
48
1
60
0
100
AcDbLine
10
0
20
12.174655
30
0
11
3.174998
21
12.592652
31
0
39
0
210
0
220
0
230
1
0
LINE
5
109
100
AcDbEntity
8
2
62
256
6
ByLayer
370
25
48
1
60
0
100
AcDbLine
10
0
20
12.174655
30
0
11
3.175002
21
11.756659
31
0
39
0
210
0
220
0
230
1
0
LINE
5
10A
100
AcDbEntity
8
2
62
256
6
ByLayer
370
25
48
1
60
0
100
AcDbLine
10
3.174998
20
12.592652
30
0
11
3.175002
21
11.756659
31
0
39
0
210
0
220
0
230
1
0
MTEXT
5
10B
100
AcDbEntity
8
2
62
256
6
ByLayer
370
18
48
1
60
0
100
AcDbMText
10
7.541891
20
12.924655
30
0
210
0
220
0
230
1
1
\W0.5144;15
40
3
41
0
44
1.084337
50
0
71
8
72
5
7
iso_b_vert
0
ENDBLK
5
101
100
AcDbEntity
8
0
100
AcDbBlockEnd
0
ENDSEC
0
SECTION
2
ENTITIES
0
ARC
5
92
100
AcDbEntity
8
1
62
256
6
ByLayer
370
18
48
1
60
0
100
AcDbCircle
39
0
10
5.996014
20
-2.388254
30
0
40
1.5
210
0
220
0
230
1
100
AcDbArc
50
270.25
51
328.364956
0
ARC
5
93
100
AcDbEntity
8
1
62
256
6
ByLayer
370
18
48
1
60
0
100
AcDbCircle
39
0
10
-4.581019
20
-2.590619
30
0
40
1.5
210
0
220
0
230
-1
100
AcDbArc
50
202.92862
51
236.917661
0
ARC
5
96
100
AcDbEntity
8
1
62
256
6
ByLayer
370
18
48
1
60
0
100
AcDbCircle
39
0
10
-14.289782
20
5.556
30
0
40
0.793999999999988
210
0
220
0
230
-1
100
AcDbArc
50
90
51
190
0
ARC
5
97
100
AcDbEntity
8
1
62
256
6
ByLayer
370
18
48
1
60
0
100
AcDbCircle
39
0
10
-4.830834
20
-2.381
30
0
40
0.793999999999996
210
0
220
0
230
-1
100
AcDbArc
50
270
51
10
0
ARC
5
98
100
AcDbEntity
8
SK1
62
256
6
ByLayer
370
18
48
1
60
0
100
AcDbCircle
39
0
10
0.400713
20
-6.05
30
0
40
0.400000000000764
210
0
220
0
230
1
100
AcDbArc
50
195
51
228.590378
0
ARC
5
99
100
AcDbEntity
8
1
62
256
6
ByLayer
370
18
48
1
60
0
100
AcDbCircle
39
0
10
4.581019
20
-2.590619
30
0
40
1.5
210
0
220
0
230
1
100
AcDbArc
50
102.930364
51
294.60778
0
ARC
5
9A
100
AcDbEntity
8
1
62
256
6
ByLayer
370
18
48
1
60
0
100
AcDbCircle
39
0
10
5.996014
20
-2.388254
30
0
40
1.65760570491723
210
0
220
0
230
1
100
AcDbArc
50
270.25
51
331.66467
0
ARC
5
9B
100
AcDbEntity
8
1
62
256
6
ByLayer
370
18
48
1
60
0
100
AcDbCircle
39
0
10
5.751716
20
-2.38932
30
0
40
1.5
210
0
220
0
230
1
100
AcDbArc
50
256.430729
51
270.25
0
ARC
5
9C
100
AcDbEntity
8
1
62
256
6
ByLayer
370
18
48
1
60
0
100
AcDbCircle
39
0
10
5.751716
20
-2.38932
30
0
40
1.65760570491723
210
0
220
0
230
1
100
AcDbArc
50
250.76489
51
270.25
0
ARC
5
9E
100
AcDbEntity
8
1
62
256
6
ByLayer
370
18
48
1
60
0
100
AcDbCircle
39
0
10
-9.560308
20
1.5875
30
0
40
1.6765
210
0
220
0
230
-1
100
AcDbArc
50
80.159887
51
140
0
ARC
5
9F
100
AcDbEntity
8
1
62
256
6
ByLayer
370
18
48
1
60
0
100
AcDbCircle
39
0
10
-9.560308
20
1.5875
30
0
40
1.6765
210
0
220
0
230
-1
100
AcDbArc
50
19.840113
51
80.159887
0
ARC
5
A0
100
AcDbEntity
8
1
62
256
6
ByLayer
370
18
48
1
60
0
100
AcDbCircle
39
0
10
9.560308
20
1.5875
30
0
40
1.2065
210
0
220
0
230
1
100
AcDbArc
50
10.079943
51
69.920057
0
ARC
5
A1
100
AcDbEntity
8
1
62
256
6
ByLayer
370
18
48
1
60
0
100
AcDbCircle
39
0
10
9.560308
20
1.5875
30
0
40
1.2065
210
0
220
0
230
1
100
AcDbArc
50
313.955279
51
10.079943
0
ARC
5
A2
100
AcDbEntity
8
1
62
256
6
ByLayer
370
18
48
1
60
0
100
AcDbCircle
39
0
10
9.560308
20
1.5875
30
0
40
1.2065
210
0
220
0
230
1
100
AcDbArc
50
249.920057
51
306.044721
0
ARC
5
A3
100
AcDbEntity
8
1
62
256
6
ByLayer
370
18
48
1
60
0
100
AcDbCircle
39
0
10
9.560308
20
1.5875
30
0
40
1.2065
210
0
220
0
230
1
100
AcDbArc
50
190.079943
51
249.920057
0
ARC
5
A4
100
AcDbEntity
8
1
62
256
6
ByLayer
370
18
48
1
60
0
100
AcDbCircle
39
0
10
-9.560308
20
1.5875
30
0
40
1.2065
210
0
220
0
230
-1
100
AcDbArc
50
349.920057
51
46.044721
0
ARC
5
A5
100
AcDbEntity
8
1
62
256
6
ByLayer
370
18
48
1
60
0
100
AcDbCircle
39
0
10
9.560308
20
1.5875
30
0
40
1.2065
210
0
220
0
230
1
100
AcDbArc
50
69.920057
51
126.044721
0
ARC
5
A6
100
AcDbEntity
8
1
62
256
6
ByLayer
370
18
48
1
60
0
100
AcDbCircle
39
0
10
-9.560308
20
1.5875
30
0
40
1.6765
210
0
220
0
230
-1
100
AcDbArc
50
140
51
199.840113
0
ARC
5
A7
100
AcDbEntity
8
1
62
256
6
ByLayer
370
18
48
1
60
0
100
AcDbCircle
39
0
10
-9.560308
20
1.5875
30
0
40
1.2065
210
0
220
0
230
-1
100
AcDbArc
50
46.044721
51
53.955279
0
ARC
5
A8
100
AcDbEntity
8
1
62
256
6
ByLayer
370
18
48
1
60
0
100
AcDbCircle
39
0
10
-9.560308
20
1.5875
30
0
40
1.6765
210
0
220
0
230
-1
100
AcDbArc
50
320
51
19.840113
0
ARC
5
A9
100
AcDbEntity
8
1
62
256
6
ByLayer
370
18
48
1
60
0
100
AcDbCircle
39
0
10
-9.560308
20
1.5875
30
0
40
1.2065
210
0
220
0
230
-1
100
AcDbArc
50
226.044721
51
233.955279
0
ARC
5
AA
100
AcDbEntity
8
1
62
256
6
ByLayer
370
18
48
1
60
0
100
AcDbCircle
39
0
10
-9.560308
20
1.5875
30
0
40
1.6765
210
0
220
0
230
-1
100
AcDbArc
50
199.840113
51
260.159887
0
ARC
5
AB
100
AcDbEntity
8
1
62
256
6
ByLayer
370
18
48
1
60
0
100
AcDbCircle
39
0
10
-9.560308
20
1.5875
30
0
40
1.6765
210
0
220
0
230
-1
100
AcDbArc
50
260.159887
51
320
0
ARC
5
AD
100
AcDbEntity
8
1
62
256
6
ByLayer
370
18
48
1
60
0
100
AcDbCircle
39
0
10
-12.890275
20
-2.381
30
0
40
0.793999999999988
210
0
220
0
230
-1
100
AcDbArc
50
190
51
270
0
ARC
5
AE
100
AcDbEntity
8
1
62
256
6
ByLayer
370
18
48
1
60
0
100
AcDbCircle
39
0
10
-2.376675
20
10.642893
30
0
40
5
210
0
220
0
230
-1
100
AcDbArc
50
270
51
293.277979
0
ARC
5
AF
100
AcDbEntity
8
SK1
62
256
6
ByLayer
370
18
48
1
60
0
100
AcDbCircle
39
0
10
0.400713
20
6.05
30
0
40
0.399999999928028
210
0
220
0
230
1
100
AcDbArc
50
154.442055
51
165
0
ARC
5
B0
100
AcDbEntity
8
1
62
256
6
ByLayer
370
18
48
1
60
0
100
AcDbCircle
39
0
10
-6.230341
20
5.556
30
0
40
0.793999999999995
210
0
220
0
230
-1
100
AcDbArc
50
10
51
90
0
CIRCLE
5
91
100
AcDbEntity
8
1
62
256
6
ByLayer
370
18
48
1
60
0
100
AcDbCircle
10
-9.560308
20
1.5875
30
0
40
1.8
39
0
210
0
220
0
230
-1
0
CIRCLE
5
94
100
AcDbEntity
8
1
62
256
6
ByLayer
370
18
48
1
60
0
100
AcDbCircle
10
-9.560308
20
1.5875
30
0
40
3.00605207334198
39
0
210
0
220
0
230
-1
0
CIRCLE
5
95
100
AcDbEntity
8
1
62
256
6
ByLayer
370
18
48
1
60
0
100
AcDbCircle
10
9.560308
20
1.5875
30
0
40
2.95049568210608
39
0
210
0
220
0
230
1
0
CIRCLE
5
9D
100
AcDbEntity
8
1
62
256
6
ByLayer
370
18
48
1
60
0
100
AcDbCircle
10
-9.560308
20
1.5875
30
0
40
2.625
39
0
210
0
220
0
230
-1
0
CIRCLE
5
AC
100
AcDbEntity
8
1
62
256
6
ByLayer
370
18
48
1
60
0
100
AcDbCircle
10
-9.560308
20
1.5875
30
0
40
3.07132534818238
39
0
210
0
220
0
230
-1
0
ELLIPSE
5
B1
100
AcDbEntity
8
SK1
62
256
6
ByLayer
370
18
48
1
60
0
100
AcDbEllipse
10
2.376675
20
10.642893
30
0
11
-2.44305237858911
21
-4.36251022112013
31
0
210
0
220
0
230
1
40
1
41
-0.0278090546955038
42
0.0241892272477936
0
POINT
5
6C
100
AcDbEntity
8
81
62
256
6
ByLayer
370
18
48
1
60
0
100
AcDbPoint
10
15.083782
20
6.35
30
0
39
0
210
0
220
0
230
1
50
360
0
POINT
5
6E
100
AcDbEntity
8
80
62
256
6
ByLayer
370
18
48
1
60
0
100
AcDbPoint
10
0
20
0
30
0
39
0
210
0
220
0
230
1
50
360
0
SPLINE
5
B2
100
AcDbEntity
8
1
62
256
6
ByLayer
370
18
48
1
60
0
100
AcDbSpline
70
4
71
3
72
8
73
4
40
0
40
0
40
0
40
0
40
1
40
1
40
1
40
1
41
1
10
5.39978477974873
20
-3.84744997396635
30
0
41
1
10
5.33922091236755
20
-3.88690446624611
30
0
41
1
10
5.27453660341448
20
-3.92282757741052
30
0
41
1
10
5.20562557571469
20
-3.9543888281768
30
0
0
SPLINE
5
B3
100
AcDbEntity
8
1
62
256
6
ByLayer
370
18
48
1
60
0
100
AcDbSpline
70
4
71
3
72
18
73
14
40
0
40
0
40
0
40
0
40
0.212491695755302
40
0.212491695755302
40
0.386618276853805
40
0.386618276853805
40
0.562426360907933
40
0.562426360907933
40
0.715388416645937
40
0.715388416645937
40
0.918249208689863
40
0.918249208689863
40
1
40
1
40
1
40
1
41
1
10
9.58833829470825
20
3.07503968965966
30
0
41
1
10
9.61833367762179
20
3.01071643996443
30
0
41
1
10
9.65947814221803
20
2.94894882822513
30
0
41
1
10
9.75303063613347
20
2.84970068553892
30
0
41
1
10
9.80323655269999
20
2.8088392806022
30
0
41
1
10
9.91469661925163
20
2.74239656797255
30
0
41
1
10
9.97780171481824
20
2.71614495574374
30
0
41
1
10
10.0971992640888
20
2.68587327525756
30
0
41
1
10
10.1547133776359
20
2.6789616539595
30
0
41
1
10
10.2832756458604
20
2.67896578039677
30
0
41
1
10
10.3548490558416
20
2.69088139908948
30
0
41
1
10
10.4472086282902
20
2.7206448961725
30
0
41
1
10
10.4731876816565
20
2.73083207867918
30
0
41
1
10
10.4982343045056
20
2.74242615694215
30
0
0
SPLINE
5
B4
100
AcDbEntity
8
1
62
256
6
ByLayer
370
18
48
1
60
0
100
AcDbSpline
70
4
71
3
72
16
73
12
40
0
40
0
40
0
40
0
40
0.0624450082614033
40
0.0624450082614033
40
0.283207995985775
40
0.283207995985775
40
0.506745688833536
40
0.506745688833536
40
0.744607284736972
40
0.744607284736972
40
1
40
1
40
1
40
1
41
1
10
9.27379532129555
20
3.23933615596513
30
0
41
1
10
9.2654857118176
20
3.23789484523383
30
0
41
1
10
9.25722919670818
20
3.23609089971549
30
0
41
1
10
9.22047191619032
20
3.22637568024072
30
0
41
1
10
9.19276820574271
20
3.21425353796971
30
0
41
1
10
9.14313280768368
20
3.1830012964889
30
0
41
1
10
9.12063365365771
20
3.16340731865449
30
0
41
1
10
9.0821684373154
20
3.11853282183054
30
0
41
1
10
9.06620740961785
20
3.09242722817234
30
0
41
1
10
9.04250403987319
20
3.03640202528166
30
0
41
1
10
9.03513725635926
20
3.00568043121041
30
0
41
1
10
9.03266486637813
20
2.97537543444028
30
0
0
SPLINE
5
B5
100
AcDbEntity
8
1
62
256
6
ByLayer
370
18
48
1
60
0
100
AcDbSpline
70
4
71
3
72
14
73
10
40
0
40
0
40
0
40
0
40
0.283961749036713
40
0.283961749036713
40
0.570285189259025
40
0.570285189259025
40
0.82945109433568
40
0.82945109433568
40
1
40
1
40
1
40
1
41
1
10
9.58833829470825
20
3.07503968965966
30
0
41
1
10
9.57416907587512
20
3.1054247060342
30
0
41
1
10
9.55418799216025
20
3.13426616045479
30
0
41
1
10
9.50453694196699
20
3.18356302974502
30
0
41
1
10
9.47397482069684
20
3.2046657940754
30
0
41
1
10
9.40988238517386
20
3.23259605816352
30
0
41
1
10
9.37591670836372
20
3.24095399028133
30
0
41
1
10
9.31922821631125
20
3.24447041627923
30
0
41
1
10
9.2961905650219
20
3.24322063515751
30
0
41
1
10
9.27379532129555
20
3.23933615596513
30
0
0
SPLINE
5
B6
100
AcDbEntity
8
1
62
256
6
ByLayer
370
18
48
1
60
0
100
AcDbSpline
70
4
71
3
72
12
73
8
40
0
40
0
40
0
40
0
40
0.422118633920774
40
0.422118633920774
40
0.843213619146908
40
0.843213619146908
40
1
40
1
40
1
40
1
41
1
10
8.85038352889848
20
2.5630251787853
30
0
41
1
10
8.89675263343108
20
2.61269426028778
30
0
41
1
10
8.93535189865088
20
2.66935435207174
30
0
41
1
10
8.99272242326742
20
2.78551410693183
30
0
41
1
10
9.01249130632161
20
2.84653859743753
30
0
41
1
10
9.02780864407143
20
2.92984889446194
30
0
41
1
10
9.03081067757378
20
2.95264795772491
30
0
41
1
10
9.03266486637813
20
2.97537543444025
30
0
0
SPLINE
5
B7
100
AcDbEntity
8
1
62
256
6
ByLayer
370
18
48
1
60
0
100
AcDbSpline
70
4
71
3
72
14
73
10
40
0
40
0
40
0
40
0
40
0.283961457856589
40
0.283961457856589
40
0.570284934646621
40
0.570284934646621
40
0.829450869060465
40
0.829450869060465
40
1
40
1
40
1
40
1
41
1
10
10.8605574974328
20
2.31062619009103
30
0
41
1
10
10.8797103517758
20
2.33814312768249
30
0
41
1
10
10.8946086432069
20
2.36990964149968
30
0
41
1
10
10.9122866328266
20
2.43760670191574
30
0
41
1
10
10.9151778010083
20
2.47463387179266
30
0
41
1
10
10.9071260935729
20
2.54408249164129
30
0
41
1
10
10.8972877389099
20
2.57764927925999
30
0
41
1
10
10.8718470021564
20
2.62843040784213
30
0
41
1
10
10.8591919383616
20
2.64772149729305
30
0
41
1
10
10.8445815940298
20
2.66513342763946
30
0
0
SPLINE
5
B8
100
AcDbEntity
8
1
62
256
6
ByLayer
370
18
48
1
60
0
100
AcDbSpline
70
4
71
3
72
16
73
12
40
0
40
0
40
0
40
0
40
0.0630415689509294
40
0.0630415689509294
40
0.285914332024976
40
0.285914332024976
40
0.511588305408905
40
0.511588305408905
40
0.751723061839372
40
0.751723061839372
40
1
40
1
40
1
40
1
41
1
10
10.8445815940298
20
2.66513342763946
30
0
41
1
10
10.8391605458416
20
2.67159398129337
30
0
41
1
10
10.8334526312238
20
2.67782643656011
30
0
41
1
10
10.8065852200054
20
2.70472668396817
30
0
41
1
10
10.7821853433362
20
2.72258971797504
30
0
41
1
10
10.7302262706366
20
2.74980423942736
30
0
41
1
10
10.7019808894351
20
2.75941331472245
30
0
41
1
10
10.6438557115354
20
2.77012577764407
30
0
41
1
10
10.6132650625442
20
2.7708102831088
30
0
41
1
10
10.5540487091268
20
2.76330072158825
30
0
41
1
10
10.5248548083266
20
2.75474878448986
30
0
41
1
10
10.4982343045057
20
2.74242615694215
30
0
0
SPLINE
5
B9
100
AcDbEntity
8
1
62
256
6
ByLayer
370
18
48
1
60
0
100
AcDbSpline
70
4
71
3
72
16
73
12
40
0
40
0
40
0
40
0
40
0.0569446172824999
40
0.0569446172824999
40
0.279906644834072
40
0.279906644834072
40
0.505321967306684
40
0.505321967306684
40
0.744915047128813
40
0.744915047128813
40
1
40
1
40
1
40
1
41
1
10
11.1372967189211
20
1.01850167054053
30
0
41
1
10
11.1398840205465
20
1.02567242139168
30
0
41
1
10
11.1421923108014
20
1.03295143584839
30
0
41
1
10
11.1520488113995
20
1.06885197945059
30
0
41
1
10
11.1554865351232
20
1.09892505603187
30
0
41
1
10
11.1533835867954
20
1.15756172030458
30
0
41
1
10
11.1477403137612
20
1.18685275727387
30
0
41
1
10
11.1282659349424
20
1.24261389404003
30
0
41
1
10
11.1137282944833
20
1.26949959717828
30
0
41
1
10
11.0773979911418
20
1.31788467356421
30
0
41
1
10
11.0547912165098
20
1.339517657942
30
0
41
1
10
11.0301160992421
20
1.3567958113839
30
0
0
SPLINE
5
BA
100
AcDbEntity
8
1
62
256
6
ByLayer
370
18
48
1
60
0
100
AcDbSpline
70
4
71
3
72
18
73
14
40
0
40
0
40
0
40
0
40
0.212491592102414
40
0.212491592102414
40
0.386618191488472
40
0.386618191488472
40
0.56242629505081
40
0.56242629505081
40
0.715388354469454
40
0.715388354469454
40
0.918249128147155
40
0.918249128147155
40
1
40
1
40
1
40
1
41
1
10
10.8605574974328
20
2.31062619009103
30
0
41
1
10
10.8200120366589
20
2.25237445936989
30
0
41
1
10
10.7872777043646
20
2.18576693334171
30
0
41
1
10
10.7484672444197
20
2.05501525382809
30
0
41
1
10
10.7383615619505
20
1.9910764997714
30
0
41
1
10
10.7369125760147
20
1.86132333454276
30
0
41
1
10
10.7459196516659
20
1.79357177480097
30
0
41
1
10
10.7797330242817
20
1.67512850734428
30
0
41
1
10
10.8026529850451
20
1.62192776044543
30
0
41
1
10
10.8672481183143
20
1.51077145198991
30
0
41
1
10
10.9135102076071
20
1.45487374737181
30
0
41
1
10
10.9856473434269
20
1.38997078445948
30
0
41
1
10
11.0075077341706
20
1.37262677163977
30
0
41
1
10
11.030116099242
20
1.35679581138393
30
0
0
SPLINE
5
BB
100
AcDbEntity
8
1
62
256
6
ByLayer
370
18
48
1
60
0
100
AcDbSpline
70
4
71
3
72
12
73
8
40
0
40
0
40
0
40
0
40
0.49577967678036
40
0.49577967678036
40
0.900233025448792
40
0.900233025448792
40
1
40
1
40
1
40
1
41
1
10
8.28514188048533
20
2.34812917268107
30
0
41
1
10
8.35615631772299
20
2.34149643750496
30
0
41
1
10
8.43059317923243
20
2.34588638540109
30
0
41
1
10
8.56381178832231
20
2.37678351796924
30
0
41
1
10
8.62441235714269
20
2.39957065494522
30
0
41
1
10
8.69522368238128
20
2.43875186313784
30
0
41
1
10
8.70919497654796
20
2.44713905782891
30
0
41
1
10
8.72288043128691
20
2.45603737660548
30
0
0
SPLINE
5
BC
100
AcDbEntity
8
1
62
256
6
ByLayer
370
18
48
1
60
0
100
AcDbSpline
70
4
71
3
72
16
73
12
40
0
40
0
40
0
40
0
40
0.0569446172824982
40
0.0569446172824982
40
0.279906644834072
40
0.279906644834072
40
0.505321967306684
40
0.505321967306684
40
0.744915047128815
40
0.744915047128815
40
1
40
1
40
1
40
1
41
1
10
7.9833194513605
20
2.15649832945945
30
0
41
1
10
7.98073214973519
20
2.14932757860831
30
0
41
1
10
7.97842385948027
20
2.14204856415159
30
0
41
1
10
7.9685673588821
20
2.1061480205494
30
0
41
1
10
7.96512963515846
20
2.07607494396811
30
0
41
1
10
7.96723258348621
20
2.0174382796954
30
0
41
1
10
7.9728758565204
20
1.98814724272611
30
0
41
1
10
7.99235023533922
20
1.93238610595995
30
0
41
1
10
8.00688787579838
20
1.9055004028217
30
0
41
1
10
8.04321817913984
20
1.85711532643577
30
0
41
1
10
8.06582495377185
20
1.83548234205799
30
0
41
1
10
8.0905000710396
20
1.81820418861608
30
0
0
SPLINE
5
BD
100
AcDbEntity
8
1
62
256
6
ByLayer
370
18
48
1
60
0
100
AcDbSpline
70
4
71
3
72
14
73
10
40
0
40
0
40
0
40
0
40
0.282169922576107
40
0.282169922576107
40
0.566902245317965
40
0.566902245317965
40
0.824523972080262
40
0.824523972080262
40
1
40
1
40
1
40
1
41
1
10
8.28514188048533
20
2.34812917268107
30
0
41
1
10
8.25169541378074
20
2.35125306642516
30
0
41
1
10
8.21665044767181
20
2.3485582887142
30
0
41
1
10
8.14889690184802
20
2.33052474724585
30
0
41
1
10
8.11517756093482
20
2.31473086726552
30
0
41
1
10
8.05862266868886
20
2.27332840465357
30
0
41
1
10
8.03423728903687
20
2.248121552025
30
0
41
1
10
8.00215702345082
20
2.20009911401996
30
0
41
1
10
7.99132960393746
20
2.17869860477615
30
0
41
1
10
7.9833194513605
20
2.15649832945945
30
0
0
SPLINE
5
BE
100
AcDbEntity
8
1
62
256
6
ByLayer
370
18
48
1
60
0
100
AcDbSpline
70
4
71
3
72
18
73
14
40
0
40
0
40
0
40
0
40
0.212491592102414
40
0.212491592102414
40
0.386618191488472
40
0.386618191488472
40
0.56242629505081
40
0.56242629505081
40
0.715388354469454
40
0.715388354469454
40
0.918249128147155
40
0.918249128147155
40
1
40
1
40
1
40
1
41
1
10
8.26005867284886
20
0.864373809908955
30
0
41
1
10
8.30060413362278
20
0.922625540630065
30
0
41
1
10
8.33333846591702
20
0.989233066658272
30
0
41
1
10
8.37214892586198
20
1.1199847461719
30
0
41
1
10
8.38225460833115
20
1.18392350022859
30
0
41
1
10
8.3837035942669
20
1.31367666545722
30
0
41
1
10
8.37469651861576
20
1.38142822519902
30
0
41
1
10
8.34088314599998
20
1.4998714926557
30
0
41
1
10
8.31796318523655
20
1.55307223955455
30
0
41
1
10
8.25336805196739
20
1.66422854801007
30
0
41
1
10
8.20710596267452
20
1.72012625262818
30
0
41
1
10
8.13496882685476
20
1.7850292155405
30
0
41
1
10
8.11310843611099
20
1.80237322836018
30
0
41
1
10
8.0905000710396
20
1.81820418861605
30
0
0
SPLINE
5
BF
100
AcDbEntity
8
1
62
256
6
ByLayer
370
18
48
1
60
0
100
AcDbSpline
70
4
71
3
72
14
73
10
40
0
40
0
40
0
40
0
40
0.283961457856589
40
0.283961457856589
40
0.570284934646621
40
0.570284934646621
40
0.829450869060465
40
0.829450869060465
40
1
40
1
40
1
40
1
41
1
10
8.26005867284886
20
0.864373809908955
30
0
41
1
10
8.24090581850581
20
0.836856872317497
30
0
41
1
10
8.22600752707476
20
0.805090358500308
30
0
41
1
10
8.20832953745503
20
0.737393298084243
30
0
41
1
10
8.20543836927328
20
0.700366128207321
30
0
41
1
10
8.21349007670878
20
0.630917508358692
30
0
41
1
10
8.22332843137175
20
0.597350720739996
30
0
41
1
10
8.24876916812519
20
0.546569592157852
30
0
41
1
10
8.26142423192007
20
0.527278502706935
30
0
41
1
10
8.27603457625185
20
0.509866572360494
30
0
0
SPLINE
5
C0
100
AcDbEntity
8
1
62
256
6
ByLayer
370
18
48
1
60
0
100
AcDbSpline
70
4
71
3
72
14
73
10
40
0
40
0
40
0
40
0
40
0.282169922576107
40
0.282169922576107
40
0.566902245317967
40
0.566902245317967
40
0.824523972080263
40
0.824523972080263
40
1
40
1
40
1
40
1
41
1
10
10.8354742897963
20
0.826870827318913
30
0
41
1
10
10.8689207565009
20
0.823746933574824
30
0
41
1
10
10.9039657226098
20
0.826441711285781
30
0
41
1
10
10.9717192684336
20
0.844475252754108
30
0
41
1
10
11.0054386093468
20
0.860269132734459
30
0
41
1
10
11.0619935015928
20
0.901671595346414
30
0
41
1
10
11.0863788812448
20
0.926878447974985
30
0
41
1
10
11.1184591468308
20
0.97490088598002
30
0
41
1
10
11.1292865663442
20
0.996301395223838
30
0
41
1
10
11.1372967189211
20
1.01850167054053
30
0
0
SPLINE
5
C1
100
AcDbEntity
8
1
62
256
6
ByLayer
370
18
48
1
60
0
100
AcDbSpline
70
4
71
3
72
16
73
12
40
0
40
0
40
0
40
0
40
0.062445008261402
40
0.062445008261402
40
0.283207995985756
40
0.283207995985756
40
0.506745688833501
40
0.506745688833501
40
0.744607284736919
40
0.744607284736919
40
1
40
1
40
1
40
1
41
1
10
9.84682084898608
20
-0.0643361559651794
30
0
41
1
10
9.85513045846403
20
-0.062894845233842
30
0
41
1
10
9.86338697357346
20
-0.0610908997155093
30
0
41
1
10
9.90014425409132
20
-0.0513756802407386
30
0
41
1
10
9.92784796453893
20
-0.0392535379697279
30
0
41
1
10
9.97748336259795
20
-0.0080012964889136
30
0
41
1
10
9.99998251662393
20
0.0115926813454905
30
0
41
1
10
10.0384477329662
20
0.0564671781694415
30
0
41
1
10
10.0544087606638
20
0.0825727718276426
30
0
41
1
10
10.0781121304084
20
0.138597974718323
30
0
41
1
10
10.0854789139224
20
0.169319568789575
30
0
41
1
10
10.0879513039035
20
0.199624565559731
30
0
0
SPLINE
5
C2
100
AcDbEntity
8
1
62
256
6
ByLayer
370
18
48
1
60
0
100
AcDbSpline
70
4
71
3
72
12
73
8
40
0
40
0
40
0
40
0
40
0.422118633920707
40
0.422118633920707
40
0.843213619146828
40
0.843213619146828
40
1
40
1
40
1
40
1
41
1
10
10.2702326413832
20
0.611974821214687
30
0
41
1
10
10.2238635368506
20
0.562305739712201
30
0
41
1
10
10.1852642716308
20
0.505645647928276
30
0
41
1
10
10.1278937470142
20
0.389485893068183
30
0
41
1
10
10.10812486396
20
0.328461402562482
30
0
41
1
10
10.0928075262102
20
0.245151105538042
30
0
41
1
10
10.0898054927079
20
0.222352042275077
30
0
41
1
10
10.0879513039035
20
0.199624565559731
30
0
0
SPLINE
5
C3
100
AcDbEntity
8
1
62
256
6
ByLayer
370
18
48
1
60
0
100
AcDbSpline
70
4
71
3
72
12
73
8
40
0
40
0
40
0
40
0
40
0.495779676780359
40
0.495779676780359
40
0.900233025448797
40
0.900233025448797
40
1
40
1
40
1
40
1
41
1
10
10.8354742897963
20
0.826870827318913
30
0
41
1
10
10.7644598525586
20
0.833503562495025
30
0
41
1
10
10.6900229910492
20
0.829113614598867
30
0
41
1
10
10.5568043819593
20
0.79821648203071
30
0
41
1
10
10.4962038131389
20
0.775429345054761
30
0
41
1
10
10.4253924879003
20
0.736248136862145
30
0
41
1
10
10.4114211937337
20
0.727860942171077
30
0
41
1
10
10.3977357389947
20
0.718962623394503
30
0
0
SPLINE
5
C4
100
AcDbEntity
8
1
62
256
6
ByLayer
370
18
48
1
60
0
100
AcDbSpline
70
4
71
3
72
14
73
10
40
0
40
0
40
0
40
0
40
0.283961749036714
40
0.283961749036714
40
0.570285189259028
40
0.570285189259028
40
0.829451094335682
40
0.829451094335682
40
1
40
1
40
1
40
1
41
1
10
9.53227787557339
20
0.0999603103403217
30
0
41
1
10
9.54644709440652
20
0.0695752939657552
30
0
41
1
10
9.56642817812141
20
0.0407338395451973
30
0
41
1
10
9.61607922831465
20
-0.0085630297450336
30
0
41
1
10
9.6466413495848
20
-0.029665794075413
30
0
41
1
10
9.71073378510778
20
-0.05759605816354
30
0
41
1
10
9.74469946191792
20
-0.0659539902813435
30
0
41
1
10
9.80138795397042
20
-0.0694704162792448
30
0
41
1
10
9.82442560525973
20
-0.0682206351575303
30
0
41
1
10
9.84682084898608
20
-0.0643361559651794
30
0
0
SPLINE
5
C5
100
AcDbEntity
8
1
62
256
6
ByLayer
370
18
48
1
60
0
100
AcDbSpline
70
4
71
3
72
16
73
12
40
0
40
0
40
0
40
0
40
0.0630415689509303
40
0.0630415689509303
40
0.285914332024977
40
0.285914332024977
40
0.511588305408906
40
0.511588305408906
40
0.751723061839373
40
0.751723061839373
40
1
40
1
40
1
40
1
41
1
10
8.27603457625185
20
0.509866572360494
30
0
41
1
10
8.28145562444004
20
0.503406018706613
30
0
41
1
10
8.28716353905781
20
0.497173563439873
30
0
41
1
10
8.31403095027628
20
0.470273316031779
30
0
41
1
10
8.33843082694546
20
0.452410282024914
30
0
41
1
10
8.39038989964502
20
0.42519576057262
30
0
41
1
10
8.4186352808465
20
0.415586685277532
30
0
41
1
10
8.47676045874621
20
0.404874222355915
30
0
41
1
10
8.50735110773746
20
0.404189716891182
30
0
41
1
10
8.56656746115488
20
0.411699278411731
30
0
41
1
10
8.59576136195506
20
0.42025121551012
30
0
41
1
10
8.62238186577596
20
0.432573843057838
30
0
0
SPLINE
5
C6
100
AcDbEntity
8
1
62
256
6
ByLayer
370
18
48
1
60
0
100
AcDbSpline
70
4
71
3
72
18
73
14
40
0
40
0
40
0
40
0
40
0.212491695755302
40
0.212491695755302
40
0.386618276853805
40
0.386618276853805
40
0.562426360907933
40
0.562426360907933
40
0.715388416645937
40
0.715388416645937
40
0.918249208689863
40
0.918249208689863
40
1
40
1
40
1
40
1
41
1
10
9.53227787557339
20
0.0999603103403217
30
0
41
1
10
9.50228249265984
20
0.164283560035557
30
0
41
1
10
9.4611380280636
20
0.226051171774856
30
0
41
1
10
9.36758553414816
20
0.325299314461063
30
0
41
1
10
9.31737961758165
20
0.366160719397783
30
0
41
1
10
9.20591955103001
20
0.432603432027435
30
0
41
1
10
9.14281445546339
20
0.458855044256239
30
0
41
1
10
9.02341690619286
20
0.48912672474242
30
0
41
1
10
8.96590279264578
20
0.496038346040478
30
0
41
1
10
8.83734052442119
20
0.496034219603217
30
0
41
1
10
8.76576711444005
20
0.484118600910506
30
0
41
1
10
8.67340754199142
20
0.454355103827481
30
0
41
1
10
8.6474284886252
20
0.444167921320798
30
0
41
1
10
8.62238186577599
20
0.432573843057838
30
0
0
SPLINE
5
C7
100
AcDbEntity
8
1
62
256
6
ByLayer
370
18
48
1
60
0
100
AcDbSpline
70
4
71
3
72
14
73
10
40
0
40
0
40
0
40
0
40
0.332355997877749
40
0.332355997877749
40
0.665134576032734
40
0.665134576032734
40
0.988868902673221
40
0.988868902673221
40
1
40
1
40
1
40
1
41
1
10
0.400713012542468
20
6.04990154666399
30
0
41
1
10
0.351812638680826
20
6.07093909868865
30
0
41
1
10
0.302599817327575
20
6.09308692893001
30
0
41
1
10
0.211515773171101
20
6.13571964639203
30
0
41
1
10
0.168299549510522
20
6.15682780140895
30
0
41
1
10
0.0955259507161941
20
6.1934025072097
30
0
41
1
10
0.0645028485316459
20
6.20955409657725
30
0
41
1
10
0.0413871353934496
20
6.22175882432941
30
0
41
1
10
0.0406151503926253
20
6.22216668531368
30
0
41
1
10
0.0398532380401377
20
6.22256947339005
30
0
0
INSERT
5
10C
100
AcDbEntity
8
2
62
256
6
ByLayer
370
25
48
1
60
0
100
AcDbBlockReference
2
DimnDraft3D44
10
0
20
0
30
0
41
1
42
1
43
1
50
0
210
0
220
0
230
1
0
LINE
5
70
100
AcDbEntity
8
80
62
256
6
ByLayer
370
18
48
1
60
0
100
AcDbLine
10
0
20
0
30
0
11
-7
21
0
31
0
39
0
210
0
220
0
230
1
0
LINE
5
71
100
AcDbEntity
8
81
62
256
6
ByLayer
370
18
48
1
60
0
100
AcDbLine
10
15.083782
20
6.35
30
0
11
22.083782
21
6.35
31
0
39
0
210
0
220
0
230
1
0
LINE
5
72
100
AcDbEntity
8
1
62
256
6
ByLayer
370
18
48
1
60
0
100
AcDbLine
10
0.400713
20
-6.35
30
0
11
0.400713
21
6.049902
31
0
39
0
210
0
220
0
230
1
0
LINE
5
74
100
AcDbEntity
8
1
62
256
6
ByLayer
370
18
48
1
60
0
100
AcDbLine
10
2.376675
20
5.642893
30
0
11
5.439378
21
5.642893
31
0
39
0
210
0
220
0
230
1
0
LINE
5
75
100
AcDbEntity
8
1
62
256
6
ByLayer
370
18
48
1
60
0
100
AcDbLine
10
12.821842
20
-3.175007
30
0
11
12.262005
21
-6.35
31
0
39
0
210
0
220
0
230
1
0
LINE
5
76
100
AcDbEntity
8
1
62
256
6
ByLayer
370
18
48
1
60
0
100
AcDbLine
10
6.003247
20
-4.045843
30
0
11
6.002559
21
-3.888239
31
0
39
0
210
0
220
0
230
1
0
LINE
5
77
100
AcDbEntity
8
1
62
256
6
ByLayer
370
18
48
1
60
0
100
AcDbLine
10
5.758949
20
-4.046909
30
0
11
5.758261
21
-3.889305
31
0
39
0
210
0
220
0
230
1
0
LINE
5
78
100
AcDbEntity
8
1
62
256
6
ByLayer
370
18
48
1
60
0
100
AcDbLine
10
6.003247
20
-4.045843
30
0
11
5.758949
21
-4.046909
31
0
39
0
210
0
220
0
230
1
0
LINE
5
79
100
AcDbEntity
8
SK1
62
256
6
ByLayer
370
18
48
1
60
0
100
AcDbLine
10
0.136138
20
-6.35
30
0
11
-51.916218
21
-6.35
31
0
39
0
210
0
220
0
230
1
0
LINE
5
7B
100
AcDbEntity
8
SK1
62
256
6
ByLayer
370
18
48
1
60
0
100
AcDbLine
10
-54.916218
20
-3.35
30
0
11
-54.916218
21
6.1
31
0
39
0
210
0
220
0
230
1
0
LINE
5
7C
100
AcDbEntity
8
SK1
62
256
6
ByLayer
370
18
48
1
60
0
100
AcDbLine
10
-52.166218
20
-6.1
30
0
11
0
21
-6.1
31
0
39
0
210
0
220
0
230
1
0
LINE
5
7D
100
AcDbEntity
8
SK1
62
256
6
ByLayer
370
18
48
1
60
0
100
AcDbLine
10
-51.916218
20
-6.35
30
0
11
-52.166218
21
-6.1
31
0
39
0
210
0
220
0
230
1
0
LINE
5
7E
100
AcDbEntity
8
SK1
62
256
6
ByLayer
370
18
48
1
60
0
100
AcDbLine
10
-52.166218
20
-6.1
30
0
11
-54.666218
21
-3.6
31
0
39
0
210
0
220
0
230
1
0
LINE
5
7F
100
AcDbEntity
8
SK1
62
256
6
ByLayer
370
18
48
1
60
0
100
AcDbLine
10
-54.666218
20
6.1
30
0
11
-54.666218
21
-3.6
31
0
39
0
210
0
220
0
230
1
0
LINE
5
80
100
AcDbEntity
8
SK1
62
256
6
ByLayer
370
18
48
1
60
0
100
AcDbLine
10
-54.666218
20
-3.6
30
0
11
-54.916218
21
-3.35
31
0
39
0
210
0
220
0
230
1
0
LINE
5
81
100
AcDbEntity
8
1
62
256
6
ByLayer
370
18
48
1
60
0
100
AcDbLine
10
6.002559
20
-3.888239
30
0
11
5.758261
21
-3.889305
31
0
39
0
210
0
220
0
230
1
0
LINE
5
82
100
AcDbEntity
8
1
62
256
6
ByLayer
370
18
48
1
60
0
100
AcDbLine
10
13.672212
20
-2.518877
30
0
11
15.07172
21
5.418123
31
0
39
0
210
0
220
0
230
1
0
LINE
5
83
100
AcDbEntity
8
1
62
256
6
ByLayer
370
18
48
1
60
0
100
AcDbLine
10
4.830834
20
-3.175
30
0
11
12.890275
21
-3.175
31
0
39
0
210
0
220
0
230
1
0
LINE
5
84
100
AcDbEntity
8
1
62
256
6
ByLayer
370
18
48
1
60
0
100
AcDbLine
10
14.289782
20
6.35
30
0
11
6.230341
21
6.35
31
0
39
0
210
0
220
0
230
1
0
LINE
5
85
100
AcDbEntity
8
1
62
256
6
ByLayer
370
18
48
1
60
0
100
AcDbLine
10
0.400713
20
-6.35
30
0
11
12.262005
21
-6.35
31
0
39
0
210
0
220
0
230
1
0
LINE
5
86
100
AcDbEntity
8
SK1
62
256
6
ByLayer
370
18
48
1
60
0
100
AcDbLine
10
0
20
6.1
30
0
11
-54.666218
21
6.1
31
0
39
0
210
0
220
0
230
1
0
LINE
5
87
100
AcDbEntity
8
SK1
62
256
6
ByLayer
370
18
48
1
60
0
100
AcDbLine
10
-54.666218
20
6.35
30
0
11
-0.186734
21
6.35
31
0
39
0
210
0
220
0
230
1
0
LINE
5
88
100
AcDbEntity
8
SK1
62
256
6
ByLayer
370
18
48
1
60
0
100
AcDbLine
10
0
20
6.1
30
0
11
0
21
-6.1
31
0
39
0
210
0
220
0
230
1
0
LINE
5
89
100
AcDbEntity
8
SK1
62
256
6
ByLayer
370
18
48
1
60
0
100
AcDbLine
10
-54.916218
20
6.1
30
0
11
-54.666218
21
6.35
31
0
39
0
210
0
220
0
230
1
0
LINE
5
8A
100
AcDbEntity
8
SK1
62
256
6
ByLayer
370
18
48
1
60
0
100
AcDbLine
10
-54.916218
20
6.1
30
0
11
-54.666218
21
6.1
31
0
39
0
210
0
220
0
230
1
0
LINE
5
8B
100
AcDbEntity
8
SK1
62
256
6
ByLayer
370
18
48
1
60
0
100
AcDbLine
10
-54.666218
20
6.1
30
0
11
-54.666218
21
6.35
31
0
39
0
210
0
220
0
230
1
0
LINE
5
8C
100
AcDbEntity
8
SK1
62
256
6
ByLayer
370
18
48
1
60
0
100
AcDbLine
10
0
20
-6.1
30
0
11
0.014343
21
-6.153528
31
0
39
0
210
0
220
0
230
1
0
LINE
5
8D
100
AcDbEntity
8
1
62
256
6
ByLayer
370
18
48
1
60
0
100
AcDbLine
10
0.014343
20
6.153528
30
0
11
0.014343
21
-6.153528
31
0
39
0
210
0
220
0
230
1
0
LINE
5
8E
100
AcDbEntity
8
SK1
62
256
6
ByLayer
370
18
48
1
60
0
100
AcDbLine
10
0.014343
20
6.153528
30
0
11
0
21
6.1
31
0
39
0
210
0
220
0
230
1
0
LINE
5
8F
100
AcDbEntity
8
1
62
256
6
ByLayer
370
18
48
1
60
0
100
AcDbLine
10
0.136138
20
-6.35
30
0
11
0.400713
21
-6.35
31
0
39
0
210
0
220
0
230
1
0
LINE
5
90
100
AcDbEntity
8
1
62
256
6
ByLayer
370
18
48
1
60
0
100
AcDbLine
10
5.448404
20
5.693877
30
0
11
4.048897
21
-2.243123
31
0
39
0
210
0
220
0
230
1
0
MTEXT
5
C8
100
AcDbEntity
8
SK6
62
256
6
ByLayer
370
18
48
1
60
0
100
AcDbMText
10
-14.208676
20
-23.666242
30
0
210
0
220
0
230
1
1
\W0.8083;QS-SCACR083X
40
3
41
0
44
1.084337
50
0
71
8
72
5
7
iso_b_vert
0
DIMENSION
5
DA
100
AcDbEntity
8
SK2
62
256
6
ByLayer
370
13
48
1
60
0
100
AcDbDimension
2
DimnDraft3D1
10
15.083782
20
19.76157
30
0
11
-21.668849
21
19.76157
31
0
70
32
71
5
72
1
41
1
210
0
220
0
230
1
3
Standard
100
AcDbAlignedDimension
13
-54.916218
23
8.1
33
0
14
15.083782
24
8.35
34
0
50
0
100
AcDbRotatedDimension
1001
ACAD
1000
DSTYLE
1002
{
1070
   279
1070
     0
1070
   172
1070
     1
1070
   173
1070
     1
1070
   340
1005
C9
1070
    77
1070
     1
1070
    73
1070
     0
1070
   171
1070
     3
1070
   274
1070
     4
1070
   177
1070
   254
1070
   176
1070
   254
1070
   178
1070
   254
1070
    78
1070
     8
1070
    41
1041
3.175
1070
   147
1041
1.5
1070
    42
1041
2.0
1070
    44
1041
2.0
1070
   140
1041
3.0
1070
   343
1005
DB
1070
   344
1005
DB
1002
}
0
DIMENSION
5
F0
100
AcDbEntity
8
2
62
256
6
ByLayer
370
13
48
1
60
0
100
AcDbDimension
2
DimnDraft3D2
10
25.293483
20
6.35
30
0
11
25.293483
21
-3.067105
31
0
70
32
71
5
72
1
41
1
210
0
220
0
230
1
3
Standard
100
AcDbAlignedDimension
13
14.262005
23
-6.35
33
0
14
17.083782
24
6.35
34
0
50
90
100
AcDbRotatedDimension
1001
ACAD
1000
DSTYLE
1002
{
1070
    74
1070
     0
1070
   279
1070
     0
1070
   172
1070
     1
1070
   173
1070
     1
1070
   340
1005
C9
1070
    77
1070
     1
1070
    73
1070
     0
1070
   171
1070
     3
1070
   274
1070
     4
1070
   177
1070
   254
1070
   176
1070
   254
1070
   178
1070
   254
1070
    78
1070
     8
1070
    41
1041
3.175
1070
   147
1041
1.5
1070
    42
1041
2.0
1070
    44
1041
2.0
1070
   140
1041
3.0
1070
   343
1005
DB
1070
   344
1005
DB
1002
}
0
DIMENSION
5
FE
100
AcDbEntity
8
SK2
62
256
6
ByLayer
370
13
48
1
60
0
100
AcDbDimension
2
DimnDraft3D3
10
-63.043442
20
6.35
30
0
11
-63.043442
21
-3.067105
31
0
70
32
71
5
72
1
41
1
210
0
220
0
230
1
3
Standard
100
AcDbAlignedDimension
13
-53.916218
23
-6.35
33
0
14
-56.666218
24
6.35
34
0
50
90
100
AcDbRotatedDimension
1001
ACAD
1000
DSTYLE
1002
{
1070
    74
1070
     0
1070
   279
1070
     0
1070
   172
1070
     1
1070
   173
1070
     1
1070
   340
1005
C9
1070
    77
1070
     1
1070
    73
1070
     0
1070
   171
1070
     3
1070
   274
1070
     4
1070
   177
1070
   254
1070
   176
1070
   254
1070
   178
1070
   254
1070
    78
1070
     8
1070
    41
1041
3.175
1070
   147
1041
1.5
1070
    42
1041
2.0
1070
    44
1041
2.0
1070
   140
1041
3.0
1070
   343
1005
DB
1070
   344
1005
DB
1002
}
0
ENDSEC
0
SECTION
2
OBJECTS
0
DICTIONARY
5
176
330
0
100
AcDbDictionary
280
0
281
1
3
ACAD_GROUP
350
177
3
ACAD_MLINESTYLE
350
178
0
DICTIONARY
5
177
330
0
100
AcDbDictionary
280
0
281
1
0
DICTIONARY
5
178
330
0
100
AcDbDictionary
280
0
281
1
3
Standard
350
18
0
MLINESTYLE
5
18
330
178
100
AcDbMlineStyle
2
Standard
70
0
3

62
256
51
90
52
90
71
2
49
-0.5
62
256
6
ByLayer
49
0.5
62
256
6
ByLayer
0
RASTERVARIABLES
5
165
330

100
AcDbRasterVariables
90
0
70
1
71
1
72
1
0
ENDSEC
0
EOF
