0
SECTION
2
HEADER
9
$ACADVER
1
AC1015
9
$DWGCODEPAGE
3
ANSI_1252
9
$HANDSEED
5
179
9
$ANGBASE
50
0
9
$ANGDIR
70
0
9
$ATTMODE
70
1
9
$AUNITS
70
0
9
$AUPREC
70
0
9
$CECOLOR
62
256
9
$CELTSCALE
40
1
9
$CELTYPE
6
ByLayer
9
$CELWEIGHT
370
18
9
$CLAYER
8
0
9
$CMLJUST
70
0
9
$CMLSCALE
40
1
9
$CMLSTYLE
2
Standard
9
$DIMSTYLE
2
Standard
9
$TEXTSIZE
40
0.2
9
$TEXTSTYLE
7
Standard
9
$LUNITS
70
2
9
$LUPREC
70
4
9
$EXTNAMES
290
1
9
$INSUNITS
70
4
9
$LTSCALE
40
1
9
$LWDISPLAY
290
1
9
$PDMODE
70
0
9
$PDSIZE
40
0
9
$PLINEGEN
70
0
0
ENDSEC
0
SECTION
2
CLASSES
0
CLASS
1
RASTERVARIABLES
2
AcDbRasterVariables
3
ISM
90
0
280
0
281
0
0
ENDSEC
0
SECTION
2
TABLES
0
TABLE
2
VPORT
5
16f
100
AcDbSymbolTable
0
VPORT
5
1
100
AcDbSymbolTableRecord
100
AcDbViewportTableRecord
2
*Active
70
0
10
0
20
0
11
1
21
1
12
-1
22
1
13
0
23
0
14
0.5
24
0.5
15
10
25
10
16
0
26
0
36
1
17
0
27
0
37
0
0
ENDTAB
0
TABLE
2
LTYPE
5
170
100
AcDbSymbolTable
0
LTYPE
5
14
100
AcDbSymbolTableRecord
100
AcDbLinetypeTableRecord
70
0
2
ByBlock
3

72
65
73
0
40
0
0
LTYPE
5
15
100
AcDbSymbolTableRecord
100
AcDbLinetypeTableRecord
70
0
2
ByLayer
3

72
65
73
0
40
0
0
LTYPE
5
16
100
AcDbSymbolTableRecord
100
AcDbLinetypeTableRecord
70
0
2
CONTINUOUS
3
Solid line
72
65
73
0
40
0
0
LTYPE
5
6A
100
AcDbSymbolTableRecord
100
AcDbLinetypeTableRecord
70
0
2
CENTER
3
____ _ ____ _ ____ _ ____
72
65
73
4
40
47.5
49
22
74
0
49
-8.5
74
0
49
8.5
74
0
49
-8.5
74
0
0
LTYPE
5
6B
100
AcDbSymbolTableRecord
100
AcDbLinetypeTableRecord
70
0
2
DASHED
3
__ __ __ __ __ __ __ __ __
72
65
73
2
40
25.72
49
12.86
74
0
49
-12.86
74
0
0
ENDTAB
0
TABLE
2
LAYER
5
171
100
AcDbSymbolTable
0
LAYER
5
10
100
AcDbSymbolTableRecord
100
AcDbLayerTableRecord
2
0
70
0
62
7
6
CONTINUOUS
290
1
370
-3
390
0
0
LAYER
5
6D
100
AcDbSymbolTableRecord
100
AcDbLayerTableRecord
2
81
70
0
62
-3
6
CONTINUOUS
290
1
370
-3
390
0
0
LAYER
5
6F
100
AcDbSymbolTableRecord
100
AcDbLayerTableRecord
2
80
70
0
62
-6
6
CONTINUOUS
290
1
370
-3
390
0
0
LAYER
5
73
100
AcDbSymbolTableRecord
100
AcDbLayerTableRecord
2
1
70
0
62
4
6
CONTINUOUS
290
1
370
-3
390
0
0
LAYER
5
DA
100
AcDbSymbolTableRecord
100
AcDbLayerTableRecord
2
2
70
0
62
7
6
CONTINUOUS
290
1
370
-3
390
0
0
LAYER
5
15c
100
AcDbSymbolTableRecord
100
AcDbLayerTableRecord
2
SK1
70
0
62
4
6
CONTINUOUS
290
1
370
-3
390
0
0
LAYER
5
15d
100
AcDbSymbolTableRecord
100
AcDbLayerTableRecord
2
SK6
70
0
62
5
6
CONTINUOUS
290
1
370
-3
390
0
0
LAYER
5
15e
100
AcDbSymbolTableRecord
100
AcDbLayerTableRecord
2
SK2
70
0
62
7
6
CONTINUOUS
290
1
370
-3
390
0
0
ENDTAB
0
TABLE
2
STYLE
5
172
100
AcDbSymbolTable
0
STYLE
5
11
100
AcDbSymbolTableRecord
100
AcDbTextStyleTableRecord
2
Standard
3
txt
70
0
71
0
40
0
41
1
42
0
50
0
0
STYLE
5
BF
100
AcDbSymbolTableRecord
100
AcDbTextStyleTableRecord
2
iso_b_vert
3
simplex.shx
70
0
71
0
40
0
41
1
42
0
50
0
0
STYLE
5
C0
100
AcDbSymbolTableRecord
100
AcDbTextStyleTableRecord
2
DWGDirectTextStyle
3
simplex
70
0
71
0
40
0
41
1
42
0
50
0
0
ENDTAB
0
TABLE
2
DIMSTYLE
5
173
100
AcDbSymbolTable
100
AcDbDimStyleTable
0
DIMSTYLE
105
27
100
AcDbSymbolTableRecord
100
AcDbDimStyleTableRecord
2
Standard
70
0
3
<>
41
0.18
42
0.0625
44
0.18
140
0.18
147
0.09
73
0
74
0
77
1
271
2
275
0
278
52
280
0
340
11
0
ENDTAB
0
TABLE
2
VIEW
5
174
100
AcDbSymbolTable
0
ENDTAB
0
TABLE
2
UCS
5
175
100
AcDbSymbolTable
0
ENDTAB
0
TABLE
2
APPID
5
176
100
AcDbSymbolTable
0
APPID
5
12
100
AcDbSymbolTableRecord
100
AcDbRegAppTableRecord
2
ACAD
70
0
0
ENDTAB
0
TABLE
2
BLOCK_RECORD
5
177
100
AcDbSymbolTable
0
BLOCK_RECORD
5
1F
100
AcDbSymbolTableRecord
100
AcDbBlockTableRecord
2
*Model_Space
340
0
70
0
0
BLOCK_RECORD
5
1B
100
AcDbSymbolTableRecord
100
AcDbBlockTableRecord
2
*Paper_Space
340
0
70
0
0
BLOCK_RECORD
5
23
100
AcDbSymbolTableRecord
100
AcDbBlockTableRecord
2
*Paper_Space0
340
0
70
0
0
BLOCK_RECORD
5
C2
100
AcDbSymbolTableRecord
100
AcDbBlockTableRecord
2
DimnDraft3D1
340
0
70
0
0
BLOCK_RECORD
5
D1
100
AcDbSymbolTableRecord
100
AcDbBlockTableRecord
2
_CLOSED
340
0
70
0
0
BLOCK_RECORD
5
D8
100
AcDbSymbolTableRecord
100
AcDbBlockTableRecord
2
DimnDraft3D2
340
0
70
0
0
BLOCK_RECORD
5
E7
100
AcDbSymbolTableRecord
100
AcDbBlockTableRecord
2
DimnDraft3D3
340
0
70
0
0
BLOCK_RECORD
5
F5
100
AcDbSymbolTableRecord
100
AcDbBlockTableRecord
2
DimnDraft3D4
340
0
70
0
0
ENDTAB
0
ENDSEC
0
SECTION
2
BLOCKS
0
BLOCK
5
20
100
AcDbEntity
8
0
100
AcDbBlockBegin
2
*Model_Space
70
0
10
0
20
0
30
0
3
*Model_Space
0
ENDBLK
5
21
100
AcDbEntity
8
0
100
AcDbBlockEnd
0
BLOCK
5
1C
100
AcDbEntity
8
0
100
AcDbBlockBegin
2
*Paper_Space
70
0
10
0
20
0
30
0
3
*Paper_Space
0
ENDBLK
5
1D
100
AcDbEntity
8
0
100
AcDbBlockEnd
0
BLOCK
5
24
100
AcDbEntity
8
0
100
AcDbBlockBegin
2
*Paper_Space0
70
0
10
0
20
0
30
0
3
*Paper_Space0
0
ENDBLK
5
25
100
AcDbEntity
8
0
100
AcDbBlockEnd
0
BLOCK
5
CE
100
AcDbEntity
8
0
100
AcDbBlockBegin
2
DimnDraft3D1
70
0
10
0
20
0
30
0
3
DimnDraft3D1
0
MTEXT
5
C3
100
AcDbEntity
8
SK2
62
256
6
ByLayer
370
18
48
1
60
0
100
AcDbMText
10
-24.986931
20
18.224782
30
0
210
0
220
0
230
1
1
\W0.6562;70
40
3
41
0
44
1.084337
50
0
71
8
72
5
7
iso_b_vert
0
LINE
5
C5
100
AcDbEntity
8
SK2
62
256
6
ByLayer
370
13
48
1
60
0
100
AcDbLine
10
-59.986931
20
6.629923
30
0
11
-59.986931
21
19.474782
31
0
39
0
210
0
220
0
230
1
0
LINE
5
C6
100
AcDbEntity
8
SK2
62
256
6
ByLayer
370
13
48
1
60
0
100
AcDbLine
10
10.013069
20
6.879923
30
0
11
10.013069
21
19.474782
31
0
39
0
210
0
220
0
230
1
0
LINE
5
C7
100
AcDbEntity
8
SK2
62
256
6
ByLayer
370
13
48
1
60
0
100
AcDbLine
10
-59.986931
20
17.474782
30
0
11
10.013069
21
17.474782
31
0
39
0
210
0
220
0
230
1
0
LINE
5
C8
100
AcDbEntity
8
SK2
62
256
6
ByLayer
370
13
48
1
60
0
100
AcDbLine
10
-59.986931
20
17.474782
30
0
11
-56.811932
21
17.892779
31
0
39
0
210
0
220
0
230
1
0
LINE
5
C9
100
AcDbEntity
8
SK2
62
256
6
ByLayer
370
13
48
1
60
0
100
AcDbLine
10
-59.986931
20
17.474782
30
0
11
-56.811929
21
17.056785
31
0
39
0
210
0
220
0
230
1
0
LINE
5
CA
100
AcDbEntity
8
SK2
62
256
6
ByLayer
370
13
48
1
60
0
100
AcDbLine
10
-56.811932
20
17.892779
30
0
11
-56.811929
21
17.056785
31
0
39
0
210
0
220
0
230
1
0
LINE
5
CB
100
AcDbEntity
8
SK2
62
256
6
ByLayer
370
13
48
1
60
0
100
AcDbLine
10
10.013069
20
17.474782
30
0
11
6.838071
21
17.056785
31
0
39
0
210
0
220
0
230
1
0
LINE
5
CC
100
AcDbEntity
8
SK2
62
256
6
ByLayer
370
13
48
1
60
0
100
AcDbLine
10
10.013069
20
17.474782
30
0
11
6.838068
21
17.892779
31
0
39
0
210
0
220
0
230
1
0
LINE
5
CD
100
AcDbEntity
8
SK2
62
256
6
ByLayer
370
13
48
1
60
0
100
AcDbLine
10
6.838071
20
17.056785
30
0
11
6.838068
21
17.892779
31
0
39
0
210
0
220
0
230
1
0
ENDBLK
5
CF
100
AcDbEntity
8
0
100
AcDbBlockEnd
0
BLOCK
5
D2
100
AcDbEntity
8
0
100
AcDbBlockBegin
2
_CLOSED
70
0
10
0
20
0
30
0
3
_CLOSED
0
LINE
5
D4
100
AcDbEntity
8
0
62
256
6
ByLayer
370
-2
48
1
60
0
100
AcDbLine
10
-1
20
0.166667
30
0
11
0
21
0
31
0
39
0
210
0
220
0
230
1
0
LINE
5
D5
100
AcDbEntity
8
0
62
256
6
ByLayer
370
-2
48
1
60
0
100
AcDbLine
10
0
20
0
30
0
11
-1
21
-0.166667
31
0
39
0
210
0
220
0
230
1
0
LINE
5
D6
100
AcDbEntity
8
0
62
256
6
ByLayer
370
-2
48
1
60
0
100
AcDbLine
10
-1
20
0.166667
30
0
11
-1
21
-0.166667
31
0
39
0
210
0
220
0
230
1
0
LINE
5
D7
100
AcDbEntity
8
0
62
256
6
ByLayer
370
-2
48
1
60
0
100
AcDbLine
10
0
20
0
30
0
11
-1
21
0
31
0
39
0
210
0
220
0
230
1
0
ENDBLK
5
D3
100
AcDbEntity
8
0
100
AcDbBlockEnd
0
BLOCK
5
E4
100
AcDbEntity
8
0
100
AcDbBlockBegin
2
DimnDraft3D2
70
0
10
0
20
0
30
0
3
DimnDraft3D2
0
MTEXT
5
D9
100
AcDbEntity
8
2
62
256
6
ByLayer
370
18
48
1
60
0
100
AcDbMText
10
5.006535
20
10.607689
30
0
210
0
220
0
230
1
1
\W0.5144;10
40
3
41
0
44
1.084337
50
0
71
8
72
5
7
iso_b_vert
0
LINE
5
DB
100
AcDbEntity
8
2
62
256
6
ByLayer
370
13
48
1
60
0
100
AcDbLine
10
0
20
6.395077
30
0
11
0
21
11.857689
31
0
39
0
210
0
220
0
230
1
0
LINE
5
DC
100
AcDbEntity
8
2
62
256
6
ByLayer
370
13
48
1
60
0
100
AcDbLine
10
10.013069
20
6.879923
30
0
11
10.013069
21
11.857689
31
0
39
0
210
0
220
0
230
1
0
LINE
5
DD
100
AcDbEntity
8
2
62
256
6
ByLayer
370
13
48
1
60
0
100
AcDbLine
10
-7.5
20
9.857689
30
0
11
17.513069
21
9.857689
31
0
39
0
210
0
220
0
230
1
0
LINE
5
DE
100
AcDbEntity
8
2
62
256
6
ByLayer
370
13
48
1
60
0
100
AcDbLine
10
0
20
9.857689
30
0
11
-3.174998
21
9.439692
31
0
39
0
210
0
220
0
230
1
0
LINE
5
DF
100
AcDbEntity
8
2
62
256
6
ByLayer
370
13
48
1
60
0
100
AcDbLine
10
0
20
9.857689
30
0
11
-3.175002
21
10.275685
31
0
39
0
210
0
220
0
230
1
0
LINE
5
E0
100
AcDbEntity
8
2
62
256
6
ByLayer
370
13
48
1
60
0
100
AcDbLine
10
-3.174998
20
9.439692
30
0
11
-3.175002
21
10.275685
31
0
39
0
210
0
220
0
230
1
0
LINE
5
E1
100
AcDbEntity
8
2
62
256
6
ByLayer
370
13
48
1
60
0
100
AcDbLine
10
10.013069
20
9.857689
30
0
11
13.188068
21
10.275685
31
0
39
0
210
0
220
0
230
1
0
LINE
5
E2
100
AcDbEntity
8
2
62
256
6
ByLayer
370
13
48
1
60
0
100
AcDbLine
10
10.013069
20
9.857689
30
0
11
13.188071
21
9.439692
31
0
39
0
210
0
220
0
230
1
0
LINE
5
E3
100
AcDbEntity
8
2
62
256
6
ByLayer
370
13
48
1
60
0
100
AcDbLine
10
13.188068
20
10.275685
30
0
11
13.188071
21
9.439692
31
0
39
0
210
0
220
0
230
1
0
ENDBLK
5
E5
100
AcDbEntity
8
0
100
AcDbBlockEnd
0
BLOCK
5
F2
100
AcDbEntity
8
0
100
AcDbBlockBegin
2
DimnDraft3D3
70
0
10
0
20
0
30
0
3
DimnDraft3D3
0
MTEXT
5
E8
100
AcDbEntity
8
SK2
62
256
6
ByLayer
370
18
48
1
60
0
100
AcDbMText
10
-70.871089
20
-19.443498
30
0
210
0
220
0
230
1
1
\W0.7279;9.525
40
3
41
0
44
1.084337
50
90
71
8
72
5
7
iso_b_vert
0
LINE
5
E9
100
AcDbEntity
8
SK2
62
256
6
ByLayer
370
13
48
1
60
0
100
AcDbLine
10
-61.736931
20
4.879923
30
0
11
-72.121089
21
4.879923
31
0
39
0
210
0
220
0
230
1
0
LINE
5
EA
100
AcDbEntity
8
SK2
62
256
6
ByLayer
370
13
48
1
60
0
100
AcDbLine
10
-58.986931
20
-4.645077
30
0
11
-72.121089
21
-4.645077
31
0
39
0
210
0
220
0
230
1
0
LINE
5
EB
100
AcDbEntity
8
SK2
62
256
6
ByLayer
370
13
48
1
60
0
100
AcDbLine
10
-70.121089
20
4.879923
30
0
11
-70.121089
21
-23.986919
31
0
39
0
210
0
220
0
230
1
0
LINE
5
EC
100
AcDbEntity
8
SK2
62
256
6
ByLayer
370
13
48
1
60
0
100
AcDbLine
10
-70.121089
20
4.879923
30
0
11
-69.703092
21
1.704925
31
0
39
0
210
0
220
0
230
1
0
LINE
5
ED
100
AcDbEntity
8
SK2
62
256
6
ByLayer
370
13
48
1
60
0
100
AcDbLine
10
-70.121089
20
4.879923
30
0
11
-70.539086
21
1.704922
31
0
39
0
210
0
220
0
230
1
0
LINE
5
EE
100
AcDbEntity
8
SK2
62
256
6
ByLayer
370
13
48
1
60
0
100
AcDbLine
10
-69.703092
20
1.704925
30
0
11
-70.539086
21
1.704922
31
0
39
0
210
0
220
0
230
1
0
LINE
5
EF
100
AcDbEntity
8
SK2
62
256
6
ByLayer
370
13
48
1
60
0
100
AcDbLine
10
-70.121089
20
-4.645077
30
0
11
-70.539086
21
-1.470078
31
0
39
0
210
0
220
0
230
1
0
LINE
5
F0
100
AcDbEntity
8
SK2
62
256
6
ByLayer
370
13
48
1
60
0
100
AcDbLine
10
-70.121089
20
-4.645077
30
0
11
-69.703092
21
-1.470075
31
0
39
0
210
0
220
0
230
1
0
LINE
5
F1
100
AcDbEntity
8
SK2
62
256
6
ByLayer
370
13
48
1
60
0
100
AcDbLine
10
-70.539086
20
-1.470078
30
0
11
-69.703092
21
-1.470075
31
0
39
0
210
0
220
0
230
1
0
ENDBLK
5
F3
100
AcDbEntity
8
0
100
AcDbBlockEnd
0
BLOCK
5
100
100
AcDbEntity
8
0
100
AcDbBlockBegin
2
DimnDraft3D4
70
0
10
0
20
0
30
0
3
DimnDraft3D4
0
MTEXT
5
F6
100
AcDbEntity
8
2
62
256
6
ByLayer
370
18
48
1
60
0
100
AcDbMText
10
20.316403
20
-19.443498
30
0
210
0
220
0
230
1
1
\W0.7279;9.525
40
3
41
0
44
1.084337
50
90
71
8
72
5
7
iso_b_vert
0
LINE
5
F7
100
AcDbEntity
8
2
62
256
6
ByLayer
370
13
48
1
60
0
100
AcDbLine
10
9.925857
20
-4.645077
30
0
11
23.066403
21
-4.645077
31
0
39
0
210
0
220
0
230
1
0
LINE
5
F8
100
AcDbEntity
8
2
62
256
6
ByLayer
370
13
48
1
60
0
100
AcDbLine
10
12.013069
20
4.879923
30
0
11
23.066403
21
4.879923
31
0
39
0
210
0
220
0
230
1
0
LINE
5
F9
100
AcDbEntity
8
2
62
256
6
ByLayer
370
13
48
1
60
0
100
AcDbLine
10
21.066403
20
4.879923
30
0
11
21.066403
21
-23.986919
31
0
39
0
210
0
220
0
230
1
0
LINE
5
FA
100
AcDbEntity
8
2
62
256
6
ByLayer
370
13
48
1
60
0
100
AcDbLine
10
21.066403
20
-4.645077
30
0
11
20.648406
21
-1.470078
31
0
39
0
210
0
220
0
230
1
0
LINE
5
FB
100
AcDbEntity
8
2
62
256
6
ByLayer
370
13
48
1
60
0
100
AcDbLine
10
21.066403
20
-4.645077
30
0
11
21.484399
21
-1.470075
31
0
39
0
210
0
220
0
230
1
0
LINE
5
FC
100
AcDbEntity
8
2
62
256
6
ByLayer
370
13
48
1
60
0
100
AcDbLine
10
20.648406
20
-1.470078
30
0
11
21.484399
21
-1.470075
31
0
39
0
210
0
220
0
230
1
0
LINE
5
FD
100
AcDbEntity
8
2
62
256
6
ByLayer
370
13
48
1
60
0
100
AcDbLine
10
21.066403
20
4.879923
30
0
11
21.484399
21
1.704925
31
0
39
0
210
0
220
0
230
1
0
LINE
5
FE
100
AcDbEntity
8
2
62
256
6
ByLayer
370
13
48
1
60
0
100
AcDbLine
10
21.066403
20
4.879923
30
0
11
20.648406
21
1.704922
31
0
39
0
210
0
220
0
230
1
0
LINE
5
FF
100
AcDbEntity
8
2
62
256
6
ByLayer
370
13
48
1
60
0
100
AcDbLine
10
21.484399
20
1.704925
30
0
11
20.648406
21
1.704922
31
0
39
0
210
0
220
0
230
1
0
ENDBLK
5
101
100
AcDbEntity
8
0
100
AcDbBlockEnd
0
ENDSEC
0
SECTION
2
ENTITIES
0
ARC
5
8D
100
AcDbEntity
8
1
62
256
6
ByLayer
370
18
48
1
60
0
100
AcDbCircle
39
0
10
-9.616069
20
4.482923
30
0
40
0.397000000000002
210
0
220
0
230
-1
100
AcDbArc
50
90
51
190
0
ARC
5
8E
100
AcDbEntity
8
1
62
256
6
ByLayer
370
18
48
1
60
0
100
AcDbCircle
39
0
10
-3.087991
20
-0.994785
30
0
40
1.05
210
0
220
0
230
-1
100
AcDbArc
50
259.36139
51
73.084867
0
ARC
5
8F
100
AcDbEntity
8
1
62
256
6
ByLayer
370
18
48
1
60
0
100
AcDbCircle
39
0
10
3.087991
20
-0.994785
30
0
40
1.05
210
0
220
0
230
1
100
AcDbArc
50
280.63861
51
333.088149
0
ARC
5
90
100
AcDbEntity
8
1
62
256
6
ByLayer
370
18
48
1
60
0
100
AcDbCircle
39
0
10
-2.994686
20
-1.073077
30
0
40
0.397000000000004
210
0
220
0
230
-1
100
AcDbArc
50
270
51
10
0
ARC
5
95
100
AcDbEntity
8
1
62
256
6
ByLayer
370
18
48
1
60
0
100
AcDbCircle
39
0
10
-6.305378
20
1.704923
30
0
40
1.035
210
0
220
0
230
-1
100
AcDbArc
50
80.049159
51
140
0
ARC
5
96
100
AcDbEntity
8
1
62
256
6
ByLayer
370
18
48
1
60
0
100
AcDbCircle
39
0
10
-6.305378
20
1.704923
30
0
40
1.035
210
0
220
0
230
-1
100
AcDbArc
50
19.950841
51
80.049159
0
ARC
5
97
100
AcDbEntity
8
1
62
256
6
ByLayer
370
18
48
1
60
0
100
AcDbCircle
39
0
10
6.305378
20
1.704923
30
0
40
0.747999999999999
210
0
220
0
230
1
100
AcDbArc
50
10.024579
51
69.975421
0
ARC
5
98
100
AcDbEntity
8
1
62
256
6
ByLayer
370
18
48
1
60
0
100
AcDbCircle
39
0
10
6.305378
20
1.704923
30
0
40
0.747999999999999
210
0
220
0
230
1
100
AcDbArc
50
312.161847
51
10.024579
0
ARC
5
99
100
AcDbEntity
8
1
62
256
6
ByLayer
370
18
48
1
60
0
100
AcDbCircle
39
0
10
6.305378
20
1.704923
30
0
40
0.747999999999999
210
0
220
0
230
1
100
AcDbArc
50
249.975421
51
307.838153
0
ARC
5
9A
100
AcDbEntity
8
1
62
256
6
ByLayer
370
18
48
1
60
0
100
AcDbCircle
39
0
10
-6.305378
20
1.704923
30
0
40
0.747999999999999
210
0
220
0
230
-1
100
AcDbArc
50
349.975421
51
47.838153
0
ARC
5
9B
100
AcDbEntity
8
1
62
256
6
ByLayer
370
18
48
1
60
0
100
AcDbCircle
39
0
10
6.305378
20
1.704923
30
0
40
0.747999999999999
210
0
220
0
230
1
100
AcDbArc
50
69.975421
51
127.838153
0
ARC
5
9C
100
AcDbEntity
8
1
62
256
6
ByLayer
370
18
48
1
60
0
100
AcDbCircle
39
0
10
6.305378
20
1.704923
30
0
40
0.747999999999999
210
0
220
0
230
1
100
AcDbArc
50
190.024579
51
249.975421
0
ARC
5
9D
100
AcDbEntity
8
1
62
256
6
ByLayer
370
18
48
1
60
0
100
AcDbCircle
39
0
10
-6.305378
20
1.704923
30
0
40
1.035
210
0
220
0
230
-1
100
AcDbArc
50
140
51
199.950841
0
ARC
5
9E
100
AcDbEntity
8
1
62
256
6
ByLayer
370
18
48
1
60
0
100
AcDbCircle
39
0
10
-6.305378
20
1.704923
30
0
40
0.747999999999999
210
0
220
0
230
-1
100
AcDbArc
50
47.838153
51
52.161847
0
ARC
5
9F
100
AcDbEntity
8
1
62
256
6
ByLayer
370
18
48
1
60
0
100
AcDbCircle
39
0
10
-6.305378
20
1.704923
30
0
40
1.035
210
0
220
0
230
-1
100
AcDbArc
50
320
51
19.950841
0
ARC
5
A0
100
AcDbEntity
8
1
62
256
6
ByLayer
370
18
48
1
60
0
100
AcDbCircle
39
0
10
-6.305378
20
1.704923
30
0
40
0.747999999999999
210
0
220
0
230
-1
100
AcDbArc
50
227.838153
51
232.161847
0
ARC
5
A1
100
AcDbEntity
8
1
62
256
6
ByLayer
370
18
48
1
60
0
100
AcDbCircle
39
0
10
-6.305378
20
1.704923
30
0
40
1.035
210
0
220
0
230
-1
100
AcDbArc
50
260.049159
51
320
0
ARC
5
A2
100
AcDbEntity
8
1
62
256
6
ByLayer
370
18
48
1
60
0
100
AcDbCircle
39
0
10
-6.305378
20
1.704923
30
0
40
1.035
210
0
220
0
230
-1
100
AcDbArc
50
199.950841
51
260.049159
0
ARC
5
A3
100
AcDbEntity
8
1
62
256
6
ByLayer
370
18
48
1
60
0
100
AcDbCircle
39
0
10
0.32
20
-4.155077
30
0
40
0.399999999999997
210
0
220
0
230
1
100
AcDbArc
50
216.869898
51
270
0
ARC
5
A4
100
AcDbEntity
8
1
62
256
6
ByLayer
370
18
48
1
60
0
100
AcDbCircle
39
0
10
-8.636396
20
-1.073077
30
0
40
0.397000000000003
210
0
220
0
230
-1
100
AcDbArc
50
190
51
270
0
ARC
5
A5
100
AcDbEntity
8
1
62
256
6
ByLayer
370
18
48
1
60
0
100
AcDbCircle
39
0
10
4.043318
20
-0.891723
30
0
40
1.25
210
0
220
0
230
1
100
AcDbArc
50
260
51
333.235125
0
ARC
5
A6
100
AcDbEntity
8
SK1
62
256
6
ByLayer
370
18
48
1
60
0
100
AcDbCircle
39
0
10
0.318094
20
9.384948
30
0
40
5
210
0
220
0
230
1
100
AcDbArc
50
251.99046
51
266.352443
0
ARC
5
A7
100
AcDbEntity
8
SK1
62
256
6
ByLayer
370
18
48
1
60
0
100
AcDbCircle
39
0
10
0.318094
20
9.384948
30
0
40
5.00000000061431
210
0
220
0
230
1
100
AcDbArc
50
244.290493
51
251.99046
0
ARC
5
A8
100
AcDbEntity
8
1
62
256
6
ByLayer
370
18
48
1
60
0
100
AcDbCircle
39
0
10
-3.974359
20
4.482923
30
0
40
0.397
210
0
220
0
230
-1
100
AcDbArc
50
10
51
90
0
CIRCLE
5
91
100
AcDbEntity
8
1
62
256
6
ByLayer
370
18
48
1
60
0
100
AcDbCircle
10
-6.305378
20
1.704923
30
0
40
1.92255023212159
39
0
210
0
220
0
230
-1
0
CIRCLE
5
92
100
AcDbEntity
8
1
62
256
6
ByLayer
370
18
48
1
60
0
100
AcDbCircle
10
-6.305378
20
1.704923
30
0
40
1.875
39
0
210
0
220
0
230
-1
0
CIRCLE
5
93
100
AcDbEntity
8
1
62
256
6
ByLayer
370
18
48
1
60
0
100
AcDbCircle
10
-6.305378
20
1.704923
30
0
40
1.725
39
0
210
0
220
0
230
-1
0
CIRCLE
5
94
100
AcDbEntity
8
1
62
256
6
ByLayer
370
18
48
1
60
0
100
AcDbCircle
10
-6.305378
20
1.704923
30
0
40
1.3
39
0
210
0
220
0
230
-1
0
POINT
5
6C
100
AcDbEntity
8
81
62
256
6
ByLayer
370
18
48
1
60
0
100
AcDbPoint
10
10.013069
20
4.879923
30
0
39
0
210
0
220
0
230
1
50
360
0
POINT
5
6E
100
AcDbEntity
8
80
62
256
6
ByLayer
370
18
48
1
60
0
100
AcDbPoint
10
0
20
0
30
0
39
0
210
0
220
0
230
1
50
360
0
SPLINE
5
A9
100
AcDbEntity
8
1
62
256
6
ByLayer
370
18
48
1
60
0
100
AcDbSpline
70
4
71
3
72
18
73
14
40
0
40
0
40
0
40
0
40
0.213394464779721
40
0.213394464779721
40
0.389004322610664
40
0.389004322610664
40
0.566252444177968
40
0.566252444177968
40
0.721175490823055
40
0.721175490823055
40
0.92741643549918
40
0.92741643549918
40
1
40
1
40
1
40
1
41
1
10
6.32536621150572
20
2.6220046596454
30
0
41
1
10
6.34408537687881
20
2.58289435427085
30
0
41
1
10
6.3695656070351
20
2.54537912968937
30
0
41
1
10
6.42732240949991
20
2.48507101163042
30
0
41
1
10
6.45832027725504
20
2.46023536636636
30
0
41
1
10
6.52695122672102
20
2.41998802861161
30
0
41
1
10
6.56570788870434
20
2.40417177365163
30
0
41
1
10
6.63907605489425
20
2.38603645992165
30
0
41
1
10
6.67445578447422
20
2.38199862152592
30
0
41
1
10
6.75365951240028
20
2.38246472626349
30
0
41
1
10
6.79777683167049
20
2.39009766213954
30
0
41
1
10
6.85256702138153
20
2.40816736847464
30
0
41
1
10
6.86658581973569
20
2.41365011754684
30
0
41
1
10
6.88016792222763
20
2.41980377516373
30
0
0
SPLINE
5
AA
100
AcDbEntity
8
1
62
256
6
ByLayer
370
18
48
1
60
0
100
AcDbSpline
70
4
71
3
72
16
73
12
40
0
40
0
40
0
40
0
40
0.0668638488455259
40
0.0668638488455259
40
0.290854271538801
40
0.290854271538801
40
0.517824973971677
40
0.517824973971677
40
0.759328674281757
40
0.759328674281757
40
1
40
1
40
1
40
1
41
1
10
6.12652644483657
20
2.72435289003525
30
0
41
1
10
6.12097016795281
20
2.72337808315575
30
0
41
1
10
6.11545153699143
20
2.72214712770281
30
0
41
1
10
6.09190728120785
20
2.71575349960682
30
0
41
1
10
6.07439959420839
20
2.70794902244302
30
0
41
1
10
6.04306364962474
20
2.68791416310034
30
0
41
1
10
6.02888042031557
20
2.6753838068874
30
0
41
1
10
6.0046890082173
20
2.64674121502824
30
0
41
1
10
5.99468781340218
20
2.6301051563828
30
0
41
1
10
5.98046277459628
20
2.59574986849125
30
0
41
1
10
5.97605422930562
20
2.57767801529312
30
0
41
1
10
5.97433939727432
20
2.55979105983818
30
0
0
SPLINE
5
AB
100
AcDbEntity
8
1
62
256
6
ByLayer
370
18
48
1
60
0
100
AcDbSpline
70
4
71
3
72
14
73
10
40
0
40
0
40
0
40
0
40
0.284523597312289
40
0.284523597312289
40
0.571736866218034
40
0.571736866218034
40
0.831999616286237
40
0.831999616286237
40
1
40
1
40
1
40
1
41
1
10
6.32536621150572
20
2.6220046596454
30
0
41
1
10
6.31622998692552
20
2.64109314602717
30
0
41
1
10
6.30344567076065
20
2.65917978456713
30
0
41
1
10
6.27181234048996
20
2.69004060097524
30
0
41
1
10
6.25239090661333
20
2.70321162037678
30
0
41
1
10
6.21174690407901
20
2.72054839529011
30
0
41
1
10
6.19023763647201
20
2.72567000120088
30
0
41
1
10
6.15466727471659
20
2.7276259046856
30
0
41
1
10
6.14040187740278
20
2.72678723004472
30
0
41
1
10
6.12652644483657
20
2.72435289003525
30
0
0
SPLINE
5
AC
100
AcDbEntity
8
1
62
256
6
ByLayer
370
18
48
1
60
0
100
AcDbSpline
70
4
71
3
72
12
73
8
40
0
40
0
40
0
40
0
40
0.377026290846268
40
0.377026290846268
40
0.76105637206325
40
0.76105637206325
40
1
40
1
40
1
40
1
41
1
10
5.8465297842306
20
2.29565357695685
30
0
41
1
10
5.87503472335865
20
2.32302117739707
30
0
41
1
10
5.89967407565055
20
2.35466210925071
30
0
41
1
10
5.93840855960573
20
2.42109405738265
30
0
41
1
10
5.95290637409906
20
2.45678065136838
30
0
41
1
10
5.96820500230666
20
2.51478844674864
30
0
41
1
10
5.97218829428664
20
2.53735347842047
30
0
41
1
10
5.97433939727429
20
2.55979105983798
30
0
0
SPLINE
5
AD
100
AcDbEntity
8
1
62
256
6
ByLayer
370
18
48
1
60
0
100
AcDbSpline
70
4
71
3
72
14
73
10
40
0
40
0
40
0
40
0
40
0.284519249123234
40
0.284519249123234
40
0.571733062184449
40
0.571733062184449
40
0.831996244286524
40
0.831996244286524
40
1
40
1
40
1
40
1
41
1
10
7.10920908569733
20
2.14684314574677
30
0
41
1
10
7.12115692381093
20
2.16430958297332
30
0
41
1
10
7.13041089192845
20
2.18443203823679
30
0
41
1
10
7.14128388720823
20
2.22726668569834
30
0
41
1
10
7.14295965261491
20
2.25067311872081
30
0
41
1
10
7.13761431762947
20
2.29453575798874
30
0
41
1
10
7.13127704228913
20
2.31571876282743
30
0
41
1
10
7.11515846625861
20
2.34748808269541
30
0
41
1
10
7.10728908308081
20
2.35941645807739
30
0
41
1
10
7.09823372320983
20
2.37020821573589
30
0
0
SPLINE
5
AE
100
AcDbEntity
8
1
62
256
6
ByLayer
370
18
48
1
60
0
100
AcDbSpline
70
4
71
3
72
16
73
12
40
0
40
0
40
0
40
0
40
0.0670553612811602
40
0.0670553612811602
40
0.291697905104272
40
0.291697905104272
40
0.519329228663783
40
0.519329228663783
40
0.761535715028726
40
0.761535715028726
40
1
40
1
40
1
40
1
41
1
10
7.09823372320983
20
2.37020821573589
30
0
41
1
10
7.09460783693288
20
2.37452937873277
30
0
41
1
10
7.09077909951725
20
2.3786897057571
30
0
41
1
10
7.07345543733038
20
2.39586785144837
30
0
41
1
10
7.05793310355716
20
2.40711447172214
30
0
41
1
10
7.02489982283151
20
2.42420656938853
30
0
41
1
10
7.00695147169898
20
2.43020910523495
30
0
41
1
10
6.97004491998104
20
2.4368066754769
30
0
41
1
10
6.95063679824898
20
2.43713336587547
30
0
41
1
10
6.91399303670892
20
2.43227230583824
30
0
41
1
10
6.89634770868827
20
2.42713436821825
30
0
41
1
10
6.88016792222766
20
2.41980377516376
30
0
0
SPLINE
5
AF
100
AcDbEntity
8
1
62
256
6
ByLayer
370
18
48
1
60
0
100
AcDbSpline
70
4
71
3
72
18
73
14
40
0
40
0
40
0
40
0
40
0.213393079737799
40
0.213393079737799
40
0.389003177496046
40
0.389003177496046
40
0.566251555260788
40
0.566251555260788
40
0.721174645896043
40
0.721174645896043
40
0.927415342089922
40
0.927415342089922
40
1
40
1
40
1
40
1
41
1
10
7.10920908569733
20
2.14684314574677
30
0
41
1
10
7.08472900551175
20
2.11105593639587
30
0
41
1
10
7.06501511568351
20
2.07021517273915
30
0
41
1
10
7.04173385654528
20
1.99002257236162
30
0
41
1
10
7.03575809374956
20
1.9507546420011
30
0
41
1
10
7.03528646315965
20
1.87119430344418
30
0
41
1
10
7.0410030326737
20
1.82972674193556
30
0
41
1
10
7.0620436746286
20
1.75713831102016
30
0
41
1
10
7.07626464560968
20
1.72449179756271
30
0
41
1
10
7.11632870071711
20
1.65616672411988
30
0
41
1
10
7.14502709556746
20
1.62180107023195
30
0
41
1
10
7.18810404062313
20
1.58342297309761
30
0
41
1
10
7.1998698724048
20
1.57403365047119
30
0
41
1
10
7.21199777836745
20
1.56535830453052
30
0
0
SPLINE
5
B0
100
AcDbEntity
8
1
62
256
6
ByLayer
370
18
48
1
60
0
100
AcDbSpline
70
4
71
3
72
12
73
8
40
0
40
0
40
0
40
0
40
0.464390992171651
40
0.464390992171651
40
0.846401077318506
40
0.846401077318506
40
1
40
1
40
1
40
1
41
1
10
5.52098127283259
20
2.17937842482772
30
0
41
1
10
5.56425454512734
20
2.17595468801957
30
0
41
1
10
5.60953629954696
20
2.17919540541894
30
0
41
1
10
5.69074130029912
20
2.19896207143688
30
0
41
1
10
5.7277929688189
20
2.21334884015215
30
0
41
1
10
5.77638088248611
20
2.24088492249979
30
0
41
1
10
5.79011935611393
20
2.24974464191996
30
0
41
1
10
5.80329982022843
20
2.25937933010681
30
0
0
SPLINE
5
B1
100
AcDbEntity
8
1
62
256
6
ByLayer
370
18
48
1
60
0
100
AcDbSpline
70
4
71
3
72
14
73
10
40
0
40
0
40
0
40
0
40
0.283738489034221
40
0.283738489034221
40
0.570489531030765
40
0.570489531030765
40
0.830294403552168
40
0.830294403552168
40
1
40
1
40
1
40
1
41
1
10
5.52098127283259
20
2.17937842482772
30
0
41
1
10
5.49988979746698
20
2.18104716067131
30
0
41
1
10
5.47783825093526
20
2.17905913318018
30
0
41
1
10
5.43526290097435
20
2.16717075317507
30
0
41
1
10
5.41411003509972
20
2.15696466614776
30
0
41
1
10
5.3787033584633
20
2.13046704562473
30
0
41
1
10
5.3634769248097
20
2.11440817562931
30
0
41
1
10
5.34385085153465
20
2.08443829172864
30
0
41
1
10
5.33736165393987
20
2.07149298174335
30
0
41
1
10
5.33249250313074
20
2.05807930240766
30
0
0
SPLINE
5
B2
100
AcDbEntity
8
1
62
256
6
ByLayer
370
18
48
1
60
0
100
AcDbSpline
70
4
71
3
72
16
73
12
40
0
40
0
40
0
40
0
40
0.0650212293342957
40
0.0650212293342957
40
0.289691523269472
40
0.289691523269472
40
0.517236422326118
40
0.517236422326118
40
0.75926352118099
40
0.75926352118099
40
1
40
1
40
1
40
1
41
1
10
7.27826294603261
20
1.35176677701298
30
0
41
1
10
7.2801297012019
20
1.35690936885712
30
0
41
1
10
7.2817699244346
20
1.36214116527231
30
0
41
1
10
7.28798702277791
20
1.38556077074318
30
0
41
1
10
7.29000215859662
20
1.40462890154399
30
0
41
1
10
7.28835493189359
20
1.44178942706495
30
0
41
1
10
7.28461351329872
20
1.4603401073463
30
0
41
1
10
7.27194166495624
20
1.49561623613809
30
0
41
1
10
7.26255630514285
20
1.51259916822727
30
0
41
1
10
7.23997788336811
20
1.54208300587206
30
0
41
1
10
7.22658025224831
20
1.55492715458777
30
0
41
1
10
7.21199777836745
20
1.56535830453049
30
0
0
SPLINE
5
B3
100
AcDbEntity
8
1
62
256
6
ByLayer
370
18
48
1
60
0
100
AcDbSpline
70
4
71
3
72
16
73
12
40
0
40
0
40
0
40
0
40
0.0650212293342915
40
0.0650212293342915
40
0.289691523269468
40
0.289691523269468
40
0.517236422326115
40
0.517236422326115
40
0.759263521180986
40
0.759263521180986
40
1
40
1
40
1
40
1
41
1
10
5.33249250313074
20
2.05807930240766
30
0
41
1
10
5.33062574796148
20
2.0529367105635
30
0
41
1
10
5.32898552472875
20
2.04770491414834
30
0
41
1
10
5.32276842638547
20
2.02428530867746
30
0
41
1
10
5.32075329056676
20
2.00521717787666
30
0
41
1
10
5.32240051726978
20
1.96805665235567
30
0
41
1
10
5.32614193586465
20
1.94950597207435
30
0
41
1
10
5.33881378420713
20
1.91422984328256
30
0
41
1
10
5.3481991440205
20
1.89724691119335
30
0
41
1
10
5.37077756579527
20
1.86776307354859
30
0
41
1
10
5.38417519691507
20
1.85491892483285
30
0
41
1
10
5.3987576707959
20
1.84448777489013
30
0
0
SPLINE
5
B4
100
AcDbEntity
8
1
62
256
6
ByLayer
370
18
48
1
60
0
100
AcDbSpline
70
4
71
3
72
18
73
14
40
0
40
0
40
0
40
0
40
0.213393079737799
40
0.213393079737799
40
0.389003177496046
40
0.389003177496046
40
0.566251555260788
40
0.566251555260788
40
0.721174645896042
40
0.721174645896042
40
0.92741534208992
40
0.92741534208992
40
1
40
1
40
1
40
1
41
1
10
5.50154636346605
20
1.26300293367385
30
0
41
1
10
5.52602644365163
20
1.29879014302475
30
0
41
1
10
5.54574033347987
20
1.33963090668149
30
0
41
1
10
5.5690215926181
20
1.41982350705899
30
0
41
1
10
5.57499735541381
20
1.45909143741954
30
0
41
1
10
5.57546898600373
20
1.53865177597643
30
0
41
1
10
5.56975241648968
20
1.58011933748506
30
0
41
1
10
5.54871177453478
20
1.65270776840046
30
0
41
1
10
5.53449080355369
20
1.68535428185794
30
0
41
1
10
5.49442674844627
20
1.75367935530076
30
0
41
1
10
5.46572835359592
20
1.78804500918866
30
0
41
1
10
5.42265140854022
20
1.82642310632303
30
0
41
1
10
5.41088557675855
20
1.83581242894945
30
0
41
1
10
5.39875767079593
20
1.84448777489013
30
0
0
SPLINE
5
B5
100
AcDbEntity
8
1
62
256
6
ByLayer
370
18
48
1
60
0
100
AcDbSpline
70
4
71
3
72
14
73
10
40
0
40
0
40
0
40
0
40
0.284519249123235
40
0.284519249123235
40
0.571733062184452
40
0.571733062184452
40
0.831996244286526
40
0.831996244286526
40
1
40
1
40
1
40
1
41
1
10
5.50154636346605
20
1.26300293367385
30
0
41
1
10
5.48959852535245
20
1.2455364964473
30
0
41
1
10
5.48034455723493
20
1.22541404118383
30
0
41
1
10
5.46947156195512
20
1.18257939372231
30
0
41
1
10
5.46779579654847
20
1.15917296069981
30
0
41
1
10
5.47314113153391
20
1.11531032143188
30
0
41
1
10
5.47947840687422
20
1.09412731659319
30
0
41
1
10
5.49559698290474
20
1.06235799672521
30
0
41
1
10
5.50346636608256
20
1.05042962134323
30
0
41
1
10
5.51252172595355
20
1.03963786368476
30
0
0
SPLINE
5
B6
100
AcDbEntity
8
1
62
256
6
ByLayer
370
18
48
1
60
0
100
AcDbSpline
70
4
71
3
72
14
73
10
40
0
40
0
40
0
40
0
40
0.283738489034225
40
0.283738489034225
40
0.57048953103077
40
0.57048953103077
40
0.830294403552174
40
0.830294403552174
40
1
40
1
40
1
40
1
41
1
10
7.08977417633076
20
1.2304676545929
30
0
41
1
10
7.1108656516964
20
1.2287989187493
30
0
41
1
10
7.13291719822811
20
1.23078694624044
30
0
41
1
10
7.17549254818903
20
1.24267532624557
30
0
41
1
10
7.19664541406365
20
1.25288141327286
30
0
41
1
10
7.23205209070008
20
1.27937903379592
30
0
41
1
10
7.24727852435367
20
1.29543790379134
30
0
41
1
10
7.26690459762872
20
1.325407787692
30
0
41
1
10
7.27339379522348
20
1.33835309767727
30
0
41
1
10
7.27826294603261
20
1.35176677701298
30
0
0
SPLINE
5
B7
100
AcDbEntity
8
1
62
256
6
ByLayer
370
18
48
1
60
0
100
AcDbSpline
70
4
71
3
72
16
73
12
40
0
40
0
40
0
40
0
40
0.0668638488454768
40
0.0668638488454768
40
0.290854271538574
40
0.290854271538574
40
0.51782497397127
40
0.51782497397127
40
0.759328674281161
40
0.759328674281161
40
1
40
1
40
1
40
1
41
1
10
6.48422900432681
20
0.685493189385369
30
0
41
1
10
6.48978528121057
20
0.686467996264895
30
0
41
1
10
6.49530391217192
20
0.687698951717806
30
0
41
1
10
6.51884816795553
20
0.694092579813827
30
0
41
1
10
6.53635585495496
20
0.701897056977629
30
0
41
1
10
6.56769179953864
20
0.721931916320273
30
0
41
1
10
6.5818750288478
20
0.734462272533221
30
0
41
1
10
6.60606644094608
20
0.763104864392375
30
0
41
1
10
6.61606763576117
20
0.779740923037821
30
0
41
1
10
6.6302926745671
20
0.814096210929449
30
0
41
1
10
6.63470121985776
20
0.832168064127643
30
0
41
1
10
6.63641605188906
20
0.850055019582641
30
0
0
SPLINE
5
B8
100
AcDbEntity
8
1
62
256
6
ByLayer
370
18
48
1
60
0
100
AcDbSpline
70
4
71
3
72
12
73
8
40
0
40
0
40
0
40
0
40
0.3770262906397
40
0.3770262906397
40
0.761056371823052
40
0.761056371823052
40
1
40
1
40
1
40
1
41
1
10
6.76422566493278
20
1.11419250246379
30
0
41
1
10
6.7357207258203
20
1.08682490203853
30
0
41
1
10
6.71108137353971
20
1.05518397020472
30
0
41
1
10
6.67234688958558
20
0.988752022097486
30
0
41
1
10
6.6578490750874
20
0.953065428115906
30
0
41
1
10
6.6425504468647
20
0.895057632717226
30
0
41
1
10
6.6385671548789
20
0.8724926010226
30
0
41
1
10
6.63641605188906
20
0.850055019582641
30
0
0
SPLINE
5
B9
100
AcDbEntity
8
1
62
256
6
ByLayer
370
18
48
1
60
0
100
AcDbSpline
70
4
71
3
72
12
73
8
40
0
40
0
40
0
40
0
40
0.464390992172111
40
0.464390992172111
40
0.846401077319348
40
0.846401077319348
40
1
40
1
40
1
40
1
41
1
10
7.08977417633076
20
1.2304676545929
30
0
41
1
10
7.04650090403601
20
1.23389139140107
30
0
41
1
10
7.00121914961642
20
1.23065067400171
30
0
41
1
10
6.92001414886425
20
1.21088400798377
30
0
41
1
10
6.88296248034447
20
1.1964972392685
30
0
41
1
10
6.83437456667727
20
1.16896115692086
30
0
41
1
10
6.82063609304944
20
1.16010143750069
30
0
41
1
10
6.80745562893495
20
1.15046674931381
30
0
0
SPLINE
5
BA
100
AcDbEntity
8
1
62
256
6
ByLayer
370
18
48
1
60
0
100
AcDbSpline
70
4
71
3
72
14
73
10
40
0
40
0
40
0
40
0
40
0.28452359731229
40
0.28452359731229
40
0.571736866218036
40
0.571736866218036
40
0.831999616286239
40
0.831999616286239
40
1
40
1
40
1
40
1
41
1
10
6.28538923765765
20
0.787841419775219
30
0
41
1
10
6.29452546223786
20
0.768752933393472
30
0
41
1
10
6.3073097784027
20
0.750666294853488
30
0
41
1
10
6.33894310867342
20
0.71980547844538
30
0
41
1
10
6.35836454255005
20
0.706634459043869
30
0
41
1
10
6.39900854508437
20
0.689297684130509
30
0
41
1
10
6.42051781269134
20
0.684176078219764
30
0
41
1
10
6.45608817444679
20
0.682220174735022
30
0
41
1
10
6.4703535717606
20
0.683058849375925
30
0
41
1
10
6.48422900432681
20
0.685493189385369
30
0
0
SPLINE
5
BB
100
AcDbEntity
8
1
62
256
6
ByLayer
370
18
48
1
60
0
100
AcDbSpline
70
4
71
3
72
16
73
12
40
0
40
0
40
0
40
0
40
0.0670553612811615
40
0.0670553612811615
40
0.291697905104274
40
0.291697905104274
40
0.519329228663785
40
0.519329228663785
40
0.761535715028727
40
0.761535715028727
40
1
40
1
40
1
40
1
41
1
10
5.51252172595355
20
1.03963786368476
30
0
41
1
10
5.5161476122305
20
1.03531670068784
30
0
41
1
10
5.5199763496461
20
1.03115637366352
30
0
41
1
10
5.537300011833
20
1.01397822797227
30
0
41
1
10
5.55282234560622
20
1.00273160769848
30
0
41
1
10
5.58585562633186
20
0.985639510032087
30
0
41
1
10
5.60380397746439
20
0.979636974185667
30
0
41
1
10
5.64071052918231
20
0.973039403943716
30
0
41
1
10
5.6601186509144
20
0.972712713545178
30
0
41
1
10
5.69676241245446
20
0.977573773582407
30
0
41
1
10
5.71440774047511
20
0.98271171120237
30
0
41
1
10
5.73058752693572
20
0.990042304256889
30
0
0
SPLINE
5
BC
100
AcDbEntity
8
1
62
256
6
ByLayer
370
18
48
1
60
0
100
AcDbSpline
70
4
71
3
72
18
73
14
40
0
40
0
40
0
40
0
40
0.213394464779721
40
0.213394464779721
40
0.389004322610664
40
0.389004322610664
40
0.566252444177967
40
0.566252444177967
40
0.721175490823055
40
0.721175490823055
40
0.92741643549918
40
0.92741643549918
40
1
40
1
40
1
40
1
41
1
10
6.28538923765765
20
0.787841419775219
30
0
41
1
10
6.26667007228457
20
0.826951725149769
30
0
41
1
10
6.24118984212828
20
0.864466949731252
30
0
41
1
10
6.18343303966347
20
0.924775067790193
30
0
41
1
10
6.15243517190834
20
0.949610713054255
30
0
41
1
10
6.08380422244235
20
0.989858050809033
30
0
41
1
10
6.04504756045904
20
1.00567430576899
30
0
41
1
10
5.9716793942691
20
1.02380961949899
30
0
41
1
10
5.93629966468916
20
1.02784745789472
30
0
41
1
10
5.85709593676307
20
1.02738135315715
30
0
41
1
10
5.81297861749286
20
1.01974841728108
30
0
41
1
10
5.75818842778185
20
1.00167871094601
30
0
41
1
10
5.74416962942769
20
0.996195961873781
30
0
41
1
10
5.73058752693575
20
0.990042304256889
30
0
0
SPLINE
5
BD
100
AcDbEntity
8
1
62
256
6
ByLayer
370
18
48
1
60
0
100
AcDbSpline
70
4
71
3
72
12
73
8
40
0
40
0
40
0
40
0
40
0.365323782497332
40
0.365323782497332
40
0.730598066436467
40
0.730598066436467
40
1
40
1
40
1
40
1
41
1
10
0.318094457977821
20
4.38494829287973
30
0
41
1
10
0.27340437555128
20
4.38494829287973
30
0
41
1
10
0.228135033291039
20
4.38558026519655
30
0
41
1
10
0.143944756964515
20
4.38780461048464
30
0
41
1
10
0.103863125367525
20
4.38941856128804
30
0
41
1
10
0.0432730661059395
20
4.39243978157629
30
0
41
1
10
0.0198883595550683
20
4.39380911658571
30
0
41
1
10
0
20
4.39507696028971
30
0
0
LINE
5
70
100
AcDbEntity
8
80
62
256
6
ByLayer
370
18
48
1
60
0
100
AcDbLine
10
0
20
0
30
0
11
-7
21
0
31
0
39
0
210
0
220
0
230
1
0
LINE
5
71
100
AcDbEntity
8
81
62
256
6
ByLayer
370
18
48
1
60
0
100
AcDbLine
10
10.013069
20
4.879923
30
0
11
17.013069
21
4.879923
31
0
39
0
210
0
220
0
230
1
0
LINE
5
72
100
AcDbEntity
8
1
62
256
6
ByLayer
370
18
48
1
60
0
100
AcDbLine
10
0
20
4.395077
30
0
11
0
21
-4.395077
31
0
39
0
210
0
220
0
230
1
0
LINE
5
74
100
AcDbEntity
8
1
62
256
6
ByLayer
370
18
48
1
60
0
100
AcDbLine
10
0.32
20
4.384948
30
0
11
3.553946
21
4.384948
31
0
39
0
210
0
220
0
230
1
0
LINE
5
75
100
AcDbEntity
8
1
62
256
6
ByLayer
370
18
48
1
60
0
100
AcDbLine
10
0.32
20
-4.555077
30
0
11
0.32
21
4.384948
31
0
39
0
210
0
220
0
230
1
0
LINE
5
76
100
AcDbEntity
8
1
62
256
6
ByLayer
370
18
48
1
60
0
100
AcDbLine
10
8.485695
20
-1.470081
30
0
11
7.941727
21
-4.555077
31
0
39
0
210
0
220
0
230
1
0
LINE
5
77
100
AcDbEntity
8
1
62
256
6
ByLayer
370
18
48
1
60
0
100
AcDbLine
10
7.925857
20
-4.645077
30
0
11
0
21
-4.645077
31
0
39
0
210
0
220
0
230
1
0
LINE
5
78
100
AcDbEntity
8
1
62
256
6
ByLayer
370
18
48
1
60
0
100
AcDbLine
10
10.007038
20
4.413985
30
0
11
9.027365
21
-1.142015
31
0
39
0
210
0
220
0
230
1
0
LINE
5
79
100
AcDbEntity
8
1
62
256
6
ByLayer
370
18
48
1
60
0
100
AcDbLine
10
8.636396
20
-1.470077
30
0
11
2.994686
21
-1.470077
31
0
39
0
210
0
220
0
230
1
0
LINE
5
7A
100
AcDbEntity
8
SK1
62
256
6
ByLayer
370
18
48
1
60
0
100
AcDbLine
10
-57.236931
20
-4.395077
30
0
11
0
21
-4.395077
31
0
39
0
210
0
220
0
230
1
0
LINE
5
7C
100
AcDbEntity
8
SK1
62
256
6
ByLayer
370
18
48
1
60
0
100
AcDbLine
10
-59.986931
20
-1.645077
30
0
11
-59.986931
21
4.629923
31
0
39
0
210
0
220
0
230
1
0
LINE
5
7D
100
AcDbEntity
8
SK1
62
256
6
ByLayer
370
18
48
1
60
0
100
AcDbLine
10
-59.736931
20
4.629923
30
0
11
-59.736931
21
-1.895077
31
0
39
0
210
0
220
0
230
1
0
LINE
5
7E
100
AcDbEntity
8
1
62
256
6
ByLayer
370
18
48
1
60
0
100
AcDbLine
10
0.32
20
-4.555077
30
0
11
7.941727
21
-4.555077
31
0
39
0
210
0
220
0
230
1
0
LINE
5
7F
100
AcDbEntity
8
SK1
62
256
6
ByLayer
370
18
48
1
60
0
100
AcDbLine
10
-56.986931
20
-4.645077
30
0
11
-57.236931
21
-4.395077
31
0
39
0
210
0
220
0
230
1
0
LINE
5
80
100
AcDbEntity
8
1
62
256
6
ByLayer
370
18
48
1
60
0
100
AcDbLine
10
7.925857
20
-4.645077
30
0
11
7.941727
21
-4.555077
31
0
39
0
210
0
220
0
230
1
0
LINE
5
81
100
AcDbEntity
8
SK1
62
256
6
ByLayer
370
18
48
1
60
0
100
AcDbLine
10
-57.236931
20
-4.395077
30
0
11
-59.736931
21
-1.895077
31
0
39
0
210
0
220
0
230
1
0
LINE
5
82
100
AcDbEntity
8
SK1
62
256
6
ByLayer
370
18
48
1
60
0
100
AcDbLine
10
-59.736931
20
-1.895077
30
0
11
-59.986931
21
-1.645077
31
0
39
0
210
0
220
0
230
1
0
LINE
5
83
100
AcDbEntity
8
1
62
256
6
ByLayer
370
18
48
1
60
0
100
AcDbLine
10
3.281835
20
-2.026737
30
0
11
3.826258
21
-2.122733
31
0
39
0
210
0
220
0
230
1
0
LINE
5
84
100
AcDbEntity
8
SK1
62
256
6
ByLayer
370
18
48
1
60
0
100
AcDbLine
10
-1.227782
20
4.629923
30
0
11
-59.736931
21
4.629923
31
0
39
0
210
0
220
0
230
1
0
LINE
5
85
100
AcDbEntity
8
SK1
62
256
6
ByLayer
370
18
48
1
60
0
100
AcDbLine
10
-59.736931
20
4.879923
30
0
11
-1.850949
21
4.879923
31
0
39
0
210
0
220
0
230
1
0
LINE
5
86
100
AcDbEntity
8
1
62
256
6
ByLayer
370
18
48
1
60
0
100
AcDbLine
10
3.974359
20
4.879923
30
0
11
9.616069
21
4.879923
31
0
39
0
210
0
220
0
230
1
0
LINE
5
87
100
AcDbEntity
8
1
62
256
6
ByLayer
370
18
48
1
60
0
100
AcDbLine
10
0.318094
20
4.384948
30
0
11
0.32
21
4.384948
31
0
39
0
210
0
220
0
230
1
0
LINE
5
88
100
AcDbEntity
8
SK1
62
256
6
ByLayer
370
18
48
1
60
0
100
AcDbLine
10
-59.986931
20
4.629923
30
0
11
-59.736931
21
4.879923
31
0
39
0
210
0
220
0
230
1
0
LINE
5
89
100
AcDbEntity
8
SK1
62
256
6
ByLayer
370
18
48
1
60
0
100
AcDbLine
10
-59.986931
20
4.629923
30
0
11
-59.736931
21
4.629923
31
0
39
0
210
0
220
0
230
1
0
LINE
5
8A
100
AcDbEntity
8
SK1
62
256
6
ByLayer
370
18
48
1
60
0
100
AcDbLine
10
-59.736931
20
4.629923
30
0
11
-59.736931
21
4.879923
31
0
39
0
210
0
220
0
230
1
0
LINE
5
8B
100
AcDbEntity
8
1
62
256
6
ByLayer
370
18
48
1
60
0
100
AcDbLine
10
2.603718
20
-1.004139
30
0
11
3.58339
21
4.551861
31
0
39
0
210
0
220
0
230
1
0
LINE
5
8C
100
AcDbEntity
8
SK1
62
256
6
ByLayer
370
18
48
1
60
0
100
AcDbLine
10
0
20
-4.645077
30
0
11
-56.986931
21
-4.645077
31
0
39
0
210
0
220
0
230
1
0
MTEXT
5
BE
100
AcDbEntity
8
SK6
62
256
6
ByLayer
370
18
48
1
60
0
100
AcDbMText
10
-22.982076
20
-21.173392
30
0
210
0
220
0
230
1
1
\W0.8083;QS-SCACR062X
40
3
41
0
44
1.084337
50
0
71
8
72
5
7
iso_b_vert
0
DIMENSION
5
D0
100
AcDbEntity
8
SK2
62
256
6
ByLayer
370
13
48
1
60
0
100
AcDbDimension
2
DimnDraft3D1
10
10.013069
20
17.474782
30
0
11
-26.739562
21
17.474782
31
0
70
32
71
5
72
1
41
1
210
0
220
0
230
1
3
Standard
100
AcDbAlignedDimension
13
-59.986931
23
6.629923
33
0
14
10.013069
24
6.879923
34
0
50
0
100
AcDbRotatedDimension
1001
ACAD
1000
DSTYLE
1002
{
1070
   279
1070
     0
1070
   172
1070
     1
1070
   173
1070
     1
1070
   340
1005
BF
1070
    77
1070
     1
1070
    73
1070
     0
1070
   171
1070
     3
1070
   274
1070
     4
1070
   177
1070
   254
1070
   176
1070
   254
1070
   178
1070
   254
1070
    78
1070
     8
1070
    41
1041
3.175
1070
   147
1041
1.5
1070
    42
1041
2.0
1070
    44
1041
2.0
1070
   140
1041
3.0
1070
   343
1005
D1
1070
   344
1005
D1
1002
}
0
DIMENSION
5
E6
100
AcDbEntity
8
2
62
256
6
ByLayer
370
13
48
1
60
0
100
AcDbDimension
2
DimnDraft3D2
10
10.013069
20
9.857689
30
0
11
3.628903
21
9.857689
31
0
70
32
71
5
72
1
41
1
210
0
220
0
230
1
3
Standard
100
AcDbAlignedDimension
13
0
23
6.395077
33
0
14
10.013069
24
6.879923
34
0
50
0
100
AcDbRotatedDimension
1001
ACAD
1000
DSTYLE
1002
{
1070
   279
1070
     0
1070
   172
1070
     1
1070
   173
1070
     1
1070
   340
1005
BF
1070
   271
1070
     1
1070
    77
1070
     1
1070
    73
1070
     0
1070
   171
1070
     3
1070
   274
1070
     4
1070
   177
1070
   254
1070
   176
1070
   254
1070
   178
1070
   254
1070
    78
1070
     8
1070
    41
1041
3.175
1070
   147
1041
1.5
1070
    42
1041
2.0
1070
    44
1041
2.0
1070
   140
1041
3.0
1070
   343
1005
D1
1070
   344
1005
D1
1002
}
0
DIMENSION
5
F4
100
AcDbEntity
8
SK2
62
256
6
ByLayer
370
13
48
1
60
0
100
AcDbDimension
2
DimnDraft3D3
10
-70.121089
20
-4.645077
30
0
11
-70.121089
21
-23.986919
31
0
70
32
71
5
72
1
41
1
210
0
220
0
230
1
3
Standard
100
AcDbAlignedDimension
13
-61.736931
23
4.879923
33
0
14
-58.986931
24
-4.645077
34
0
50
90
100
AcDbRotatedDimension
1001
ACAD
1000
DSTYLE
1002
{
1070
    74
1070
     0
1070
   279
1070
     0
1070
   172
1070
     1
1070
   173
1070
     1
1070
   340
1005
BF
1070
    77
1070
     1
1070
    73
1070
     0
1070
   171
1070
     3
1070
   274
1070
     4
1070
   177
1070
   254
1070
   176
1070
   254
1070
   178
1070
   254
1070
    78
1070
     8
1070
    41
1041
3.175
1070
   147
1041
1.5
1070
    42
1041
2.0
1070
    44
1041
2.0
1070
   140
1041
3.0
1070
   343
1005
D1
1070
   344
1005
D1
1002
}
0
DIMENSION
5
102
100
AcDbEntity
8
2
62
256
6
ByLayer
370
13
48
1
60
0
100
AcDbDimension
2
DimnDraft3D4
10
21.066403
20
4.879923
30
0
11
21.066403
21
-23.986919
31
0
70
32
71
5
72
1
41
1
210
0
220
0
230
1
3
Standard
100
AcDbAlignedDimension
13
9.925857
23
-4.645077
33
0
14
12.013069
24
4.879923
34
0
50
90
100
AcDbRotatedDimension
1001
ACAD
1000
DSTYLE
1002
{
1070
    74
1070
     0
1070
   279
1070
     0
1070
   172
1070
     1
1070
   173
1070
     1
1070
   340
1005
BF
1070
    77
1070
     1
1070
    73
1070
     0
1070
   171
1070
     3
1070
   274
1070
     4
1070
   177
1070
   254
1070
   176
1070
   254
1070
   178
1070
   254
1070
    78
1070
     8
1070
    41
1041
3.175
1070
   147
1041
1.5
1070
    42
1041
2.0
1070
    44
1041
2.0
1070
   140
1041
3.0
1070
   343
1005
D1
1070
   344
1005
D1
1002
}
0
ENDSEC
0
SECTION
2
OBJECTS
0
DICTIONARY
5
16c
330
0
100
AcDbDictionary
280
0
281
1
3
ACAD_GROUP
350
16d
3
ACAD_MLINESTYLE
350
16e
0
DICTIONARY
5
16d
330
0
100
AcDbDictionary
280
0
281
1
0
DICTIONARY
5
16e
330
0
100
AcDbDictionary
280
0
281
1
3
Standard
350
18
0
MLINESTYLE
5
18
330
16e
100
AcDbMlineStyle
2
Standard
70
0
3

62
256
51
90
52
90
71
2
49
-0.5
62
256
6
ByLayer
49
0.5
62
256
6
ByLayer
0
RASTERVARIABLES
5
15b
330

100
AcDbRasterVariables
90
0
70
1
71
1
72
1
0
ENDSEC
0
EOF
