0
SECTION
2
HEADER
9
$ACADVER
1
AC1015
9
$DWGCODEPAGE
3
ANSI_1252
9
$HANDSEED
5
1da
9
$ANGBASE
50
0
9
$ANGDIR
70
0
9
$ATTMODE
70
1
9
$AUNITS
70
0
9
$AUPREC
70
0
9
$CECOLOR
62
256
9
$CELTSCALE
40
1
9
$CELTYPE
6
ByLayer
9
$CELWEIGHT
370
18
9
$CLAYER
8
0
9
$CMLJUST
70
0
9
$CMLSCALE
40
1
9
$CMLSTYLE
2
Standard
9
$DIMSTYLE
2
Standard
9
$TEXTSIZE
40
0.2
9
$TEXTSTYLE
7
Standard
9
$LUNITS
70
2
9
$LUPREC
70
4
9
$EXTNAMES
290
1
9
$INSUNITS
70
4
9
$LTSCALE
40
1
9
$LWDISPLAY
290
1
9
$PDMODE
70
0
9
$PDSIZE
40
0
9
$PLINEGEN
70
0
0
ENDSEC
0
SECTION
2
CLASSES
0
CLASS
1
RASTERVARIABLES
2
AcDbRasterVariables
3
ISM
90
0
280
0
281
0
0
ENDSEC
0
SECTION
2
TABLES
0
TABLE
2
VPORT
5
1d0
100
AcDbSymbolTable
0
VPORT
5
1
100
AcDbSymbolTableRecord
100
AcDbViewportTableRecord
2
*Active
70
0
10
0
20
0
11
1
21
1
12
-1
22
1
13
0
23
0
14
0.5
24
0.5
15
10
25
10
16
0
26
0
36
1
17
0
27
0
37
0
0
ENDTAB
0
TABLE
2
LTYPE
5
1d1
100
AcDbSymbolTable
0
LTYPE
5
14
100
AcDbSymbolTableRecord
100
AcDbLinetypeTableRecord
70
0
2
ByBlock
3

72
65
73
0
40
0
0
LTYPE
5
15
100
AcDbSymbolTableRecord
100
AcDbLinetypeTableRecord
70
0
2
ByLayer
3

72
65
73
0
40
0
0
LTYPE
5
16
100
AcDbSymbolTableRecord
100
AcDbLinetypeTableRecord
70
0
2
CONTINUOUS
3
Solid line
72
65
73
0
40
0
0
LTYPE
5
6A
100
AcDbSymbolTableRecord
100
AcDbLinetypeTableRecord
70
0
2
CENTER
3
____ _ ____ _ ____ _ ____
72
65
73
4
40
47.5
49
22
74
0
49
-8.5
74
0
49
8.5
74
0
49
-8.5
74
0
0
LTYPE
5
6B
100
AcDbSymbolTableRecord
100
AcDbLinetypeTableRecord
70
0
2
DASHED
3
__ __ __ __ __ __ __ __ __
72
65
73
2
40
25.72
49
12.86
74
0
49
-12.86
74
0
0
ENDTAB
0
TABLE
2
LAYER
5
1d2
100
AcDbSymbolTable
0
LAYER
5
10
100
AcDbSymbolTableRecord
100
AcDbLayerTableRecord
2
0
70
0
62
7
6
CONTINUOUS
290
1
370
-3
390
0
0
LAYER
5
6D
100
AcDbSymbolTableRecord
100
AcDbLayerTableRecord
2
80
70
0
62
-6
6
CONTINUOUS
290
1
370
-3
390
0
0
LAYER
5
6F
100
AcDbSymbolTableRecord
100
AcDbLayerTableRecord
2
2
70
0
62
7
6
CONTINUOUS
290
1
370
-3
390
0
0
LAYER
5
71
100
AcDbSymbolTableRecord
100
AcDbLayerTableRecord
2
81
70
0
62
-3
6
CONTINUOUS
290
1
370
-3
390
0
0
LAYER
5
75
100
AcDbSymbolTableRecord
100
AcDbLayerTableRecord
2
1
70
0
62
4
6
CONTINUOUS
290
1
370
-3
390
0
0
LAYER
5
1bd
100
AcDbSymbolTableRecord
100
AcDbLayerTableRecord
2
SK1
70
0
62
4
6
CONTINUOUS
290
1
370
-3
390
0
0
LAYER
5
1be
100
AcDbSymbolTableRecord
100
AcDbLayerTableRecord
2
SK6
70
0
62
5
6
CONTINUOUS
290
1
370
-3
390
0
0
LAYER
5
1bf
100
AcDbSymbolTableRecord
100
AcDbLayerTableRecord
2
SK2
70
0
62
7
6
CONTINUOUS
290
1
370
-3
390
0
0
ENDTAB
0
TABLE
2
STYLE
5
1d3
100
AcDbSymbolTable
0
STYLE
5
11
100
AcDbSymbolTableRecord
100
AcDbTextStyleTableRecord
2
Standard
3
txt
70
0
71
0
40
0
41
1
42
0
50
0
0
STYLE
5
105
100
AcDbSymbolTableRecord
100
AcDbTextStyleTableRecord
2
iso_b_vert
3
simplex.shx
70
0
71
0
40
0
41
1
42
0
50
0
0
STYLE
5
106
100
AcDbSymbolTableRecord
100
AcDbTextStyleTableRecord
2
DWGDirectTextStyle
3
simplex
70
0
71
0
40
0
41
1
42
0
50
0
0
ENDTAB
0
TABLE
2
DIMSTYLE
5
1d4
100
AcDbSymbolTable
100
AcDbDimStyleTable
0
DIMSTYLE
105
27
100
AcDbSymbolTableRecord
100
AcDbDimStyleTableRecord
2
Standard
70
0
3
<>
41
0.18
42
0.0625
44
0.18
140
0.18
147
0.09
73
0
74
0
77
1
271
2
275
0
278
52
280
0
340
11
0
ENDTAB
0
TABLE
2
VIEW
5
1d5
100
AcDbSymbolTable
0
ENDTAB
0
TABLE
2
UCS
5
1d6
100
AcDbSymbolTable
0
ENDTAB
0
TABLE
2
APPID
5
1d7
100
AcDbSymbolTable
0
APPID
5
12
100
AcDbSymbolTableRecord
100
AcDbRegAppTableRecord
2
ACAD
70
0
0
ENDTAB
0
TABLE
2
BLOCK_RECORD
5
1d8
100
AcDbSymbolTable
0
BLOCK_RECORD
5
1F
100
AcDbSymbolTableRecord
100
AcDbBlockTableRecord
2
*Model_Space
340
0
70
0
0
BLOCK_RECORD
5
1B
100
AcDbSymbolTableRecord
100
AcDbBlockTableRecord
2
*Paper_Space
340
0
70
0
0
BLOCK_RECORD
5
23
100
AcDbSymbolTableRecord
100
AcDbBlockTableRecord
2
*Paper_Space0
340
0
70
0
0
BLOCK_RECORD
5
108
100
AcDbSymbolTableRecord
100
AcDbBlockTableRecord
2
DimnDraft3D1
340
0
70
0
0
BLOCK_RECORD
5
116
100
AcDbSymbolTableRecord
100
AcDbBlockTableRecord
2
_CLOSED
340
0
70
0
0
BLOCK_RECORD
5
11D
100
AcDbSymbolTableRecord
100
AcDbBlockTableRecord
2
DimnDraft3D2
340
0
70
0
0
BLOCK_RECORD
5
12B
100
AcDbSymbolTableRecord
100
AcDbBlockTableRecord
2
DimnDraft3D3
340
0
70
0
0
BLOCK_RECORD
5
13A
100
AcDbSymbolTableRecord
100
AcDbBlockTableRecord
2
DimnDraft3D4
340
0
70
0
0
BLOCK_RECORD
5
148
100
AcDbSymbolTableRecord
100
AcDbBlockTableRecord
2
DimnDraft3D5
340
0
70
0
0
BLOCK_RECORD
5
156
100
AcDbSymbolTableRecord
100
AcDbBlockTableRecord
2
DimnDraft3D6
340
0
70
0
0
ENDTAB
0
ENDSEC
0
SECTION
2
BLOCKS
0
BLOCK
5
20
100
AcDbEntity
8
0
100
AcDbBlockBegin
2
*Model_Space
70
0
10
0
20
0
30
0
3
*Model_Space
0
ENDBLK
5
21
100
AcDbEntity
8
0
100
AcDbBlockEnd
0
BLOCK
5
1C
100
AcDbEntity
8
0
100
AcDbBlockBegin
2
*Paper_Space
70
0
10
0
20
0
30
0
3
*Paper_Space
0
ENDBLK
5
1D
100
AcDbEntity
8
0
100
AcDbBlockEnd
0
BLOCK
5
24
100
AcDbEntity
8
0
100
AcDbBlockBegin
2
*Paper_Space0
70
0
10
0
20
0
30
0
3
*Paper_Space0
0
ENDBLK
5
25
100
AcDbEntity
8
0
100
AcDbBlockEnd
0
BLOCK
5
113
100
AcDbEntity
8
0
100
AcDbBlockBegin
2
DimnDraft3D1
70
0
10
0
20
0
30
0
3
DimnDraft3D1
0
MTEXT
5
109
100
AcDbEntity
8
2
62
256
6
ByLayer
370
18
48
1
60
0
100
AcDbMText
10
44.776424
20
19.625
30
0
210
0
220
0
230
1
1
\W0.6004;1.5
40
4.5
41
0
44
1.084337
50
90
71
7
72
5
7
iso_b_vert
0
LINE
5
10A
100
AcDbEntity
8
2
62
256
6
ByLayer
370
13
48
1
60
0
100
AcDbLine
10
33.151424
20
6.5
30
0
11
48.901424
21
6.5
31
0
39
0
210
0
220
0
230
1
0
LINE
5
10B
100
AcDbEntity
8
2
62
256
6
ByLayer
370
13
48
1
60
0
100
AcDbLine
10
33.151424
20
8
30
0
11
48.901424
21
8
31
0
39
0
210
0
220
0
230
1
0
LINE
5
10C
100
AcDbEntity
8
2
62
256
6
ByLayer
370
13
48
1
60
0
100
AcDbLine
10
45.901424
20
24.575
30
0
11
45.901424
21
-4.75
31
0
39
0
210
0
220
0
230
1
0
LINE
5
10D
100
AcDbEntity
8
2
62
256
6
ByLayer
370
13
48
1
60
0
100
AcDbLine
10
45.901424
20
6.5
30
0
11
46.296382
21
3.500001
31
0
39
0
210
0
220
0
230
1
0
LINE
5
10E
100
AcDbEntity
8
2
62
256
6
ByLayer
370
13
48
1
60
0
100
AcDbLine
10
45.901424
20
6.5
30
0
11
45.506467
21
3.499999
31
0
39
0
210
0
220
0
230
1
0
LINE
5
10F
100
AcDbEntity
8
2
62
256
6
ByLayer
370
13
48
1
60
0
100
AcDbLine
10
46.296382
20
3.500001
30
0
11
45.506467
21
3.499999
31
0
39
0
210
0
220
0
230
1
0
LINE
5
110
100
AcDbEntity
8
2
62
256
6
ByLayer
370
13
48
1
60
0
100
AcDbLine
10
45.901424
20
8
30
0
11
45.506467
21
10.999999
31
0
39
0
210
0
220
0
230
1
0
LINE
5
111
100
AcDbEntity
8
2
62
256
6
ByLayer
370
13
48
1
60
0
100
AcDbLine
10
45.901424
20
8
30
0
11
46.296382
21
11.000001
31
0
39
0
210
0
220
0
230
1
0
LINE
5
112
100
AcDbEntity
8
2
62
256
6
ByLayer
370
13
48
1
60
0
100
AcDbLine
10
45.506467
20
10.999999
30
0
11
46.296382
21
11.000001
31
0
39
0
210
0
220
0
230
1
0
ENDBLK
5
114
100
AcDbEntity
8
0
100
AcDbBlockEnd
0
BLOCK
5
117
100
AcDbEntity
8
0
100
AcDbBlockBegin
2
_CLOSED
70
0
10
0
20
0
30
0
3
_CLOSED
0
LINE
5
119
100
AcDbEntity
8
0
62
256
6
ByLayer
370
-2
48
1
60
0
100
AcDbLine
10
-1
20
0.166667
30
0
11
0
21
0
31
0
39
0
210
0
220
0
230
1
0
LINE
5
11A
100
AcDbEntity
8
0
62
256
6
ByLayer
370
-2
48
1
60
0
100
AcDbLine
10
0
20
0
30
0
11
-1
21
-0.166667
31
0
39
0
210
0
220
0
230
1
0
LINE
5
11B
100
AcDbEntity
8
0
62
256
6
ByLayer
370
-2
48
1
60
0
100
AcDbLine
10
-1
20
0.166667
30
0
11
-1
21
-0.166667
31
0
39
0
210
0
220
0
230
1
0
LINE
5
11C
100
AcDbEntity
8
0
62
256
6
ByLayer
370
-2
48
1
60
0
100
AcDbLine
10
0
20
0
30
0
11
-1
21
0
31
0
39
0
210
0
220
0
230
1
0
ENDBLK
5
118
100
AcDbEntity
8
0
100
AcDbBlockEnd
0
BLOCK
5
128
100
AcDbEntity
8
0
100
AcDbBlockBegin
2
DimnDraft3D2
70
0
10
0
20
0
30
0
3
DimnDraft3D2
0
MTEXT
5
11E
100
AcDbEntity
8
2
62
256
6
ByLayer
370
18
48
1
60
0
100
AcDbMText
10
54.776424
20
-3.594079
30
0
210
0
220
0
230
1
1
\W0.6563;16.0
40
4.5
41
0
44
1.084337
50
90
71
7
72
5
7
iso_b_vert
0
LINE
5
11F
100
AcDbEntity
8
2
62
256
6
ByLayer
370
13
48
1
60
0
100
AcDbLine
10
33.151424
20
8
30
0
11
58.901424
21
8
31
0
39
0
210
0
220
0
230
1
0
LINE
5
120
100
AcDbEntity
8
2
62
256
6
ByLayer
370
13
48
1
60
0
100
AcDbLine
10
1.5
20
-8
30
0
11
58.901424
21
-8
31
0
39
0
210
0
220
0
230
1
0
LINE
5
121
100
AcDbEntity
8
2
62
256
6
ByLayer
370
13
48
1
60
0
100
AcDbLine
10
55.901424
20
19.25
30
0
11
55.901424
21
-19.25
31
0
39
0
210
0
220
0
230
1
0
LINE
5
122
100
AcDbEntity
8
2
62
256
6
ByLayer
370
13
48
1
60
0
100
AcDbLine
10
55.901424
20
8
30
0
11
55.506467
21
10.999999
31
0
39
0
210
0
220
0
230
1
0
LINE
5
123
100
AcDbEntity
8
2
62
256
6
ByLayer
370
13
48
1
60
0
100
AcDbLine
10
55.901424
20
8
30
0
11
56.296382
21
11.000001
31
0
39
0
210
0
220
0
230
1
0
LINE
5
124
100
AcDbEntity
8
2
62
256
6
ByLayer
370
13
48
1
60
0
100
AcDbLine
10
55.506467
20
10.999999
30
0
11
56.296382
21
11.000001
31
0
39
0
210
0
220
0
230
1
0
LINE
5
125
100
AcDbEntity
8
2
62
256
6
ByLayer
370
13
48
1
60
0
100
AcDbLine
10
55.901424
20
-8
30
0
11
56.296382
21
-10.999999
31
0
39
0
210
0
220
0
230
1
0
LINE
5
126
100
AcDbEntity
8
2
62
256
6
ByLayer
370
13
48
1
60
0
100
AcDbLine
10
55.901424
20
-8
30
0
11
55.506467
21
-11.000001
31
0
39
0
210
0
220
0
230
1
0
LINE
5
127
100
AcDbEntity
8
2
62
256
6
ByLayer
370
13
48
1
60
0
100
AcDbLine
10
56.296382
20
-10.999999
30
0
11
55.506467
21
-11.000001
31
0
39
0
210
0
220
0
230
1
0
ENDBLK
5
129
100
AcDbEntity
8
0
100
AcDbBlockEnd
0
BLOCK
5
137
100
AcDbEntity
8
0
100
AcDbBlockBegin
2
DimnDraft3D3
70
0
10
0
20
0
30
0
3
DimnDraft3D3
0
MTEXT
5
12C
100
AcDbEntity
8
SK2
62
256
6
ByLayer
370
18
48
1
60
0
100
AcDbMText
10
-49.223576
20
-3.594079
30
0
210
0
220
0
230
1
1
\W0.6563;16.0
40
4.5
41
0
44
1.084337
50
90
71
7
72
5
7
iso_b_vert
0
LINE
5
12E
100
AcDbEntity
8
SK2
62
256
6
ByLayer
370
13
48
1
60
0
100
AcDbLine
10
-39.848576
20
8
30
0
11
-51.098576
21
8
31
0
39
0
210
0
220
0
230
1
0
LINE
5
12F
100
AcDbEntity
8
SK2
62
256
6
ByLayer
370
13
48
1
60
0
100
AcDbLine
10
-39.848576
20
-8
30
0
11
-51.098576
21
-8
31
0
39
0
210
0
220
0
230
1
0
LINE
5
130
100
AcDbEntity
8
SK2
62
256
6
ByLayer
370
13
48
1
60
0
100
AcDbLine
10
-48.098576
20
19.25
30
0
11
-48.098576
21
-19.25
31
0
39
0
210
0
220
0
230
1
0
LINE
5
131
100
AcDbEntity
8
SK2
62
256
6
ByLayer
370
13
48
1
60
0
100
AcDbLine
10
-48.098576
20
8
30
0
11
-48.493533
21
10.999999
31
0
39
0
210
0
220
0
230
1
0
LINE
5
132
100
AcDbEntity
8
SK2
62
256
6
ByLayer
370
13
48
1
60
0
100
AcDbLine
10
-48.098576
20
8
30
0
11
-47.703618
21
11.000001
31
0
39
0
210
0
220
0
230
1
0
LINE
5
133
100
AcDbEntity
8
SK2
62
256
6
ByLayer
370
13
48
1
60
0
100
AcDbLine
10
-48.493533
20
10.999999
30
0
11
-47.703618
21
11.000001
31
0
39
0
210
0
220
0
230
1
0
LINE
5
134
100
AcDbEntity
8
SK2
62
256
6
ByLayer
370
13
48
1
60
0
100
AcDbLine
10
-48.098576
20
-8
30
0
11
-47.703618
21
-10.999999
31
0
39
0
210
0
220
0
230
1
0
LINE
5
135
100
AcDbEntity
8
SK2
62
256
6
ByLayer
370
13
48
1
60
0
100
AcDbLine
10
-48.098576
20
-8
30
0
11
-48.493533
21
-11.000001
31
0
39
0
210
0
220
0
230
1
0
LINE
5
136
100
AcDbEntity
8
SK2
62
256
6
ByLayer
370
13
48
1
60
0
100
AcDbLine
10
-47.703618
20
-10.999999
30
0
11
-48.493533
21
-11.000001
31
0
39
0
210
0
220
0
230
1
0
ENDBLK
5
138
100
AcDbEntity
8
0
100
AcDbBlockEnd
0
BLOCK
5
145
100
AcDbEntity
8
0
100
AcDbBlockBegin
2
DimnDraft3D4
70
0
10
0
20
0
30
0
3
DimnDraft3D4
0
MTEXT
5
13B
100
AcDbEntity
8
2
62
256
6
ByLayer
370
18
48
1
60
0
100
AcDbMText
10
43.276424
20
-21.125
30
0
210
0
220
0
230
1
1
\W0.7121;6.0
40
4.5
41
0
44
1.084337
50
0
71
7
72
5
7
iso_b_vert
0
LINE
5
13C
100
AcDbEntity
8
2
62
256
6
ByLayer
370
13
48
1
60
0
100
AcDbLine
10
25.651424
20
3
30
0
11
25.651424
21
-25.25
31
0
39
0
210
0
220
0
230
1
0
LINE
5
13D
100
AcDbEntity
8
2
62
256
6
ByLayer
370
13
48
1
60
0
100
AcDbLine
10
31.651424
20
5
30
0
11
31.651424
21
-25.25
31
0
39
0
210
0
220
0
230
1
0
LINE
5
13E
100
AcDbEntity
8
2
62
256
6
ByLayer
370
13
48
1
60
0
100
AcDbLine
10
49.351424
20
-22.25
30
0
11
14.401424
21
-22.25
31
0
39
0
210
0
220
0
230
1
0
LINE
5
13F
100
AcDbEntity
8
2
62
256
6
ByLayer
370
13
48
1
60
0
100
AcDbLine
10
25.651424
20
-22.25
30
0
11
22.651425
21
-22.644957
31
0
39
0
210
0
220
0
230
1
0
LINE
5
140
100
AcDbEntity
8
2
62
256
6
ByLayer
370
13
48
1
60
0
100
AcDbLine
10
25.651424
20
-22.25
30
0
11
22.651423
21
-21.855043
31
0
39
0
210
0
220
0
230
1
0
LINE
5
141
100
AcDbEntity
8
2
62
256
6
ByLayer
370
13
48
1
60
0
100
AcDbLine
10
22.651425
20
-22.644957
30
0
11
22.651423
21
-21.855043
31
0
39
0
210
0
220
0
230
1
0
LINE
5
142
100
AcDbEntity
8
2
62
256
6
ByLayer
370
13
48
1
60
0
100
AcDbLine
10
31.651424
20
-22.25
30
0
11
34.651423
21
-21.855043
31
0
39
0
210
0
220
0
230
1
0
LINE
5
143
100
AcDbEntity
8
2
62
256
6
ByLayer
370
13
48
1
60
0
100
AcDbLine
10
31.651424
20
-22.25
30
0
11
34.651426
21
-22.644957
31
0
39
0
210
0
220
0
230
1
0
LINE
5
144
100
AcDbEntity
8
2
62
256
6
ByLayer
370
13
48
1
60
0
100
AcDbLine
10
34.651423
20
-21.855043
30
0
11
34.651426
21
-22.644957
31
0
39
0
210
0
220
0
230
1
0
ENDBLK
5
146
100
AcDbEntity
8
0
100
AcDbBlockEnd
0
BLOCK
5
153
100
AcDbEntity
8
0
100
AcDbBlockBegin
2
DimnDraft3D5
70
0
10
0
20
0
30
0
3
DimnDraft3D5
0
MTEXT
5
149
100
AcDbEntity
8
SK2
62
256
6
ByLayer
370
18
48
1
60
0
100
AcDbMText
10
-7.505155
20
28.875
30
0
210
0
220
0
230
1
1
\W0.7346;70.0
40
4.5
41
0
44
1.084337
50
0
71
7
72
5
7
iso_b_vert
0
LINE
5
14A
100
AcDbEntity
8
SK2
62
256
6
ByLayer
370
13
48
1
60
0
100
AcDbLine
10
31.651424
20
9.5
30
0
11
31.651424
21
30.75
31
0
39
0
210
0
220
0
230
1
0
LINE
5
14B
100
AcDbEntity
8
SK2
62
256
6
ByLayer
370
13
48
1
60
0
100
AcDbLine
10
-38.348576
20
9.5
30
0
11
-38.348576
21
30.75
31
0
39
0
210
0
220
0
230
1
0
LINE
5
14C
100
AcDbEntity
8
SK2
62
256
6
ByLayer
370
13
48
1
60
0
100
AcDbLine
10
31.651424
20
27.75
30
0
11
-38.348576
21
27.75
31
0
39
0
210
0
220
0
230
1
0
LINE
5
14D
100
AcDbEntity
8
SK2
62
256
6
ByLayer
370
13
48
1
60
0
100
AcDbLine
10
31.651424
20
27.75
30
0
11
28.651425
21
27.355043
31
0
39
0
210
0
220
0
230
1
0
LINE
5
14E
100
AcDbEntity
8
SK2
62
256
6
ByLayer
370
13
48
1
60
0
100
AcDbLine
10
31.651424
20
27.75
30
0
11
28.651423
21
28.144957
31
0
39
0
210
0
220
0
230
1
0
LINE
5
14F
100
AcDbEntity
8
SK2
62
256
6
ByLayer
370
13
48
1
60
0
100
AcDbLine
10
28.651425
20
27.355043
30
0
11
28.651423
21
28.144957
31
0
39
0
210
0
220
0
230
1
0
LINE
5
150
100
AcDbEntity
8
SK2
62
256
6
ByLayer
370
13
48
1
60
0
100
AcDbLine
10
-38.348576
20
27.75
30
0
11
-35.348577
21
28.144957
31
0
39
0
210
0
220
0
230
1
0
LINE
5
151
100
AcDbEntity
8
SK2
62
256
6
ByLayer
370
13
48
1
60
0
100
AcDbLine
10
-38.348576
20
27.75
30
0
11
-35.348574
21
27.355043
31
0
39
0
210
0
220
0
230
1
0
LINE
5
152
100
AcDbEntity
8
SK2
62
256
6
ByLayer
370
13
48
1
60
0
100
AcDbLine
10
-35.348577
20
28.144957
30
0
11
-35.348574
21
27.355043
31
0
39
0
210
0
220
0
230
1
0
ENDBLK
5
154
100
AcDbEntity
8
0
100
AcDbBlockEnd
0
BLOCK
5
161
100
AcDbEntity
8
0
100
AcDbBlockBegin
2
DimnDraft3D6
70
0
10
0
20
0
30
0
3
DimnDraft3D6
0
MTEXT
5
157
100
AcDbEntity
8
2
62
256
6
ByLayer
370
18
48
1
60
0
100
AcDbMText
10
12.231633
20
18.875
30
0
210
0
220
0
230
1
1
\W0.6563;31.7
40
4.5
41
0
44
1.084337
50
0
71
7
72
5
7
iso_b_vert
0
LINE
5
158
100
AcDbEntity
8
2
62
256
6
ByLayer
370
13
48
1
60
0
100
AcDbLine
10
31.651424
20
8.75
30
0
11
31.651424
21
20.75
31
0
39
0
210
0
220
0
230
1
0
LINE
5
159
100
AcDbEntity
8
2
62
256
6
ByLayer
370
13
48
1
60
0
100
AcDbLine
10
0
20
9.5
30
0
11
0
21
20.75
31
0
39
0
210
0
220
0
230
1
0
LINE
5
15A
100
AcDbEntity
8
2
62
256
6
ByLayer
370
13
48
1
60
0
100
AcDbLine
10
31.651424
20
17.75
30
0
11
0
21
17.75
31
0
39
0
210
0
220
0
230
1
0
LINE
5
15B
100
AcDbEntity
8
2
62
256
6
ByLayer
370
13
48
1
60
0
100
AcDbLine
10
31.651424
20
17.75
30
0
11
28.651425
21
17.355043
31
0
39
0
210
0
220
0
230
1
0
LINE
5
15C
100
AcDbEntity
8
2
62
256
6
ByLayer
370
13
48
1
60
0
100
AcDbLine
10
31.651424
20
17.75
30
0
11
28.651423
21
18.144957
31
0
39
0
210
0
220
0
230
1
0
LINE
5
15D
100
AcDbEntity
8
2
62
256
6
ByLayer
370
13
48
1
60
0
100
AcDbLine
10
28.651425
20
17.355043
30
0
11
28.651423
21
18.144957
31
0
39
0
210
0
220
0
230
1
0
LINE
5
15E
100
AcDbEntity
8
2
62
256
6
ByLayer
370
13
48
1
60
0
100
AcDbLine
10
0
20
17.75
30
0
11
2.999999
21
18.144957
31
0
39
0
210
0
220
0
230
1
0
LINE
5
15F
100
AcDbEntity
8
2
62
256
6
ByLayer
370
13
48
1
60
0
100
AcDbLine
10
0
20
17.75
30
0
11
3.000001
21
17.355043
31
0
39
0
210
0
220
0
230
1
0
LINE
5
160
100
AcDbEntity
8
2
62
256
6
ByLayer
370
13
48
1
60
0
100
AcDbLine
10
2.999999
20
18.144957
30
0
11
3.000001
21
17.355043
31
0
39
0
210
0
220
0
230
1
0
ENDBLK
5
162
100
AcDbEntity
8
0
100
AcDbBlockEnd
0
ENDSEC
0
SECTION
2
ENTITIES
0
ELLIPSE
5
AA
100
AcDbEntity
8
1
62
256
6
ByLayer
370
18
48
1
60
0
100
AcDbEllipse
10
20.648767
20
7.653866
30
0
11
-1.79561529046768
21
-0.125561652739423
31
0
210
0
220
0
230
1
40
0.034899
41
-3.10406576377213
42
-0.0374758108502609
0
ELLIPSE
5
AB
100
AcDbEntity
8
1
62
256
6
ByLayer
370
18
48
1
60
0
100
AcDbEllipse
10
20.691023
20
7.049576
30
0
11
-2.44403192313657
21
-0.170903360673104
31
0
210
0
220
0
230
1
40
0.034899
41
-2.29402215728857
42
-0.847613476551832
0
ELLIPSE
5
AC
100
AcDbEntity
8
1
62
256
6
ByLayer
370
13
48
1
60
0
100
AcDbEllipse
10
28.229936
20
5.973774
30
0
11
-0.0349619877871475
21
0.499706611599653
31
0
210
0
220
0
230
1
40
0.998146
41
-0.104501832889087
42
-0.0700599690201627
0
ELLIPSE
5
AD
100
AcDbEntity
8
1
62
256
6
ByLayer
370
13
48
1
60
0
100
AcDbEllipse
10
27.228596
20
5.974108
30
0
11
-0.0349430921543828
21
0.499708738630995
31
0
210
0
220
0
230
1
40
0.998145
41
-0.0700181746598459
42
-1.06002318060216E-07
0
ELLIPSE
5
AE
100
AcDbEntity
8
1
62
256
6
ByLayer
370
13
48
1
60
0
100
AcDbEllipse
10
18.12274
20
5.853079
30
0
11
-0.555984066276556
21
-0.0388781937926608
31
0
210
0
220
0
230
1
40
0.896569
41
-1.57079556177896
42
-1.4450089638825
0
ELLIPSE
5
AF
100
AcDbEntity
8
1
62
256
6
ByLayer
370
13
48
1
60
0
100
AcDbEllipse
10
29.455358
20
6.449836
30
0
11
-0.498303873919047
21
0.0173225497047177
31
0
210
0
220
0
230
1
40
0.035171
41
1.56660155941347
42
2.29722309781888
0
ELLIPSE
5
B0
100
AcDbEntity
8
1
62
256
6
ByLayer
370
18
48
1
60
0
100
AcDbEllipse
10
5.915065
20
5.666095
30
0
11
1.84856465667816
21
0.0174489932279068
31
0
210
0
220
0
230
1
40
0.865498
41
-2.28646617864064
42
-1.5010680152432
0
POINT
5
6C
100
AcDbEntity
8
80
62
256
6
ByLayer
370
18
48
1
60
0
100
AcDbPoint
10
0
20
0
30
0
39
0
210
0
220
0
230
1
50
360
0
POINT
5
6E
100
AcDbEntity
8
2
62
256
6
ByLayer
370
18
48
1
60
0
100
AcDbPoint
10
31.651424
20
8
30
0
39
0
210
0
220
0
230
1
50
360
0
POINT
5
70
100
AcDbEntity
8
81
62
256
6
ByLayer
370
18
48
1
60
0
100
AcDbPoint
10
31.651424
20
8
30
0
39
0
210
0
220
0
230
1
50
360
0
SPLINE
5
B1
100
AcDbEntity
8
1
62
256
6
ByLayer
370
13
48
1
60
0
100
AcDbSpline
70
4
71
3
72
12
73
8
40
0
40
0
40
0
40
0
40
0.118430429913231
40
0.353067263156399
40
0.59377666587202
40
0.856978038780672
40
1
40
1
40
1
40
1
41
1
10
24.8556170714815
20
5.49483860353013
30
0
41
1
10
24.8602164140769
20
5.5112183276257
30
0
41
1
10
24.8758245815917
20
5.55871038250865
30
0
41
1
10
24.908480190685
20
5.6284911941539
30
0
41
1
10
24.9448161935226
20
5.69266386940424
30
0
41
1
10
24.9586892247838
20
5.72759855412539
30
0
41
1
10
24.9558435799529
20
5.74177997427859
30
0
41
1
10
24.9534591367701
20
5.74599092831545
30
0
0
SPLINE
5
B2
100
AcDbEntity
8
1
62
256
6
ByLayer
370
13
48
1
60
0
100
AcDbSpline
70
4
71
3
72
10
73
6
40
0
40
0
40
0
40
0
40
0.239873510979281
40
0.62294377748256
40
1
40
1
40
1
40
1
41
1
10
25.4362920814344
20
6.34507038309673
30
0
41
1
10
25.4279161341912
20
6.32019242901481
30
0
41
1
10
25.4250004370549
20
6.25692247589154
30
0
41
1
10
25.6253271899865
20
6.16991093670103
30
0
41
1
10
25.9658351930835
20
6.11795690228047
30
0
41
1
10
26.1347421621725
20
6.09218541260592
30
0
0
SPLINE
5
B3
100
AcDbEntity
8
1
62
256
6
ByLayer
370
13
48
1
60
0
100
AcDbSpline
70
4
71
3
72
8
73
4
40
0
40
0
40
0
40
0
40
1
40
1
40
1
40
1
41
1
10
17.6585012126471
20
6.27031778418575
30
0
41
1
10
17.498309057992
20
6.24269469432042
30
0
41
1
10
17.3381169033368
20
6.21507160445512
30
0
41
1
10
17.1779247486816
20
6.18744851458979
30
0
0
SPLINE
5
B4
100
AcDbEntity
8
1
62
256
6
ByLayer
370
13
48
1
60
0
100
AcDbSpline
70
4
71
5
72
12
73
6
40
0
40
0
40
0
40
0
40
0
40
0
40
1
40
1
40
1
40
1
40
1
40
1
41
1
10
23.1936782856828
20
5.37707910316573
30
0
41
1
10
23.189174500277
20
5.42855906921639
30
0
41
1
10
23.1846707148712
20
5.48003903526705
30
0
41
1
10
23.1801669294654
20
5.53151900131775
30
0
41
1
10
23.1756631440596
20
5.58299896736844
30
0
41
1
10
23.1711593586538
20
5.63447893341913
30
0
0
SPLINE
5
B5
100
AcDbEntity
8
1
62
256
6
ByLayer
370
13
48
1
60
0
100
AcDbSpline
70
4
71
5
72
12
73
6
40
0
40
0
40
0
40
0
40
0
40
0
40
1
40
1
40
1
40
1
40
1
40
1
41
1
10
24.820043816798
20
5.49079394657252
30
0
41
1
10
24.8180095777549
20
5.54908246042831
30
0
41
1
10
24.8159753387118
20
5.60737097428409
30
0
41
1
10
24.8139410996687
20
5.66565948813988
30
0
41
1
10
24.8119068606256
20
5.72394800199564
30
0
41
1
10
24.8098726215825
20
5.78223651585142
30
0
0
SPLINE
5
B6
100
AcDbEntity
8
1
62
256
6
ByLayer
370
13
48
1
60
0
100
AcDbSpline
70
4
71
5
72
12
73
6
40
0
40
0
40
0
40
0
40
0
40
0
40
1
40
1
40
1
40
1
40
1
40
1
41
1
10
14.4439607337187
20
4.75533710313991
30
0
41
1
10
14.4412098971793
20
4.78678020242373
30
0
41
1
10
14.4384590606398
20
4.81822330170758
30
0
41
1
10
14.4357082241004
20
4.84966640099142
30
0
41
1
10
14.4329573875609
20
4.88110950027527
30
0
41
1
10
14.4302065510214
20
4.91255259955909
30
0
0
SPLINE
5
B7
100
AcDbEntity
8
1
62
256
6
ByLayer
370
13
48
1
60
0
100
AcDbSpline
70
4
71
1
72
4
73
2
40
0
40
0
40
1
40
1
41
1
10
17.6758767047688
20
6.27158611987869
30
0
41
1
10
17.03719671387
20
6.16144733164103
30
0
0
SPLINE
5
B8
100
AcDbEntity
8
1
62
256
6
ByLayer
370
13
48
1
60
0
100
AcDbSpline
70
4
71
5
72
12
73
6
40
0
40
0
40
0
40
0
40
0
40
0
40
1
40
1
40
1
40
1
40
1
40
1
41
1
10
24.8363496924459
20
5.49403694089952
30
0
41
1
10
24.8604234526519
20
5.6234627088854
30
0
41
1
10
24.927165978148
20
5.74498039096466
30
0
41
1
10
25.0331988607905
20
5.83974981485457
30
0
41
1
10
25.1616899798309
20
5.89208709766567
30
0
41
1
10
25.293029341686
20
5.90131923226934
30
0
0
SPLINE
5
B9
100
AcDbEntity
8
1
62
256
6
ByLayer
370
13
48
1
60
0
100
AcDbSpline
70
4
71
5
72
12
73
6
40
0
40
0
40
0
40
0
40
0
40
0
40
1
40
1
40
1
40
1
40
1
40
1
41
1
10
26.1347376006978
20
6.0921802564396
30
0
41
1
10
26.2352876258555
20
6.16121192277629
30
0
41
1
10
26.3358868097627
20
6.23000320762864
30
0
41
1
10
26.4365357211337
20
6.29855030014832
30
0
41
1
10
26.5372349814719
20
6.36684929045984
30
0
41
1
10
26.6379852369569
20
6.43489614515448
30
0
0
SPLINE
5
BA
100
AcDbEntity
8
1
62
256
6
ByLayer
370
13
48
1
60
0
100
AcDbSpline
70
4
71
3
72
9
73
5
40
0
40
0
40
0
40
0
40
0.358269864880802
40
1
40
1
40
1
40
1
41
1
10
24.8543617711139
20
5.46699805499162
30
0
41
1
10
24.8702678938146
20
5.54702466461004
30
0
41
1
10
24.9320709700975
20
5.75611156764637
30
0
41
1
10
25.1572157535243
20
5.83116642975943
30
0
41
1
10
25.3016979458141
20
5.8793313965646
30
0
0
SPLINE
5
BB
100
AcDbEntity
8
1
62
256
6
ByLayer
370
13
48
1
60
0
100
AcDbSpline
70
4
71
3
72
8
73
4
40
0
40
0
40
0
40
0
40
1
40
1
40
1
40
1
41
1
10
24.8649726460922
20
5.49376639930165
30
0
41
1
10
24.9292934885862
20
5.67993669024946
30
0
41
1
10
25.1055579952
20
5.8296831717013
30
0
41
1
10
25.30418090829
20
5.8435722387853
30
0
0
SPLINE
5
BC
100
AcDbEntity
8
1
62
256
6
ByLayer
370
13
48
1
60
0
100
AcDbSpline
70
4
71
5
72
16
73
10
40
0
40
0
40
0
40
0
40
0
40
0
40
6.615876442E-06
40
6.615876442E-06
40
6.615876442E-06
40
6.615876442E-06
40
1
40
1
40
1
40
1
40
1
40
1
41
1
10
12.7653473233756
20
5.17996921940571
30
0
41
1
10
12.7653477727699
20
5.17996330344201
30
0
41
1
10
12.7653482057712
20
5.17995760854288
30
0
41
1
10
12.7653485962758
20
5.17995247689453
30
0
41
1
10
12.7653488775689
20
5.17994878042367
30
0
41
1
10
12.7658023354856
20
5.17398990294484
30
0
41
1
10
12.8027334229575
20
5.17058301856747
30
0
41
1
10
12.8773958531946
20
5.17015771593444
30
0
41
1
10
12.9828778339754
20
5.17264392994926
30
0
41
1
10
13.1133217147572
20
5.17783253187645
30
0
0
SPLINE
5
BD
100
AcDbEntity
8
1
62
256
6
ByLayer
370
13
48
1
60
0
100
AcDbSpline
70
4
71
5
72
12
73
6
40
0
40
0
40
0
40
0
40
0
40
0
40
1
40
1
40
1
40
1
40
1
40
1
41
1
10
24.8078217689442
20
5.80485220148299
30
0
41
1
10
24.8031858346172
20
5.93777634131331
30
0
41
1
10
24.8426879405435
20
6.07232551640126
30
0
41
1
10
24.9275243185753
20
6.18856727306314
30
0
41
1
10
25.0436315983877
20
6.26723199890711
30
0
41
1
10
25.1716586517518
20
6.30337680047958
30
0
0
SPLINE
5
BE
100
AcDbEntity
8
1
62
256
6
ByLayer
370
13
48
1
60
0
100
AcDbSpline
70
4
71
5
72
12
73
6
40
0
40
0
40
0
40
0
40
0
40
0
40
1
40
1
40
1
40
1
40
1
40
1
41
1
10
22.321293965194
20
6.2456796008143
30
0
41
1
10
22.03799305984
20
6.29965312695325
30
0
41
1
10
21.7546089804454
20
6.35318849227789
30
0
41
1
10
21.471140951666
20
6.40627661593149
30
0
41
1
10
21.1875879384437
20
6.45890807245885
30
0
41
1
10
20.9039488955232
20
6.51107302414047
30
0
0
SPLINE
5
BF
100
AcDbEntity
8
1
62
256
6
ByLayer
370
13
48
1
60
0
100
AcDbSpline
70
4
71
5
72
17
73
11
40
0
40
0
40
0
40
0
40
0
40
0
40
0.999980762800955
40
0.999980762800955
40
0.999980762800955
40
0.999980762800955
40
0.999980762800955
40
1
40
1
40
1
40
1
40
1
40
1
41
1
10
14.2049678086076
20
5.37865245262481
30
0
41
1
10
15.8580572753493
20
5.53868571807899
30
0
41
1
10
17.4986369993078
20
5.68376903262509
30
0
41
1
10
19.1269303532681
20
5.80270555565517
30
0
41
1
10
20.7407956378109
20
5.91619931128477
30
0
41
1
10
22.337312156205
20
6.06330725380548
30
0
41
1
10
22.3372975977975
20
6.06330591103858
30
0
41
1
10
22.3372876391303
20
6.06330499182755
30
0
41
1
10
22.3372776804975
20
6.06330407224431
30
0
41
1
10
22.3372677218799
20
6.06330315249613
30
0
41
1
10
22.3372577632623
20
6.0633022327481
30
0
0
SPLINE
5
C0
100
AcDbEntity
8
1
62
256
6
ByLayer
370
13
48
1
60
0
100
AcDbSpline
70
4
71
5
72
12
73
6
40
0
40
0
40
0
40
0
40
0
40
0
40
1
40
1
40
1
40
1
40
1
40
1
41
1
10
17.9759741201812
20
6.2741750039693
30
0
41
1
10
17.2375783401088
20
6.12659464791403
30
0
41
1
10
16.4785093966567
20
5.97782081996945
30
0
41
1
10
15.6995549182676
20
5.82801494225529
30
0
41
1
10
14.9015683404219
20
5.67734523095928
30
0
41
1
10
14.0854273518497
20
5.52597825908538
30
0
0
SPLINE
5
C1
100
AcDbEntity
8
1
62
256
6
ByLayer
370
13
48
1
60
0
100
AcDbSpline
70
4
71
1
72
4
73
2
40
0
40
0
40
1
40
1
41
1
10
22.3372726698219
20
6.06330364236914
30
0
41
1
10
22.8872083045315
20
6.11319802035925
30
0
0
SPLINE
5
C2
100
AcDbEntity
8
1
62
256
6
ByLayer
370
13
48
1
60
0
100
AcDbSpline
70
4
71
3
72
9
73
5
40
0
40
0
40
0
40
0
40
0.425871534364878
40
1
40
1
40
1
40
1
41
1
10
24.8098723908712
20
5.78224312167094
30
0
41
1
10
24.8211345092812
20
5.87715044750422
30
0
41
1
10
24.8475793817397
20
6.10000480186915
30
0
41
1
10
25.0471226609914
20
6.2124652846872
30
0
41
1
10
25.161686137736
20
6.27703204913209
30
0
0
SPLINE
5
C3
100
AcDbEntity
8
1
62
256
6
ByLayer
370
13
48
1
60
0
100
AcDbSpline
70
4
71
3
72
18
73
14
40
0
40
0
40
0
40
0
40
0.0089477727217393
40
0.0089477727217393
40
0.0205509304464286
40
0.0205509304464286
40
0.0415156227169657
40
0.0415156227169657
40
0.112513791209194
40
0.112513791209194
40
0.450146522201178
40
0.450146522201178
40
1
40
1
40
1
40
1
41
1
10
29.4527704577841
20
6.43560001917572
30
0
41
1
10
29.4569421999628
20
6.43536358228067
30
0
41
1
10
29.4612092143389
20
6.43591830775043
30
0
41
1
10
29.4704052815935
20
6.43864671085092
30
0
41
1
10
29.4753131875779
20
6.44124551674756
30
0
41
1
10
29.487770998154
20
6.44989584984751
30
0
41
1
10
29.4946371548727
20
6.45711627450279
30
0
41
1
10
29.521284522842
20
6.49023829370319
30
0
41
1
10
29.5353209820203
20
6.52068024748519
30
0
41
1
10
29.6078628788427
20
6.69409255059759
30
0
41
1
10
29.6382972830446
20
6.84840435543367
30
0
41
1
10
29.7182003485311
20
7.24868978892354
30
0
41
1
10
29.7551569052455
20
7.49924143108927
30
0
41
1
10
29.788576506701
20
7.74999455398822
30
0
0
SPLINE
5
C4
100
AcDbEntity
8
1
62
256
6
ByLayer
370
13
48
1
60
0
100
AcDbSpline
70
4
71
2
72
6
73
3
40
0
40
0
40
0
40
1
40
1
40
1
41
1
10
14.4302059212089
20
4.91255848347549
30
0
41
1
10
14.0203096844141
20
4.87035710027553
30
0
41
1
10
13.5388766821485
20
4.81871400138957
30
0
0
SPLINE
5
C5
100
AcDbEntity
8
1
62
256
6
ByLayer
370
13
48
1
60
0
100
AcDbSpline
70
4
71
5
72
12
73
6
40
0
40
0
40
0
40
0
40
0
40
0
40
1
40
1
40
1
40
1
40
1
40
1
41
1
10
12.4396005086847
20
5.1953792495957
30
0
41
1
10
12.7573705057354
20
5.25281505831725
30
0
41
1
10
13.1269096778151
20
5.3133330073741
30
0
41
1
10
13.4744430156591
20
5.37202362820528
30
0
41
1
10
13.84454707758
20
5.43227957623969
30
0
41
1
10
14.2073837456304
20
5.49195723030408
30
0
0
SPLINE
5
C6
100
AcDbEntity
8
1
62
256
6
ByLayer
370
13
48
1
60
0
100
AcDbSpline
70
4
71
3
72
9
73
5
40
0
40
0
40
0
40
0
40
0.505346229061321
40
1
40
1
40
1
40
1
41
1
10
18.1163088486698
20
6.24254900689945
30
0
41
1
10
17.4823962643233
20
6.11731473771206
30
0
41
1
10
16.2279838478618
20
5.86949599090948
30
0
41
1
10
14.876096566691
20
5.61690250256643
30
0
41
1
10
14.2073804251758
20
5.49195618104298
30
0
0
SPLINE
5
C7
100
AcDbEntity
8
1
62
256
6
ByLayer
370
13
48
1
60
0
100
AcDbSpline
70
4
71
3
72
8
73
4
40
0
40
0
40
0
40
0
40
1
40
1
40
1
40
1
41
1
10
17.675864061812
20
6.27169502433662
30
0
41
1
10
17.7757312909396
20
6.2726376922561
30
0
41
1
10
17.8755985200672
20
6.27358036017557
30
0
41
1
10
17.9754657491948
20
6.27452302809505
30
0
0
SPLINE
5
C8
100
AcDbEntity
8
1
62
256
6
ByLayer
370
13
48
1
60
0
100
AcDbSpline
70
4
71
3
72
8
73
4
40
0
40
0
40
0
40
0
40
1
40
1
40
1
40
1
41
1
10
12.7671836743254
20
5.18230154445689
30
0
41
1
10
12.7659102702115
20
5.18147878889894
30
0
41
1
10
12.7652984555394
20
5.18070068381851
30
0
41
1
10
12.7653473727695
20
5.17996855502952
30
0
0
SPLINE
5
C9
100
AcDbEntity
8
1
62
256
6
ByLayer
370
13
48
1
60
0
100
AcDbSpline
70
4
71
3
72
8
73
4
40
0
40
0
40
0
40
0
40
1
40
1
40
1
40
1
41
1
10
24.8277006773885
20
6.26578612417441
30
0
41
1
10
24.8102162602263
20
6.26497057630542
30
0
41
1
10
24.7923626339189
20
6.26410992664555
30
0
41
1
10
24.7741744461828
20
6.26320592822566
30
0
0
SPLINE
5
CA
100
AcDbEntity
8
1
62
256
6
ByLayer
370
13
48
1
60
0
100
AcDbSpline
70
4
71
5
72
12
73
6
40
0
40
0
40
0
40
0
40
0
40
0
40
1
40
1
40
1
40
1
40
1
40
1
41
1
10
13.2953369729465
20
4.75101424375913
30
0
41
1
10
13.2744706913552
20
4.89953724702934
30
0
41
1
10
13.1979622159313
20
5.04044197490339
30
0
41
1
10
13.0688641670035
20
5.14492953325092
30
0
41
1
10
12.9150519373669
20
5.19043865171389
30
0
41
1
10
12.7653472428854
20
5.17997027787456
30
0
0
SPLINE
5
CB
100
AcDbEntity
8
1
62
256
6
ByLayer
370
13
48
1
60
0
100
AcDbSpline
70
4
71
2
72
6
73
3
40
0
40
0
40
0
40
1
40
1
40
1
41
1
10
23.4877002872097
20
6.17814178607446
30
0
41
1
10
22.9208207851592
20
6.1209680505236
30
0
41
1
10
22.3372715548679
20
6.06330360279287
30
0
0
SPLINE
5
CC
100
AcDbEntity
8
1
62
256
6
ByLayer
370
13
48
1
60
0
100
AcDbSpline
70
4
71
1
72
4
73
2
40
0
40
0
40
1
40
1
41
1
10
24.8277321795944
20
6.26578830078276
30
0
41
1
10
24.8405496232803
20
6.27189342865361
30
0
0
SPLINE
5
CD
100
AcDbEntity
8
1
62
256
6
ByLayer
370
13
48
1
60
0
100
AcDbSpline
70
4
71
3
72
9
73
5
40
0
40
0
40
0
40
0
40
0.442785787555748
40
1
40
1
40
1
40
1
41
1
10
23.1713811386371
20
5.63449725802255
30
0
41
1
10
23.1498598898205
20
5.74948285269497
30
0
41
1
10
23.1012556901792
20
6.00916958588294
30
0
41
1
10
22.9638125911707
20
6.07587884825483
30
0
41
1
10
22.8872273430007
20
6.11305019735013
30
0
0
SPLINE
5
CE
100
AcDbEntity
8
1
62
256
6
ByLayer
370
13
48
1
60
0
100
AcDbSpline
70
4
71
5
72
12
73
6
40
0
40
0
40
0
40
0
40
0
40
0
40
1
40
1
40
1
40
1
40
1
40
1
41
1
10
22.6256785808262
20
5.58498828019236
30
0
41
1
10
22.6122488108761
20
5.73794710423027
30
0
41
1
10
22.568992789483
20
5.88876008180841
30
0
41
1
10
22.498064370963
20
6.00640184595386
30
0
41
1
10
22.4155718737671
20
6.06415516486464
30
0
41
1
10
22.3372922386424
20
6.06330541679259
30
0
0
SPLINE
5
CF
100
AcDbEntity
8
1
62
256
6
ByLayer
370
13
48
1
60
0
100
AcDbSpline
70
4
71
3
72
8
73
4
40
0
40
0
40
0
40
0
40
1
40
1
40
1
40
1
41
1
10
13.3006452201553
20
5.2867845613334
30
0
41
1
10
13.6020789902183
20
5.31741031686315
30
0
41
1
10
13.9035127602812
20
5.34803607239286
30
0
41
1
10
14.2049465303442
20
5.37866182792257
30
0
0
SPLINE
5
D0
100
AcDbEntity
8
1
62
256
6
ByLayer
370
13
48
1
60
0
100
AcDbSpline
70
4
71
5
72
12
73
6
40
0
40
0
40
0
40
0
40
0
40
0
40
1
40
1
40
1
40
1
40
1
40
1
41
1
10
24.5589167270824
20
5.76702449921095
30
0
41
1
10
24.5536727888064
20
5.91695668120428
30
0
41
1
10
24.5765208227037
20
6.06682367599925
30
0
41
1
10
24.6289650044559
20
6.1876869151711
30
0
41
1
10
24.6996813717284
20
6.25344922162483
30
0
41
1
10
24.7742172794842
20
6.26320805774233
30
0
0
SPLINE
5
D1
100
AcDbEntity
8
1
62
256
6
ByLayer
370
13
48
1
60
0
100
AcDbSpline
70
4
71
5
72
16
73
10
40
0
40
0
40
0
40
0
40
0
40
0
40
0.999988154021739
40
0.999988154021739
40
0.999988154021739
40
0.999988154021739
40
1
40
1
40
1
40
1
40
1
40
1
41
1
10
24.0609009216628
20
5.71473669290131
30
0
41
1
10
24.1522097849725
20
5.72937628173398
30
0
41
1
10
24.2549744782448
20
5.74283026315013
30
0
41
1
10
24.3648664684594
20
5.75439003478286
30
0
41
1
10
24.468446301682
20
5.76252497070612
30
0
41
1
10
24.5588785475605
20
5.76702260042734
30
0
41
1
10
24.5588885362144
20
5.76702309721082
30
0
41
1
10
24.5588985248684
20
5.76702359399349
30
0
41
1
10
24.5589085135231
20
5.76702409076177
30
0
41
1
10
24.5589185021778
20
5.76702458752956
30
0
0
SPLINE
5
D2
100
AcDbEntity
8
1
62
256
6
ByLayer
370
13
48
1
60
0
100
AcDbSpline
70
4
71
3
72
8
73
4
40
0
40
0
40
0
40
0
40
1
40
1
40
1
40
1
41
1
10
23.1711594162618
20
5.63447816560713
30
0
41
1
10
22.9894096894322
20
5.61798759743073
30
0
41
1
10
22.8075796778501
20
5.60149064269103
30
0
41
1
10
22.6256695831146
20
5.58498731964514
30
0
0
SPLINE
5
D3
100
AcDbEntity
8
1
62
256
6
ByLayer
370
13
48
1
60
0
100
AcDbSpline
70
4
71
5
72
16
73
10
40
0
40
0
40
0
40
0
40
0
40
0
40
8.9427746204E-06
40
8.9427746204E-06
40
8.9427746204E-06
40
8.9427746204E-06
40
1
40
1
40
1
40
1
40
1
40
1
41
1
10
24.7741992767407
20
6.26320716273088
30
0
41
1
10
24.774189288078
20
6.26320666612349
30
0
41
1
10
24.7741792994153
20
6.26320616951594
30
0
41
1
10
24.7741693107528
20
6.26320567290475
30
0
41
1
10
24.7741593220904
20
6.26320517629324
30
0
41
1
10
24.5932761043593
20
6.25421210957745
30
0
41
1
10
24.3859856607618
20
6.24171927832194
30
0
41
1
10
24.1659292616291
20
6.22631148305658
30
0
41
1
10
23.9600336001364
20
6.20995938208449
30
0
41
1
10
23.7769673871347
20
6.19345566224891
30
0
0
SPLINE
5
D4
100
AcDbEntity
8
1
62
256
6
ByLayer
370
13
48
1
60
0
100
AcDbSpline
70
4
71
1
72
4
73
2
40
0
40
0
40
1
40
1
41
1
10
25.2930300554732
20
5.90132008076012
30
0
41
1
10
25.3017051616981
20
5.87948051496144
30
0
0
SPLINE
5
D5
100
AcDbEntity
8
1
62
256
6
ByLayer
370
13
48
1
60
0
100
AcDbSpline
70
4
71
5
72
12
73
6
40
0
40
0
40
0
40
0
40
0
40
0
40
1
40
1
40
1
40
1
40
1
40
1
41
1
10
13.2962554511209
20
4.75211158985823
30
0
41
1
10
13.2754265256368
20
4.90067543850452
30
0
41
1
10
13.199046430226
20
5.04175833942543
30
0
41
1
10
13.0701626327635
20
5.14655033794068
30
0
41
1
10
12.9166098239607
20
5.19241985323063
30
0
41
1
10
12.7671650322205
20
5.18230121481193
30
0
0
SPLINE
5
D6
100
AcDbEntity
8
1
62
256
6
ByLayer
370
13
48
1
60
0
100
AcDbSpline
70
4
71
1
72
4
73
2
40
0
40
0
40
1
40
1
41
1
10
29.4526574543759
20
6.43237495609407
30
0
41
1
10
29.4527697123639
20
6.43558378011457
30
0
0
SPLINE
5
D7
100
AcDbEntity
8
1
62
256
6
ByLayer
370
13
48
1
60
0
100
AcDbSpline
70
4
71
1
72
4
73
2
40
0
40
0
40
1
40
1
41
1
10
17.7059003715746
20
6.27664048416241
30
0
41
1
10
17.6584512785627
20
6.2706976585807
30
0
0
SPLINE
5
D8
100
AcDbEntity
8
1
62
256
6
ByLayer
370
13
48
1
60
0
100
AcDbSpline
70
4
71
3
72
8
73
4
40
0
40
0
40
0
40
0
40
1
40
1
40
1
40
1
41
1
10
18.1154975363273
20
6.24298265867674
30
0
41
1
10
18.0697383886397
20
6.26615608705777
30
0
41
1
10
18.0219914343409
20
6.27683121485558
30
0
41
1
10
17.9759778691534
20
6.27417575326191
30
0
0
SPLINE
5
D9
100
AcDbEntity
8
1
62
256
6
ByLayer
370
13
48
1
60
0
100
AcDbSpline
70
4
71
2
72
6
73
3
40
0
40
0
40
0
40
1
40
1
40
1
41
1
10
18.0054694328595
20
6.27847827061436
30
0
41
1
10
19.3386301394029
20
6.4036749419929
30
0
41
1
10
20.5991696618122
20
6.52716318217117
30
0
0
SPLINE
5
DA
100
AcDbEntity
8
1
62
256
6
ByLayer
370
13
48
1
60
0
100
AcDbSpline
70
4
71
3
72
12
73
8
40
0
40
0
40
0
40
0
40
0.260763522617879
40
0.260763522617879
40
0.521414228342386
40
0.521414228342386
40
1
40
1
40
1
40
1
41
1
10
29.8319713535811
20
7.75182911981926
30
0
41
1
10
29.9573211800056
20
7.75671125401013
30
0
41
1
10
30.1035699022564
20
7.76376322399355
30
0
41
1
10
30.4132889314985
20
7.78100471094234
30
0
41
1
10
30.5809896663589
20
7.7914282159287
30
0
41
1
10
31.0541558827745
20
7.8236595043785
30
0
41
1
10
31.3584864706
20
7.84756347951227
30
0
41
1
10
31.6619960767607
20
7.87031567505107
30
0
0
SPLINE
5
DB
100
AcDbEntity
8
1
62
256
6
ByLayer
370
13
48
1
60
0
100
AcDbSpline
70
4
71
3
72
8
73
4
40
0
40
0
40
0
40
0
40
1
40
1
40
1
40
1
41
1
10
18.0053658393761
20
6.27939679341253
30
0
41
1
10
17.9953613502907
20
6.27781388939277
30
0
41
1
10
17.9853608285632
20
6.27619548492967
30
0
41
1
10
17.9753648187094
20
6.27454160814082
30
0
0
SPLINE
5
DC
100
AcDbEntity
8
1
62
256
6
ByLayer
370
13
48
1
60
0
100
AcDbSpline
70
4
71
5
72
16
73
10
40
0
40
0
40
0
40
0
40
0
40
0
40
8.9427796322E-06
40
8.9427796322E-06
40
8.9427796322E-06
40
8.9427796322E-06
40
1
40
1
40
1
40
1
40
1
40
1
41
1
10
24.808123325348
20
5.77858779944552
30
0
41
1
10
24.808133285899
20
5.77858869801423
30
0
41
1
10
24.8081432464499
20
5.77858959658312
30
0
41
1
10
24.8081532070005
20
5.7785904951557
30
0
41
1
10
24.8081631675511
20
5.77859139372859
30
0
41
1
10
24.9884927651964
20
5.79485950131016
30
0
41
1
10
25.1411458672426
20
5.810824400256
30
0
41
1
10
25.2502162671126
20
5.82514483748847
30
0
41
1
10
25.3044647051564
20
5.83617301390751
30
0
41
1
10
25.304180907067
20
5.84357225621011
30
0
0
SPLINE
5
DD
100
AcDbEntity
8
1
62
256
6
ByLayer
370
13
48
1
60
0
100
AcDbSpline
70
4
71
5
72
12
73
6
40
0
40
0
40
0
40
0
40
0
40
0
40
1
40
1
40
1
40
1
40
1
40
1
41
1
10
18.0673594262608
20
6.34865293865812
30
0
41
1
10
18.0560881535323
20
6.3480589112971
30
0
41
1
10
18.0448508945192
20
6.34707142574249
30
0
41
1
10
18.0336433986229
20
6.34568904932129
30
0
41
1
10
18.0225047628566
20
6.34391642212944
30
0
41
1
10
18.0114305322666
20
6.34175394370337
30
0
0
SPLINE
5
DE
100
AcDbEntity
8
1
62
256
6
ByLayer
370
13
48
1
60
0
100
AcDbSpline
70
4
71
5
72
12
73
6
40
0
40
0
40
0
40
0
40
0
40
0
40
1
40
1
40
1
40
1
40
1
40
1
41
1
10
13.3006496790817
20
5.28678270144684
30
0
41
1
10
13.1403930980484
20
5.27022069519523
30
0
41
1
10
12.9977022789222
20
5.24689070764791
30
0
41
1
10
12.8796969959661
20
5.21744679455847
30
0
41
1
10
12.7966549465073
20
5.19080805741729
30
0
41
1
10
12.7671619180239
20
5.1823006725441
30
0
0
SPLINE
5
DF
100
AcDbEntity
8
1
62
256
6
ByLayer
370
13
48
1
60
0
100
AcDbSpline
70
4
71
3
72
12
73
8
40
0
40
0
40
0
40
0
40
0.249655416958634
40
0.499588084184673
40
0.532326173008826
40
0.766368979457889
40
1
40
1
40
1
40
1
41
1
10
24.8078224786115
20
5.80483184886518
30
0
41
1
10
24.8048378632439
20
5.80596622813374
30
0
41
1
10
24.7988653179985
20
5.80823624643509
30
0
41
1
10
24.7658509249405
20
5.79828925612887
30
0
41
1
10
24.7251594596217
20
5.78781788974786
30
0
41
1
10
24.6770777374294
20
5.77590644182126
30
0
41
1
10
24.616124183252
20
5.77079796692621
30
0
41
1
10
24.5856742409071
20
5.76824597847985
30
0
0
SPLINE
5
E0
100
AcDbEntity
8
1
62
256
6
ByLayer
370
13
48
1
60
0
100
AcDbSpline
70
4
71
5
72
12
73
6
40
0
40
0
40
0
40
0
40
0
40
0
40
1
40
1
40
1
40
1
40
1
40
1
41
1
10
14.0854273047349
20
5.52597825034692
30
0
41
1
10
14.109432258161
20
5.52689991158914
30
0
41
1
10
14.1339502880574
20
5.52391969301391
30
0
41
1
10
14.1586657224722
20
5.51702506314007
30
0
41
1
10
14.1832493291455
20
5.50630786475469
30
0
41
1
10
14.2073837269123
20
5.49195722617435
30
0
0
SPLINE
5
E1
100
AcDbEntity
8
1
62
256
6
ByLayer
370
13
48
1
60
0
100
AcDbSpline
70
4
71
5
72
12
73
6
40
0
40
0
40
0
40
0
40
0
40
0
40
1
40
1
40
1
40
1
40
1
40
1
41
1
10
18.1156669888468
20
6.24289814583938
30
0
41
1
10
18.6896564664995
20
6.29689249991739
30
0
41
1
10
19.2557872707296
20
6.35073597883243
30
0
41
1
10
19.8137480367828
20
6.40439977118737
30
0
41
1
10
20.3632340708469
20
6.45785505511986
30
0
41
1
10
20.9039520576958
20
6.51107342482194
30
0
0
SPLINE
5
E2
100
AcDbEntity
8
1
62
256
6
ByLayer
370
13
48
1
60
0
100
AcDbSpline
70
4
71
3
72
9
73
5
40
0
40
0
40
0
40
0
40
0.425871535271093
40
1
40
1
40
1
40
1
41
1
10
14.4302058518923
20
4.91255917212041
30
0
41
1
10
14.414279926966
20
5.00607987787148
30
0
41
1
10
14.3768838494936
20
5.22567827317528
30
0
41
1
10
14.2676647318797
20
5.32289415799858
30
0
41
1
10
14.2049589275649
20
5.37870856469945
30
0
0
SPLINE
5
E3
100
AcDbEntity
8
1
62
256
6
ByLayer
370
13
48
1
60
0
100
AcDbSpline
70
4
71
5
72
12
73
6
40
0
40
0
40
0
40
0
40
0
40
0
40
1
40
1
40
1
40
1
40
1
40
1
41
1
10
13.5388791393071
20
4.81868015159429
30
0
41
1
10
13.5256098453979
20
4.95103958936863
30
0
41
1
10
13.4903300030836
20
5.08173589748122
30
0
41
1
10
13.4347816857873
20
5.19088410011565
30
0
41
1
10
13.3681731851239
20
5.26039048807428
30
0
41
1
10
13.3006496783042
20
5.28678270136649
30
0
0
SPLINE
5
E4
100
AcDbEntity
8
1
62
256
6
ByLayer
370
13
48
1
60
0
100
AcDbSpline
70
4
71
3
72
8
73
4
40
0
40
0
40
0
40
0
40
1
40
1
40
1
40
1
41
1
10
17.7060325723614
20
6.27565169254092
30
0
41
1
10
17.6959395074674
20
6.27474126642201
30
0
41
1
10
17.6858750849603
20
6.27342129385076
30
0
41
1
10
17.6758640829642
20
6.2716950245362
30
0
0
SPLINE
5
E5
100
AcDbEntity
8
1
62
256
6
ByLayer
370
13
48
1
60
0
100
AcDbSpline
70
4
71
1
72
4
73
2
40
0
40
0
40
1
40
1
41
1
10
18.0198179962781
20
6.34339121233978
30
0
41
1
10
10.9129441694194
20
5.11774362749168
30
0
0
SPLINE
5
E6
100
AcDbEntity
8
1
62
256
6
ByLayer
370
13
48
1
60
0
100
AcDbSpline
70
4
71
3
72
8
73
4
40
0
40
0
40
0
40
0
40
1
40
1
40
1
40
1
41
1
10
24.0609009198127
20
5.71473672305524
30
0
41
1
10
24.0385915241983
20
5.96974153031584
30
0
41
1
10
23.9051865397432
20
6.1946659848349
30
0
41
1
10
23.776967818924
20
6.19345570119765
30
0
0
SPLINE
5
E7
100
AcDbEntity
8
1
62
256
6
ByLayer
370
13
48
1
60
0
100
AcDbSpline
70
4
71
3
72
8
73
4
40
0
40
0
40
0
40
0
40
1
40
1
40
1
40
1
41
1
10
29.788576506701
20
7.74999455398859
30
0
41
1
10
29.8036469242407
20
7.75067700951172
30
0
41
1
10
29.8181497967977
20
7.75128964992766
30
0
41
1
10
29.8319491476994
20
7.75182669161902
30
0
0
SPLINE
5
E8
100
AcDbEntity
8
1
62
256
6
ByLayer
370
13
48
1
60
0
100
AcDbSpline
70
4
71
5
72
12
73
6
40
0
40
0
40
0
40
0
40
0
40
0
40
1
40
1
40
1
40
1
40
1
40
1
41
1
10
25.1716586517406
20
6.30337680045812
30
0
41
1
10
25.1739725965975
20
6.30778149005957
30
0
41
1
10
25.1422033297607
20
6.3028729660204
30
0
41
1
10
25.0776857775142
20
6.28838804870122
30
0
41
1
10
24.9715494393985
20
6.27175271608957
30
0
41
1
10
24.8277275366378
20
6.26578833765981
30
0
0
SPLINE
5
E9
100
AcDbEntity
8
1
62
256
6
ByLayer
370
13
48
1
60
0
100
AcDbSpline
70
4
71
5
72
12
73
6
40
0
40
0
40
0
40
0
40
0
40
0
40
1
40
1
40
1
40
1
40
1
40
1
41
1
10
14.0854167874715
20
5.5259762788389
30
0
41
1
10
13.7363589376078
20
5.46103916024273
30
0
41
1
10
13.3798477069508
20
5.39546276936886
30
0
41
1
10
13.0475917292791
20
5.33146895467735
30
0
41
1
10
12.6933566054871
20
5.26559588613148
30
0
41
1
10
12.3928771187485
20
5.20269350699166
30
0
0
SPLINE
5
EA
100
AcDbEntity
8
1
62
256
6
ByLayer
370
13
48
1
60
0
100
AcDbSpline
70
4
71
3
72
8
73
4
40
0
40
0
40
0
40
0
40
1
40
1
40
1
40
1
41
1
10
20.9039556582257
20
6.51107377919212
30
0
41
1
10
20.8023603260875
20
6.51643691352652
30
0
41
1
10
20.7007649939493
20
6.52180004786092
30
0
41
1
10
20.5991696618111
20
6.5271631821953
30
0
0
SPLINE
5
EB
100
AcDbEntity
8
1
62
256
6
ByLayer
370
13
48
1
60
0
100
AcDbSpline
70
4
71
5
72
12
73
6
40
0
40
0
40
0
40
0
40
0
40
0
40
1
40
1
40
1
40
1
40
1
40
1
41
1
10
24.5589006377278
20
5.76702456393821
30
0
41
1
10
24.5643592862509
20
5.76729604014983
30
0
41
1
10
24.5697680450377
20
5.76755410212397
30
0
41
1
10
24.5751251413158
20
5.76779864576997
30
0
41
1
10
24.5804288399342
20
5.76802958070863
30
0
41
1
10
24.5856774449388
20
5.76824682939858
30
0
0
SPLINE
5
EC
100
AcDbEntity
8
1
62
256
6
ByLayer
370
13
48
1
60
0
100
AcDbSpline
70
4
71
3
72
8
73
4
40
0
40
0
40
0
40
0
40
1
40
1
40
1
40
1
41
1
10
12.6041664599715
20
5.1687340937703
30
0
41
1
10
12.6134714881622
20
5.16936157778093
30
0
41
1
10
12.6227766399118
20
5.17000070002729
30
0
41
1
10
12.6320818849782
20
5.17065145720468
30
0
0
SPLINE
5
ED
100
AcDbEntity
8
1
62
256
6
ByLayer
370
13
48
1
60
0
100
AcDbSpline
70
4
71
2
72
6
73
3
40
0
40
0
40
0
40
1
40
1
40
1
41
1
10
25.5695419452179
20
5.8684464135342
30
0
41
1
10
25.4188032623322
20
5.88392668332051
30
0
41
1
10
25.2930315585795
20
5.90132020045499
30
0
0
SPLINE
5
EE
100
AcDbEntity
8
1
62
256
6
ByLayer
370
13
48
1
60
0
100
AcDbSpline
70
4
71
3
72
8
73
4
40
0
40
0
40
0
40
0
40
1
40
1
40
1
40
1
41
1
10
24.8544632681025
20
6.27374933767229
30
0
41
1
10
24.849826088262
20
6.27311922705994
30
0
41
1
10
24.8451903963435
20
6.27250067474719
30
0
41
1
10
24.8405562616263
20
6.27189368203884
30
0
0
SPLINE
5
EF
100
AcDbEntity
8
1
62
256
6
ByLayer
370
13
48
1
60
0
100
AcDbSpline
70
4
71
2
72
6
73
3
40
0
40
0
40
0
40
1
40
1
40
1
41
1
10
26.1347370523968
20
6.09218304705161
30
0
41
1
10
25.865222258979
20
5.90723113839633
30
0
41
1
10
25.5695355998835
20
5.86844573182819
30
0
0
SPLINE
5
F0
100
AcDbEntity
8
1
62
256
6
ByLayer
370
13
48
1
60
0
100
AcDbSpline
70
4
71
3
72
8
73
4
40
0
40
0
40
0
40
0
40
1
40
1
40
1
40
1
41
1
10
25.1762595089457
20
6.32452079038288
30
0
41
1
10
25.070710493622
20
6.29899241612816
30
0
41
1
10
24.9627424952963
20
6.28195852572193
30
0
41
1
10
24.8544590591198
20
6.27374944418921
30
0
0
SPLINE
5
F1
100
AcDbEntity
8
1
62
256
6
ByLayer
370
13
48
1
60
0
100
AcDbSpline
70
4
71
1
72
4
73
2
40
0
40
0
40
1
40
1
41
1
10
12.7671685147803
20
5.1823014548562
30
0
41
1
10
12.6320843091766
20
5.17065099603261
30
0
0
SPLINE
5
F2
100
AcDbEntity
8
1
62
256
6
ByLayer
370
13
48
1
60
0
100
AcDbSpline
70
4
71
3
72
8
73
4
40
0
40
0
40
0
40
0
40
1
40
1
40
1
40
1
41
1
10
17.6758640618104
20
6.27169502433654
30
0
41
1
10
17.6700188393194
20
6.27163984905818
30
0
41
1
10
17.6642267723253
20
6.27118044193642
30
0
41
1
10
17.6585020482546
20
6.27031792826992
30
0
0
SPLINE
5
F3
100
AcDbEntity
8
1
62
256
6
ByLayer
370
13
48
1
60
0
100
AcDbSpline
70
4
71
3
72
11
73
7
40
0
40
0
40
0
40
0
40
0.249714668212372
40
0.499706652508368
40
0.750031862958523
40
1
40
1
40
1
40
1
41
1
10
13.5388807674698
20
4.81865983260465
30
0
41
1
10
13.504931626782
20
4.81535825027495
30
0
41
1
10
13.4369956438056
20
4.80875141910334
30
0
41
1
10
13.3629168647541
20
4.785801993848
30
0
41
1
10
13.3118686798753
20
4.76185871376055
30
0
41
1
10
13.3014563406944
20
4.75535897730788
30
0
41
1
10
13.2962538868934
20
4.75211142860371
30
0
0
SPLINE
5
F4
100
AcDbEntity
8
1
62
256
6
ByLayer
370
13
48
1
60
0
100
AcDbSpline
70
4
71
3
72
8
73
4
40
0
40
0
40
0
40
0
40
1
40
1
40
1
40
1
41
1
10
25.1716675521505
20
6.30337930758361
30
0
41
1
10
25.1683523345455
20
6.29458208933517
30
0
41
1
10
25.1650371169406
20
6.28578487108672
30
0
41
1
10
25.1617218993357
20
6.27698765283827
30
0
0
SPLINE
5
F5
100
AcDbEntity
8
1
62
256
6
ByLayer
370
13
48
1
60
0
100
AcDbSpline
70
4
71
5
72
12
73
6
40
0
40
0
40
0
40
0
40
0
40
0
40
1
40
1
40
1
40
1
40
1
40
1
41
1
10
13.2953369014034
20
4.75101445282885
30
0
41
1
10
13.2953202611822
20
4.75123409235184
30
0
41
1
10
13.2954036867337
20
4.75145378007682
30
0
41
1
10
13.2955873286971
20
4.75167344762772
30
0
41
1
10
13.2958712291881
20
4.75189302589098
30
0
41
1
10
13.2962553311795
20
4.75211244534395
30
0
0
SPLINE
5
F6
100
AcDbEntity
8
1
62
256
6
ByLayer
370
13
48
1
60
0
100
AcDbSpline
70
4
71
3
72
8
73
4
40
0
40
0
40
0
40
0
40
1
40
1
40
1
40
1
41
1
10
12.4396225813131
20
5.19532990107993
30
0
41
1
10
12.4945171672168
20
5.17777679075448
30
0
41
1
10
12.5497207333654
20
5.16885376131378
30
0
41
1
10
12.604157908017
20
5.16873312156872
30
0
0
SPLINE
5
F7
100
AcDbEntity
8
1
62
256
6
ByLayer
370
13
48
1
60
0
100
AcDbSpline
70
4
71
3
72
12
73
8
40
0
40
0
40
0
40
0
40
0.248870360971703
40
0.248870360971703
40
0.62368621592822
40
0.62368621592822
40
1
40
1
40
1
40
1
41
1
10
25.1762485105732
20
6.3245662069665
30
0
41
1
10
25.1837207396043
20
6.32637482923548
30
0
41
1
10
25.1912319193588
20
6.32802976913564
30
0
41
1
10
25.2101266067042
20
6.3317816696914
30
0
41
1
10
25.2215567830341
20
6.33368160489664
30
0
41
1
10
25.2445485972817
20
6.33676320855776
30
0
41
1
10
25.2561220746999
20
6.3379435107546
30
0
41
1
10
25.2677155744641
20
6.33875431517066
30
0
0
SPLINE
5
F8
100
AcDbEntity
8
1
62
256
6
ByLayer
370
13
48
1
60
0
100
AcDbSpline
70
4
71
2
72
6
73
3
40
0
40
0
40
0
40
1
40
1
40
1
41
1
10
24.8098724150188
20
5.78224243005164
30
0
41
1
10
24.808895920358
20
5.79360217793322
30
0
41
1
10
24.8078205862142
20
5.80488607416083
30
0
0
SPLINE
5
F9
100
AcDbEntity
8
1
62
256
6
ByLayer
370
13
48
1
60
0
100
AcDbSpline
70
4
71
1
72
4
73
2
40
0
40
0
40
1
40
1
41
1
10
29.7858775760178
20
6.42522904979765
30
0
41
1
10
29.831949146462
20
7.75182669157084
30
0
0
SPLINE
5
FA
100
AcDbEntity
8
1
62
256
6
ByLayer
370
13
48
1
60
0
100
AcDbSpline
70
4
71
5
72
12
73
6
40
0
40
0
40
0
40
0
40
0
40
0
40
1
40
1
40
1
40
1
40
1
40
1
41
1
10
24.5856774719716
20
5.76824596579797
30
0
41
1
10
24.5809828767974
20
5.91821898490358
30
0
41
1
10
24.607391825211
20
6.06827959803448
30
0
41
1
10
24.6663555350483
20
6.18947843836995
30
0
41
1
10
24.7451398412597
20
6.25564058322098
30
0
41
1
10
24.8277339994472
20
6.26578853206325
30
0
0
SPLINE
5
FB
100
AcDbEntity
8
1
62
256
6
ByLayer
370
13
48
1
60
0
100
AcDbSpline
70
4
71
3
72
8
73
4
40
0
40
0
40
0
40
0
40
1
40
1
40
1
40
1
41
1
10
31.6619960767761
20
7.87031567505267
30
0
41
1
10
31.6619823195675
20
7.37005883275941
30
0
41
1
10
31.6619685623589
20
6.86980199046613
30
0
41
1
10
31.6619548051503
20
6.36954514817282
30
0
0
SPLINE
5
FC
100
AcDbEntity
8
1
62
256
6
ByLayer
370
13
48
1
60
0
100
AcDbSpline
70
4
71
5
72
12
73
6
40
0
40
0
40
0
40
0
40
0
40
0
40
1
40
1
40
1
40
1
40
1
40
1
41
1
10
14.4302071058252
20
4.9125461877517
30
0
41
1
10
16.0756972705363
20
5.07552401335982
30
0
41
1
10
17.7169702430275
20
5.21983585018432
30
0
41
1
10
19.3562010314695
20
5.33144075080565
30
0
41
1
10
20.9931564206302
20
5.43697521058181
30
0
41
1
10
22.6256695708628
20
5.58498746330105
30
0
0
SPLINE
5
FD
100
AcDbEntity
8
1
62
256
6
ByLayer
370
13
48
1
60
0
100
AcDbSpline
70
4
71
3
72
14
73
10
40
0
40
0
40
0
40
0
40
0.249444592126839
40
0.249444592126839
40
0.584774574577389
40
0.584774574577389
40
0.8401062538714
40
0.8401062538714
40
1
40
1
40
1
40
1
41
1
10
31.6619548051669
20
6.36954514817216
30
0
41
1
10
31.4996738928838
20
6.37598162676753
30
0
41
1
10
31.3373929806029
20
6.3824181053634
30
0
41
1
10
30.9583603454965
20
6.39745151505534
30
0
41
1
10
30.7341678319046
20
6.4061187820262
30
0
41
1
10
30.3534256257755
20
6.41695545182569
30
0
41
1
10
30.1910072093077
20
6.42054605094393
30
0
41
1
10
29.9524711817296
20
6.42410349161642
30
0
41
1
10
29.8651892919328
20
6.42494675851006
30
0
41
1
10
29.785899653191
20
6.42522740990148
30
0
0
SPLINE
5
FE
100
AcDbEntity
8
1
62
256
6
ByLayer
370
13
48
1
60
0
100
AcDbSpline
70
4
71
3
72
10
73
6
40
0
40
0
40
0
40
0
40
0.338402826579668
40
0.671818658340852
40
1
40
1
40
1
40
1
41
1
10
14.2074115166307
20
5.49196030329762
30
0
41
1
10
15.1754538240962
20
5.57771433894214
30
0
41
1
10
17.0972725358131
20
5.74795866507941
30
0
41
1
10
19.809710328221
20
6.00008298916507
30
0
41
1
10
21.4885229857247
20
6.16424993947228
30
0
41
1
10
22.3212880162728
20
6.2456839784501
30
0
0
SPLINE
5
FF
100
AcDbEntity
8
1
62
256
6
ByLayer
370
13
48
1
60
0
100
AcDbSpline
70
4
71
3
72
8
73
4
40
0
40
0
40
0
40
0
40
1
40
1
40
1
40
1
41
1
10
9.57210835441779
20
4.80533635562816
30
0
41
1
10
9.49200155804121
20
5.29874893030259
30
0
41
1
10
9.41198053125407
20
5.79217568896939
30
0
41
1
10
9.33202677751621
20
6.28561353432659
30
0
0
SPLINE
5
100
100
AcDbEntity
8
1
62
256
6
ByLayer
370
13
48
1
60
0
100
AcDbSpline
70
4
71
5
72
17
73
11
40
0
40
0
40
0
40
0
40
0
40
0
40
0.999980762800283
40
0.999980762800283
40
0.999980762800283
40
0.999980762800283
40
0.999980762800283
40
1
40
1
40
1
40
1
40
1
40
1
41
1
10
25.1616817174207
20
6.27697521471137
30
0
41
1
10
25.1303152163089
20
6.22075162414049
30
0
41
1
10
25.1279404024972
20
6.15160168046623
30
0
41
1
10
25.1553000835854
20
6.0584008128269
30
0
41
1
10
25.2111619430827
20
5.9619451693921
30
0
41
1
10
25.2930339678252
20
5.90131679078263
30
0
41
1
10
25.2930501073945
20
5.90130496778232
30
0
41
1
10
25.2930339211767
20
5.90131670920431
30
0
41
1
10
25.2930256732386
20
5.90132236536616
30
0
41
1
10
25.2930173056231
20
5.9013278428892
30
0
41
1
10
25.2930089405432
20
5.90133332426123
30
0
0
SPLINE
5
101
100
AcDbEntity
8
1
62
256
6
ByLayer
370
13
48
1
60
0
100
AcDbSpline
70
4
71
3
72
12
73
8
40
0
40
0
40
0
40
0
40
0.248870360971569
40
0.248870360971569
40
0.623686215928146
40
0.623686215928146
40
1
40
1
40
1
40
1
41
1
10
12.4396232758827
20
5.19537589887312
30
0
41
1
10
12.4357369296594
20
5.196619913798
30
0
41
1
10
12.43184737513
20
5.19770815079238
30
0
41
1
10
12.4221060180296
20
5.20003662304731
30
0
41
1
10
12.4162517189699
20
5.20107738905139
30
0
41
1
10
12.4045531547158
20
5.20243461871425
30
0
41
1
10
12.3987031741076
20
5.20274884350331
30
0
41
1
10
12.392881910558
20
5.20269400284627
30
0
0
SPLINE
5
102
100
AcDbEntity
8
1
62
256
6
ByLayer
370
13
48
1
60
0
100
AcDbSpline
70
4
71
3
72
8
73
4
40
0
40
0
40
0
40
0
40
1
40
1
40
1
40
1
41
1
10
18.1156651461631
20
6.24308627298396
30
0
41
1
10
18.079826535557
20
6.26680487693395
30
0
41
1
10
18.0419279375602
20
6.27915313344752
30
0
41
1
10
18.0053658393761
20
6.27939679341253
30
0
0
SPLINE
5
103
100
AcDbEntity
8
1
62
256
6
ByLayer
370
13
48
1
60
0
100
AcDbSpline
70
4
71
2
72
6
73
3
40
0
40
0
40
0
40
1
40
1
40
1
41
1
10
22.3212945167745
20
6.24568249255461
30
0
41
1
10
22.8938107758419
20
6.13668437128536
30
0
41
1
10
23.4877093505494
20
6.17814234562911
30
0
0
LINE
5
72
100
AcDbEntity
8
80
62
256
6
ByLayer
370
18
48
1
60
0
100
AcDbLine
10
0
20
0
30
0
11
-5
21
0
31
0
39
0
210
0
220
0
230
1
0
LINE
5
73
100
AcDbEntity
8
81
62
256
6
ByLayer
370
18
48
1
60
0
100
AcDbLine
10
26.651424
20
8
30
0
11
36.651424
21
8
31
0
39
0
210
0
220
0
230
1
0
LINE
5
74
100
AcDbEntity
8
1
62
256
6
ByLayer
370
13
48
1
60
0
100
AcDbLine
10
13.295336
20
4.75095
30
0
11
13.311415
21
4.636504
31
0
39
0
210
0
220
0
230
1
0
LINE
5
76
100
AcDbEntity
8
1
62
256
6
ByLayer
370
18
48
1
60
0
100
AcDbLine
10
23.063638
20
7.279742
30
0
11
22.442959
21
7.781686
31
0
39
0
210
0
220
0
230
1
0
LINE
5
77
100
AcDbEntity
8
1
62
256
6
ByLayer
370
18
48
1
60
0
100
AcDbLine
10
18.854247
20
7.530739
30
0
11
18.309466
21
6.947298
31
0
39
0
210
0
220
0
230
1
0
LINE
5
78
100
AcDbEntity
8
1
62
256
6
ByLayer
370
13
48
1
60
0
100
AcDbLine
10
24.060901
20
5.714737
30
0
11
24.070565
21
5.438395
31
0
39
0
210
0
220
0
230
1
0
LINE
5
79
100
AcDbEntity
8
1
62
256
6
ByLayer
370
13
48
1
60
0
100
AcDbLine
10
24.807822
20
5.804852
30
0
11
24.818808
21
5.490713
31
0
39
0
210
0
220
0
230
1
0
LINE
5
7A
100
AcDbEntity
8
1
62
256
6
ByLayer
370
13
48
1
60
0
100
AcDbLine
10
12.392891
20
5.202565
30
0
11
11.814836
21
5.197313
31
0
39
0
210
0
220
0
230
1
0
LINE
5
7B
100
AcDbEntity
8
1
62
256
6
ByLayer
370
13
48
1
60
0
100
AcDbLine
10
13.538878
20
4.81868
30
0
11
13.560798
21
4.662666
31
0
39
0
210
0
220
0
230
1
0
LINE
5
7C
100
AcDbEntity
8
1
62
256
6
ByLayer
370
13
48
1
60
0
100
AcDbLine
10
13.296425
20
4.749899
30
0
11
13.295337
21
4.751014
31
0
39
0
210
0
220
0
230
1
0
LINE
5
7D
100
AcDbEntity
8
1
62
256
6
ByLayer
370
18
48
1
60
0
100
AcDbLine
10
13.111157
20
5.138303
30
0
11
13.064032
21
5.173073
31
0
39
0
210
0
220
0
230
1
0
LINE
5
7E
100
AcDbEntity
8
1
62
256
6
ByLayer
370
18
48
1
60
0
100
AcDbLine
10
11.326809
20
6.454822
30
0
11
9.428376
21
7.855514
31
0
39
0
210
0
220
0
230
1
0
LINE
5
7F
100
AcDbEntity
8
1
62
256
6
ByLayer
370
18
48
1
60
0
100
AcDbLine
10
4.713576
20
4.447254
30
0
11
12.179202
21
4.517723
31
0
39
0
210
0
220
0
230
1
0
LINE
5
80
100
AcDbEntity
8
1
62
256
6
ByLayer
370
13
48
1
60
0
100
AcDbLine
10
18.018407
20
6.342741
30
0
11
11.900183
21
5.212298
31
0
39
0
210
0
220
0
230
1
0
LINE
5
81
100
AcDbEntity
8
1
62
256
6
ByLayer
370
13
48
1
60
0
100
AcDbLine
10
24.854462
20
6.273715
30
0
11
23.487703
21
6.178142
31
0
39
0
210
0
220
0
230
1
0
LINE
5
82
100
AcDbEntity
8
1
62
256
6
ByLayer
370
13
48
1
60
0
100
AcDbLine
10
12.60416
20
5.168699
30
0
11
13.290428
21
5.175176
31
0
39
0
210
0
220
0
230
1
0
LINE
5
83
100
AcDbEntity
8
1
62
256
6
ByLayer
370
13
48
1
60
0
100
AcDbLine
10
9.572367
20
4.803594
30
0
11
11.900183
21
5.212298
31
0
39
0
210
0
220
0
230
1
0
LINE
5
84
100
AcDbEntity
8
1
62
256
6
ByLayer
370
13
48
1
60
0
100
AcDbLine
10
11.608681
20
6.478603
30
0
11
11.90018
21
5.212297
31
0
39
0
210
0
220
0
230
1
0
LINE
5
85
100
AcDbEntity
8
1
62
256
6
ByLayer
370
13
48
1
60
0
100
AcDbLine
10
11.608671
20
6.478732
30
0
11
24.775754
21
7.399464
31
0
39
0
210
0
220
0
230
1
0
LINE
5
86
100
AcDbEntity
8
1
62
256
6
ByLayer
370
13
48
1
60
0
100
AcDbLine
10
23.776968
20
6.193456
30
0
11
22.887226
21
6.113198
31
0
39
0
210
0
220
0
230
1
0
LINE
5
87
100
AcDbEntity
8
1
62
256
6
ByLayer
370
13
48
1
60
0
100
AcDbLine
10
28.247193
20
6.474395
30
0
11
29.452657
21
6.432375
31
0
39
0
210
0
220
0
230
1
0
LINE
5
88
100
AcDbEntity
8
1
62
256
6
ByLayer
370
13
48
1
60
0
100
AcDbLine
10
29.788577
20
7.749995
30
0
11
28.288148
21
7.645074
31
0
39
0
210
0
220
0
230
1
0
LINE
5
89
100
AcDbEntity
8
1
62
256
6
ByLayer
370
13
48
1
60
0
100
AcDbLine
10
28.288148
20
7.645075
30
0
11
24.775754
21
7.399464
31
0
39
0
210
0
220
0
230
1
0
LINE
5
8A
100
AcDbEntity
8
1
62
256
6
ByLayer
370
13
48
1
60
0
100
AcDbLine
10
25.267725
20
6.338625
30
0
11
27.193666
21
6.473643
31
0
39
0
210
0
220
0
230
1
0
LINE
5
8B
100
AcDbEntity
8
1
62
256
6
ByLayer
370
13
48
1
60
0
100
AcDbLine
10
24.889049
20
5.779351
30
0
11
25.56954
21
5.868446
31
0
39
0
210
0
220
0
230
1
0
LINE
5
8C
100
AcDbEntity
8
1
62
256
6
ByLayer
370
13
48
1
60
0
100
AcDbLine
10
20.599169
20
6.527163
30
0
11
18.087882
21
6.351557
31
0
39
0
210
0
220
0
230
1
0
LINE
5
8D
100
AcDbEntity
8
1
62
256
6
ByLayer
370
13
48
1
60
0
100
AcDbLine
10
17.706033
20
6.275652
30
0
11
18.067359
21
6.348653
31
0
39
0
210
0
220
0
230
1
0
LINE
5
8E
100
AcDbEntity
8
1
62
256
6
ByLayer
370
13
48
1
60
0
100
AcDbLine
10
11.608669
20
6.478732
30
0
11
9.332027
21
6.285614
31
0
39
0
210
0
220
0
230
1
0
LINE
5
8F
100
AcDbEntity
8
1
62
256
6
ByLayer
370
13
48
1
60
0
100
AcDbLine
10
25.304181
20
5.843572
30
0
11
25.30167
21
5.879478
31
0
39
0
210
0
220
0
230
1
0
LINE
5
90
100
AcDbEntity
8
1
62
256
6
ByLayer
370
13
48
1
60
0
100
AcDbLine
10
17.706033
20
6.275652
30
0
11
18.005468
21
6.278478
31
0
39
0
210
0
220
0
230
1
0
LINE
5
91
100
AcDbEntity
8
1
62
256
6
ByLayer
370
13
48
1
60
0
100
AcDbLine
10
27.228634
20
6.47484
30
0
11
28.229975
21
6.474614
31
0
39
0
210
0
220
0
230
1
0
LINE
5
92
100
AcDbEntity
8
1
62
256
6
ByLayer
370
13
48
1
60
0
100
AcDbLine
10
18.067359
20
6.348653
30
0
11
18.087883
21
6.351557
31
0
39
0
210
0
220
0
230
1
0
LINE
5
93
100
AcDbEntity
8
1
62
256
6
ByLayer
370
13
48
1
60
0
100
AcDbLine
10
24.060901
20
5.714737
30
0
11
23.171159
21
5.634479
31
0
39
0
210
0
220
0
230
1
0
LINE
5
94
100
AcDbEntity
8
1
62
256
6
ByLayer
370
18
48
1
60
0
100
AcDbLine
10
11.651424
20
-8
30
0
11
14.20445
21
-8
31
0
39
0
210
0
220
0
230
1
0
LINE
5
95
100
AcDbEntity
8
1
62
256
6
ByLayer
370
18
48
1
60
0
100
AcDbLine
10
11.651424
20
4.462336
30
0
11
11.651424
21
-8
31
0
39
0
210
0
220
0
230
1
0
LINE
5
96
100
AcDbEntity
8
1
62
256
6
ByLayer
370
18
48
1
60
0
100
AcDbLine
10
4.713576
20
4.447254
30
0
11
0
21
7.925
31
0
39
0
210
0
220
0
230
1
0
LINE
5
97
100
AcDbEntity
8
1
62
256
6
ByLayer
370
18
48
1
60
0
100
AcDbLine
10
0
20
-8
30
0
11
0
21
7.925
31
0
39
0
210
0
220
0
230
1
0
LINE
5
98
100
AcDbEntity
8
1
62
256
6
ByLayer
370
18
48
1
60
0
100
AcDbLine
10
14.726424
20
-6.73875
30
0
11
14.20445
21
-8
31
0
39
0
210
0
220
0
230
1
0
LINE
5
99
100
AcDbEntity
8
1
62
256
6
ByLayer
370
18
48
1
60
0
100
AcDbLine
10
14.726424
20
4.785004
30
0
11
14.726424
21
-6.73875
31
0
39
0
210
0
220
0
230
1
0
LINE
5
9A
100
AcDbEntity
8
1
62
256
6
ByLayer
370
18
48
1
60
0
100
AcDbLine
10
24.951424
20
3.49878
30
0
11
24.951424
21
-3.474517
31
0
39
0
210
0
220
0
230
1
0
LINE
5
9B
100
AcDbEntity
8
1
62
256
6
ByLayer
370
18
48
1
60
0
100
AcDbLine
10
24.951424
20
-3.474517
30
0
11
20.425941
21
-8
31
0
39
0
210
0
220
0
230
1
0
LINE
5
9C
100
AcDbEntity
8
1
62
256
6
ByLayer
370
18
48
1
60
0
100
AcDbLine
10
11.651424
20
4.462336
30
0
11
6.058923
21
4.07127
31
0
39
0
210
0
220
0
230
1
0
LINE
5
9D
100
AcDbEntity
8
1
62
256
6
ByLayer
370
18
48
1
60
0
100
AcDbLine
10
24.951424
20
3.49878
30
0
11
14.726424
21
-6.73875
31
0
39
0
210
0
220
0
230
1
0
LINE
5
9E
100
AcDbEntity
8
1
62
256
6
ByLayer
370
18
48
1
60
0
100
AcDbLine
10
14.726424
20
4.785004
30
0
11
11.651424
21
4.462336
31
0
39
0
210
0
220
0
230
1
0
LINE
5
9F
100
AcDbEntity
8
1
62
256
6
ByLayer
370
18
48
1
60
0
100
AcDbLine
10
24.951424
20
5.500006
30
0
11
24.951424
21
3.49878
31
0
39
0
210
0
220
0
230
1
0
LINE
5
A0
100
AcDbEntity
8
1
62
256
6
ByLayer
370
18
48
1
60
0
100
AcDbLine
10
0
20
7.925
30
0
11
9.428376
21
7.855514
31
0
39
0
210
0
220
0
230
1
0
LINE
5
A1
100
AcDbEntity
8
1
62
256
6
ByLayer
370
18
48
1
60
0
100
AcDbLine
10
0
20
-8
30
0
11
11.651424
21
-8
31
0
39
0
210
0
220
0
230
1
0
LINE
5
A2
100
AcDbEntity
8
1
62
256
6
ByLayer
370
18
48
1
60
0
100
AcDbLine
10
24.951424
20
5.500006
30
0
11
14.726424
21
4.785004
31
0
39
0
210
0
220
0
230
1
0
LINE
5
A3
100
AcDbEntity
8
1
62
256
6
ByLayer
370
18
48
1
60
0
100
AcDbLine
10
14.20445
20
-8
30
0
11
20.425941
21
-8
31
0
39
0
210
0
220
0
230
1
0
LINE
5
A4
100
AcDbEntity
8
SK1
62
256
6
ByLayer
370
18
48
1
60
0
100
AcDbLine
10
0
20
-8
30
0
11
0
21
7.925
31
0
39
0
210
0
220
0
230
1
0
LINE
5
A6
100
AcDbEntity
8
SK1
62
256
6
ByLayer
370
18
48
1
60
0
100
AcDbLine
10
-38.348576
20
-5
30
0
11
-35.322281
21
-8
31
0
39
0
210
0
220
0
230
1
0
LINE
5
A7
100
AcDbEntity
8
SK1
62
256
6
ByLayer
370
18
48
1
60
0
100
AcDbLine
10
-38.348576
20
7.925
30
0
11
0
21
7.925
31
0
39
0
210
0
220
0
230
1
0
LINE
5
A8
100
AcDbEntity
8
SK1
62
256
6
ByLayer
370
18
48
1
60
0
100
AcDbLine
10
-38.348576
20
7.925
30
0
11
-38.348576
21
-5
31
0
39
0
210
0
220
0
230
1
0
LINE
5
A9
100
AcDbEntity
8
SK1
62
256
6
ByLayer
370
18
48
1
60
0
100
AcDbLine
10
-35.322281
20
-8
30
0
11
0
21
-8
31
0
39
0
210
0
220
0
230
1
0
MTEXT
5
104
100
AcDbEntity
8
SK6
62
256
6
ByLayer
370
18
48
1
60
0
100
AcDbMText
10
-34.973576
20
-18.864871
30
0
210
0
220
0
230
1
1
\W0.7432;QS-RF123T06-1616B
40
3.5
41
0
44
1.084337
50
0
71
7
72
5
7
iso_b_vert
0
DIMENSION
5
115
100
AcDbEntity
8
2
62
256
6
ByLayer
370
13
48
1
60
0
100
AcDbDimension
2
DimnDraft3D1
10
45.901424
20
8
30
0
11
45.901424
21
18.5
31
0
70
32
71
5
72
1
41
1
210
0
220
0
230
1
3
Standard
100
AcDbAlignedDimension
13
33.151424
23
6.5
33
0
14
33.151424
24
8
34
0
50
90
100
AcDbRotatedDimension
1001
ACAD
1000
DSTYLE
1002
{
1070
    74
1070
     0
1070
   279
1070
     0
1070
   172
1070
     1
1070
   173
1070
     1
1070
   340
1005
105
1070
   271
1070
     3
1070
   272
1070
     3
1070
    77
1070
     1
1070
    73
1070
     0
1070
   171
1070
     4
1070
   274
1070
     4
1070
   177
1070
     2
1070
   176
1070
     2
1070
   178
1070
     7
1070
    78
1070
     8
1070
    41
1041
3.0
1070
   147
1041
2.25
1070
    42
1041
1.5
1070
    44
1041
3.0
1070
   140
1041
4.5
1070
   343
1005
116
1070
   344
1005
116
1002
}
0
DIMENSION
5
12A
100
AcDbEntity
8
2
62
256
6
ByLayer
370
13
48
1
60
0
100
AcDbDimension
2
DimnDraft3D2
10
55.901424
20
-8
30
0
11
55.901424
21
-4.719079
31
0
70
32
71
5
72
1
41
1
210
0
220
0
230
1
3
Standard
100
AcDbAlignedDimension
13
33.151424
23
8
33
0
14
1.5
24
-8
34
0
50
90
100
AcDbRotatedDimension
1001
ACAD
1000
DSTYLE
1002
{
1070
    74
1070
     0
1070
   279
1070
     0
1070
   172
1070
     1
1070
   173
1070
     1
1070
   340
1005
105
1070
   271
1070
     3
1070
   272
1070
     3
1070
    77
1070
     1
1070
    73
1070
     0
1070
   171
1070
     4
1070
   274
1070
     4
1070
   177
1070
     2
1070
   176
1070
     2
1070
   178
1070
     7
1070
    78
1070
     8
1070
    41
1041
3.0
1070
   147
1041
2.25
1070
    42
1041
1.5
1070
    44
1041
3.0
1070
   140
1041
4.5
1070
   343
1005
116
1070
   344
1005
116
1002
}
0
DIMENSION
5
139
100
AcDbEntity
8
SK2
62
256
6
ByLayer
370
13
48
1
60
0
100
AcDbDimension
2
DimnDraft3D3
10
-48.098576
20
-8
30
0
11
-48.098576
21
-4.719079
31
0
70
32
71
5
72
1
41
1
210
0
220
0
230
1
3
Standard
100
AcDbAlignedDimension
13
-39.848576
23
8
33
0
14
-39.848576
24
-8
34
0
50
90
100
AcDbRotatedDimension
1001
ACAD
1000
DSTYLE
1002
{
1070
    74
1070
     0
1070
   279
1070
     0
1070
   172
1070
     1
1070
   173
1070
     1
1070
   340
1005
105
1070
   271
1070
     3
1070
   272
1070
     3
1070
    77
1070
     1
1070
    73
1070
     0
1070
   171
1070
     4
1070
   274
1070
     4
1070
   177
1070
     2
1070
   176
1070
     2
1070
   178
1070
     7
1070
    78
1070
     8
1070
    41
1041
3.0
1070
   147
1041
2.25
1070
    42
1041
1.5
1070
    44
1041
3.0
1070
   140
1041
4.5
1070
   343
1005
116
1070
   344
1005
116
1002
}
0
DIMENSION
5
147
100
AcDbEntity
8
2
62
256
6
ByLayer
370
13
48
1
60
0
100
AcDbDimension
2
DimnDraft3D4
10
31.651424
20
-22.25
30
0
11
42.151424
21
-22.25
31
0
70
32
71
5
72
1
41
1
210
0
220
0
230
1
3
Standard
100
AcDbAlignedDimension
13
25.651424
23
3
33
0
14
31.651424
24
5
34
0
50
0
100
AcDbRotatedDimension
1001
ACAD
1000
DSTYLE
1002
{
1070
   279
1070
     0
1070
   172
1070
     1
1070
   173
1070
     1
1070
   340
1005
105
1070
   271
1070
     3
1070
   272
1070
     3
1070
    77
1070
     1
1070
    73
1070
     0
1070
   171
1070
     4
1070
   274
1070
     4
1070
   177
1070
     2
1070
   176
1070
     2
1070
   178
1070
     7
1070
    78
1070
     8
1070
    41
1041
3.0
1070
   147
1041
2.25
1070
    42
1041
1.5
1070
    44
1041
3.0
1070
   140
1041
4.5
1070
   343
1005
116
1070
   344
1005
116
1002
}
0
DIMENSION
5
155
100
AcDbEntity
8
SK2
62
256
6
ByLayer
370
13
48
1
60
0
100
AcDbDimension
2
DimnDraft3D5
10
-38.348576
20
27.75
30
0
11
-8.630155
21
27.75
31
0
70
32
71
5
72
1
41
1
210
0
220
0
230
1
3
Standard
100
AcDbAlignedDimension
13
31.651424
23
9.5
33
0
14
-38.348576
24
9.5
34
0
50
0
100
AcDbRotatedDimension
1001
ACAD
1000
DSTYLE
1002
{
1070
   279
1070
     0
1070
   172
1070
     1
1070
   173
1070
     1
1070
   340
1005
105
1070
   271
1070
     3
1070
   272
1070
     3
1070
    77
1070
     1
1070
    73
1070
     0
1070
   171
1070
     4
1070
   274
1070
     4
1070
   177
1070
     2
1070
   176
1070
     2
1070
   178
1070
     7
1070
    78
1070
     8
1070
    41
1041
3.0
1070
   147
1041
2.25
1070
    42
1041
1.5
1070
    44
1041
3.0
1070
   140
1041
4.5
1070
   343
1005
116
1070
   344
1005
116
1002
}
0
DIMENSION
5
163
100
AcDbEntity
8
2
62
256
6
ByLayer
370
13
48
1
60
0
100
AcDbDimension
2
DimnDraft3D6
10
0
20
17.75
30
0
11
11.106633
21
17.75
31
0
70
32
71
5
72
1
41
1
210
0
220
0
230
1
3
Standard
100
AcDbAlignedDimension
13
31.651424
23
8.75
33
0
14
0
24
9.5
34
0
50
0
100
AcDbRotatedDimension
1001
ACAD
1000
DSTYLE
1002
{
1070
   279
1070
     0
1070
   172
1070
     1
1070
   173
1070
     1
1070
   340
1005
105
1070
   271
1070
     3
1070
   272
1070
     3
1070
    77
1070
     1
1070
    73
1070
     0
1070
   171
1070
     4
1070
   274
1070
     4
1070
   177
1070
     2
1070
   176
1070
     2
1070
   178
1070
     7
1070
    78
1070
     8
1070
    41
1041
3.0
1070
   147
1041
2.25
1070
    42
1041
1.5
1070
    44
1041
3.0
1070
   140
1041
4.5
1070
   343
1005
116
1070
   344
1005
116
1002
}
0
ENDSEC
0
SECTION
2
OBJECTS
0
DICTIONARY
5
1cd
330
0
100
AcDbDictionary
280
0
281
1
3
ACAD_GROUP
350
1ce
3
ACAD_MLINESTYLE
350
1cf
0
DICTIONARY
5
1ce
330
0
100
AcDbDictionary
280
0
281
1
0
DICTIONARY
5
1cf
330
0
100
AcDbDictionary
280
0
281
1
3
Standard
350
18
0
MLINESTYLE
5
18
330
1cf
100
AcDbMlineStyle
2
Standard
70
0
3

62
256
51
90
52
90
71
2
49
-0.5
62
256
6
ByLayer
49
0.5
62
256
6
ByLayer
0
RASTERVARIABLES
5
1bc
330

100
AcDbRasterVariables
90
0
70
1
71
1
72
1
0
ENDSEC
0
EOF
