0
SECTION
2
HEADER
9
$ACADVER
1
AC1015
9
$DWGCODEPAGE
3
ANSI_1252
9
$HANDSEED
5
1e1
9
$ANGBASE
50
0
9
$ANGDIR
70
0
9
$ATTMODE
70
1
9
$AUNITS
70
0
9
$AUPREC
70
0
9
$CECOLOR
62
256
9
$CELTSCALE
40
1
9
$CELTYPE
6
ByLayer
9
$CELWEIGHT
370
18
9
$CLAYER
8
0
9
$CMLJUST
70
0
9
$CMLSCALE
40
1
9
$CMLSTYLE
2
Standard
9
$DIMSTYLE
2
Standard
9
$TEXTSIZE
40
0.2
9
$TEXTSTYLE
7
Standard
9
$LUNITS
70
2
9
$LUPREC
70
4
9
$EXTNAMES
290
1
9
$INSUNITS
70
4
9
$LTSCALE
40
1
9
$LWDISPLAY
290
1
9
$PDMODE
70
0
9
$PDSIZE
40
0
9
$PLINEGEN
70
0
0
ENDSEC
0
SECTION
2
CLASSES
0
CLASS
1
RASTERVARIABLES
2
AcDbRasterVariables
3
ISM
90
0
280
0
281
0
0
ENDSEC
0
SECTION
2
TABLES
0
TABLE
2
VPORT
5
1d7
100
AcDbSymbolTable
0
VPORT
5
1
100
AcDbSymbolTableRecord
100
AcDbViewportTableRecord
2
*Active
70
0
10
0
20
0
11
1
21
1
12
-1
22
1
13
0
23
0
14
0.5
24
0.5
15
10
25
10
16
0
26
0
36
1
17
0
27
0
37
0
0
ENDTAB
0
TABLE
2
LTYPE
5
1d8
100
AcDbSymbolTable
0
LTYPE
5
14
100
AcDbSymbolTableRecord
100
AcDbLinetypeTableRecord
70
0
2
ByBlock
3

72
65
73
0
40
0
0
LTYPE
5
15
100
AcDbSymbolTableRecord
100
AcDbLinetypeTableRecord
70
0
2
ByLayer
3

72
65
73
0
40
0
0
LTYPE
5
16
100
AcDbSymbolTableRecord
100
AcDbLinetypeTableRecord
70
0
2
CONTINUOUS
3
Solid line
72
65
73
0
40
0
0
LTYPE
5
6A
100
AcDbSymbolTableRecord
100
AcDbLinetypeTableRecord
70
0
2
CENTER
3
____ _ ____ _ ____ _ ____
72
65
73
4
40
47.5
49
22
74
0
49
-8.5
74
0
49
8.5
74
0
49
-8.5
74
0
0
LTYPE
5
6B
100
AcDbSymbolTableRecord
100
AcDbLinetypeTableRecord
70
0
2
DASHED
3
__ __ __ __ __ __ __ __ __
72
65
73
2
40
25.72
49
12.86
74
0
49
-12.86
74
0
0
ENDTAB
0
TABLE
2
LAYER
5
1d9
100
AcDbSymbolTable
0
LAYER
5
10
100
AcDbSymbolTableRecord
100
AcDbLayerTableRecord
2
0
70
0
62
7
6
CONTINUOUS
290
1
370
-3
390
0
0
LAYER
5
6D
100
AcDbSymbolTableRecord
100
AcDbLayerTableRecord
2
80
70
0
62
-6
6
CONTINUOUS
290
1
370
-3
390
0
0
LAYER
5
6F
100
AcDbSymbolTableRecord
100
AcDbLayerTableRecord
2
2
70
0
62
7
6
CONTINUOUS
290
1
370
-3
390
0
0
LAYER
5
71
100
AcDbSymbolTableRecord
100
AcDbLayerTableRecord
2
81
70
0
62
-3
6
CONTINUOUS
290
1
370
-3
390
0
0
LAYER
5
75
100
AcDbSymbolTableRecord
100
AcDbLayerTableRecord
2
1
70
0
62
4
6
CONTINUOUS
290
1
370
-3
390
0
0
LAYER
5
1c4
100
AcDbSymbolTableRecord
100
AcDbLayerTableRecord
2
SK1
70
0
62
4
6
CONTINUOUS
290
1
370
-3
390
0
0
LAYER
5
1c5
100
AcDbSymbolTableRecord
100
AcDbLayerTableRecord
2
SK6
70
0
62
5
6
CONTINUOUS
290
1
370
-3
390
0
0
LAYER
5
1c6
100
AcDbSymbolTableRecord
100
AcDbLayerTableRecord
2
SK2
70
0
62
7
6
CONTINUOUS
290
1
370
-3
390
0
0
ENDTAB
0
TABLE
2
STYLE
5
1da
100
AcDbSymbolTable
0
STYLE
5
11
100
AcDbSymbolTableRecord
100
AcDbTextStyleTableRecord
2
Standard
3
txt
70
0
71
0
40
0
41
1
42
0
50
0
0
STYLE
5
10C
100
AcDbSymbolTableRecord
100
AcDbTextStyleTableRecord
2
iso_b_vert
3
simplex.shx
70
0
71
0
40
0
41
1
42
0
50
0
0
STYLE
5
10D
100
AcDbSymbolTableRecord
100
AcDbTextStyleTableRecord
2
DWGDirectTextStyle
3
simplex
70
0
71
0
40
0
41
1
42
0
50
0
0
ENDTAB
0
TABLE
2
DIMSTYLE
5
1db
100
AcDbSymbolTable
100
AcDbDimStyleTable
0
DIMSTYLE
105
27
100
AcDbSymbolTableRecord
100
AcDbDimStyleTableRecord
2
Standard
70
0
3
<>
41
0.18
42
0.0625
44
0.18
140
0.18
147
0.09
73
0
74
0
77
1
271
2
275
0
278
52
280
0
340
11
0
ENDTAB
0
TABLE
2
VIEW
5
1dc
100
AcDbSymbolTable
0
ENDTAB
0
TABLE
2
UCS
5
1dd
100
AcDbSymbolTable
0
ENDTAB
0
TABLE
2
APPID
5
1de
100
AcDbSymbolTable
0
APPID
5
12
100
AcDbSymbolTableRecord
100
AcDbRegAppTableRecord
2
ACAD
70
0
0
ENDTAB
0
TABLE
2
BLOCK_RECORD
5
1df
100
AcDbSymbolTable
0
BLOCK_RECORD
5
1F
100
AcDbSymbolTableRecord
100
AcDbBlockTableRecord
2
*Model_Space
340
0
70
0
0
BLOCK_RECORD
5
1B
100
AcDbSymbolTableRecord
100
AcDbBlockTableRecord
2
*Paper_Space
340
0
70
0
0
BLOCK_RECORD
5
23
100
AcDbSymbolTableRecord
100
AcDbBlockTableRecord
2
*Paper_Space0
340
0
70
0
0
BLOCK_RECORD
5
10F
100
AcDbSymbolTableRecord
100
AcDbBlockTableRecord
2
DimnDraft3D1
340
0
70
0
0
BLOCK_RECORD
5
11D
100
AcDbSymbolTableRecord
100
AcDbBlockTableRecord
2
_CLOSED
340
0
70
0
0
BLOCK_RECORD
5
124
100
AcDbSymbolTableRecord
100
AcDbBlockTableRecord
2
DimnDraft3D2
340
0
70
0
0
BLOCK_RECORD
5
132
100
AcDbSymbolTableRecord
100
AcDbBlockTableRecord
2
DimnDraft3D3
340
0
70
0
0
BLOCK_RECORD
5
141
100
AcDbSymbolTableRecord
100
AcDbBlockTableRecord
2
DimnDraft3D4
340
0
70
0
0
BLOCK_RECORD
5
14F
100
AcDbSymbolTableRecord
100
AcDbBlockTableRecord
2
DimnDraft3D5
340
0
70
0
0
BLOCK_RECORD
5
15D
100
AcDbSymbolTableRecord
100
AcDbBlockTableRecord
2
DimnDraft3D6
340
0
70
0
0
ENDTAB
0
ENDSEC
0
SECTION
2
BLOCKS
0
BLOCK
5
20
100
AcDbEntity
8
0
100
AcDbBlockBegin
2
*Model_Space
70
0
10
0
20
0
30
0
3
*Model_Space
0
ENDBLK
5
21
100
AcDbEntity
8
0
100
AcDbBlockEnd
0
BLOCK
5
1C
100
AcDbEntity
8
0
100
AcDbBlockBegin
2
*Paper_Space
70
0
10
0
20
0
30
0
3
*Paper_Space
0
ENDBLK
5
1D
100
AcDbEntity
8
0
100
AcDbBlockEnd
0
BLOCK
5
24
100
AcDbEntity
8
0
100
AcDbBlockBegin
2
*Paper_Space0
70
0
10
0
20
0
30
0
3
*Paper_Space0
0
ENDBLK
5
25
100
AcDbEntity
8
0
100
AcDbBlockEnd
0
BLOCK
5
11A
100
AcDbEntity
8
0
100
AcDbBlockBegin
2
DimnDraft3D1
70
0
10
0
20
0
30
0
3
DimnDraft3D1
0
MTEXT
5
110
100
AcDbEntity
8
2
62
256
6
ByLayer
370
18
48
1
60
0
100
AcDbMText
10
44.776424
20
16.625
30
0
210
0
220
0
230
1
1
\W0.6004;1.5
40
4.5
41
0
44
1.084337
50
90
71
7
72
5
7
iso_b_vert
0
LINE
5
111
100
AcDbEntity
8
2
62
256
6
ByLayer
370
13
48
1
60
0
100
AcDbLine
10
33.151424
20
3.5
30
0
11
48.901424
21
3.5
31
0
39
0
210
0
220
0
230
1
0
LINE
5
112
100
AcDbEntity
8
2
62
256
6
ByLayer
370
13
48
1
60
0
100
AcDbLine
10
33.151424
20
5
30
0
11
48.901424
21
5
31
0
39
0
210
0
220
0
230
1
0
LINE
5
113
100
AcDbEntity
8
2
62
256
6
ByLayer
370
13
48
1
60
0
100
AcDbLine
10
45.901424
20
21.575
30
0
11
45.901424
21
-7.75
31
0
39
0
210
0
220
0
230
1
0
LINE
5
114
100
AcDbEntity
8
2
62
256
6
ByLayer
370
13
48
1
60
0
100
AcDbLine
10
45.901424
20
3.5
30
0
11
46.296382
21
0.500001
31
0
39
0
210
0
220
0
230
1
0
LINE
5
115
100
AcDbEntity
8
2
62
256
6
ByLayer
370
13
48
1
60
0
100
AcDbLine
10
45.901424
20
3.5
30
0
11
45.506467
21
0.499999
31
0
39
0
210
0
220
0
230
1
0
LINE
5
116
100
AcDbEntity
8
2
62
256
6
ByLayer
370
13
48
1
60
0
100
AcDbLine
10
46.296382
20
0.500001
30
0
11
45.506467
21
0.499999
31
0
39
0
210
0
220
0
230
1
0
LINE
5
117
100
AcDbEntity
8
2
62
256
6
ByLayer
370
13
48
1
60
0
100
AcDbLine
10
45.901424
20
5
30
0
11
45.506467
21
7.999999
31
0
39
0
210
0
220
0
230
1
0
LINE
5
118
100
AcDbEntity
8
2
62
256
6
ByLayer
370
13
48
1
60
0
100
AcDbLine
10
45.901424
20
5
30
0
11
46.296382
21
8.000001
31
0
39
0
210
0
220
0
230
1
0
LINE
5
119
100
AcDbEntity
8
2
62
256
6
ByLayer
370
13
48
1
60
0
100
AcDbLine
10
45.506467
20
7.999999
30
0
11
46.296382
21
8.000001
31
0
39
0
210
0
220
0
230
1
0
ENDBLK
5
11B
100
AcDbEntity
8
0
100
AcDbBlockEnd
0
BLOCK
5
11E
100
AcDbEntity
8
0
100
AcDbBlockBegin
2
_CLOSED
70
0
10
0
20
0
30
0
3
_CLOSED
0
LINE
5
120
100
AcDbEntity
8
0
62
256
6
ByLayer
370
-2
48
1
60
0
100
AcDbLine
10
-1
20
0.166667
30
0
11
0
21
0
31
0
39
0
210
0
220
0
230
1
0
LINE
5
121
100
AcDbEntity
8
0
62
256
6
ByLayer
370
-2
48
1
60
0
100
AcDbLine
10
0
20
0
30
0
11
-1
21
-0.166667
31
0
39
0
210
0
220
0
230
1
0
LINE
5
122
100
AcDbEntity
8
0
62
256
6
ByLayer
370
-2
48
1
60
0
100
AcDbLine
10
-1
20
0.166667
30
0
11
-1
21
-0.166667
31
0
39
0
210
0
220
0
230
1
0
LINE
5
123
100
AcDbEntity
8
0
62
256
6
ByLayer
370
-2
48
1
60
0
100
AcDbLine
10
0
20
0
30
0
11
-1
21
0
31
0
39
0
210
0
220
0
230
1
0
ENDBLK
5
11F
100
AcDbEntity
8
0
100
AcDbBlockEnd
0
BLOCK
5
12F
100
AcDbEntity
8
0
100
AcDbBlockBegin
2
DimnDraft3D2
70
0
10
0
20
0
30
0
3
DimnDraft3D2
0
MTEXT
5
125
100
AcDbEntity
8
2
62
256
6
ByLayer
370
18
48
1
60
0
100
AcDbMText
10
54.776424
20
16.625
30
0
210
0
220
0
230
1
1
\W0.6563;10.0
40
4.5
41
0
44
1.084337
50
90
71
7
72
5
7
iso_b_vert
0
LINE
5
126
100
AcDbEntity
8
2
62
256
6
ByLayer
370
13
48
1
60
0
100
AcDbLine
10
33.151424
20
5
30
0
11
58.901424
21
5
31
0
39
0
210
0
220
0
230
1
0
LINE
5
127
100
AcDbEntity
8
2
62
256
6
ByLayer
370
13
48
1
60
0
100
AcDbLine
10
1.5
20
-5
30
0
11
58.901424
21
-5
31
0
39
0
210
0
220
0
230
1
0
LINE
5
128
100
AcDbEntity
8
2
62
256
6
ByLayer
370
13
48
1
60
0
100
AcDbLine
10
55.901424
20
-5
30
0
11
55.901424
21
24.938158
31
0
39
0
210
0
220
0
230
1
0
LINE
5
129
100
AcDbEntity
8
2
62
256
6
ByLayer
370
13
48
1
60
0
100
AcDbLine
10
55.901424
20
5
30
0
11
56.296382
21
2.000001
31
0
39
0
210
0
220
0
230
1
0
LINE
5
12A
100
AcDbEntity
8
2
62
256
6
ByLayer
370
13
48
1
60
0
100
AcDbLine
10
55.901424
20
5
30
0
11
55.506467
21
1.999999
31
0
39
0
210
0
220
0
230
1
0
LINE
5
12B
100
AcDbEntity
8
2
62
256
6
ByLayer
370
13
48
1
60
0
100
AcDbLine
10
56.296382
20
2.000001
30
0
11
55.506467
21
1.999999
31
0
39
0
210
0
220
0
230
1
0
LINE
5
12C
100
AcDbEntity
8
2
62
256
6
ByLayer
370
13
48
1
60
0
100
AcDbLine
10
55.901424
20
-5
30
0
11
55.506467
21
-2.000001
31
0
39
0
210
0
220
0
230
1
0
LINE
5
12D
100
AcDbEntity
8
2
62
256
6
ByLayer
370
13
48
1
60
0
100
AcDbLine
10
55.901424
20
-5
30
0
11
56.296382
21
-1.999999
31
0
39
0
210
0
220
0
230
1
0
LINE
5
12E
100
AcDbEntity
8
2
62
256
6
ByLayer
370
13
48
1
60
0
100
AcDbLine
10
55.506467
20
-2.000001
30
0
11
56.296382
21
-1.999999
31
0
39
0
210
0
220
0
230
1
0
ENDBLK
5
130
100
AcDbEntity
8
0
100
AcDbBlockEnd
0
BLOCK
5
13E
100
AcDbEntity
8
0
100
AcDbBlockBegin
2
DimnDraft3D3
70
0
10
0
20
0
30
0
3
DimnDraft3D3
0
MTEXT
5
133
100
AcDbEntity
8
SK2
62
256
6
ByLayer
370
18
48
1
60
0
100
AcDbMText
10
-49.223576
20
16.625
30
0
210
0
220
0
230
1
1
\W0.6563;10.0
40
4.5
41
0
44
1.084337
50
90
71
7
72
5
7
iso_b_vert
0
LINE
5
135
100
AcDbEntity
8
SK2
62
256
6
ByLayer
370
13
48
1
60
0
100
AcDbLine
10
-39.848576
20
5
30
0
11
-51.098576
21
5
31
0
39
0
210
0
220
0
230
1
0
LINE
5
136
100
AcDbEntity
8
SK2
62
256
6
ByLayer
370
13
48
1
60
0
100
AcDbLine
10
-39.848576
20
-5
30
0
11
-51.098576
21
-5
31
0
39
0
210
0
220
0
230
1
0
LINE
5
137
100
AcDbEntity
8
SK2
62
256
6
ByLayer
370
13
48
1
60
0
100
AcDbLine
10
-48.098576
20
-5
30
0
11
-48.098576
21
24.938158
31
0
39
0
210
0
220
0
230
1
0
LINE
5
138
100
AcDbEntity
8
SK2
62
256
6
ByLayer
370
13
48
1
60
0
100
AcDbLine
10
-48.098576
20
5
30
0
11
-47.703618
21
2.000001
31
0
39
0
210
0
220
0
230
1
0
LINE
5
139
100
AcDbEntity
8
SK2
62
256
6
ByLayer
370
13
48
1
60
0
100
AcDbLine
10
-48.098576
20
5
30
0
11
-48.493533
21
1.999999
31
0
39
0
210
0
220
0
230
1
0
LINE
5
13A
100
AcDbEntity
8
SK2
62
256
6
ByLayer
370
13
48
1
60
0
100
AcDbLine
10
-47.703618
20
2.000001
30
0
11
-48.493533
21
1.999999
31
0
39
0
210
0
220
0
230
1
0
LINE
5
13B
100
AcDbEntity
8
SK2
62
256
6
ByLayer
370
13
48
1
60
0
100
AcDbLine
10
-48.098576
20
-5
30
0
11
-48.493533
21
-2.000001
31
0
39
0
210
0
220
0
230
1
0
LINE
5
13C
100
AcDbEntity
8
SK2
62
256
6
ByLayer
370
13
48
1
60
0
100
AcDbLine
10
-48.098576
20
-5
30
0
11
-47.703618
21
-1.999999
31
0
39
0
210
0
220
0
230
1
0
LINE
5
13D
100
AcDbEntity
8
SK2
62
256
6
ByLayer
370
13
48
1
60
0
100
AcDbLine
10
-48.493533
20
-2.000001
30
0
11
-47.703618
21
-1.999999
31
0
39
0
210
0
220
0
230
1
0
ENDBLK
5
13F
100
AcDbEntity
8
0
100
AcDbBlockEnd
0
BLOCK
5
14C
100
AcDbEntity
8
0
100
AcDbBlockBegin
2
DimnDraft3D4
70
0
10
0
20
0
30
0
3
DimnDraft3D4
0
MTEXT
5
142
100
AcDbEntity
8
2
62
256
6
ByLayer
370
18
48
1
60
0
100
AcDbMText
10
43.276424
20
-18.125
30
0
210
0
220
0
230
1
1
\W0.7121;6.0
40
4.5
41
0
44
1.084337
50
0
71
7
72
5
7
iso_b_vert
0
LINE
5
143
100
AcDbEntity
8
2
62
256
6
ByLayer
370
13
48
1
60
0
100
AcDbLine
10
25.651424
20
0
30
0
11
25.651424
21
-22.25
31
0
39
0
210
0
220
0
230
1
0
LINE
5
144
100
AcDbEntity
8
2
62
256
6
ByLayer
370
13
48
1
60
0
100
AcDbLine
10
31.651424
20
2
30
0
11
31.651424
21
-22.25
31
0
39
0
210
0
220
0
230
1
0
LINE
5
145
100
AcDbEntity
8
2
62
256
6
ByLayer
370
13
48
1
60
0
100
AcDbLine
10
49.351424
20
-19.25
30
0
11
14.401424
21
-19.25
31
0
39
0
210
0
220
0
230
1
0
LINE
5
146
100
AcDbEntity
8
2
62
256
6
ByLayer
370
13
48
1
60
0
100
AcDbLine
10
25.651424
20
-19.25
30
0
11
22.651425
21
-19.644957
31
0
39
0
210
0
220
0
230
1
0
LINE
5
147
100
AcDbEntity
8
2
62
256
6
ByLayer
370
13
48
1
60
0
100
AcDbLine
10
25.651424
20
-19.25
30
0
11
22.651423
21
-18.855043
31
0
39
0
210
0
220
0
230
1
0
LINE
5
148
100
AcDbEntity
8
2
62
256
6
ByLayer
370
13
48
1
60
0
100
AcDbLine
10
22.651425
20
-19.644957
30
0
11
22.651423
21
-18.855043
31
0
39
0
210
0
220
0
230
1
0
LINE
5
149
100
AcDbEntity
8
2
62
256
6
ByLayer
370
13
48
1
60
0
100
AcDbLine
10
31.651424
20
-19.25
30
0
11
34.651423
21
-18.855043
31
0
39
0
210
0
220
0
230
1
0
LINE
5
14A
100
AcDbEntity
8
2
62
256
6
ByLayer
370
13
48
1
60
0
100
AcDbLine
10
31.651424
20
-19.25
30
0
11
34.651426
21
-19.644957
31
0
39
0
210
0
220
0
230
1
0
LINE
5
14B
100
AcDbEntity
8
2
62
256
6
ByLayer
370
13
48
1
60
0
100
AcDbLine
10
34.651423
20
-18.855043
30
0
11
34.651426
21
-19.644957
31
0
39
0
210
0
220
0
230
1
0
ENDBLK
5
14D
100
AcDbEntity
8
0
100
AcDbBlockEnd
0
BLOCK
5
15A
100
AcDbEntity
8
0
100
AcDbBlockBegin
2
DimnDraft3D5
70
0
10
0
20
0
30
0
3
DimnDraft3D5
0
MTEXT
5
150
100
AcDbEntity
8
SK2
62
256
6
ByLayer
370
18
48
1
60
0
100
AcDbMText
10
-7.505155
20
25.875
30
0
210
0
220
0
230
1
1
\W0.7346;70.0
40
4.5
41
0
44
1.084337
50
0
71
7
72
5
7
iso_b_vert
0
LINE
5
151
100
AcDbEntity
8
SK2
62
256
6
ByLayer
370
13
48
1
60
0
100
AcDbLine
10
31.651424
20
6.5
30
0
11
31.651424
21
27.75
31
0
39
0
210
0
220
0
230
1
0
LINE
5
152
100
AcDbEntity
8
SK2
62
256
6
ByLayer
370
13
48
1
60
0
100
AcDbLine
10
-38.348576
20
6.5
30
0
11
-38.348576
21
27.75
31
0
39
0
210
0
220
0
230
1
0
LINE
5
153
100
AcDbEntity
8
SK2
62
256
6
ByLayer
370
13
48
1
60
0
100
AcDbLine
10
31.651424
20
24.75
30
0
11
-38.348576
21
24.75
31
0
39
0
210
0
220
0
230
1
0
LINE
5
154
100
AcDbEntity
8
SK2
62
256
6
ByLayer
370
13
48
1
60
0
100
AcDbLine
10
31.651424
20
24.75
30
0
11
28.651425
21
24.355043
31
0
39
0
210
0
220
0
230
1
0
LINE
5
155
100
AcDbEntity
8
SK2
62
256
6
ByLayer
370
13
48
1
60
0
100
AcDbLine
10
31.651424
20
24.75
30
0
11
28.651423
21
25.144957
31
0
39
0
210
0
220
0
230
1
0
LINE
5
156
100
AcDbEntity
8
SK2
62
256
6
ByLayer
370
13
48
1
60
0
100
AcDbLine
10
28.651425
20
24.355043
30
0
11
28.651423
21
25.144957
31
0
39
0
210
0
220
0
230
1
0
LINE
5
157
100
AcDbEntity
8
SK2
62
256
6
ByLayer
370
13
48
1
60
0
100
AcDbLine
10
-38.348576
20
24.75
30
0
11
-35.348577
21
25.144957
31
0
39
0
210
0
220
0
230
1
0
LINE
5
158
100
AcDbEntity
8
SK2
62
256
6
ByLayer
370
13
48
1
60
0
100
AcDbLine
10
-38.348576
20
24.75
30
0
11
-35.348574
21
24.355043
31
0
39
0
210
0
220
0
230
1
0
LINE
5
159
100
AcDbEntity
8
SK2
62
256
6
ByLayer
370
13
48
1
60
0
100
AcDbLine
10
-35.348577
20
25.144957
30
0
11
-35.348574
21
24.355043
31
0
39
0
210
0
220
0
230
1
0
ENDBLK
5
15B
100
AcDbEntity
8
0
100
AcDbBlockEnd
0
BLOCK
5
168
100
AcDbEntity
8
0
100
AcDbBlockBegin
2
DimnDraft3D6
70
0
10
0
20
0
30
0
3
DimnDraft3D6
0
MTEXT
5
15E
100
AcDbEntity
8
2
62
256
6
ByLayer
370
18
48
1
60
0
100
AcDbMText
10
12.231633
20
15.875
30
0
210
0
220
0
230
1
1
\W0.6563;31.7
40
4.5
41
0
44
1.084337
50
0
71
7
72
5
7
iso_b_vert
0
LINE
5
15F
100
AcDbEntity
8
2
62
256
6
ByLayer
370
13
48
1
60
0
100
AcDbLine
10
31.651424
20
5.75
30
0
11
31.651424
21
17.75
31
0
39
0
210
0
220
0
230
1
0
LINE
5
160
100
AcDbEntity
8
2
62
256
6
ByLayer
370
13
48
1
60
0
100
AcDbLine
10
0
20
6.5
30
0
11
0
21
17.75
31
0
39
0
210
0
220
0
230
1
0
LINE
5
161
100
AcDbEntity
8
2
62
256
6
ByLayer
370
13
48
1
60
0
100
AcDbLine
10
31.651424
20
14.75
30
0
11
0
21
14.75
31
0
39
0
210
0
220
0
230
1
0
LINE
5
162
100
AcDbEntity
8
2
62
256
6
ByLayer
370
13
48
1
60
0
100
AcDbLine
10
31.651424
20
14.75
30
0
11
28.651425
21
14.355043
31
0
39
0
210
0
220
0
230
1
0
LINE
5
163
100
AcDbEntity
8
2
62
256
6
ByLayer
370
13
48
1
60
0
100
AcDbLine
10
31.651424
20
14.75
30
0
11
28.651423
21
15.144957
31
0
39
0
210
0
220
0
230
1
0
LINE
5
164
100
AcDbEntity
8
2
62
256
6
ByLayer
370
13
48
1
60
0
100
AcDbLine
10
28.651425
20
14.355043
30
0
11
28.651423
21
15.144957
31
0
39
0
210
0
220
0
230
1
0
LINE
5
165
100
AcDbEntity
8
2
62
256
6
ByLayer
370
13
48
1
60
0
100
AcDbLine
10
0
20
14.75
30
0
11
2.999999
21
15.144957
31
0
39
0
210
0
220
0
230
1
0
LINE
5
166
100
AcDbEntity
8
2
62
256
6
ByLayer
370
13
48
1
60
0
100
AcDbLine
10
0
20
14.75
30
0
11
3.000001
21
14.355043
31
0
39
0
210
0
220
0
230
1
0
LINE
5
167
100
AcDbEntity
8
2
62
256
6
ByLayer
370
13
48
1
60
0
100
AcDbLine
10
2.999999
20
15.144957
30
0
11
3.000001
21
14.355043
31
0
39
0
210
0
220
0
230
1
0
ENDBLK
5
169
100
AcDbEntity
8
0
100
AcDbBlockEnd
0
ENDSEC
0
SECTION
2
ENTITIES
0
ARC
5
AB
100
AcDbEntity
8
1
62
256
6
ByLayer
370
18
48
1
60
0
100
AcDbCircle
39
0
10
21.123624
20
-2.136907
30
0
40
7
210
0
220
0
230
1
100
AcDbArc
50
72.062184
51
79.231223
0
ARC
5
AC
100
AcDbEntity
8
1
62
256
6
ByLayer
370
18
48
1
60
0
100
AcDbCircle
39
0
10
21.123624
20
-2.136907
30
0
40
7
210
0
220
0
230
1
100
AcDbArc
50
108.768777
51
115.937816
0
ELLIPSE
5
AD
100
AcDbEntity
8
1
62
256
6
ByLayer
370
18
48
1
60
0
100
AcDbEllipse
10
11.658969
20
2.720313
30
0
11
1.84856465667816
21
0.0174489932279074
31
0
210
6.49310395802733E-17
220
-9.62964972193618E-35
230
1
40
0.865498
41
-2.28646617864065
42
-2.17155581056838
0
ELLIPSE
5
AE
100
AcDbEntity
8
1
62
256
6
ByLayer
370
18
48
1
60
0
100
AcDbEllipse
10
20.671238
20
4.332516
30
0
11
2.61860563193204
21
0.183110743578326
31
0
210
0
220
0
230
1
40
0.034899
41
1.56835581905345
42
-3.14157683651975
0
ELLIPSE
5
AF
100
AcDbEntity
8
1
62
256
6
ByLayer
370
18
48
1
60
0
100
AcDbEllipse
10
20.671238
20
4.332516
30
0
11
2.61860563193204
21
0.183110743578326
31
0
210
0
220
0
230
1
40
0.034899
41
0
42
1.56835585789539
0
ELLIPSE
5
B0
100
AcDbEntity
8
1
62
256
6
ByLayer
370
18
48
1
60
0
100
AcDbEllipse
10
20.652036
20
4.607118
30
0
11
1.79561529046768
21
0.125561652739423
31
0
210
0
220
0
230
1
40
0.034899
41
1.56835580318039
42
-3.03225691034179
0
ELLIPSE
5
B1
100
AcDbEntity
8
1
62
256
6
ByLayer
370
18
48
1
60
0
100
AcDbEllipse
10
20.652036
20
4.607118
30
0
11
1.79561529046768
21
0.125561652739423
31
0
210
0
220
0
230
1
40
0.034899
41
0.131583540852162
42
1.5683563587376
0
ELLIPSE
5
B2
100
AcDbEntity
8
1
62
256
6
ByLayer
370
13
48
1
60
0
100
AcDbEllipse
10
28.229936
20
2.973773
30
0
11
-0.0349439063342011
21
0.499708659209256
31
0
210
0
220
0
230
1
40
0.998146
41
-0.104465525647492
42
-0.0700236887275471
0
ELLIPSE
5
B3
100
AcDbEntity
8
1
62
256
6
ByLayer
370
13
48
1
60
0
100
AcDbEllipse
10
29.455358
20
3.449836
30
0
11
-0.498303873938562
21
0.0173225497057768
31
0
210
0
220
0
230
1
40
0.035171
41
1.56660155943565
42
2.29722309781347
0
ELLIPSE
5
B4
100
AcDbEntity
8
1
62
256
6
ByLayer
370
13
48
1
60
0
100
AcDbEllipse
10
27.228596
20
2.974108
30
0
11
-0.0349429450479705
21
0.499708761525654
31
0
210
0
220
0
230
1
40
0.998145
41
-0.0700178781896661
42
1.89588162437848E-07
0
ELLIPSE
5
B5
100
AcDbEntity
8
1
62
256
6
ByLayer
370
13
48
1
60
0
100
AcDbEllipse
10
18.12274
20
2.853079
30
0
11
-0.555984066919953
21
-0.0388781934577942
31
0
210
0
220
0
230
1
40
0.896569
41
-1.57079556102017
42
-1.44500896326286
0
ELLIPSE
5
B6
100
AcDbEntity
8
1
62
256
6
ByLayer
370
18
48
1
60
0
100
AcDbEllipse
10
5.915065
20
2.666095
30
0
11
1.84856465667816
21
0.0174489932279074
31
0
210
6.49310395802733E-17
220
-9.62964972193618E-35
230
1
40
0.865498
41
-2.28646617864065
42
-1.5010680152432
0
POINT
5
6C
100
AcDbEntity
8
80
62
256
6
ByLayer
370
18
48
1
60
0
100
AcDbPoint
10
0
20
0
30
0
39
0
210
0
220
0
230
1
50
360
0
POINT
5
6E
100
AcDbEntity
8
2
62
256
6
ByLayer
370
18
48
1
60
0
100
AcDbPoint
10
31.651424
20
5
30
0
39
0
210
0
220
0
230
1
50
360
0
POINT
5
70
100
AcDbEntity
8
81
62
256
6
ByLayer
370
18
48
1
60
0
100
AcDbPoint
10
31.651424
20
5
30
0
39
0
210
0
220
0
230
1
50
360
0
SPLINE
5
B7
100
AcDbEntity
8
1
62
256
6
ByLayer
370
13
48
1
60
0
100
AcDbSpline
70
4
71
3
72
12
73
8
40
0
40
0
40
0
40
0
40
0.161511717069938
40
0.34696213315562
40
0.543679306755413
40
0.759566675545854
40
1
40
1
40
1
40
1
41
1
10
13.1076563051767
20
2.14580879276844
30
0
41
1
10
13.1058561407472
20
2.139365890536
30
0
41
1
10
13.1120859183032
20
2.12183361691964
30
0
41
1
10
13.1512824275879
20
2.0758720452728
30
0
41
1
10
13.2106541029746
20
1.99973354147065
30
0
41
1
10
13.2711506587521
20
1.8887094107115
30
0
41
1
10
13.2926978439395
20
1.79970519788384
30
0
41
1
10
13.2998464224857
20
1.74873484757597
30
0
0
SPLINE
5
B8
100
AcDbEntity
8
1
62
256
6
ByLayer
370
13
48
1
60
0
100
AcDbSpline
70
4
71
3
72
12
73
8
40
0
40
0
40
0
40
0
40
0.118430429903332
40
0.353067263140123
40
0.593776665849256
40
0.856978038750792
40
1
40
1
40
1
40
1
41
1
10
24.855617071482
20
2.49483860353305
30
0
41
1
10
24.8602164140771
20
2.5112183276276
30
0
41
1
10
24.8758245815918
20
2.5587103825095
30
0
41
1
10
24.9084801906846
20
2.62849119415395
30
0
41
1
10
24.9448161935223
20
2.6926638694043
30
0
41
1
10
24.9586892247843
20
2.72759855412727
30
0
41
1
10
24.9558435799521
20
2.741779974281
30
0
41
1
10
24.9534591367681
20
2.74599092831849
30
0
0
SPLINE
5
B9
100
AcDbEntity
8
1
62
256
6
ByLayer
370
13
48
1
60
0
100
AcDbSpline
70
4
71
5
72
16
73
10
40
0
40
0
40
0
40
0
40
0
40
0
40
6.6158764429E-06
40
6.6158764429E-06
40
6.6158764429E-06
40
6.6158764429E-06
40
1
40
1
40
1
40
1
40
1
40
1
41
1
10
12.7653473233752
20
2.17996921940579
30
0
41
1
10
12.7653477727695
20
2.17996330344204
30
0
41
1
10
12.7653482057708
20
2.17995760854294
30
0
41
1
10
12.7653485962754
20
2.17995247689458
30
0
41
1
10
12.7653488775686
20
2.17994878042373
30
0
41
1
10
12.7658023354852
20
2.17398990294487
30
0
41
1
10
12.8027334229571
20
2.1705830185675
30
0
41
1
10
12.8773958531942
20
2.17015771593447
30
0
41
1
10
12.982877833975
20
2.17264392994929
30
0
41
1
10
13.1133217147567
20
2.17783253187645
30
0
0
SPLINE
5
BA
100
AcDbEntity
8
1
62
256
6
ByLayer
370
13
48
1
60
0
100
AcDbSpline
70
4
71
3
72
10
73
6
40
0
40
0
40
0
40
0
40
0.239873510978037
40
0.622943777481943
40
1
40
1
40
1
40
1
41
1
10
25.4362920814339
20
3.34507038309633
30
0
41
1
10
25.4279161341909
20
3.32019242901453
30
0
41
1
10
25.4250004370549
20
3.25692247589146
30
0
41
1
10
25.6253271899862
20
3.16991093670109
30
0
41
1
10
25.9658351930832
20
3.11795690228055
30
0
41
1
10
26.1347421621722
20
3.09218541260597
30
0
0
SPLINE
5
BB
100
AcDbEntity
8
1
62
256
6
ByLayer
370
13
48
1
60
0
100
AcDbSpline
70
4
71
3
72
8
73
4
40
0
40
0
40
0
40
0
40
1
40
1
40
1
40
1
41
1
10
17.6585012126468
20
3.27031778418581
30
0
41
1
10
17.4983090579916
20
3.24269469432048
30
0
41
1
10
17.3381169033364
20
3.21507160445518
30
0
41
1
10
17.1779247486812
20
3.18744851458988
30
0
0
SPLINE
5
BC
100
AcDbEntity
8
1
62
256
6
ByLayer
370
13
48
1
60
0
100
AcDbSpline
70
4
71
5
72
12
73
6
40
0
40
0
40
0
40
0
40
0
40
0
40
1
40
1
40
1
40
1
40
1
40
1
41
1
10
23.1936782856825
20
2.37707910316581
30
0
41
1
10
23.1891745002767
20
2.42855906921648
30
0
41
1
10
23.1846707148709
20
2.48003903526717
30
0
41
1
10
23.1801669294651
20
2.53151900131783
30
0
41
1
10
23.1756631440593
20
2.5829989673685
30
0
41
1
10
23.1711593586535
20
2.63447893341919
30
0
0
SPLINE
5
BD
100
AcDbEntity
8
1
62
256
6
ByLayer
370
13
48
1
60
0
100
AcDbSpline
70
4
71
5
72
12
73
6
40
0
40
0
40
0
40
0
40
0
40
0
40
1
40
1
40
1
40
1
40
1
40
1
41
1
10
24.8200438167977
20
2.49079394657258
30
0
41
1
10
24.8180095777545
20
2.54908246042839
30
0
41
1
10
24.8159753387114
20
2.60737097428418
30
0
41
1
10
24.8139410996683
20
2.66565948813994
30
0
41
1
10
24.8119068606252
20
2.72394800199572
30
0
41
1
10
24.8098726215821
20
2.78223651585148
30
0
0
SPLINE
5
BE
100
AcDbEntity
8
1
62
256
6
ByLayer
370
13
48
1
60
0
100
AcDbSpline
70
4
71
5
72
12
73
6
40
0
40
0
40
0
40
0
40
0
40
0
40
1
40
1
40
1
40
1
40
1
40
1
41
1
10
14.4439607337184
20
1.75533710313996
30
0
41
1
10
14.4412098971789
20
1.78678020242381
30
0
41
1
10
14.4384590606395
20
1.81822330170766
30
0
41
1
10
14.4357082241
20
1.84966640099151
30
0
41
1
10
14.4329573875605
20
1.88110950027533
30
0
41
1
10
14.430206551021
20
1.91255259955915
30
0
0
SPLINE
5
BF
100
AcDbEntity
8
1
62
256
6
ByLayer
370
13
48
1
60
0
100
AcDbSpline
70
4
71
1
72
4
73
2
40
0
40
0
40
1
40
1
41
1
10
17.6758767047685
20
3.27158611987875
30
0
41
1
10
17.0371967138697
20
3.16144733164106
30
0
0
SPLINE
5
C0
100
AcDbEntity
8
1
62
256
6
ByLayer
370
13
48
1
60
0
100
AcDbSpline
70
4
71
5
72
12
73
6
40
0
40
0
40
0
40
0
40
0
40
0
40
1
40
1
40
1
40
1
40
1
40
1
41
1
10
24.8363496924455
20
2.49403694089955
30
0
41
1
10
24.8604234526515
20
2.62346270888546
30
0
41
1
10
24.9271659781476
20
2.74498039096469
30
0
41
1
10
25.0331988607901
20
2.83974981485463
30
0
41
1
10
25.1616899798304
20
2.89208709766572
30
0
41
1
10
25.2930293416856
20
2.90131923226943
30
0
0
SPLINE
5
C1
100
AcDbEntity
8
1
62
256
6
ByLayer
370
13
48
1
60
0
100
AcDbSpline
70
4
71
5
72
12
73
6
40
0
40
0
40
0
40
0
40
0
40
0
40
1
40
1
40
1
40
1
40
1
40
1
41
1
10
26.1347376006974
20
3.09218025643969
30
0
41
1
10
26.2352876258552
20
3.16121192277632
30
0
41
1
10
26.3358868097624
20
3.2300032076287
30
0
41
1
10
26.4365357211334
20
3.29855030014835
30
0
41
1
10
26.5372349814715
20
3.36684929045993
30
0
41
1
10
26.6379852369566
20
3.43489614515451
30
0
0
SPLINE
5
C2
100
AcDbEntity
8
1
62
256
6
ByLayer
370
13
48
1
60
0
100
AcDbSpline
70
4
71
3
72
9
73
5
40
0
40
0
40
0
40
0
40
0.358269864880883
40
1
40
1
40
1
40
1
41
1
10
24.8543617711136
20
2.46699805499159
30
0
41
1
10
24.8702678938143
20
2.54702466461004
30
0
41
1
10
24.9320709700971
20
2.7561115676464
30
0
41
1
10
25.1572157535239
20
2.83116642975949
30
0
41
1
10
25.3016979458137
20
2.87933139656465
30
0
0
SPLINE
5
C3
100
AcDbEntity
8
1
62
256
6
ByLayer
370
13
48
1
60
0
100
AcDbSpline
70
4
71
3
72
8
73
4
40
0
40
0
40
0
40
0
40
1
40
1
40
1
40
1
41
1
10
24.8649726460919
20
2.49376639930171
30
0
41
1
10
24.9292934885858
20
2.67993669024952
30
0
41
1
10
25.1055579951996
20
2.82968317170136
30
0
41
1
10
25.3041809082896
20
2.84357223878536
30
0
0
SPLINE
5
C4
100
AcDbEntity
8
1
62
256
6
ByLayer
370
13
48
1
60
0
100
AcDbSpline
70
4
71
5
72
12
73
6
40
0
40
0
40
0
40
0
40
0
40
0
40
1
40
1
40
1
40
1
40
1
40
1
41
1
10
18.1156669888465
20
3.24289814583943
30
0
41
1
10
18.6896564664991
20
3.29689249991748
30
0
41
1
10
19.2557872707293
20
3.35073597883249
30
0
41
1
10
19.8137480367824
20
3.40439977118746
30
0
41
1
10
20.3632340708466
20
3.45785505511995
30
0
41
1
10
20.9039520576955
20
3.511073424822
30
0
0
SPLINE
5
C5
100
AcDbEntity
8
1
62
256
6
ByLayer
370
13
48
1
60
0
100
AcDbSpline
70
4
71
3
72
8
73
4
40
0
40
0
40
0
40
0
40
1
40
1
40
1
40
1
41
1
10
9.57210835441745
20
1.80533635562824
30
0
41
1
10
9.49200155804087
20
2.29874893030268
30
0
41
1
10
9.4119805312537
20
2.79217568896945
30
0
41
1
10
9.33202677751586
20
3.28561353432664
30
0
0
SPLINE
5
C6
100
AcDbEntity
8
1
62
256
6
ByLayer
370
13
48
1
60
0
100
AcDbSpline
70
4
71
5
72
12
73
6
40
0
40
0
40
0
40
0
40
0
40
0
40
1
40
1
40
1
40
1
40
1
40
1
41
1
10
25.1716586517402
20
3.30337680045818
30
0
41
1
10
25.1739725965972
20
3.30778149005963
30
0
41
1
10
25.1422033297603
20
3.30287296602046
30
0
41
1
10
25.0776857775139
20
3.28838804870128
30
0
41
1
10
24.9715494393981
20
3.27175271608962
30
0
41
1
10
24.8277275366374
20
3.26578833765987
30
0
0
SPLINE
5
C7
100
AcDbEntity
8
1
62
256
6
ByLayer
370
13
48
1
60
0
100
AcDbSpline
70
4
71
5
72
16
73
10
40
0
40
0
40
0
40
0
40
0
40
0
40
0.999988154021738
40
0.999988154021738
40
0.999988154021738
40
0.999988154021738
40
1
40
1
40
1
40
1
40
1
40
1
41
1
10
24.0609009216624
20
2.71473669290137
30
0
41
1
10
24.1522097849722
20
2.72937628173403
30
0
41
1
10
24.2549744782445
20
2.74283026315018
30
0
41
1
10
24.364866468459
20
2.75439003478292
30
0
41
1
10
24.4684463016817
20
2.76252497070618
30
0
41
1
10
24.5588785475602
20
2.7670226004274
30
0
41
1
10
24.5588885362141
20
2.76702309721088
30
0
41
1
10
24.5588985248681
20
2.76702359399357
30
0
41
1
10
24.5589085135227
20
2.76702409076205
30
0
41
1
10
24.5589185021774
20
2.7670245875301
30
0
0
SPLINE
5
C8
100
AcDbEntity
8
1
62
256
6
ByLayer
370
13
48
1
60
0
100
AcDbSpline
70
4
71
3
72
8
73
4
40
0
40
0
40
0
40
0
40
1
40
1
40
1
40
1
41
1
10
25.1762595089454
20
3.32452079038293
30
0
41
1
10
25.0707104936217
20
3.29899241612822
30
0
41
1
10
24.9627424952959
20
3.28195852572199
30
0
41
1
10
24.8544590591194
20
3.27374944418926
30
0
0
SPLINE
5
C9
100
AcDbEntity
8
1
62
256
6
ByLayer
370
13
48
1
60
0
100
AcDbSpline
70
4
71
2
72
6
73
3
40
0
40
0
40
0
40
1
40
1
40
1
41
1
10
26.1347370523965
20
3.09218304705166
30
0
41
1
10
25.8652222589787
20
2.90723113839638
30
0
41
1
10
25.5695355998831
20
2.86844573182825
30
0
0
SPLINE
5
CA
100
AcDbEntity
8
1
62
256
6
ByLayer
370
13
48
1
60
0
100
AcDbSpline
70
4
71
3
72
14
73
10
40
0
40
0
40
0
40
0
40
0.24944459212684
40
0.24944459212684
40
0.58477457457739
40
0.58477457457739
40
0.840106253871406
40
0.840106253871406
40
1
40
1
40
1
40
1
41
1
10
31.6619548051667
20
3.36954514817228
30
0
41
1
10
31.4996738928836
20
3.37598162676764
30
0
41
1
10
31.3373929806026
20
3.38241810536346
30
0
41
1
10
30.9583603454962
20
3.39745151505542
30
0
41
1
10
30.7341678319042
20
3.40611878202626
30
0
41
1
10
30.3534256257752
20
3.41695545182574
30
0
41
1
10
30.1910072093073
20
3.42054605094398
30
0
41
1
10
29.9524711817292
20
3.42410349161648
30
0
41
1
10
29.8651892919325
20
3.42494675851012
30
0
41
1
10
29.7858996531906
20
3.42522740990154
30
0
0
SPLINE
5
CB
100
AcDbEntity
8
1
62
256
6
ByLayer
370
13
48
1
60
0
100
AcDbSpline
70
4
71
5
72
12
73
6
40
0
40
0
40
0
40
0
40
0
40
0
40
1
40
1
40
1
40
1
40
1
40
1
41
1
10
13.2962554511205
20
1.75211158985829
30
0
41
1
10
13.2754265256365
20
1.90067543850458
30
0
41
1
10
13.1990464302256
20
2.04175833942548
30
0
41
1
10
13.0701626327632
20
2.14655033794074
30
0
41
1
10
12.9166098239603
20
2.19241985323069
30
0
41
1
10
12.7671650322202
20
2.18230121481199
30
0
0
SPLINE
5
CC
100
AcDbEntity
8
1
62
256
6
ByLayer
370
13
48
1
60
0
100
AcDbSpline
70
4
71
3
72
9
73
5
40
0
40
0
40
0
40
0
40
0.425871534364883
40
1
40
1
40
1
40
1
41
1
10
24.8098723908709
20
2.782243121671
30
0
41
1
10
24.8211345092809
20
2.87715044750428
30
0
41
1
10
24.8475793817394
20
3.1000048018692
30
0
41
1
10
25.0471226609911
20
3.21246528468726
30
0
41
1
10
25.1616861377356
20
3.27703204913215
30
0
0
SPLINE
5
CD
100
AcDbEntity
8
1
62
256
6
ByLayer
370
13
48
1
60
0
100
AcDbSpline
70
4
71
5
72
17
73
11
40
0
40
0
40
0
40
0
40
0
40
0
40
0.999980762800283
40
0.999980762800283
40
0.999980762800283
40
0.999980762800283
40
0.999980762800283
40
1
40
1
40
1
40
1
40
1
40
1
41
1
10
25.1616817174204
20
3.27697521471143
30
0
41
1
10
25.1303152163086
20
3.22075162414055
30
0
41
1
10
25.1279404024969
20
3.15160168046629
30
0
41
1
10
25.155300083585
20
3.05840081282696
30
0
41
1
10
25.2111619430823
20
2.96194516939215
30
0
41
1
10
25.2930339678248
20
2.9013167907826
30
0
41
1
10
25.2930501073942
20
2.90130496778229
30
0
41
1
10
25.2930339211763
20
2.90131670920437
30
0
41
1
10
25.2930256732383
20
2.90132236536641
30
0
41
1
10
25.2930173056231
20
2.90132784288986
30
0
41
1
10
25.2930089405435
20
2.90133332426228
30
0
0
SPLINE
5
CE
100
AcDbEntity
8
1
62
256
6
ByLayer
370
13
48
1
60
0
100
AcDbSpline
70
4
71
2
72
6
73
3
40
0
40
0
40
0
40
1
40
1
40
1
41
1
10
14.4302059212086
20
1.91255848347555
30
0
41
1
10
14.0203096844138
20
1.87035710027558
30
0
41
1
10
13.5388766821482
20
1.81871400138965
30
0
0
SPLINE
5
CF
100
AcDbEntity
8
1
62
256
6
ByLayer
370
13
48
1
60
0
100
AcDbSpline
70
4
71
2
72
6
73
3
40
0
40
0
40
0
40
1
40
1
40
1
41
1
10
18.0054694328591
20
3.27847827061441
30
0
41
1
10
19.3386301394025
20
3.40367494199296
30
0
41
1
10
20.5991696618118
20
3.52716318217122
30
0
0
SPLINE
5
D0
100
AcDbEntity
8
1
62
256
6
ByLayer
370
13
48
1
60
0
100
AcDbSpline
70
4
71
3
72
8
73
4
40
0
40
0
40
0
40
0
40
1
40
1
40
1
40
1
41
1
10
12.767183674325
20
2.18230154445695
30
0
41
1
10
12.7659102702111
20
2.181478788899
30
0
41
1
10
12.765298455539
20
2.1807006838186
30
0
41
1
10
12.7653473727691
20
2.17996855502957
30
0
0
SPLINE
5
D1
100
AcDbEntity
8
1
62
256
6
ByLayer
370
13
48
1
60
0
100
AcDbSpline
70
4
71
3
72
8
73
4
40
0
40
0
40
0
40
0
40
1
40
1
40
1
40
1
41
1
10
24.0609009198124
20
2.7147367230553
30
0
41
1
10
24.038591524198
20
2.9697415303159
30
0
41
1
10
23.9051865397429
20
3.19466598483496
30
0
41
1
10
23.7769678189236
20
3.19345570119771
30
0
0
SPLINE
5
D2
100
AcDbEntity
8
1
62
256
6
ByLayer
370
13
48
1
60
0
100
AcDbSpline
70
4
71
1
72
4
73
2
40
0
40
0
40
1
40
1
41
1
10
18.0198179962777
20
3.34339121233984
30
0
41
1
10
10.9129441694191
20
2.11774362749173
30
0
0
SPLINE
5
D3
100
AcDbEntity
8
1
62
256
6
ByLayer
370
13
48
1
60
0
100
AcDbSpline
70
4
71
3
72
12
73
8
40
0
40
0
40
0
40
0
40
0.2488703609717
40
0.2488703609717
40
0.623686215928218
40
0.623686215928218
40
1
40
1
40
1
40
1
41
1
10
25.1762485105728
20
3.32456620696655
30
0
41
1
10
25.183720739604
20
3.32637482923551
30
0
41
1
10
25.1912319193584
20
3.3280297691357
30
0
41
1
10
25.2101266067039
20
3.33178166969145
30
0
41
1
10
25.2215567830338
20
3.3336816048967
30
0
41
1
10
25.2445485972813
20
3.33676320855781
30
0
41
1
10
25.2561220746995
20
3.33794351075466
30
0
41
1
10
25.2677155744638
20
3.33875431517072
30
0
0
SPLINE
5
D4
100
AcDbEntity
8
1
62
256
6
ByLayer
370
13
48
1
60
0
100
AcDbSpline
70
4
71
3
72
8
73
4
40
0
40
0
40
0
40
0
40
1
40
1
40
1
40
1
41
1
10
24.8277006773882
20
3.26578612417447
30
0
41
1
10
24.8102162602259
20
3.26497057630547
30
0
41
1
10
24.7923626339185
20
3.2641099266456
30
0
41
1
10
24.7741744461824
20
3.26320592822572
30
0
0
SPLINE
5
D5
100
AcDbEntity
8
1
62
256
6
ByLayer
370
13
48
1
60
0
100
AcDbSpline
70
4
71
2
72
6
73
3
40
0
40
0
40
0
40
1
40
1
40
1
41
1
10
25.5695419452175
20
2.86844641353426
30
0
41
1
10
25.4188032623319
20
2.88392668332057
30
0
41
1
10
25.2930315585792
20
2.90132020045505
30
0
0
SPLINE
5
D6
100
AcDbEntity
8
1
62
256
6
ByLayer
370
13
48
1
60
0
100
AcDbSpline
70
4
71
3
72
8
73
4
40
0
40
0
40
0
40
0
40
1
40
1
40
1
40
1
41
1
10
25.1716675521501
20
3.30337930758367
30
0
41
1
10
25.1683523345452
20
3.29458208933522
30
0
41
1
10
25.1650371169403
20
3.28578487108678
30
0
41
1
10
25.1617218993353
20
3.27698765283833
30
0
0
SPLINE
5
D7
100
AcDbEntity
8
1
62
256
6
ByLayer
370
13
48
1
60
0
100
AcDbSpline
70
4
71
3
72
8
73
4
40
0
40
0
40
0
40
0
40
1
40
1
40
1
40
1
41
1
10
12.6041664599711
20
2.16873409377035
30
0
41
1
10
12.6134714881618
20
2.16936157778099
30
0
41
1
10
12.6227766399114
20
2.17000070002734
30
0
41
1
10
12.6320818849779
20
2.17065145720477
30
0
0
SPLINE
5
D8
100
AcDbEntity
8
1
62
256
6
ByLayer
370
13
48
1
60
0
100
AcDbSpline
70
4
71
5
72
12
73
6
40
0
40
0
40
0
40
0
40
0
40
0
40
1
40
1
40
1
40
1
40
1
40
1
41
1
10
13.5388791393068
20
1.81868015159438
30
0
41
1
10
13.5256098453976
20
1.95103958936869
30
0
41
1
10
13.4903300030832
20
2.08173589748131
30
0
41
1
10
13.434781685787
20
2.19088410011571
30
0
41
1
10
13.3681731851235
20
2.26039048807434
30
0
41
1
10
13.3006496783039
20
2.28678270136655
30
0
0
SPLINE
5
D9
100
AcDbEntity
8
1
62
256
6
ByLayer
370
13
48
1
60
0
100
AcDbSpline
70
4
71
3
72
8
73
4
40
0
40
0
40
0
40
0
40
1
40
1
40
1
40
1
41
1
10
18.0053658393757
20
3.27939679341262
30
0
41
1
10
17.9953613502904
20
3.27781388939283
30
0
41
1
10
17.9853608285629
20
3.27619548492973
30
0
41
1
10
17.9753648187091
20
3.27454160814088
30
0
0
SPLINE
5
DA
100
AcDbEntity
8
1
62
256
6
ByLayer
370
13
48
1
60
0
100
AcDbSpline
70
4
71
3
72
8
73
4
40
0
40
0
40
0
40
0
40
1
40
1
40
1
40
1
41
1
10
13.300645220155
20
2.28678456133346
30
0
41
1
10
13.6020789902179
20
2.3174103168632
30
0
41
1
10
13.9035127602809
20
2.34803607239291
30
0
41
1
10
14.2049465303439
20
2.37866182792263
30
0
0
SPLINE
5
DB
100
AcDbEntity
8
1
62
256
6
ByLayer
370
13
48
1
60
0
100
AcDbSpline
70
4
71
3
72
8
73
4
40
0
40
0
40
0
40
0
40
1
40
1
40
1
40
1
41
1
10
31.6619960767758
20
4.87031567505272
30
0
41
1
10
31.6619823195671
20
4.37005883275947
30
0
41
1
10
31.6619685623585
20
3.86980199046619
30
0
41
1
10
31.66195480515
20
3.3695451481729
30
0
0
SPLINE
5
DC
100
AcDbEntity
8
1
62
256
6
ByLayer
370
13
48
1
60
0
100
AcDbSpline
70
4
71
5
72
12
73
6
40
0
40
0
40
0
40
0
40
0
40
0
40
1
40
1
40
1
40
1
40
1
40
1
41
1
10
18.0673594262605
20
3.34865293865818
30
0
41
1
10
18.056088153532
20
3.34805891129716
30
0
41
1
10
18.0448508945189
20
3.34707142574254
30
0
41
1
10
18.0336433986225
20
3.34568904932138
30
0
41
1
10
18.0225047628563
20
3.3439164221295
30
0
41
1
10
18.0114305322663
20
3.34175394370342
30
0
0
SPLINE
5
DD
100
AcDbEntity
8
1
62
256
6
ByLayer
370
13
48
1
60
0
100
AcDbSpline
70
4
71
3
72
12
73
8
40
0
40
0
40
0
40
0
40
0.248870360971559
40
0.248870360971559
40
0.623686215928145
40
0.623686215928145
40
1
40
1
40
1
40
1
41
1
10
12.4396232758823
20
2.19537589887318
30
0
41
1
10
12.435736929659
20
2.19661991379812
30
0
41
1
10
12.4318473751296
20
2.19770815079244
30
0
41
1
10
12.4221060180293
20
2.20003662304737
30
0
41
1
10
12.4162517189696
20
2.20107738905145
30
0
41
1
10
12.4045531547154
20
2.20243461871431
30
0
41
1
10
12.3987031741072
20
2.2027488435034
30
0
41
1
10
12.3928819105577
20
2.20269400284633
30
0
0
SPLINE
5
DE
100
AcDbEntity
8
1
62
256
6
ByLayer
370
13
48
1
60
0
100
AcDbSpline
70
4
71
5
72
12
73
6
40
0
40
0
40
0
40
0
40
0
40
0
40
1
40
1
40
1
40
1
40
1
40
1
41
1
10
17.9759741201809
20
3.27417500396936
30
0
41
1
10
17.2375783401085
20
3.12659464791412
30
0
41
1
10
16.4785093966564
20
2.97782081996954
30
0
41
1
10
15.6995549182673
20
2.82801494225535
30
0
41
1
10
14.9015683404215
20
2.67734523095933
30
0
41
1
10
14.0854273518494
20
2.52597825908546
30
0
0
SPLINE
5
DF
100
AcDbEntity
8
1
62
256
6
ByLayer
370
13
48
1
60
0
100
AcDbSpline
70
4
71
5
72
12
73
6
40
0
40
0
40
0
40
0
40
0
40
0
40
1
40
1
40
1
40
1
40
1
40
1
41
1
10
13.3006496790813
20
2.2867827014469
30
0
41
1
10
13.140393098048
20
2.27022069519529
30
0
41
1
10
12.9977022789218
20
2.24689070764796
30
0
41
1
10
12.8796969959657
20
2.21744679455853
30
0
41
1
10
12.7966549465069
20
2.19080805741734
30
0
41
1
10
12.7671619180235
20
2.18230067254416
30
0
0
SPLINE
5
E0
100
AcDbEntity
8
1
62
256
6
ByLayer
370
13
48
1
60
0
100
AcDbSpline
70
4
71
3
72
9
73
5
40
0
40
0
40
0
40
0
40
0.50534622906132
40
1
40
1
40
1
40
1
41
1
10
18.1163088486694
20
3.24254900689954
30
0
41
1
10
17.4823962643229
20
3.11731473771215
30
0
41
1
10
16.2279838478614
20
2.86949599090954
30
0
41
1
10
14.8760965666907
20
2.61690250256649
30
0
41
1
10
14.2073804251755
20
2.49195618104304
30
0
0
SPLINE
5
E1
100
AcDbEntity
8
1
62
256
6
ByLayer
370
13
48
1
60
0
100
AcDbSpline
70
4
71
3
72
8
73
4
40
0
40
0
40
0
40
0
40
1
40
1
40
1
40
1
41
1
10
17.6758640618116
20
3.27169502433668
30
0
41
1
10
17.7757312909392
20
3.27263769225615
30
0
41
1
10
17.8755985200668
20
3.27358036017563
30
0
41
1
10
17.9754657491944
20
3.27452302809513
30
0
0
SPLINE
5
E2
100
AcDbEntity
8
1
62
256
6
ByLayer
370
13
48
1
60
0
100
AcDbSpline
70
4
71
5
72
12
73
6
40
0
40
0
40
0
40
0
40
0
40
0
40
1
40
1
40
1
40
1
40
1
40
1
41
1
10
12.4396005086844
20
2.19537924959576
30
0
41
1
10
12.7573705057351
20
2.25281505831731
30
0
41
1
10
13.1269096778147
20
2.31333300737416
30
0
41
1
10
13.4744430156588
20
2.37202362820534
30
0
41
1
10
13.8445470775797
20
2.43227957623975
30
0
41
1
10
14.20738374563
20
2.49195723030414
30
0
0
SPLINE
5
E3
100
AcDbEntity
8
1
62
256
6
ByLayer
370
13
48
1
60
0
100
AcDbSpline
70
4
71
5
72
12
73
6
40
0
40
0
40
0
40
0
40
0
40
0
40
1
40
1
40
1
40
1
40
1
40
1
41
1
10
13.2953369729462
20
1.75101424375919
30
0
41
1
10
13.2744706913548
20
1.8995372470294
30
0
41
1
10
13.1979622159309
20
2.04044197490345
30
0
41
1
10
13.0688641670032
20
2.144929533251
30
0
41
1
10
12.9150519373666
20
2.19043865171395
30
0
41
1
10
12.7653472428851
20
2.17997027787462
30
0
0
SPLINE
5
E4
100
AcDbEntity
8
1
62
256
6
ByLayer
370
13
48
1
60
0
100
AcDbSpline
70
4
71
1
72
4
73
2
40
0
40
0
40
1
40
1
41
1
10
17.7059003715742
20
3.27664048416247
30
0
41
1
10
17.6584512785624
20
3.27069765858076
30
0
0
SPLINE
5
E5
100
AcDbEntity
8
1
62
256
6
ByLayer
370
13
48
1
60
0
100
AcDbSpline
70
4
71
5
72
12
73
6
40
0
40
0
40
0
40
0
40
0
40
0
40
1
40
1
40
1
40
1
40
1
40
1
41
1
10
24.5856774719712
20
2.76824596579803
30
0
41
1
10
24.580982876797
20
2.91821898490363
30
0
41
1
10
24.6073918252106
20
3.06827959803454
30
0
41
1
10
24.6663555350479
20
3.18947843837003
30
0
41
1
10
24.7451398412593
20
3.25564058322104
30
0
41
1
10
24.8277339994468
20
3.26578853206331
30
0
0
SPLINE
5
E6
100
AcDbEntity
8
1
62
256
6
ByLayer
370
13
48
1
60
0
100
AcDbSpline
70
4
71
5
72
12
73
6
40
0
40
0
40
0
40
0
40
0
40
0
40
1
40
1
40
1
40
1
40
1
40
1
41
1
10
14.0854273047345
20
2.52597825034701
30
0
41
1
10
14.1094322581606
20
2.5268999115892
30
0
41
1
10
14.133950288057
20
2.52391969301397
30
0
41
1
10
14.1586657224718
20
2.51702506314013
30
0
41
1
10
14.1832493291452
20
2.50630786475475
30
0
41
1
10
14.2073837269119
20
2.49195722617441
30
0
0
SPLINE
5
E7
100
AcDbEntity
8
1
62
256
6
ByLayer
370
13
48
1
60
0
100
AcDbSpline
70
4
71
3
72
8
73
4
40
0
40
0
40
0
40
0
40
1
40
1
40
1
40
1
41
1
10
29.7885765067007
20
4.74999455398864
30
0
41
1
10
29.8036469242404
20
4.75067700951178
30
0
41
1
10
29.8181497967974
20
4.75128964992771
30
0
41
1
10
29.831949147699
20
4.7518266916191
30
0
0
SPLINE
5
E8
100
AcDbEntity
8
1
62
256
6
ByLayer
370
13
48
1
60
0
100
AcDbSpline
70
4
71
1
72
4
73
2
40
0
40
0
40
1
40
1
41
1
10
22.3372726698215
20
3.06330364236919
30
0
41
1
10
22.8872083045311
20
3.11319802035933
30
0
0
SPLINE
5
E9
100
AcDbEntity
8
1
62
256
6
ByLayer
370
13
48
1
60
0
100
AcDbSpline
70
4
71
5
72
12
73
6
40
0
40
0
40
0
40
0
40
0
40
0
40
1
40
1
40
1
40
1
40
1
40
1
41
1
10
14.0854167874711
20
2.52597627883895
30
0
41
1
10
13.7363589376074
20
2.46103916024279
30
0
41
1
10
13.3798477069504
20
2.39546276936892
30
0
41
1
10
13.0475917292787
20
2.3314689546774
30
0
41
1
10
12.6933566054868
20
2.26559588613154
30
0
41
1
10
12.3928771187481
20
2.20269350699175
30
0
0
SPLINE
5
EA
100
AcDbEntity
8
1
62
256
6
ByLayer
370
13
48
1
60
0
100
AcDbSpline
70
4
71
5
72
12
73
6
40
0
40
0
40
0
40
0
40
0
40
0
40
1
40
1
40
1
40
1
40
1
40
1
41
1
10
22.6256785808258
20
2.58498828019242
30
0
41
1
10
22.6122488108758
20
2.73794710423033
30
0
41
1
10
22.5689927894827
20
2.88876008180847
30
0
41
1
10
22.4980643709626
20
3.00640184595395
30
0
41
1
10
22.4155718737668
20
3.0641551648647
30
0
41
1
10
22.337292238642
20
3.06330541679267
30
0
0
SPLINE
5
EB
100
AcDbEntity
8
1
62
256
6
ByLayer
370
13
48
1
60
0
100
AcDbSpline
70
4
71
5
72
16
73
10
40
0
40
0
40
0
40
0
40
0
40
0
40
8.9427796521E-06
40
8.9427796521E-06
40
8.9427796521E-06
40
8.9427796521E-06
40
1
40
1
40
1
40
1
40
1
40
1
41
1
10
24.8081233253477
20
2.77858779944558
30
0
41
1
10
24.8081332858986
20
2.77858869801429
30
0
41
1
10
24.8081432464495
20
2.77858959658317
30
0
41
1
10
24.8081532070001
20
2.77859049515575
30
0
41
1
10
24.8081631675507
20
2.77859139372865
30
0
41
1
10
24.9884927651961
20
2.79485950131021
30
0
41
1
10
25.1411458672423
20
2.81082440025605
30
0
41
1
10
25.2502162671123
20
2.82514483748852
30
0
41
1
10
25.3044647051561
20
2.83617301390757
30
0
41
1
10
25.3041809070666
20
2.84357225621017
30
0
0
SPLINE
5
EC
100
AcDbEntity
8
1
62
256
6
ByLayer
370
13
48
1
60
0
100
AcDbSpline
70
4
71
3
72
9
73
5
40
0
40
0
40
0
40
0
40
0.442785787555747
40
1
40
1
40
1
40
1
41
1
10
23.1713811386368
20
2.63449725802261
30
0
41
1
10
23.1498598898201
20
2.74948285269502
30
0
41
1
10
23.1012556901789
20
3.009169585883
30
0
41
1
10
22.9638125911703
20
3.07587884825489
30
0
41
1
10
22.8872273430004
20
3.11305019735022
30
0
0
SPLINE
5
ED
100
AcDbEntity
8
1
62
256
6
ByLayer
370
13
48
1
60
0
100
AcDbSpline
70
4
71
3
72
8
73
4
40
0
40
0
40
0
40
0
40
1
40
1
40
1
40
1
41
1
10
24.8544632681021
20
3.27374933767234
30
0
41
1
10
24.8498260882617
20
3.27311922705999
30
0
41
1
10
24.8451903963432
20
3.27250067474725
30
0
41
1
10
24.8405562616259
20
3.27189368203889
30
0
0
SPLINE
5
EE
100
AcDbEntity
8
1
62
256
6
ByLayer
370
13
48
1
60
0
100
AcDbSpline
70
4
71
1
72
4
73
2
40
0
40
0
40
1
40
1
41
1
10
29.4526574543755
20
3.43237495609412
30
0
41
1
10
29.4527697123636
20
3.43558378011463
30
0
0
SPLINE
5
EF
100
AcDbEntity
8
1
62
256
6
ByLayer
370
13
48
1
60
0
100
AcDbSpline
70
4
71
1
72
4
73
2
40
0
40
0
40
1
40
1
41
1
10
12.76716851478
20
2.18230145485626
30
0
41
1
10
12.6320843091763
20
2.17065099603266
30
0
0
SPLINE
5
F0
100
AcDbEntity
8
1
62
256
6
ByLayer
370
13
48
1
60
0
100
AcDbSpline
70
4
71
5
72
17
73
11
40
0
40
0
40
0
40
0
40
0
40
0
40
0.999980762800955
40
0.999980762800955
40
0.999980762800955
40
0.999980762800955
40
0.999980762800955
40
1
40
1
40
1
40
1
40
1
40
1
41
1
10
14.2049678086072
20
2.37865245262489
30
0
41
1
10
15.8580572753489
20
2.53868571807905
30
0
41
1
10
17.4986369993075
20
2.68376903262515
30
0
41
1
10
19.1269303532678
20
2.80270555565522
30
0
41
1
10
20.7407956378105
20
2.91619931128483
30
0
41
1
10
22.3373121562047
20
3.06330725380553
30
0
41
1
10
22.3372975977972
20
3.06330591103864
30
0
41
1
10
22.33728763913
20
3.06330499182761
30
0
41
1
10
22.3372776804971
20
3.06330407224436
30
0
41
1
10
22.3372677218796
20
3.06330315249619
30
0
41
1
10
22.337257763262
20
3.06330223274816
30
0
0
SPLINE
5
F1
100
AcDbEntity
8
1
62
256
6
ByLayer
370
13
48
1
60
0
100
AcDbSpline
70
4
71
2
72
6
73
3
40
0
40
0
40
0
40
1
40
1
40
1
41
1
10
24.8098724150185
20
2.7822424300517
30
0
41
1
10
24.8088959203576
20
2.79360217793328
30
0
41
1
10
24.8078205862139
20
2.80488607416089
30
0
0
SPLINE
5
F2
100
AcDbEntity
8
1
62
256
6
ByLayer
370
13
48
1
60
0
100
AcDbSpline
70
4
71
2
72
6
73
3
40
0
40
0
40
0
40
1
40
1
40
1
41
1
10
23.4877002872093
20
3.17814178607452
30
0
41
1
10
22.9208207851588
20
3.12096805052366
30
0
41
1
10
22.3372715548675
20
3.06330360279293
30
0
0
SPLINE
5
F3
100
AcDbEntity
8
1
62
256
6
ByLayer
370
13
48
1
60
0
100
AcDbSpline
70
4
71
1
72
4
73
2
40
0
40
0
40
1
40
1
41
1
10
25.2930300554729
20
2.90132008076017
30
0
41
1
10
25.3017051616977
20
2.8794805149615
30
0
0
SPLINE
5
F4
100
AcDbEntity
8
1
62
256
6
ByLayer
370
13
48
1
60
0
100
AcDbSpline
70
4
71
1
72
4
73
2
40
0
40
0
40
1
40
1
41
1
10
29.7858775760175
20
3.42522904979771
30
0
41
1
10
29.8319491464617
20
4.7518266915709
30
0
0
SPLINE
5
F5
100
AcDbEntity
8
1
62
256
6
ByLayer
370
13
48
1
60
0
100
AcDbSpline
70
4
71
3
72
8
73
4
40
0
40
0
40
0
40
0
40
1
40
1
40
1
40
1
41
1
10
18.1156651461627
20
3.24308627298402
30
0
41
1
10
18.0798265355567
20
3.266804876934
30
0
41
1
10
18.0419279375599
20
3.27915313344758
30
0
41
1
10
18.0053658393757
20
3.27939679341262
30
0
0
SPLINE
5
F6
100
AcDbEntity
8
1
62
256
6
ByLayer
370
13
48
1
60
0
100
AcDbSpline
70
4
71
3
72
12
73
8
40
0
40
0
40
0
40
0
40
0.249655416958634
40
0.499588084184672
40
0.532326173008825
40
0.766368979457892
40
1
40
1
40
1
40
1
41
1
10
24.8078224786111
20
2.80483184886523
30
0
41
1
10
24.8048378632435
20
2.8059662281338
30
0
41
1
10
24.7988653179982
20
2.80823624643517
30
0
41
1
10
24.7658509249402
20
2.79828925612893
30
0
41
1
10
24.7251594596213
20
2.78781788974791
30
0
41
1
10
24.677077737429
20
2.77590644182135
30
0
41
1
10
24.6161241832517
20
2.7707979669263
30
0
41
1
10
24.5856742409067
20
2.76824597847994
30
0
0
SPLINE
5
F7
100
AcDbEntity
8
1
62
256
6
ByLayer
370
13
48
1
60
0
100
AcDbSpline
70
4
71
3
72
8
73
4
40
0
40
0
40
0
40
0
40
1
40
1
40
1
40
1
41
1
10
17.706032572361
20
3.27565169254098
30
0
41
1
10
17.695939507467
20
3.27474126642207
30
0
41
1
10
17.68587508496
20
3.27342129385082
30
0
41
1
10
17.6758640829638
20
3.27169502453626
30
0
0
SPLINE
5
F8
100
AcDbEntity
8
1
62
256
6
ByLayer
370
13
48
1
60
0
100
AcDbSpline
70
4
71
3
72
11
73
7
40
0
40
0
40
0
40
0
40
0.249714668212374
40
0.499706652508367
40
0.750031862958524
40
1
40
1
40
1
40
1
41
1
10
13.5388807674694
20
1.81865983260471
30
0
41
1
10
13.5049316267816
20
1.81535825027501
30
0
41
1
10
13.4369956438052
20
1.8087514191034
30
0
41
1
10
13.3629168647538
20
1.78580199384805
30
0
41
1
10
13.3118686798749
20
1.7618587137606
30
0
41
1
10
13.3014563406941
20
1.75535897730794
30
0
41
1
10
13.296253886893
20
1.75211142860377
30
0
0
SPLINE
5
F9
100
AcDbEntity
8
1
62
256
6
ByLayer
370
13
48
1
60
0
100
AcDbSpline
70
4
71
5
72
12
73
6
40
0
40
0
40
0
40
0
40
0
40
0
40
1
40
1
40
1
40
1
40
1
40
1
41
1
10
24.8078217689439
20
2.80485220148304
30
0
41
1
10
24.8031858346168
20
2.93777634131339
30
0
41
1
10
24.8426879405432
20
3.07232551640135
30
0
41
1
10
24.927524318575
20
3.1885672730632
30
0
41
1
10
25.0436315983873
20
3.26723199890716
30
0
41
1
10
25.1716586517515
20
3.30337680047967
30
0
0
SPLINE
5
FA
100
AcDbEntity
8
1
62
256
6
ByLayer
370
13
48
1
60
0
100
AcDbSpline
70
4
71
5
72
12
73
6
40
0
40
0
40
0
40
0
40
0
40
0
40
1
40
1
40
1
40
1
40
1
40
1
41
1
10
14.4302071058249
20
1.91254618775176
30
0
41
1
10
16.075697270536
20
2.07552401335988
30
0
41
1
10
17.7169702430272
20
2.21983585018438
30
0
41
1
10
19.3562010314692
20
2.33144075080571
30
0
41
1
10
20.9931564206299
20
2.43697521058189
30
0
41
1
10
22.6256695708625
20
2.5849874633011
30
0
0
SPLINE
5
FB
100
AcDbEntity
8
1
62
256
6
ByLayer
370
13
48
1
60
0
100
AcDbSpline
70
4
71
1
72
4
73
2
40
0
40
0
40
1
40
1
41
1
10
24.8277321795941
20
3.26578830078282
30
0
41
1
10
24.84054962328
20
3.27189342865367
30
0
0
SPLINE
5
FC
100
AcDbEntity
8
1
62
256
6
ByLayer
370
13
48
1
60
0
100
AcDbSpline
70
4
71
3
72
8
73
4
40
0
40
0
40
0
40
0
40
1
40
1
40
1
40
1
41
1
10
17.67586406181
20
3.27169502433659
30
0
41
1
10
17.670018839319
20
3.27163984905823
30
0
41
1
10
17.6642267723249
20
3.27118044193651
30
0
41
1
10
17.6585020482543
20
3.27031792826998
30
0
0
SPLINE
5
FD
100
AcDbEntity
8
1
62
256
6
ByLayer
370
13
48
1
60
0
100
AcDbSpline
70
4
71
3
72
8
73
4
40
0
40
0
40
0
40
0
40
1
40
1
40
1
40
1
41
1
10
12.4396225813128
20
2.19532990107999
30
0
41
1
10
12.4945171672165
20
2.17777679075453
30
0
41
1
10
12.549720733365
20
2.16885376131387
30
0
41
1
10
12.6041579080166
20
2.16873312156878
30
0
0
SPLINE
5
FE
100
AcDbEntity
8
1
62
256
6
ByLayer
370
13
48
1
60
0
100
AcDbSpline
70
4
71
2
72
6
73
3
40
0
40
0
40
0
40
1
40
1
40
1
41
1
10
22.3212945167741
20
3.24568249255466
30
0
41
1
10
22.8938107758416
20
3.13668437128544
30
0
41
1
10
23.4877093505491
20
3.17814234562917
30
0
0
SPLINE
5
FF
100
AcDbEntity
8
1
62
256
6
ByLayer
370
13
48
1
60
0
100
AcDbSpline
70
4
71
3
72
8
73
4
40
0
40
0
40
0
40
0
40
1
40
1
40
1
40
1
41
1
10
18.115497536327
20
3.24298265867679
30
0
41
1
10
18.0697383886394
20
3.26615608705785
30
0
41
1
10
18.0219914343406
20
3.27683121485563
30
0
41
1
10
17.9759778691531
20
3.27417575326197
30
0
0
SPLINE
5
100
100
AcDbEntity
8
1
62
256
6
ByLayer
370
13
48
1
60
0
100
AcDbSpline
70
4
71
3
72
12
73
8
40
0
40
0
40
0
40
0
40
0.260763522617879
40
0.260763522617879
40
0.521414228342379
40
0.521414228342379
40
1
40
1
40
1
40
1
41
1
10
29.8319713535808
20
4.75182911981932
30
0
41
1
10
29.9573211800052
20
4.75671125401018
30
0
41
1
10
30.1035699022561
20
4.76376322399361
30
0
41
1
10
30.4132889314982
20
4.7810047109424
30
0
41
1
10
30.5809896663585
20
4.79142821592876
30
0
41
1
10
31.0541558827742
20
4.82365950437855
30
0
41
1
10
31.3584864705998
20
4.84756347951233
30
0
41
1
10
31.6619960767604
20
4.87031567505113
30
0
0
SPLINE
5
101
100
AcDbEntity
8
1
62
256
6
ByLayer
370
13
48
1
60
0
100
AcDbSpline
70
4
71
3
72
10
73
6
40
0
40
0
40
0
40
0
40
0.338402826579667
40
0.671818658340852
40
1
40
1
40
1
40
1
41
1
10
14.2074115166304
20
2.4919603032977
30
0
41
1
10
15.1754538240959
20
2.5777143389422
30
0
41
1
10
17.0972725358127
20
2.74795866507947
30
0
41
1
10
19.8097103282206
20
3.00008298916512
30
0
41
1
10
21.4885229857243
20
3.16424993947237
30
0
41
1
10
22.3212880162724
20
3.24568397845016
30
0
0
SPLINE
5
102
100
AcDbEntity
8
1
62
256
6
ByLayer
370
13
48
1
60
0
100
AcDbSpline
70
4
71
5
72
12
73
6
40
0
40
0
40
0
40
0
40
0
40
0
40
1
40
1
40
1
40
1
40
1
40
1
41
1
10
24.558916727082
20
2.767024499211
30
0
41
1
10
24.5536727888061
20
2.91695668120434
30
0
41
1
10
24.5765208227033
20
3.0668236759993
30
0
41
1
10
24.6289650044556
20
3.18768691517116
30
0
41
1
10
24.699681371728
20
3.25344922162489
30
0
41
1
10
24.7742172794839
20
3.26320805774239
30
0
0
SPLINE
5
103
100
AcDbEntity
8
1
62
256
6
ByLayer
370
13
48
1
60
0
100
AcDbSpline
70
4
71
5
72
12
73
6
40
0
40
0
40
0
40
0
40
0
40
0
40
1
40
1
40
1
40
1
40
1
40
1
41
1
10
24.5589006377275
20
2.76702456393826
30
0
41
1
10
24.5643592862506
20
2.76729604014989
30
0
41
1
10
24.5697680450374
20
2.76755410212402
30
0
41
1
10
24.5751251413154
20
2.76779864577006
30
0
41
1
10
24.5804288399339
20
2.76802958070869
30
0
41
1
10
24.5856774449384
20
2.76824682939864
30
0
0
SPLINE
5
104
100
AcDbEntity
8
1
62
256
6
ByLayer
370
13
48
1
60
0
100
AcDbSpline
70
4
71
5
72
16
73
10
40
0
40
0
40
0
40
0
40
0
40
0
40
8.9427746269E-06
40
8.9427746269E-06
40
8.9427746269E-06
40
8.9427746269E-06
40
1
40
1
40
1
40
1
40
1
40
1
41
1
10
24.7741992767403
20
3.26320716273094
30
0
41
1
10
24.7741892880776
20
3.26320666612355
30
0
41
1
10
24.774179299415
20
3.263206169516
30
0
41
1
10
24.7741693107525
20
3.26320567290483
30
0
41
1
10
24.77415932209
20
3.2632051762933
30
0
41
1
10
24.5932761043589
20
3.25421210957751
30
0
41
1
10
24.3859856607615
20
3.241719278322
30
0
41
1
10
24.1659292616288
20
3.22631148305663
30
0
41
1
10
23.9600336001361
20
3.20995938208455
30
0
41
1
10
23.7769673871344
20
3.19345566224897
30
0
0
SPLINE
5
105
100
AcDbEntity
8
1
62
256
6
ByLayer
370
13
48
1
60
0
100
AcDbSpline
70
4
71
5
72
12
73
6
40
0
40
0
40
0
40
0
40
0
40
0
40
1
40
1
40
1
40
1
40
1
40
1
41
1
10
22.3212939651937
20
3.24567960081436
30
0
41
1
10
22.0379930598396
20
3.2996531269533
30
0
41
1
10
21.754608980445
20
3.35318849227795
30
0
41
1
10
21.4711409516657
20
3.40627661593157
30
0
41
1
10
21.1875879384433
20
3.45890807245891
30
0
41
1
10
20.9039488955229
20
3.51107302414053
30
0
0
SPLINE
5
106
100
AcDbEntity
8
1
62
256
6
ByLayer
370
13
48
1
60
0
100
AcDbSpline
70
4
71
3
72
8
73
4
40
0
40
0
40
0
40
0
40
1
40
1
40
1
40
1
41
1
10
20.9039556582254
20
3.5110737791922
30
0
41
1
10
20.8023603260872
20
3.51643691352658
30
0
41
1
10
20.700764993949
20
3.52180004786098
30
0
41
1
10
20.5991696618107
20
3.52716318219535
30
0
0
SPLINE
5
107
100
AcDbEntity
8
1
62
256
6
ByLayer
370
13
48
1
60
0
100
AcDbSpline
70
4
71
3
72
9
73
5
40
0
40
0
40
0
40
0
40
0.425871535271102
40
1
40
1
40
1
40
1
41
1
10
14.4302058518919
20
1.91255917212047
30
0
41
1
10
14.4142799269656
20
2.00607987787154
30
0
41
1
10
14.3768838494933
20
2.22567827317533
30
0
41
1
10
14.2676647318793
20
2.32289415799863
30
0
41
1
10
14.2049589275646
20
2.37870856469951
30
0
0
SPLINE
5
108
100
AcDbEntity
8
1
62
256
6
ByLayer
370
13
48
1
60
0
100
AcDbSpline
70
4
71
3
72
8
73
4
40
0
40
0
40
0
40
0
40
1
40
1
40
1
40
1
41
1
10
23.1711594162615
20
2.63447816620376
30
0
41
1
10
22.9894096894318
20
2.61798759802736
30
0
41
1
10
22.8075796778497
20
2.60149064328766
30
0
41
1
10
22.6256695831142
20
2.58498732024177
30
0
0
SPLINE
5
109
100
AcDbEntity
8
1
62
256
6
ByLayer
370
13
48
1
60
0
100
AcDbSpline
70
4
71
3
72
18
73
14
40
0
40
0
40
0
40
0
40
0.0089477727217393
40
0.0089477727217393
40
0.0205509304464286
40
0.0205509304464286
40
0.0415156227169656
40
0.0415156227169656
40
0.112513791209194
40
0.112513791209194
40
0.450146522201179
40
0.450146522201179
40
1
40
1
40
1
40
1
41
1
10
29.4527704577837
20
3.43560001917581
30
0
41
1
10
29.4569421999624
20
3.43536358228073
30
0
41
1
10
29.4612092143385
20
3.43591830775048
30
0
41
1
10
29.4704052815932
20
3.43864671085097
30
0
41
1
10
29.4753131875776
20
3.44124551674761
30
0
41
1
10
29.4877709981537
20
3.44989584984759
30
0
41
1
10
29.4946371548724
20
3.45711627450288
30
0
41
1
10
29.5212845228417
20
3.49023829370324
30
0
41
1
10
29.5353209820199
20
3.52068024748525
30
0
41
1
10
29.6078628788424
20
3.69409255059767
30
0
41
1
10
29.6382972830442
20
3.84840435543373
30
0
41
1
10
29.7182003485308
20
4.2486897889236
30
0
41
1
10
29.7551569052452
20
4.49924143108933
30
0
41
1
10
29.7885765067007
20
4.74999455398827
30
0
0
SPLINE
5
10A
100
AcDbEntity
8
1
62
256
6
ByLayer
370
13
48
1
60
0
100
AcDbSpline
70
4
71
5
72
12
73
6
40
0
40
0
40
0
40
0
40
0
40
0
40
1
40
1
40
1
40
1
40
1
40
1
41
1
10
13.2953369014031
20
1.75101445282894
30
0
41
1
10
13.2953202611819
20
1.75123409235189
30
0
41
1
10
13.2954036867334
20
1.75145378007687
30
0
41
1
10
13.2955873286968
20
1.75167344762778
30
0
41
1
10
13.2958712291877
20
1.75189302589104
30
0
41
1
10
13.2962553311791
20
1.75211244534401
30
0
0
LINE
5
72
100
AcDbEntity
8
80
62
256
6
ByLayer
370
18
48
1
60
0
100
AcDbLine
10
0
20
0
30
0
11
-5
21
0
31
0
39
0
210
0
220
0
230
1
0
LINE
5
73
100
AcDbEntity
8
81
62
256
6
ByLayer
370
18
48
1
60
0
100
AcDbLine
10
26.651424
20
5
30
0
11
36.651424
21
5
31
0
39
0
210
0
220
0
230
1
0
LINE
5
74
100
AcDbEntity
8
1
62
256
6
ByLayer
370
18
48
1
60
0
100
AcDbLine
10
23.305158
20
4.29662
30
0
11
23.289844
21
4.515627
31
0
39
0
210
0
220
0
230
1
0
LINE
5
76
100
AcDbEntity
8
1
62
256
6
ByLayer
370
13
48
1
60
0
100
AcDbLine
10
13.295336
20
1.75095
30
0
11
13.311415
21
1.636504
31
0
39
0
210
0
220
0
230
1
0
LINE
5
77
100
AcDbEntity
8
1
62
256
6
ByLayer
370
18
48
1
60
0
100
AcDbLine
10
18.052633
20
4.149405
30
0
11
18.067947
21
3.930398
31
0
39
0
210
0
220
0
230
1
0
LINE
5
78
100
AcDbEntity
8
1
62
256
6
ByLayer
370
18
48
1
60
0
100
AcDbLine
10
10.45748
20
1.501472
30
0
11
9.956533
21
1.871078
31
0
39
0
210
0
220
0
230
1
0
LINE
5
79
100
AcDbEntity
8
1
62
256
6
ByLayer
370
18
48
1
60
0
100
AcDbLine
10
9.507699
20
2.202234
30
0
11
5.876084
21
4.881694
31
0
39
0
210
0
220
0
230
1
0
LINE
5
7A
100
AcDbEntity
8
1
62
256
6
ByLayer
370
18
48
1
60
0
100
AcDbLine
10
23.289844
20
4.515619
30
0
11
23.289844
21
4.515627
31
0
39
0
210
0
220
0
230
1
0
LINE
5
7B
100
AcDbEntity
8
1
62
256
6
ByLayer
370
13
48
1
60
0
100
AcDbLine
10
24.060901
20
2.714737
30
0
11
24.070565
21
2.438395
31
0
39
0
210
0
220
0
230
1
0
LINE
5
7C
100
AcDbEntity
8
1
62
256
6
ByLayer
370
13
48
1
60
0
100
AcDbLine
10
24.807822
20
2.804852
30
0
11
24.818808
21
2.490713
31
0
39
0
210
0
220
0
230
1
0
LINE
5
7D
100
AcDbEntity
8
1
62
256
6
ByLayer
370
13
48
1
60
0
100
AcDbLine
10
12.392891
20
2.202565
30
0
11
11.814836
21
2.197313
31
0
39
0
210
0
220
0
230
1
0
LINE
5
7E
100
AcDbEntity
8
1
62
256
6
ByLayer
370
13
48
1
60
0
100
AcDbLine
10
13.538878
20
1.81868
30
0
11
13.560798
21
1.662666
31
0
39
0
210
0
220
0
230
1
0
LINE
5
7F
100
AcDbEntity
8
1
62
256
6
ByLayer
370
13
48
1
60
0
100
AcDbLine
10
13.296425
20
1.749899
30
0
11
13.295337
21
1.751014
31
0
39
0
210
0
220
0
230
1
0
LINE
5
80
100
AcDbEntity
8
1
62
256
6
ByLayer
370
13
48
1
60
0
100
AcDbLine
10
11.608681
20
3.478603
30
0
11
11.90018
21
2.212297
31
0
39
0
210
0
220
0
230
1
0
LINE
5
81
100
AcDbEntity
8
1
62
256
6
ByLayer
370
13
48
1
60
0
100
AcDbLine
10
28.247193
20
3.474395
30
0
11
29.452657
21
3.432375
31
0
39
0
210
0
220
0
230
1
0
LINE
5
82
100
AcDbEntity
8
1
62
256
6
ByLayer
370
13
48
1
60
0
100
AcDbLine
10
11.608671
20
3.478732
30
0
11
24.775754
21
4.399464
31
0
39
0
210
0
220
0
230
1
0
LINE
5
83
100
AcDbEntity
8
1
62
256
6
ByLayer
370
13
48
1
60
0
100
AcDbLine
10
25.304181
20
2.843572
30
0
11
25.30167
21
2.879478
31
0
39
0
210
0
220
0
230
1
0
LINE
5
84
100
AcDbEntity
8
1
62
256
6
ByLayer
370
13
48
1
60
0
100
AcDbLine
10
20.599169
20
3.527163
30
0
11
18.087882
21
3.351557
31
0
39
0
210
0
220
0
230
1
0
LINE
5
85
100
AcDbEntity
8
1
62
256
6
ByLayer
370
13
48
1
60
0
100
AcDbLine
10
29.788577
20
4.749995
30
0
11
28.288148
21
4.645074
31
0
39
0
210
0
220
0
230
1
0
LINE
5
86
100
AcDbEntity
8
1
62
256
6
ByLayer
370
13
48
1
60
0
100
AcDbLine
10
23.776968
20
3.193456
30
0
11
22.887226
21
3.113198
31
0
39
0
210
0
220
0
230
1
0
LINE
5
87
100
AcDbEntity
8
1
62
256
6
ByLayer
370
13
48
1
60
0
100
AcDbLine
10
18.067359
20
3.348653
30
0
11
18.087883
21
3.351557
31
0
39
0
210
0
220
0
230
1
0
LINE
5
88
100
AcDbEntity
8
1
62
256
6
ByLayer
370
13
48
1
60
0
100
AcDbLine
10
24.889049
20
2.779351
30
0
11
25.56954
21
2.868446
31
0
39
0
210
0
220
0
230
1
0
LINE
5
89
100
AcDbEntity
8
1
62
256
6
ByLayer
370
13
48
1
60
0
100
AcDbLine
10
18.018407
20
3.342741
30
0
11
11.900183
21
2.212298
31
0
39
0
210
0
220
0
230
1
0
LINE
5
8A
100
AcDbEntity
8
1
62
256
6
ByLayer
370
13
48
1
60
0
100
AcDbLine
10
24.060901
20
2.714737
30
0
11
23.171159
21
2.634479
31
0
39
0
210
0
220
0
230
1
0
LINE
5
8B
100
AcDbEntity
8
1
62
256
6
ByLayer
370
13
48
1
60
0
100
AcDbLine
10
17.706033
20
3.275652
30
0
11
18.005468
21
3.278478
31
0
39
0
210
0
220
0
230
1
0
LINE
5
8C
100
AcDbEntity
8
1
62
256
6
ByLayer
370
13
48
1
60
0
100
AcDbLine
10
17.706033
20
3.275652
30
0
11
18.067359
21
3.348653
31
0
39
0
210
0
220
0
230
1
0
LINE
5
8D
100
AcDbEntity
8
1
62
256
6
ByLayer
370
13
48
1
60
0
100
AcDbLine
10
12.60416
20
2.168699
30
0
11
13.290428
21
2.175176
31
0
39
0
210
0
220
0
230
1
0
LINE
5
8E
100
AcDbEntity
8
1
62
256
6
ByLayer
370
13
48
1
60
0
100
AcDbLine
10
28.288148
20
4.645075
30
0
11
24.775754
21
4.399464
31
0
39
0
210
0
220
0
230
1
0
LINE
5
8F
100
AcDbEntity
8
1
62
256
6
ByLayer
370
13
48
1
60
0
100
AcDbLine
10
9.572367
20
1.803594
30
0
11
11.900183
21
2.212298
31
0
39
0
210
0
220
0
230
1
0
LINE
5
90
100
AcDbEntity
8
1
62
256
6
ByLayer
370
13
48
1
60
0
100
AcDbLine
10
25.267725
20
3.338625
30
0
11
27.193666
21
3.473643
31
0
39
0
210
0
220
0
230
1
0
LINE
5
91
100
AcDbEntity
8
1
62
256
6
ByLayer
370
13
48
1
60
0
100
AcDbLine
10
24.854462
20
3.273715
30
0
11
23.487703
21
3.178142
31
0
39
0
210
0
220
0
230
1
0
LINE
5
92
100
AcDbEntity
8
1
62
256
6
ByLayer
370
13
48
1
60
0
100
AcDbLine
10
27.228634
20
3.47484
30
0
11
28.229975
21
3.474614
31
0
39
0
210
0
220
0
230
1
0
LINE
5
93
100
AcDbEntity
8
1
62
256
6
ByLayer
370
13
48
1
60
0
100
AcDbLine
10
11.608669
20
3.478732
30
0
11
9.332027
21
3.285614
31
0
39
0
210
0
220
0
230
1
0
LINE
5
94
100
AcDbEntity
8
1
62
256
6
ByLayer
370
18
48
1
60
0
100
AcDbLine
10
14.726424
20
1.785004
30
0
11
14.726424
21
-5
31
0
39
0
210
0
220
0
230
1
0
LINE
5
95
100
AcDbEntity
8
1
62
256
6
ByLayer
370
18
48
1
60
0
100
AcDbLine
10
24.951424
20
-3.162927
30
0
11
23.890789
21
-5
31
0
39
0
210
0
220
0
230
1
0
LINE
5
96
100
AcDbEntity
8
1
62
256
6
ByLayer
370
18
48
1
60
0
100
AcDbLine
10
0
20
4.925
30
0
11
5.876084
21
4.881694
31
0
39
0
210
0
220
0
230
1
0
LINE
5
97
100
AcDbEntity
8
1
62
256
6
ByLayer
370
18
48
1
60
0
100
AcDbLine
10
4.713576
20
1.447254
30
0
11
10.45748
21
1.501472
31
0
39
0
210
0
220
0
230
1
0
LINE
5
98
100
AcDbEntity
8
1
62
256
6
ByLayer
370
18
48
1
60
0
100
AcDbLine
10
11.651424
20
-5
30
0
11
14.726424
21
-5
31
0
39
0
210
0
220
0
230
1
0
LINE
5
99
100
AcDbEntity
8
1
62
256
6
ByLayer
370
18
48
1
60
0
100
AcDbLine
10
24.951424
20
2.500006
30
0
11
14.726424
21
1.785004
31
0
39
0
210
0
220
0
230
1
0
LINE
5
9A
100
AcDbEntity
8
1
62
256
6
ByLayer
370
18
48
1
60
0
100
AcDbLine
10
14.726424
20
-5
30
0
11
21.224123
21
-5
31
0
39
0
210
0
220
0
230
1
0
LINE
5
9B
100
AcDbEntity
8
1
62
256
6
ByLayer
370
18
48
1
60
0
100
AcDbLine
10
11.651424
20
1.462336
30
0
11
6.058923
21
1.07127
31
0
39
0
210
0
220
0
230
1
0
LINE
5
9C
100
AcDbEntity
8
1
62
256
6
ByLayer
370
18
48
1
60
0
100
AcDbLine
10
14.726424
20
1.785004
30
0
11
11.651424
21
1.462336
31
0
39
0
210
0
220
0
230
1
0
LINE
5
9D
100
AcDbEntity
8
1
62
256
6
ByLayer
370
18
48
1
60
0
100
AcDbLine
10
24.951424
20
2.500006
30
0
11
24.951424
21
1.455875
31
0
39
0
210
0
220
0
230
1
0
LINE
5
9E
100
AcDbEntity
8
1
62
256
6
ByLayer
370
18
48
1
60
0
100
AcDbLine
10
0
20
-5
30
0
11
0
21
4.925
31
0
39
0
210
0
220
0
230
1
0
LINE
5
9F
100
AcDbEntity
8
1
62
256
6
ByLayer
370
18
48
1
60
0
100
AcDbLine
10
24.951424
20
1.455875
30
0
11
21.224123
21
-5
31
0
39
0
210
0
220
0
230
1
0
LINE
5
A0
100
AcDbEntity
8
1
62
256
6
ByLayer
370
18
48
1
60
0
100
AcDbLine
10
11.651424
20
1.462336
30
0
11
11.651424
21
-5
31
0
39
0
210
0
220
0
230
1
0
LINE
5
A1
100
AcDbEntity
8
1
62
256
6
ByLayer
370
18
48
1
60
0
100
AcDbLine
10
24.951424
20
1.455875
30
0
11
24.951424
21
-3.162927
31
0
39
0
210
0
220
0
230
1
0
LINE
5
A2
100
AcDbEntity
8
1
62
256
6
ByLayer
370
18
48
1
60
0
100
AcDbLine
10
4.713576
20
1.447254
30
0
11
0
21
4.925
31
0
39
0
210
0
220
0
230
1
0
LINE
5
A3
100
AcDbEntity
8
1
62
256
6
ByLayer
370
18
48
1
60
0
100
AcDbLine
10
21.224123
20
-5
30
0
11
23.890789
21
-5
31
0
39
0
210
0
220
0
230
1
0
LINE
5
A4
100
AcDbEntity
8
1
62
256
6
ByLayer
370
18
48
1
60
0
100
AcDbLine
10
0
20
-5
30
0
11
11.651424
21
-5
31
0
39
0
210
0
220
0
230
1
0
LINE
5
A5
100
AcDbEntity
8
SK1
62
256
6
ByLayer
370
18
48
1
60
0
100
AcDbLine
10
0
20
-5
30
0
11
0
21
4.925
31
0
39
0
210
0
220
0
230
1
0
LINE
5
A7
100
AcDbEntity
8
SK1
62
256
6
ByLayer
370
18
48
1
60
0
100
AcDbLine
10
-35.322281
20
-5
30
0
11
0
21
-5
31
0
39
0
210
0
220
0
230
1
0
LINE
5
A8
100
AcDbEntity
8
SK1
62
256
6
ByLayer
370
18
48
1
60
0
100
AcDbLine
10
-38.348576
20
4.925
30
0
11
0
21
4.925
31
0
39
0
210
0
220
0
230
1
0
LINE
5
A9
100
AcDbEntity
8
SK1
62
256
6
ByLayer
370
18
48
1
60
0
100
AcDbLine
10
-38.348576
20
-2
30
0
11
-35.322281
21
-5
31
0
39
0
210
0
220
0
230
1
0
LINE
5
AA
100
AcDbEntity
8
SK1
62
256
6
ByLayer
370
18
48
1
60
0
100
AcDbLine
10
-38.348576
20
4.925
30
0
11
-38.348576
21
-2
31
0
39
0
210
0
220
0
230
1
0
MTEXT
5
10B
100
AcDbEntity
8
SK6
62
256
6
ByLayer
370
18
48
1
60
0
100
AcDbMText
10
-34.973576
20
-15.864871
30
0
210
0
220
0
230
1
1
\W0.7432;QS-RF123T06-1010B
40
3.5
41
0
44
1.084337
50
0
71
7
72
5
7
iso_b_vert
0
DIMENSION
5
11C
100
AcDbEntity
8
2
62
256
6
ByLayer
370
13
48
1
60
0
100
AcDbDimension
2
DimnDraft3D1
10
45.901424
20
5
30
0
11
45.901424
21
15.5
31
0
70
32
71
5
72
1
41
1
210
0
220
0
230
1
3
Standard
100
AcDbAlignedDimension
13
33.151424
23
3.5
33
0
14
33.151424
24
5
34
0
50
90
100
AcDbRotatedDimension
1001
ACAD
1000
DSTYLE
1002
{
1070
    74
1070
     0
1070
   279
1070
     0
1070
   172
1070
     1
1070
   173
1070
     1
1070
   340
1005
10C
1070
   271
1070
     3
1070
   272
1070
     3
1070
    77
1070
     1
1070
    73
1070
     0
1070
   171
1070
     4
1070
   274
1070
     4
1070
   177
1070
     2
1070
   176
1070
     2
1070
   178
1070
     7
1070
    78
1070
     8
1070
    41
1041
3.0
1070
   147
1041
2.25
1070
    42
1041
1.5
1070
    44
1041
3.0
1070
   140
1041
4.5
1070
   343
1005
11D
1070
   344
1005
11D
1002
}
0
DIMENSION
5
131
100
AcDbEntity
8
2
62
256
6
ByLayer
370
13
48
1
60
0
100
AcDbDimension
2
DimnDraft3D2
10
55.901424
20
-5
30
0
11
55.901424
21
15.5
31
0
70
32
71
5
72
1
41
1
210
0
220
0
230
1
3
Standard
100
AcDbAlignedDimension
13
33.151424
23
5
33
0
14
1.5
24
-5
34
0
50
90
100
AcDbRotatedDimension
1001
ACAD
1000
DSTYLE
1002
{
1070
    74
1070
     0
1070
   279
1070
     0
1070
   172
1070
     1
1070
   173
1070
     1
1070
   340
1005
10C
1070
   271
1070
     3
1070
   272
1070
     3
1070
    77
1070
     1
1070
    73
1070
     0
1070
   171
1070
     4
1070
   274
1070
     4
1070
   177
1070
     2
1070
   176
1070
     2
1070
   178
1070
     7
1070
    78
1070
     8
1070
    41
1041
3.0
1070
   147
1041
2.25
1070
    42
1041
1.5
1070
    44
1041
3.0
1070
   140
1041
4.5
1070
   343
1005
11D
1070
   344
1005
11D
1002
}
0
DIMENSION
5
140
100
AcDbEntity
8
SK2
62
256
6
ByLayer
370
13
48
1
60
0
100
AcDbDimension
2
DimnDraft3D3
10
-48.098576
20
-5
30
0
11
-48.098576
21
15.5
31
0
70
32
71
5
72
1
41
1
210
0
220
0
230
1
3
Standard
100
AcDbAlignedDimension
13
-39.848576
23
5
33
0
14
-39.848576
24
-5
34
0
50
90
100
AcDbRotatedDimension
1001
ACAD
1000
DSTYLE
1002
{
1070
    74
1070
     0
1070
   279
1070
     0
1070
   172
1070
     1
1070
   173
1070
     1
1070
   340
1005
10C
1070
   271
1070
     3
1070
   272
1070
     3
1070
    77
1070
     1
1070
    73
1070
     0
1070
   171
1070
     4
1070
   274
1070
     4
1070
   177
1070
     2
1070
   176
1070
     2
1070
   178
1070
     7
1070
    78
1070
     8
1070
    41
1041
3.0
1070
   147
1041
2.25
1070
    42
1041
1.5
1070
    44
1041
3.0
1070
   140
1041
4.5
1070
   343
1005
11D
1070
   344
1005
11D
1002
}
0
DIMENSION
5
14E
100
AcDbEntity
8
2
62
256
6
ByLayer
370
13
48
1
60
0
100
AcDbDimension
2
DimnDraft3D4
10
31.651424
20
-19.25
30
0
11
42.151424
21
-19.25
31
0
70
32
71
5
72
1
41
1
210
0
220
0
230
1
3
Standard
100
AcDbAlignedDimension
13
25.651424
23
0
33
0
14
31.651424
24
2
34
0
50
0
100
AcDbRotatedDimension
1001
ACAD
1000
DSTYLE
1002
{
1070
   279
1070
     0
1070
   172
1070
     1
1070
   173
1070
     1
1070
   340
1005
10C
1070
   271
1070
     3
1070
   272
1070
     3
1070
    77
1070
     1
1070
    73
1070
     0
1070
   171
1070
     4
1070
   274
1070
     4
1070
   177
1070
     2
1070
   176
1070
     2
1070
   178
1070
     7
1070
    78
1070
     8
1070
    41
1041
3.0
1070
   147
1041
2.25
1070
    42
1041
1.5
1070
    44
1041
3.0
1070
   140
1041
4.5
1070
   343
1005
11D
1070
   344
1005
11D
1002
}
0
DIMENSION
5
15C
100
AcDbEntity
8
SK2
62
256
6
ByLayer
370
13
48
1
60
0
100
AcDbDimension
2
DimnDraft3D5
10
-38.348576
20
24.75
30
0
11
-8.630155
21
24.75
31
0
70
32
71
5
72
1
41
1
210
0
220
0
230
1
3
Standard
100
AcDbAlignedDimension
13
31.651424
23
6.5
33
0
14
-38.348576
24
6.5
34
0
50
0
100
AcDbRotatedDimension
1001
ACAD
1000
DSTYLE
1002
{
1070
   279
1070
     0
1070
   172
1070
     1
1070
   173
1070
     1
1070
   340
1005
10C
1070
   271
1070
     3
1070
   272
1070
     3
1070
    77
1070
     1
1070
    73
1070
     0
1070
   171
1070
     4
1070
   274
1070
     4
1070
   177
1070
     2
1070
   176
1070
     2
1070
   178
1070
     7
1070
    78
1070
     8
1070
    41
1041
3.0
1070
   147
1041
2.25
1070
    42
1041
1.5
1070
    44
1041
3.0
1070
   140
1041
4.5
1070
   343
1005
11D
1070
   344
1005
11D
1002
}
0
DIMENSION
5
16A
100
AcDbEntity
8
2
62
256
6
ByLayer
370
13
48
1
60
0
100
AcDbDimension
2
DimnDraft3D6
10
0
20
14.75
30
0
11
11.106633
21
14.75
31
0
70
32
71
5
72
1
41
1
210
0
220
0
230
1
3
Standard
100
AcDbAlignedDimension
13
31.651424
23
5.75
33
0
14
0
24
6.5
34
0
50
0
100
AcDbRotatedDimension
1001
ACAD
1000
DSTYLE
1002
{
1070
   279
1070
     0
1070
   172
1070
     1
1070
   173
1070
     1
1070
   340
1005
10C
1070
   271
1070
     3
1070
   272
1070
     3
1070
    77
1070
     1
1070
    73
1070
     0
1070
   171
1070
     4
1070
   274
1070
     4
1070
   177
1070
     2
1070
   176
1070
     2
1070
   178
1070
     7
1070
    78
1070
     8
1070
    41
1041
3.0
1070
   147
1041
2.25
1070
    42
1041
1.5
1070
    44
1041
3.0
1070
   140
1041
4.5
1070
   343
1005
11D
1070
   344
1005
11D
1002
}
0
ENDSEC
0
SECTION
2
OBJECTS
0
DICTIONARY
5
1d4
330
0
100
AcDbDictionary
280
0
281
1
3
ACAD_GROUP
350
1d5
3
ACAD_MLINESTYLE
350
1d6
0
DICTIONARY
5
1d5
330
0
100
AcDbDictionary
280
0
281
1
0
DICTIONARY
5
1d6
330
0
100
AcDbDictionary
280
0
281
1
3
Standard
350
18
0
MLINESTYLE
5
18
330
1d6
100
AcDbMlineStyle
2
Standard
70
0
3

62
256
51
90
52
90
71
2
49
-0.5
62
256
6
ByLayer
49
0.5
62
256
6
ByLayer
0
RASTERVARIABLES
5
1c3
330

100
AcDbRasterVariables
90
0
70
1
71
1
72
1
0
ENDSEC
0
EOF
