  0
SECTION
  2
HEADER
  9
$ACADVER
  1
AC1015
  9
$ACADMAINTVER
 70
    20
  9
$DWGCODEPAGE
  3
ANSI_1252
  9
$INSBASE
 10
0.0
 20
0.0
 30
0.0
  9
$EXTMIN
 10
-92.73476200000001
 20
-36.32688
 30
0.0
  9
$EXTMAX
 10
39.185839
 20
32.42502300000003
 30
0.0
  9
$LIMMIN
 10
0.0
 20
0.0
  9
$LIMMAX
 10
12.0
 20
9.0
  9
$ORTHOMODE
 70
     0
  9
$REGENMODE
 70
     1
  9
$FILLMODE
 70
     1
  9
$QTEXTMODE
 70
     0
  9
$MIRRTEXT
 70
     1
  9
$LTSCALE
 40
1.0
  9
$ATTMODE
 70
     1
  9
$TEXTSIZE
 40
3.0
  9
$TRACEWID
 40
10.0
  9
$TEXTSTYLE
  7
SANDVIK_STYLE
  9
$CLAYER
  8
1
  9
$CELTYPE
  6
ByLayer
  9
$CECOLOR
 62
   256
  9
$CELTSCALE
 40
1.0
  9
$DISPSILH
 70
     0
  9
$DIMSCALE
 40
1.0
  9
$DIMASZ
 40
0.18
  9
$DIMEXO
 40
0.0625
  9
$DIMDLI
 40
0.38
  9
$DIMRND
 40
0.0
  9
$DIMDLE
 40
0.0
  9
$DIMEXE
 40
0.18
  9
$DIMTP
 40
0.0
  9
$DIMTM
 40
0.0
  9
$DIMTXT
 40
0.18
  9
$DIMCEN
 40
0.09
  9
$DIMTSZ
 40
0.0
  9
$DIMTOL
 70
     0
  9
$DIMLIM
 70
     0
  9
$DIMTIH
 70
     1
  9
$DIMTOH
 70
     1
  9
$DIMSE1
 70
     0
  9
$DIMSE2
 70
     0
  9
$DIMTAD
 70
     0
  9
$DIMZIN
 70
     0
  9
$DIMBLK
  1

  9
$DIMASO
 70
     1
  9
$DIMSHO
 70
     1
  9
$DIMPOST
  1

  9
$DIMAPOST
  1

  9
$DIMALT
 70
     0
  9
$DIMALTD
 70
     2
  9
$DIMALTF
 40
25.4
  9
$DIMLFAC
 40
1.0
  9
$DIMTOFL
 70
     0
  9
$DIMTVP
 40
0.0
  9
$DIMTIX
 70
     0
  9
$DIMSOXD
 70
     0
  9
$DIMSAH
 70
     0
  9
$DIMBLK1
  1

  9
$DIMBLK2
  1

  9
$DIMSTYLE
  2
STANDARD
  9
$DIMCLRD
 70
     0
  9
$DIMCLRE
 70
     0
  9
$DIMCLRT
 70
     0
  9
$DIMTFAC
 40
1.0
  9
$DIMGAP
 40
0.09
  9
$DIMJUST
 70
     0
  9
$DIMSD1
 70
     0
  9
$DIMSD2
 70
     0
  9
$DIMTOLJ
 70
     1
  9
$DIMTZIN
 70
     0
  9
$DIMALTZ
 70
     0
  9
$DIMALTTZ
 70
     0
  9
$DIMUPT
 70
     0
  9
$DIMDEC
 70
     4
  9
$DIMTDEC
 70
     4
  9
$DIMALTU
 70
     2
  9
$DIMALTTD
 70
     2
  9
$DIMTXSTY
  7
STANDARD
  9
$DIMAUNIT
 70
     0
  9
$DIMADEC
 70
     0
  9
$DIMALTRND
 40
0.0
  9
$DIMAZIN
 70
     0
  9
$DIMDSEP
 70
    46
  9
$DIMATFIT
 70
     3
  9
$DIMFRAC
 70
     0
  9
$DIMLDRBLK
  1

  9
$DIMLUNIT
 70
     2
  9
$DIMLWD
 70
    -2
  9
$DIMLWE
 70
    -2
  9
$DIMTMOVE
 70
     0
  9
$LUNITS
 70
     2
  9
$LUPREC
 70
     2
  9
$SKETCHINC
 40
0.0
  9
$FILLETRAD
 40
0.0
  9
$AUNITS
 70
     0
  9
$AUPREC
 70
     2
  9
$MENU
  1
acad
  9
$ELEVATION
 40
0.0
  9
$PELEVATION
 40
0.0
  9
$THICKNESS
 40
0.0
  9
$LIMCHECK
 70
     0
  9
$CHAMFERA
 40
0.0
  9
$CHAMFERB
 40
0.0
  9
$CHAMFERC
 40
0.0
  9
$CHAMFERD
 40
0.0
  9
$SKPOLY
 70
     0
  9
$TDCREATE
 40
2456818.633582778
  9
$TDUCREATE
 40
2456818.550249444
  9
$TDUPDATE
 40
2456818.633588403
  9
$TDUUPDATE
 40
2456818.550255070
  9
$TDINDWG
 40
0.0000067245
  9
$TDUSRTIMER
 40
0.0000067245
  9
$USRTIMER
 70
     1
  9
$ANGBASE
 50
0.0
  9
$ANGDIR
 70
     0
  9
$PDMODE
 70
     0
  9
$PDSIZE
 40
0.0
  9
$PLINEWID
 40
0.0
  9
$SPLFRAME
 70
     0
  9
$SPLINETYPE
 70
     6
  9
$SPLINESEGS
 70
     8
  9
$HANDSEED
  5
75D
  9
$SURFTAB1
 70
     6
  9
$SURFTAB2
 70
     6
  9
$SURFTYPE
 70
     6
  9
$SURFU
 70
     6
  9
$SURFV
 70
     6
  9
$UCSBASE
  2

  9
$UCSNAME
  2

  9
$UCSORG
 10
0.0
 20
0.0
 30
0.0
  9
$UCSXDIR
 10
1.0
 20
0.0
 30
0.0
  9
$UCSYDIR
 10
0.0
 20
1.0
 30
0.0
  9
$UCSORTHOREF
  2

  9
$UCSORTHOVIEW
 70
     0
  9
$UCSORGTOP
 10
0.0
 20
0.0
 30
0.0
  9
$UCSORGBOTTOM
 10
0.0
 20
0.0
 30
0.0
  9
$UCSORGLEFT
 10
0.0
 20
0.0
 30
0.0
  9
$UCSORGRIGHT
 10
0.0
 20
0.0
 30
0.0
  9
$UCSORGFRONT
 10
0.0
 20
0.0
 30
0.0
  9
$UCSORGBACK
 10
0.0
 20
0.0
 30
0.0
  9
$PUCSBASE
  2

  9
$PUCSNAME
  2

  9
$PUCSORG
 10
0.0
 20
0.0
 30
0.0
  9
$PUCSXDIR
 10
1.0
 20
0.0
 30
0.0
  9
$PUCSYDIR
 10
0.0
 20
1.0
 30
0.0
  9
$PUCSORTHOREF
  2

  9
$PUCSORTHOVIEW
 70
     0
  9
$PUCSORGTOP
 10
0.0
 20
0.0
 30
0.0
  9
$PUCSORGBOTTOM
 10
0.0
 20
0.0
 30
0.0
  9
$PUCSORGLEFT
 10
0.0
 20
0.0
 30
0.0
  9
$PUCSORGRIGHT
 10
0.0
 20
0.0
 30
0.0
  9
$PUCSORGFRONT
 10
0.0
 20
0.0
 30
0.0
  9
$PUCSORGBACK
 10
0.0
 20
0.0
 30
0.0
  9
$USERI1
 70
     0
  9
$USERI2
 70
     0
  9
$USERI3
 70
     0
  9
$USERI4
 70
     0
  9
$USERI5
 70
     0
  9
$USERR1
 40
0.0
  9
$USERR2
 40
0.0
  9
$USERR3
 40
0.0
  9
$USERR4
 40
0.0
  9
$USERR5
 40
0.0
  9
$WORLDVIEW
 70
     1
  9
$SHADEDGE
 70
     3
  9
$SHADEDIF
 70
    70
  9
$TILEMODE
 70
     1
  9
$MAXACTVP
 70
    16
  9
$PINSBASE
 10
0.0
 20
0.0
 30
0.0
  9
$PLIMCHECK
 70
     0
  9
$PEXTMIN
 10
1.000000000000000E+20
 20
1.000000000000000E+20
 30
1.000000000000000E+20
  9
$PEXTMAX
 10
-1.000000000000000E+20
 20
-1.000000000000000E+20
 30
-1.000000000000000E+20
  9
$PLIMMIN
 10
0.0
 20
0.0
  9
$PLIMMAX
 10
12.0
 20
9.0
  9
$UNITMODE
 70
     0
  9
$VISRETAIN
 70
     0
  9
$PLINEGEN
 70
     0
  9
$PSLTSCALE
 70
     1
  9
$TREEDEPTH
 70
  3020
  9
$CMLSTYLE
  2
Standard
  9
$CMLJUST
 70
     0
  9
$CMLSCALE
 40
1.0
  9
$PROXYGRAPHICS
 70
     1
  9
$MEASUREMENT
 70
     0
  9
$CELWEIGHT
370
    -1
  9
$ENDCAPS
280
     0
  9
$JOINSTYLE
280
     0
  9
$LWDISPLAY
290
     0
  9
$INSUNITS
 70
     0
  9
$HYPERLINKBASE
  1

  9
$STYLESHEET
  1

  9
$XEDIT
290
     1
  9
$CEPSNTYPE
380
     0
  9
$PSTYLEMODE
290
     1
  9
$FINGERPRINTGUID
  2
{A7F50BF0-ECD3-4A1F-A2F3-A3F38DAFAFE6}
  9
$VERSIONGUID
  2
{9D5D9BD1-6808-4154-8B9D-89A8D7F676C5}
  9
$EXTNAMES
290
     1
  9
$PSVPSCALE
 40
0.0
  9
$OLESTARTUP
290
     0
  0
ENDSEC
  0
SECTION
  2
CLASSES
  0
CLASS
  1
ACDBDICTIONARYWDFLT
  2
AcDbDictionaryWithDefault
  3
ObjectDBX Classes
 90
        0
280
     0
281
     0
  0
CLASS
  1
MATERIAL
  2
AcDbMaterial
  3
ObjectDBX Classes
 90
     1153
280
     0
281
     0
  0
CLASS
  1
VISUALSTYLE
  2
AcDbVisualStyle
  3
ObjectDBX Classes
 90
     4095
280
     0
281
     0
  0
CLASS
  1
SCALE
  2
AcDbScale
  3
ObjectDBX Classes
 90
     1153
280
     0
281
     0
  0
CLASS
  1
TABLESTYLE
  2
AcDbTableStyle
  3
ObjectDBX Classes
 90
     4095
280
     0
281
     0
  0
CLASS
  1
MLEADERSTYLE
  2
AcDbMLeaderStyle
  3
ACDB_MLEADERSTYLE_CLASS
 90
     4095
280
     0
281
     0
  0
CLASS
  1
ACDBSECTIONVIEWSTYLE
  2
AcDbSectionViewStyle
  3
ObjectDBX Classes
 90
     1025
280
     0
281
     0
  0
CLASS
  1
ACDBDETAILVIEWSTYLE
  2
AcDbDetailViewStyle
  3
ObjectDBX Classes
 90
     1025
280
     0
281
     0
  0
CLASS
  1
EXACXREFPANELOBJECT
  2
ExAcXREFPanelObject
  3
EXAC_ESW
 90
     1025
280
     0
281
     0
  0
CLASS
  1
NPOCOLLECTION
  2
AcDbImpNonPersistentObjectsCollection
  3
ObjectDBX Classes
 90
     1153
280
     0
281
     0
  0
CLASS
  1
DICTIONARYVAR
  2
AcDbDictionaryVar
  3
ObjectDBX Classes
 90
        0
280
     0
281
     0
  0
CLASS
  1
CELLSTYLEMAP
  2
AcDbCellStyleMap
  3
ObjectDBX Classes
 90
     1152
280
     0
281
     0
  0
CLASS
  1
ACDBPLACEHOLDER
  2
AcDbPlaceHolder
  3
ObjectDBX Classes
 90
        0
280
     0
281
     0
  0
CLASS
  1
LAYOUT
  2
AcDbLayout
  3
ObjectDBX Classes
 90
        0
280
     0
281
     0
  0
ENDSEC
  0
SECTION
  2
TABLES
  0
TABLE
  2
VPORT
  5
624
330
0
100
AcDbSymbolTable
 70
     1
  0
VPORT
  5
6BB
330
624
100
AcDbSymbolTableRecord
100
AcDbViewportTableRecord
  2
*Active
 70
     0
 10
0.0
 20
0.0
 11
1.0
 21
1.0
 12
-26.77446150000001
 22
-1.950928499999982
 13
0.0
 23
0.0
 14
1.0
 24
1.0
 15
0.0
 25
0.0
 16
0.0
 26
0.0
 36
1.0
 17
0.0
 27
0.0
 37
0.0
 40
76.93926412280704
 41
2.220359281437125
 42
50.0
 43
0.0
 44
0.0
 50
0.0
 51
0.0
 71
     0
 72
   100
 73
     1
 74
     1
 75
     0
 76
     0
 77
     0
 78
     0
281
     0
 65
     1
110
0.0
120
0.0
130
0.0
111
1.0
121
0.0
131
0.0
112
0.0
122
1.0
132
0.0
 79
     0
146
0.0
1001
ACAD_NAV_VCDISPLAY
1070
     3
  0
ENDTAB
  0
TABLE
  2
LTYPE
  5
621
330
0
100
AcDbSymbolTable
 70
     4
  0
LTYPE
  5
676
330
621
100
AcDbSymbolTableRecord
100
AcDbLinetypeTableRecord
  2
ByBlock
 70
     0
  3

 72
    65
 73
     0
 40
0.0
  0
LTYPE
  5
677
330
621
100
AcDbSymbolTableRecord
100
AcDbLinetypeTableRecord
  2
ByLayer
 70
     0
  3

 72
    65
 73
     0
 40
0.0
  0
LTYPE
  5
678
330
621
100
AcDbSymbolTableRecord
100
AcDbLinetypeTableRecord
  2
CONTINUOUS
 70
     0
  3
Solid line
 72
    65
 73
     0
 40
0.0
  0
LTYPE
  5
684
330
621
100
AcDbSymbolTableRecord
100
AcDbLinetypeTableRecord
  2
PHANTOM2
 70
     0
  3
Phantom (.5x) ___ _ _ ___ _ _ ___ _ _ ___ _ _
 72
    65
 73
     6
 40
1.25
 49
0.625
 74
     0
 49
-0.125
 74
     0
 49
0.125
 74
     0
 49
-0.125
 74
     0
 49
0.125
 74
     0
 49
-0.125
 74
     0
  0
LTYPE
  5
692
330
621
100
AcDbSymbolTableRecord
100
AcDbLinetypeTableRecord
  2
CENTER
 70
     0
  3
____ _ ____ _ ____ _ ____ _ ____ _ ____ _ ____
 72
    65
 73
     4
 40
5.059897
 49
3.162434999999999
 74
     0
 49
-0.6324870000000001
 74
     0
 49
0.6324870000000001
 74
     0
 49
-0.6324870000000001
 74
     0
  0
LTYPE
  5
693
330
621
100
AcDbSymbolTableRecord
100
AcDbLinetypeTableRecord
  2
DASHED
 70
     0
  3
__ __ __ __ __ __ __ __ __ __ __ __ __ __ __ __
 72
    65
 73
     2
 40
7.589844999999999
 49
5.059897
 74
     0
 49
-2.529948
 74
     0
  0
ENDTAB
  0
TABLE
  2
LAYER
  5
61E
330
0
100
AcDbSymbolTable
 70
    38
  0
LAYER
  5
670
102
{ACAD_XDICTIONARY
360
6C8
102
}
330
61E
100
AcDbSymbolTableRecord
100
AcDbLayerTableRecord
  2
0
 70
     0
 62
     7
  6
CONTINUOUS
370
    -3
390
62B
  0
LAYER
  5
690
102
{ACAD_XDICTIONARY
360
6CA
102
}
330
61E
100
AcDbSymbolTableRecord
100
AcDbLayerTableRecord
  2
1
 70
     0
 62
     4
  6
CONTINUOUS
370
    -3
390
62B
  0
LAYER
  5
694
102
{ACAD_XDICTIONARY
360
6CC
102
}
330
61E
100
AcDbSymbolTableRecord
100
AcDbLayerTableRecord
  2
61
 70
     0
 62
     5
  6
CONTINUOUS
370
    -3
390
62B
  0
LAYER
  5
695
102
{ACAD_XDICTIONARY
360
6CE
102
}
330
61E
100
AcDbSymbolTableRecord
100
AcDbLayerTableRecord
  2
62
 70
     0
 62
    -5
  6
CONTINUOUS
370
    -3
390
62B
  0
LAYER
  5
696
102
{ACAD_XDICTIONARY
360
6D0
102
}
330
61E
100
AcDbSymbolTableRecord
100
AcDbLayerTableRecord
  2
63
 70
     0
 62
    -5
  6
CONTINUOUS
370
    -3
390
62B
  0
LAYER
  5
697
102
{ACAD_XDICTIONARY
360
6D2
102
}
330
61E
100
AcDbSymbolTableRecord
100
AcDbLayerTableRecord
  2
64
 70
     0
 62
    -5
  6
CONTINUOUS
370
    -3
390
62B
  0
LAYER
  5
698
102
{ACAD_XDICTIONARY
360
6D4
102
}
330
61E
100
AcDbSymbolTableRecord
100
AcDbLayerTableRecord
  2
65
 70
     0
 62
    -5
  6
CONTINUOUS
370
    -3
390
62B
  0
LAYER
  5
699
102
{ACAD_XDICTIONARY
360
6D6
102
}
330
61E
100
AcDbSymbolTableRecord
100
AcDbLayerTableRecord
  2
66
 70
     0
 62
    -5
  6
CONTINUOUS
370
    -3
390
62B
  0
LAYER
  5
69A
102
{ACAD_XDICTIONARY
360
6D8
102
}
330
61E
100
AcDbSymbolTableRecord
100
AcDbLayerTableRecord
  2
67
 70
     0
 62
    -5
  6
CONTINUOUS
370
    -3
390
62B
  0
LAYER
  5
69B
102
{ACAD_XDICTIONARY
360
6DA
102
}
330
61E
100
AcDbSymbolTableRecord
100
AcDbLayerTableRecord
  2
68
 70
     0
 62
    -5
  6
CONTINUOUS
370
    -3
390
62B
  0
LAYER
  5
69C
102
{ACAD_XDICTIONARY
360
6DC
102
}
330
61E
100
AcDbSymbolTableRecord
100
AcDbLayerTableRecord
  2
69
 70
     0
 62
    -5
  6
CONTINUOUS
370
    -3
390
62B
  0
LAYER
  5
69D
102
{ACAD_XDICTIONARY
360
6DE
102
}
330
61E
100
AcDbSymbolTableRecord
100
AcDbLayerTableRecord
  2
70
 70
     0
 62
     5
  6
CONTINUOUS
370
    -3
390
62B
  0
LAYER
  5
69E
102
{ACAD_XDICTIONARY
360
6E0
102
}
330
61E
100
AcDbSymbolTableRecord
100
AcDbLayerTableRecord
  2
2
 70
     0
 62
     7
  6
CONTINUOUS
370
    -3
390
62B
  0
LAYER
  5
69F
102
{ACAD_XDICTIONARY
360
6E2
102
}
330
61E
100
AcDbSymbolTableRecord
100
AcDbLayerTableRecord
  2
3
 70
     0
 62
     1
  6
DASHED
370
    -3
390
62B
  0
LAYER
  5
6A0
102
{ACAD_XDICTIONARY
360
6E4
102
}
330
61E
100
AcDbSymbolTableRecord
100
AcDbLayerTableRecord
  2
4
 70
     0
 62
    -2
  6
CENTER
370
    -3
390
62B
  0
LAYER
  5
6A1
102
{ACAD_XDICTIONARY
360
6E6
102
}
330
61E
100
AcDbSymbolTableRecord
100
AcDbLayerTableRecord
  2
5
 70
     0
 62
    -7
  6
CONTINUOUS
370
    -3
390
62B
  0
LAYER
  5
6A2
102
{ACAD_XDICTIONARY
360
6E8
102
}
330
61E
100
AcDbSymbolTableRecord
100
AcDbLayerTableRecord
  2
SK1
 70
     0
 62
     4
  6
CONTINUOUS
370
    -3
390
62B
  0
LAYER
  5
6A3
102
{ACAD_XDICTIONARY
360
6EA
102
}
330
61E
100
AcDbSymbolTableRecord
100
AcDbLayerTableRecord
  2
6
 70
     0
 62
     5
  6
CONTINUOUS
370
    -3
390
62B
  0
LAYER
  5
6A4
102
{ACAD_XDICTIONARY
360
6EC
102
}
330
61E
100
AcDbSymbolTableRecord
100
AcDbLayerTableRecord
  2
SK2
 70
     0
 62
     7
  6
CONTINUOUS
370
    -3
390
62B
  0
LAYER
  5
6A5
102
{ACAD_XDICTIONARY
360
6EE
102
}
330
61E
100
AcDbSymbolTableRecord
100
AcDbLayerTableRecord
  2
SK3
 70
     0
 62
     1
  6
DASHED
370
    -3
390
62B
  0
LAYER
  5
6A6
102
{ACAD_XDICTIONARY
360
6F0
102
}
330
61E
100
AcDbSymbolTableRecord
100
AcDbLayerTableRecord
  2
SK4
 70
     0
 62
     2
  6
CENTER
370
    -3
390
62B
  0
LAYER
  5
6A7
102
{ACAD_XDICTIONARY
360
6F2
102
}
330
61E
100
AcDbSymbolTableRecord
100
AcDbLayerTableRecord
  2
CUT
 70
     0
 62
    -1
  6
CONTINUOUS
370
    -3
390
62B
  0
LAYER
  5
6A8
102
{ACAD_XDICTIONARY
360
6F4
102
}
330
61E
100
AcDbSymbolTableRecord
100
AcDbLayerTableRecord
  2
SK6
 70
     0
 62
     5
  6
CONTINUOUS
370
    -3
390
62B
  0
LAYER
  5
6A9
102
{ACAD_XDICTIONARY
360
6F6
102
}
330
61E
100
AcDbSymbolTableRecord
100
AcDbLayerTableRecord
  2
80
 70
     0
 62
    -2
  6
CENTER
370
    -3
390
62B
  0
LAYER
  5
6AA
102
{ACAD_XDICTIONARY
360
6F8
102
}
330
61E
100
AcDbSymbolTableRecord
100
AcDbLayerTableRecord
  2
81
 70
     0
 62
    -2
  6
CENTER
370
    -3
390
62B
  0
LAYER
  5
6AB
102
{ACAD_XDICTIONARY
360
6FA
102
}
330
61E
100
AcDbSymbolTableRecord
100
AcDbLayerTableRecord
  2
82
 70
     0
 62
    -2
  6
CENTER
370
    -3
390
62B
  0
LAYER
  5
6AC
102
{ACAD_XDICTIONARY
360
6FC
102
}
330
61E
100
AcDbSymbolTableRecord
100
AcDbLayerTableRecord
  2
NOCUT
 70
     0
 62
     7
  6
CONTINUOUS
370
    -3
390
62B
  0
LAYER
  5
6AD
102
{ACAD_XDICTIONARY
360
6FE
102
}
330
61E
100
AcDbSymbolTableRecord
100
AcDbLayerTableRecord
  2
50
 70
     0
 62
    -7
  6
CONTINUOUS
370
    -3
390
62B
  0
LAYER
  5
6AE
102
{ACAD_XDICTIONARY
360
700
102
}
330
61E
100
AcDbSymbolTableRecord
100
AcDbLayerTableRecord
  2
51
 70
     0
 62
     7
  6
CONTINUOUS
370
    -3
390
62B
  0
LAYER
  5
6AF
102
{ACAD_XDICTIONARY
360
702
102
}
330
61E
100
AcDbSymbolTableRecord
100
AcDbLayerTableRecord
  2
52
 70
     0
 62
    -7
  6
CONTINUOUS
370
    -3
390
62B
  0
LAYER
  5
6B0
102
{ACAD_XDICTIONARY
360
704
102
}
330
61E
100
AcDbSymbolTableRecord
100
AcDbLayerTableRecord
  2
53
 70
     0
 62
    -7
  6
CONTINUOUS
370
    -3
390
62B
  0
LAYER
  5
6B1
102
{ACAD_XDICTIONARY
360
706
102
}
330
61E
100
AcDbSymbolTableRecord
100
AcDbLayerTableRecord
  2
54
 70
     0
 62
    -7
  6
CONTINUOUS
370
    -3
390
62B
  0
LAYER
  5
6B2
102
{ACAD_XDICTIONARY
360
708
102
}
330
61E
100
AcDbSymbolTableRecord
100
AcDbLayerTableRecord
  2
55
 70
     0
 62
    -7
  6
CONTINUOUS
370
    -3
390
62B
  0
LAYER
  5
6B3
102
{ACAD_XDICTIONARY
360
70A
102
}
330
61E
100
AcDbSymbolTableRecord
100
AcDbLayerTableRecord
  2
56
 70
     0
 62
    -7
  6
CONTINUOUS
370
    -3
390
62B
  0
LAYER
  5
6B4
102
{ACAD_XDICTIONARY
360
70C
102
}
330
61E
100
AcDbSymbolTableRecord
100
AcDbLayerTableRecord
  2
57
 70
     0
 62
    -7
  6
CONTINUOUS
370
    -3
390
62B
  0
LAYER
  5
6B5
102
{ACAD_XDICTIONARY
360
70E
102
}
330
61E
100
AcDbSymbolTableRecord
100
AcDbLayerTableRecord
  2
58
 70
     0
 62
    -7
  6
CONTINUOUS
370
    -3
390
62B
  0
LAYER
  5
6B6
102
{ACAD_XDICTIONARY
360
710
102
}
330
61E
100
AcDbSymbolTableRecord
100
AcDbLayerTableRecord
  2
2L
 70
     0
 62
     7
  6
CONTINUOUS
370
    -3
390
62B
  0
LAYER
  5
6B7
102
{ACAD_XDICTIONARY
360
712
102
}
330
61E
100
AcDbSymbolTableRecord
100
AcDbLayerTableRecord
  2
59
 70
     0
 62
    -7
  6
CONTINUOUS
370
    -3
390
62B
  0
ENDTAB
  0
TABLE
  2
STYLE
  5
61F
330
0
100
AcDbSymbolTable
 70
     3
  0
STYLE
  5
671
330
61F
100
AcDbSymbolTableRecord
100
AcDbTextStyleTableRecord
  2
STANDARD
 70
     0
 40
0.0
 41
1.0
 50
0.0
 71
     0
 42
4.5
  3
simplex.shx
  4

  0
STYLE
  5
675
330
61F
100
AcDbSymbolTableRecord
100
AcDbTextStyleTableRecord
  2
Annotative
 70
     0
 40
0.0
 41
1.0
 50
0.0
 71
     0
 42
0.2
  3
txt
  4

1001
AcadAnnotative
1000
AnnotativeData
1002
{
1070
     1
1070
     1
1002
}
  0
STYLE
  5
691
330
61F
100
AcDbSymbolTableRecord
100
AcDbTextStyleTableRecord
  2
SANDVIK_STYLE
 70
     0
 40
3.0
 41
1.0
 50
0.0
 71
     0
 42
3.0
  3
simplex.shx
  4

  0
ENDTAB
  0
TABLE
  2
VIEW
  5
622
330
0
100
AcDbSymbolTable
 70
     0
  0
ENDTAB
  0
TABLE
  2
UCS
  5
623
330
0
100
AcDbSymbolTable
 70
     0
  0
ENDTAB
  0
TABLE
  2
APPID
  5
625
330
0
100
AcDbSymbolTable
 70
     4
  0
APPID
  5
672
330
625
100
AcDbSymbolTableRecord
100
AcDbRegAppTableRecord
  2
ACAD
 70
     0
  0
APPID
  5
679
330
625
100
AcDbSymbolTableRecord
100
AcDbRegAppTableRecord
  2
AcadAnnotative
 70
     0
  0
APPID
  5
71E
330
625
100
AcDbSymbolTableRecord
100
AcDbRegAppTableRecord
  2
ACAD_NAV_VCDISPLAY
 70
     0
  0
APPID
  5
758
330
625
100
AcDbSymbolTableRecord
100
AcDbRegAppTableRecord
  2
ACAD_MLEADERVER
 70
     0
  0
ENDTAB
  0
TABLE
  2
DIMSTYLE
  5
626
330
0
100
AcDbSymbolTable
 70
     3
100
AcDbDimStyleTable
 71
     0
  0
DIMSTYLE
105
673
330
626
100
AcDbSymbolTableRecord
100
AcDbDimStyleTableRecord
  2
STANDARD
 70
     0
  4
 
 41
3.0
 42
2.5
 43
10.0
 44
2.5
 46
1.25
 73
     0
 74
     0
140
3.0
141
-3.0
143
0.039
145
1.5
146
0.75
147
1.5
271
     2
272
     2
279
     2
340
691
  0
DIMSTYLE
105
674
330
626
100
AcDbSymbolTableRecord
100
AcDbDimStyleTableRecord
  2
Annotative
 70
     0
340
671
1001
AcadAnnotative
1000
AnnotativeData
1002
{
1070
     1
1070
     1
1002
}
  0
DIMSTYLE
105
6B8
102
{ACAD_REACTORS
330
3E0
330
3E1
330
3E2
330
3E3
330
3E4
330
3E5
330
3E6
330
3E7
102
}
330
626
100
AcDbSymbolTableRecord
100
AcDbDimStyleTableRecord
  2
SANDVIK_DIM
 70
     0
  4
 
 40
0.0
 41
4.57
 42
0.0
 44
5.0
 73
     0
 74
     0
 77
     1
 78
     8
140
4.5
147
2.299999999999999
176
   256
177
   256
178
   256
271
     2
272
     2
279
     2
340
691
  0
ENDTAB
  0
TABLE
  2
BLOCK_RECORD
  5
61D
330
0
100
AcDbSymbolTable
 70
     8
  0
BLOCK_RECORD
  5
68C
330
61D
100
AcDbSymbolTableRecord
100
AcDbBlockTableRecord
  2
*Model_Space
340
68F
  0
BLOCK_RECORD
  5
688
330
61D
100
AcDbSymbolTableRecord
100
AcDbBlockTableRecord
  2
*Paper_Space
340
68B
  0
BLOCK_RECORD
  5
6BC
330
61D
100
AcDbSymbolTableRecord
100
AcDbBlockTableRecord
  2
*D0
340
0
  0
BLOCK_RECORD
  5
6BD
330
61D
100
AcDbSymbolTableRecord
100
AcDbBlockTableRecord
  2
*D1
340
0
  0
BLOCK_RECORD
  5
6BE
330
61D
100
AcDbSymbolTableRecord
100
AcDbBlockTableRecord
  2
*D2
340
0
  0
BLOCK_RECORD
  5
6BF
330
61D
100
AcDbSymbolTableRecord
100
AcDbBlockTableRecord
  2
*D3
340
0
  0
BLOCK_RECORD
  5
6C0
330
61D
100
AcDbSymbolTableRecord
100
AcDbBlockTableRecord
  2
*D4
340
0
  0
BLOCK_RECORD
  5
6C1
330
61D
100
AcDbSymbolTableRecord
100
AcDbBlockTableRecord
  2
*D5
340
0
  0
BLOCK_RECORD
  5
6C2
330
61D
100
AcDbSymbolTableRecord
100
AcDbBlockTableRecord
  2
*D6
340
0
  0
BLOCK_RECORD
  5
6C3
330
61D
100
AcDbSymbolTableRecord
100
AcDbBlockTableRecord
  2
*D7
340
0
  0
ENDTAB
  0
ENDSEC
  0
SECTION
  2
BLOCKS
  0
BLOCK
  5
68D
330
68C
100
AcDbEntity
  8
0
100
AcDbBlockBegin
  2
*Model_Space
 70
     0
 10
0.0
 20
0.0
 30
0.0
  3
*Model_Space
  1

  0
ENDBLK
  5
68E
330
68C
100
AcDbEntity
  8
0
100
AcDbBlockEnd
  0
BLOCK
  5
689
330
688
100
AcDbEntity
 67
     1
  8
0
100
AcDbBlockBegin
  2
*Paper_Space
 70
     0
 10
0.0
 20
0.0
 30
0.0
  3
*Paper_Space
  1

  0
ENDBLK
  5
68A
330
688
100
AcDbEntity
 67
     1
  8
0
100
AcDbBlockEnd
  0
BLOCK
  5
2
330
6BC
100
AcDbEntity
  8
0
100
AcDbBlockBegin
  2
*D0
 70
     1
 10
0.0
 20
0.0
 30
0.0
  3
*D0
  1

  0
LINE
  5
3
330
6BC
100
AcDbEntity
  8
0
100
AcDbLine
 10
-67.0
 20
-16.0274
 30
0.0
 11
-79.259039
 21
-16.0274
 31
0.0
  0
LINE
  5
4
330
6BC
100
AcDbEntity
  8
0
100
AcDbLine
 10
-33.4
 20
0.0
 30
0.0
 11
-79.259039
 21
0.0
 31
0.0
  0
LINE
  5
5
330
6BC
100
AcDbEntity
  8
0
100
AcDbLine
 10
-77.259039
 20
-16.0274
 30
0.0
 11
-77.259039
 21
0.0
 31
0.0
  0
SOLID
  5
6
330
6BC
100
AcDbEntity
  8
0
100
AcDbTrace
 10
-77.259039
 20
-16.0274
 30
0.0
 11
-77.677036
 21
-12.8524
 31
0.0
 12
-76.841043
 22
-12.8524
 32
0.0
 13
-76.841043
 23
-12.8524
 33
0.0
  0
SOLID
  5
7
330
6BC
100
AcDbEntity
  8
0
100
AcDbTrace
 10
-77.259039
 20
0.0
 30
0.0
 11
-76.841043
 21
-3.174999999999999
 31
0.0
 12
-77.677036
 22
-3.174999999999999
 32
0.0
 13
-77.677036
 23
-3.174999999999999
 33
0.0
  0
TEXT
  5
8
330
6BC
100
AcDbEntity
  8
0
100
AcDbText
 10
-79.009039
 20
-9.620936999999999
 30
0.0
 40
3.5
  1
16
 50
90.0
100
AcDbText
  0
ENDBLK
  5
9
330
6BC
100
AcDbEntity
  8
0
100
AcDbBlockEnd
  0
BLOCK
  5
A
330
6BD
100
AcDbEntity
  8
0
100
AcDbBlockBegin
  2
*D1
 70
     1
 10
0.0
 20
0.0
 30
0.0
  3
*D1
  1

  0
LINE
  5
B
330
6BD
100
AcDbEntity
  8
0
100
AcDbLine
 10
-67.0
 20
-16.0274
 30
0.0
 11
-67.0
 21
9.857086
 31
0.0
  0
LINE
  5
C
330
6BD
100
AcDbEntity
  8
0
100
AcDbLine
 10
-35.0
 20
0.0
 30
0.0
 11
-35.0
 21
9.857086
 31
0.0
  0
LINE
  5
D
330
6BD
100
AcDbEntity
  8
0
100
AcDbLine
 10
-67.0
 20
7.857085999999999
 30
0.0
 11
-35.0
 21
7.857085999999999
 31
0.0
  0
SOLID
  5
E
330
6BD
100
AcDbEntity
  8
0
100
AcDbTrace
 10
-67.0
 20
7.857085999999999
 30
0.0
 11
-63.825
 21
8.275083
 31
0.0
 12
-63.825
 22
7.439089999999999
 32
0.0
 13
-63.825
 23
7.439089999999999
 33
0.0
  0
SOLID
  5
F
330
6BD
100
AcDbEntity
  8
0
100
AcDbTrace
 10
-35.0
 20
7.857085999999999
 30
0.0
 11
-38.175
 21
7.439089999999999
 31
0.0
 12
-38.175
 22
8.275083
 32
0.0
 13
-38.175
 23
8.275083
 33
0.0
  0
TEXT
  5
10
330
6BD
100
AcDbEntity
  8
0
100
AcDbText
 10
-53.04473699999999
 20
9.607086
 30
0.0
 40
3.5
  1
32
100
AcDbText
  0
ENDBLK
  5
11
330
6BD
100
AcDbEntity
  8
0
100
AcDbBlockEnd
  0
BLOCK
  5
12
330
6BE
100
AcDbEntity
  8
0
100
AcDbBlockBegin
  2
*D2
 70
     1
 10
0.0
 20
0.0
 30
0.0
  3
*D2
  1

  0
LINE
  5
13
330
6BE
100
AcDbEntity
  8
0
100
AcDbLine
 10
-67.0
 20
-16.0274
 30
0.0
 11
-67.0
 21
-36.32688
 31
0.0
  0
LINE
  5
14
330
6BE
100
AcDbEntity
  8
0
100
AcDbLine
 10
3.0
 20
-12.876066
 30
0.0
 11
3.0
 21
-36.32688
 31
0.0
  0
LINE
  5
15
330
6BE
100
AcDbEntity
  8
0
100
AcDbLine
 10
-67.0
 20
-34.32688
 30
0.0
 11
3.0
 21
-34.32688
 31
0.0
  0
SOLID
  5
16
330
6BE
100
AcDbEntity
  8
0
100
AcDbTrace
 10
-67.0
 20
-34.32688
 30
0.0
 11
-63.825
 21
-33.908884
 31
0.0
 12
-63.825
 22
-34.744877
 32
0.0
 13
-63.825
 23
-34.744877
 33
0.0
  0
SOLID
  5
17
330
6BE
100
AcDbEntity
  8
0
100
AcDbTrace
 10
3.0
 20
-34.32688
 30
0.0
 11
-0.175
 21
-34.744877
 31
0.0
 12
-0.175
 22
-33.908884
 32
0.0
 13
-0.175
 23
-33.908884
 33
0.0
  0
TEXT
  5
18
330
6BE
100
AcDbEntity
  8
0
100
AcDbText
 10
-34.044737
 20
-32.57688
 30
0.0
 40
3.5
  1
70
100
AcDbText
  0
ENDBLK
  5
19
330
6BE
100
AcDbEntity
  8
0
100
AcDbBlockEnd
  0
BLOCK
  5
1A
330
6BF
100
AcDbEntity
  8
0
100
AcDbBlockBegin
  2
*D3
 70
     1
 10
0.0
 20
0.0
 30
0.0
  3
*D3
  1

  0
LINE
  5
1B
330
6BF
100
AcDbEntity
  8
0
100
AcDbLine
 10
3.0
 20
-15.875
 30
0.0
 11
39.185839
 21
-15.875
 31
0.0
  0
LINE
  5
1C
330
6BF
100
AcDbEntity
  8
0
100
AcDbLine
 10
0.0
 20
0.0
 30
0.0
 11
39.185839
 21
0.0
 31
0.0
  0
LINE
  5
1D
330
6BF
100
AcDbEntity
  8
0
100
AcDbLine
 10
37.185839
 20
-15.875
 30
0.0
 11
37.185839
 21
0.0
 31
0.0
  0
SOLID
  5
1E
330
6BF
100
AcDbEntity
  8
0
100
AcDbTrace
 10
37.185839
 20
-15.875
 30
0.0
 11
36.767842
 21
-12.7
 31
0.0
 12
37.603835
 22
-12.7
 32
0.0
 13
37.603835
 23
-12.7
 33
0.0
  0
SOLID
  5
1F
330
6BF
100
AcDbEntity
  8
0
100
AcDbTrace
 10
37.185839
 20
0.0
 30
0.0
 11
37.603835
 21
-3.174999999999999
 31
0.0
 12
36.767842
 22
-3.174999999999999
 32
0.0
 13
36.767842
 23
-3.174999999999999
 33
0.0
  0
TEXT
  5
20
330
6BF
100
AcDbEntity
  8
0
100
AcDbText
 10
35.435839
 20
-14.085526
 30
0.0
 40
3.5
  1
15.875
 50
90.0
100
AcDbText
  0
ENDBLK
  5
21
330
6BF
100
AcDbEntity
  8
0
100
AcDbBlockEnd
  0
BLOCK
  5
22
330
6C0
100
AcDbEntity
  8
0
100
AcDbBlockBegin
  2
*D4
 70
     1
 10
0.0
 20
0.0
 30
0.0
  3
*D4
  1

  0
LINE
  5
23
330
6C0
100
AcDbEntity
  8
0
100
AcDbLine
 10
-67.0
 20
-16.0274
 30
0.0
 11
-67.0
 21
20.069723
 31
0.0
  0
LINE
  5
24
330
6C0
100
AcDbEntity
  8
0
100
AcDbLine
 10
0.0
 20
0.0
 30
0.0
 11
0.0
 21
20.069723
 31
0.0
  0
LINE
  5
25
330
6C0
100
AcDbEntity
  8
0
100
AcDbLine
 10
-67.0
 20
18.069723
 30
0.0
 11
0.0
 21
18.069723
 31
0.0
  0
SOLID
  5
26
330
6C0
100
AcDbEntity
  8
0
100
AcDbTrace
 10
-67.0
 20
18.069723
 30
0.0
 11
-63.825
 21
18.487719
 31
0.0
 12
-63.825
 22
17.651726
 32
0.0
 13
-63.825
 23
17.651726
 33
0.0
  0
SOLID
  5
27
330
6C0
100
AcDbEntity
  8
0
100
AcDbTrace
 10
0.0
 20
18.069723
 30
0.0
 11
-3.174999999999999
 21
17.651726
 31
0.0
 12
-3.174999999999999
 22
18.487719
 32
0.0
 13
-3.174999999999999
 23
18.487719
 33
0.0
  0
TEXT
  5
28
330
6C0
100
AcDbEntity
  8
0
100
AcDbText
 10
-35.544737
 20
19.819723
 30
0.0
 40
3.5
  1
67
100
AcDbText
  0
ENDBLK
  5
29
330
6C0
100
AcDbEntity
  8
0
100
AcDbBlockEnd
  0
BLOCK
  5
2A
330
6C1
100
AcDbEntity
  8
0
100
AcDbBlockBegin
  2
*D5
 70
     1
 10
0.0
 20
0.0
 30
0.0
  3
*D5
  1

  0
LINE
  5
2B
330
6C1
100
AcDbEntity
  8
0
100
AcDbLine
 10
-67.0
 20
-16.0274
 30
0.0
 11
-89.48476199999999
 21
-16.0274
 31
0.0
  0
LINE
  5
2C
330
6C1
100
AcDbEntity
  8
0
100
AcDbLine
 10
-33.4
 20
0.0
 30
0.0
 11
-89.48476199999999
 21
0.0
 31
0.0
  0
LINE
  5
2D
330
6C1
100
AcDbEntity
  8
0
100
AcDbLine
 10
-87.484762
 20
-16.0274
 30
0.0
 11
-87.484762
 21
0.0
 31
0.0
  0
SOLID
  5
2E
330
6C1
100
AcDbEntity
  8
0
100
AcDbTrace
 10
-87.484762
 20
-16.0274
 30
0.0
 11
-87.90275900000001
 21
-12.8524
 31
0.0
 12
-87.06676599999999
 22
-12.8524
 32
0.0
 13
-87.06676599999999
 23
-12.8524
 33
0.0
  0
SOLID
  5
2F
330
6C1
100
AcDbEntity
  8
0
100
AcDbTrace
 10
-87.484762
 20
0.0
 30
0.0
 11
-87.06676599999999
 21
-3.174999999999999
 31
0.0
 12
-87.90275900000001
 22
-3.174999999999999
 32
0.0
 13
-87.90275900000001
 23
-3.174999999999999
 33
0.0
  0
TEXT
  5
30
330
6C1
100
AcDbEntity
  8
0
100
AcDbText
 10
-89.23476200000001
 20
-9.620936999999999
 30
0.0
 40
3.5
  1
16
 50
90.0
100
AcDbText
  0
ENDBLK
  5
31
330
6C1
100
AcDbEntity
  8
0
100
AcDbBlockEnd
  0
BLOCK
  5
32
330
6C2
100
AcDbEntity
  8
0
100
AcDbBlockBegin
  2
*D6
 70
     1
 10
0.0
 20
0.0
 30
0.0
  3
*D6
  1

  0
LINE
  5
33
330
6C2
100
AcDbEntity
  8
0
100
AcDbLine
 10
3.0
 20
-2.973933999999999
 30
0.0
 11
3.0
 21
8.434453999999998
 31
0.0
  0
LINE
  5
34
330
6C2
100
AcDbEntity
  8
0
100
AcDbLine
 10
0.0
 20
0.0
 30
0.0
 11
0.0
 21
8.434453999999998
 31
0.0
  0
LINE
  5
35
330
6C2
100
AcDbEntity
  8
0
100
AcDbLine
 10
-8.75
 20
6.434453999999999
 30
0.0
 11
22.948602
 21
6.434453999999999
 31
0.0
  0
SOLID
  5
36
330
6C2
100
AcDbEntity
  8
0
100
AcDbTrace
 10
3.0
 20
6.434453999999999
 30
0.0
 11
6.174999999999999
 21
6.85245
 31
0.0
 12
6.174999999999999
 22
6.016456999999999
 32
0.0
 13
6.174999999999999
 23
6.016456999999999
 33
0.0
  0
SOLID
  5
37
330
6C2
100
AcDbEntity
  8
0
100
AcDbTrace
 10
0.0
 20
6.434453999999999
 30
0.0
 11
-3.174999999999999
 21
6.016456999999999
 31
0.0
 12
-3.174999999999999
 22
6.85245
 32
0.0
 13
-3.174999999999999
 23
6.85245
 33
0.0
  0
TEXT
  5
38
330
6C2
100
AcDbEntity
  8
0
100
AcDbText
 10
13.696629
 20
8.184453999999998
 30
0.0
 40
3.5
  1
x45%%d
100
AcDbText
  0
TEXT
  5
39
330
6C2
100
AcDbEntity
  8
0
100
AcDbText
 10
8.676892
 20
8.184453999999998
 30
0.0
 40
3.5
  1
3
100
AcDbText
  0
ENDBLK
  5
3A
330
6C2
100
AcDbEntity
  8
0
100
AcDbBlockEnd
  0
BLOCK
  5
3B
330
6C3
100
AcDbEntity
  8
0
100
AcDbBlockBegin
  2
*D7
 70
     1
 10
0.0
 20
0.0
 30
0.0
  3
*D7
  1

  0
LINE
  5
3C
330
6C3
100
AcDbEntity
  8
0
100
AcDbLine
 10
0.0
 20
-15.85
 30
0.0
 11
0.0
 21
-27.760199
 31
0.0
  0
LINE
  5
3D
330
6C3
100
AcDbEntity
  8
0
100
AcDbLine
 10
3.0
 20
-12.876066
 30
0.0
 11
3.0
 21
-27.760199
 31
0.0
  0
LINE
  5
3E
330
6C3
100
AcDbEntity
  8
0
100
AcDbLine
 10
11.75
 20
-25.760199
 30
0.0
 11
-18.498099
 21
-25.760199
 31
0.0
  0
SOLID
  5
3F
330
6C3
100
AcDbEntity
  8
0
100
AcDbTrace
 10
0.0
 20
-25.760199
 30
0.0
 11
-3.174999999999999
 21
-26.178196
 31
0.0
 12
-3.174999999999999
 22
-25.342202
 32
0.0
 13
-3.174999999999999
 23
-25.342202
 33
0.0
  0
SOLID
  5
40
330
6C3
100
AcDbEntity
  8
0
100
AcDbTrace
 10
3.0
 20
-25.760199
 30
0.0
 11
6.174999999999999
 21
-25.342202
 31
0.0
 12
6.174999999999999
 22
-26.178196
 32
0.0
 13
6.174999999999999
 23
-26.178196
 33
0.0
  0
TEXT
  5
41
330
6C3
100
AcDbEntity
  8
0
100
AcDbText
 10
-13.478362
 20
-24.010199
 30
0.0
 40
3.5
  1
x45%%d
100
AcDbText
  0
TEXT
  5
42
330
6C3
100
AcDbEntity
  8
0
100
AcDbText
 10
-18.498099
 20
-24.010199
 30
0.0
 40
3.5
  1
3
100
AcDbText
  0
ENDBLK
  5
43
330
6C3
100
AcDbEntity
  8
0
100
AcDbBlockEnd
  0
ENDSEC
  0
SECTION
  2
ENTITIES
  0
LINE
  5
44
330
68C
100
AcDbEntity
  8
80
100
AcDbLine
 10
0.0
 20
0.0
 30
0.0
 11
7.347250999999999
 21
0.0
 31
0.0
  0
LINE
  5
45
330
68C
100
AcDbEntity
  8
81
100
AcDbLine
 10
-67.0
 20
-16.0274
 30
0.0
 11
-74.31374699999999
 21
-16.0274
 31
0.0
  0
LINE
  5
46
330
68C
100
AcDbEntity
  8
1
100
AcDbLine
 10
-60.86976700000001
 20
-13.1548
 30
0.0
 11
-60.86976700000001
 21
-15.85
 31
0.0
  0
LINE
  5
47
330
68C
100
AcDbEntity
  8
1
100
AcDbLine
 10
-66.791276
 20
-16.00221
 30
0.0
 11
-63.5
 21
-15.858509
 31
0.0
  0
LINE
  5
48
330
68C
100
AcDbEntity
  8
1
100
AcDbLine
 10
-35.0
 20
-15.85
 30
0.0
 11
-33.4
 21
-15.85
 31
0.0
  0
LINE
  5
49
330
68C
100
AcDbEntity
  8
SK1
100
AcDbLine
 10
23.75
 20
-9.925
 30
0.0
 11
24.75
 21
-9.657050999999999
 31
0.0
  0
LINE
  5
4A
330
68C
100
AcDbEntity
  8
1
100
AcDbLine
 10
-61.018406
 20
-13.3524
 30
0.0
 11
-60.869725
 21
-13.3524
 31
0.0
  0
LINE
  5
4B
330
68C
100
AcDbEntity
  8
1
100
AcDbLine
 10
-67.0
 20
-15.002372
 30
0.0
 11
-67.0
 21
-15.8024
 31
0.0
  0
LINE
  5
4C
330
68C
100
AcDbEntity
  8
1
100
AcDbLine
 10
8.75
 20
-4.924999999999999
 30
0.0
 11
4.15
 21
-4.924999999999999
 31
0.0
  0
LINE
  5
4D
330
68C
100
AcDbEntity
  8
1
100
AcDbLine
 10
-60.900014
 20
-15.85
 30
0.0
 11
-63.485282
 21
-15.85
 31
0.0
  0
LINE
  5
4E
330
68C
100
AcDbEntity
  8
1
100
AcDbLine
 10
-61.018406
 20
-15.6524
 30
0.0
 11
-62.2
 21
-15.6524
 31
0.0
  0
LINE
  5
4F
330
68C
100
AcDbEntity
  8
1
100
AcDbLine
 10
-63.14300799999999
 20
-15.6524
 30
0.0
 11
-63.5
 21
-15.858509
 31
0.0
  0
LINE
  5
50
330
68C
100
AcDbEntity
  8
1
100
AcDbLine
 10
-62.2
 20
-15.6524
 30
0.0
 11
-63.14300799999999
 21
-15.6524
 31
0.0
  0
LINE
  5
51
330
68C
100
AcDbEntity
  8
1
100
AcDbLine
 10
-66.791276
 20
-13.00259
 30
0.0
 11
-63.5
 21
-13.146291
 31
0.0
  0
LINE
  5
52
330
68C
100
AcDbEntity
  8
1
100
AcDbLine
 10
-61.018406
 20
-13.3524
 30
0.0
 11
-61.018406
 21
-14.002402
 31
0.0
  0
LINE
  5
53
330
68C
100
AcDbEntity
  8
SK1
100
AcDbLine
 10
9.15
 20
-9.925
 30
0.0
 11
23.75
 21
-9.925
 31
0.0
  0
LINE
  5
54
330
68C
100
AcDbEntity
  8
1
100
AcDbLine
 10
-63.485279
 20
-13.1548
 30
0.0
 11
-60.900007
 21
-13.1548
 31
0.0
  0
LINE
  5
55
330
68C
100
AcDbEntity
  8
1
100
AcDbLine
 10
-67.0
 20
-13.2024
 30
0.0
 11
-67.0
 21
-14.002428
 31
0.0
  0
LINE
  5
56
330
68C
100
AcDbEntity
  8
1
100
AcDbLine
 10
-60.86976700000001
 20
-13.1548
 30
0.0
 11
-53.686347
 21
-13.1548
 31
0.0
  0
LINE
  5
57
330
68C
100
AcDbEntity
  8
1
100
AcDbLine
 10
-43.715218
 20
0.0
 30
0.0
 11
-36.0
 21
0.0
 31
0.0
  0
LINE
  5
58
330
68C
100
AcDbEntity
  8
1
100
AcDbLine
 10
-61.018406
 20
-15.002398
 30
0.0
 11
-61.018406
 21
-15.6524
 31
0.0
  0
LINE
  5
59
330
68C
100
AcDbEntity
  8
1
100
AcDbLine
 10
-50.514743
 20
-15.849998
 30
0.0
 11
-50.5
 21
-15.858509
 31
0.0
  0
LINE
  5
5A
330
68C
100
AcDbEntity
  8
1
100
AcDbLine
 10
-61.018406
 20
-15.6524
 30
0.0
 11
-60.869725
 21
-15.6524
 31
0.0
  0
LINE
  5
5B
330
68C
100
AcDbEntity
  8
SK1
100
AcDbLine
 10
23.75
 20
-5.924999999999999
 30
0.0
 11
9.15
 21
-5.924999999999999
 31
0.0
  0
LINE
  5
5C
330
68C
100
AcDbEntity
  8
1
100
AcDbLine
 10
-62.2
 20
-15.6524
 30
0.0
 11
-62.2
 21
-15.002398
 31
0.0
  0
LINE
  5
5D
330
68C
100
AcDbEntity
  8
1
100
AcDbLine
 10
-33.4
 20
-15.85
 30
0.0
 11
-33.4
 21
0.0
 31
0.0
  0
LINE
  5
5E
330
68C
100
AcDbEntity
  8
1
100
AcDbLine
 10
-36.0
 20
-15.85
 30
0.0
 11
-53.686347
 21
-15.85
 31
0.0
  0
LINE
  5
5F
330
68C
100
AcDbEntity
  8
1
100
AcDbLine
 10
-39.025005
 20
-5.534263
 30
0.0
 11
-38.779552
 21
-5.075056
 31
0.0
  0
LINE
  5
60
330
68C
100
AcDbEntity
  8
1
100
AcDbLine
 10
-53.686347
 20
-13.1548
 30
0.0
 11
-53.686347
 21
-15.85
 31
0.0
  0
LINE
  5
61
330
68C
100
AcDbEntity
  8
1
100
AcDbLine
 10
-40.86018099999999
 20
-4.385723999999999
 30
0.0
 11
-41.275623
 21
-4.163663999999999
 31
0.0
  0
LINE
  5
62
330
68C
100
AcDbEntity
  8
1
100
AcDbLine
 10
-61.018406
 20
-13.3524
 30
0.0
 11
-62.2
 21
-13.3524
 31
0.0
  0
LINE
  5
63
330
68C
100
AcDbEntity
  8
1
100
AcDbLine
 10
-60.900014
 20
-15.85
 30
0.0
 11
-60.900011
 21
-15.652396
 31
0.0
  0
LINE
  5
64
330
68C
100
AcDbEntity
  8
1
100
AcDbLine
 10
-52.726603
 20
-5.202726
 30
0.0
 11
-59.635601
 21
-9.191637
 31
0.0
  0
LINE
  5
65
330
68C
100
AcDbEntity
  8
1
100
AcDbLine
 10
-35.0
 20
0.0
 30
0.0
 11
-33.4
 21
0.0
 31
0.0
  0
LINE
  5
66
330
68C
100
AcDbEntity
  8
1
100
AcDbLine
 10
3.750116999999999
 20
-4.525
 30
0.0
 11
2.999991999999999
 21
-4.525
 31
0.0
  0
LINE
  5
67
330
68C
100
AcDbEntity
  8
1
100
AcDbLine
 10
-43.715218
 20
0.0
 30
0.0
 11
-52.726445
 21
-5.202633999999999
 31
0.0
  0
LINE
  5
68
330
68C
100
AcDbEntity
  8
1
100
AcDbLine
 10
4.15
 20
-10.925
 30
0.0
 11
8.75
 21
-10.925
 31
0.0
  0
LINE
  5
69
330
68C
100
AcDbEntity
  8
1
100
AcDbLine
 10
-62.2
 20
-13.3524
 30
0.0
 11
-63.14300799999999
 21
-13.3524
 31
0.0
  0
LINE
  5
6A
330
68C
100
AcDbEntity
  8
SK1
100
AcDbLine
 10
24.75
 20
-6.192948999999999
 30
0.0
 11
24.75
 21
-9.657050999999999
 31
0.0
  0
LINE
  5
6B
330
68C
100
AcDbEntity
  8
1
100
AcDbLine
 10
-35.0
 20
-15.85
 30
0.0
 11
-36.0
 21
-15.85
 31
0.0
  0
LINE
  5
6C
330
68C
100
AcDbEntity
  8
1
100
AcDbLine
 10
2.999991999999999
 20
-11.325
 30
0.0
 11
3.750116999999999
 21
-11.325
 31
0.0
  0
LINE
  5
6D
330
68C
100
AcDbEntity
  8
SK1
100
AcDbLine
 10
23.75
 20
-9.925
 30
0.0
 11
23.75
 21
-5.924999999999999
 31
0.0
  0
LINE
  5
6E
330
68C
100
AcDbEntity
  8
1
100
AcDbLine
 10
-36.0
 20
-15.85
 30
0.0
 11
-36.0
 21
0.0
 31
0.0
  0
LINE
  5
6F
330
68C
100
AcDbEntity
  8
1
100
AcDbLine
 10
-67.0
 20
-15.0024
 30
0.0
 11
-60.869829
 21
-15.0024
 31
0.0
  0
LINE
  5
70
330
68C
100
AcDbEntity
  8
1
100
AcDbLine
 10
2.5
 20
-2.478277999999999
 30
0.0
 11
0.0
 21
0.0
 31
0.0
  0
LINE
  5
71
330
68C
100
AcDbEntity
  8
1
100
AcDbLine
 10
-60.869766
 20
-15.85
 30
0.0
 11
-60.900014
 21
-15.85
 31
0.0
  0
LINE
  5
72
330
68C
100
AcDbEntity
  8
SK1
100
AcDbLine
 10
9.15
 20
-5.924999999999999
 30
0.0
 11
9.15
 21
-9.925
 31
0.0
  0
LINE
  5
73
330
68C
100
AcDbEntity
  8
1
100
AcDbLine
 10
-60.900011
 20
-13.352404
 30
0.0
 11
-60.900014
 21
-13.1548
 31
0.0
  0
LINE
  5
74
330
68C
100
AcDbEntity
  8
1
100
AcDbLine
 10
-60.86976700000001
 20
-15.85
 30
0.0
 11
-53.686347
 21
-15.85
 31
0.0
  0
LINE
  5
75
330
68C
100
AcDbEntity
  8
1
100
AcDbLine
 10
8.75
 20
-10.925
 30
0.0
 11
8.75
 21
-4.924999999999999
 31
0.0
  0
LINE
  5
76
330
68C
100
AcDbEntity
  8
1
100
AcDbLine
 10
-53.21978299999999
 20
-13.1548
 30
0.0
 11
-53.686347
 21
-13.1548
 31
0.0
  0
LINE
  5
77
330
68C
100
AcDbEntity
  8
1
100
AcDbLine
 10
-52.726445
 20
-5.202633999999999
 30
0.0
 11
-52.726445
 21
-12.7548
 31
0.0
  0
LINE
  5
78
330
68C
100
AcDbEntity
  8
SK1
100
AcDbLine
 10
24.75
 20
-6.192948999999999
 30
0.0
 11
23.75
 21
-5.924999999999999
 31
0.0
  0
LINE
  5
79
330
68C
100
AcDbEntity
  8
1
100
AcDbLine
 10
-40.613945
 20
-3.591756999999999
 30
0.0
 11
-40.198503
 21
-3.813816999999999
 31
0.0
  0
LINE
  5
7A
330
68C
100
AcDbEntity
  8
1
100
AcDbLine
 10
-60.900007
 20
-13.1548
 30
0.0
 11
-60.86975899999999
 21
-13.1548
 31
0.0
  0
LINE
  5
7B
330
68C
100
AcDbEntity
  8
1
100
AcDbLine
 10
-36.0
 20
0.0
 30
0.0
 11
-35.0
 21
0.0
 31
0.0
  0
LINE
  5
7C
330
68C
100
AcDbEntity
  8
1
100
AcDbLine
 10
-62.2
 20
-14.002402
 30
0.0
 11
-62.2
 21
-13.3524
 31
0.0
  0
LINE
  5
7D
330
68C
100
AcDbEntity
  8
1
100
AcDbLine
 10
2.5
 20
-2.478277999999999
 30
0.0
 11
3.0
 21
-2.973933999999999
 31
0.0
  0
LINE
  5
7E
330
68C
100
AcDbEntity
  8
1
100
AcDbLine
 10
-59.635601
 20
-12.7548
 30
0.0
 11
-59.635601
 21
-9.191637
 31
0.0
  0
LINE
  5
7F
330
68C
100
AcDbEntity
  8
1
100
AcDbLine
 10
-52.726565
 20
-12.7548
 30
0.0
 11
-59.635601
 21
-12.7548
 31
0.0
  0
LINE
  5
80
330
68C
100
AcDbEntity
  8
1
100
AcDbLine
 10
-60.869829
 20
-14.0024
 30
0.0
 11
-67.0
 21
-14.0024
 31
0.0
  0
LINE
  5
81
330
68C
100
AcDbEntity
  8
1
100
AcDbLine
 10
-63.14300799999999
 20
-13.3524
 30
0.0
 11
-63.5
 21
-13.146291
 31
0.0
  0
LINE
  5
82
330
68C
100
AcDbEntity
  8
1
100
AcDbLine
 10
-33.4
 20
0.0
 30
0.0
 11
0.0
 21
0.0
 31
0.0
  0
LINE
  5
83
330
68C
100
AcDbEntity
  8
1
100
AcDbLine
 10
-47.208724
 20
-16.00221
 30
0.0
 11
-50.5
 21
-15.858509
 31
0.0
  0
LINE
  5
84
330
68C
100
AcDbEntity
  8
1
100
AcDbLine
 10
-35.0
 20
0.0
 30
0.0
 11
-35.0
 21
-15.85
 31
0.0
  0
LINE
  5
85
330
68C
100
AcDbEntity
  8
1
100
AcDbLine
 10
2.5
 20
-13.371722
 30
0.0
 11
0.0
 21
-15.85
 31
0.0
  0
LINE
  5
86
330
68C
100
AcDbEntity
  8
1
100
AcDbLine
 10
2.5
 20
-13.371722
 30
0.0
 11
3.0
 21
-12.876066
 31
0.0
  0
LINE
  5
87
330
68C
100
AcDbEntity
  8
1
100
AcDbLine
 10
0.0
 20
-15.85
 30
0.0
 11
-33.4
 21
-15.85
 31
0.0
  0
LINE
  5
88
330
68C
100
AcDbEntity
  8
1
100
AcDbLine
 10
2.5
 20
-13.371722
 30
0.0
 11
2.5
 21
-2.478277999999999
 31
0.0
  0
LINE
  5
89
330
68C
100
AcDbEntity
  8
1
100
AcDbLine
 10
3.0
 20
-12.876066
 30
0.0
 11
3.0
 21
-2.973933999999999
 31
0.0
  0
POINT
  5
8A
330
68C
100
AcDbEntity
  8
81
100
AcDbPoint
 10
-67.0
 20
-16.0274
 30
0.0
  0
POINT
  5
8B
330
68C
100
AcDbEntity
  8
80
100
AcDbPoint
 10
0.0
 20
0.0
 30
0.0
  0
POINT
  5
8C
330
68C
100
AcDbEntity
  8
1
100
AcDbPoint
 10
3.0
 20
-15.875
 30
0.0
  0
ARC
  5
8D
330
68C
100
AcDbEntity
  8
1
100
AcDbCircle
 10
-46.6
 20
-8.502399999999999
 30
0.0
 40
1.415999999999999
100
AcDbArc
 50
211.160371
 51
265.158644
  0
ARC
  5
8E
330
68C
100
AcDbEntity
  8
SK1
100
AcDbCircle
 10
-9.15
 20
-10.325
 30
0.0
 40
0.4
210
0.0
220
0.0
230
-1.0
100
AcDbArc
 50
0.0
 51
90.0
  0
ARC
  5
8F
330
68C
100
AcDbEntity
  8
1
100
AcDbCircle
 10
-46.6
 20
-8.502399999999999
 30
0.0
 40
1.415999999999999
100
AcDbArc
 50
198.775495
 51
211.160371
  0
ARC
  5
90
330
68C
100
AcDbEntity
  8
1
100
AcDbCircle
 10
-46.6
 20
-8.502399999999999
 30
0.0
 40
1.415999999999999
100
AcDbArc
 50
265.158644
 51
324.777222
  0
ARC
  5
91
330
68C
100
AcDbEntity
  8
1
100
AcDbCircle
 10
47.2
 20
-15.8024
 30
0.0
 40
0.2
210
0.0
220
0.0
230
-1.0
100
AcDbArc
 50
193.769583
 51
272.5
  0
CIRCLE
  5
92
330
68C
100
AcDbEntity
  8
1
100
AcDbCircle
 10
46.6
 20
-8.502399999999999
 30
0.0
 40
3.0
210
0.0
220
0.0
230
-1.0
  0
ARC
  5
93
330
68C
100
AcDbEntity
  8
1
100
AcDbCircle
 10
-66.79999999999999
 20
-15.8024
 30
0.0
 40
0.2
100
AcDbArc
 50
180.0
 51
272.5
  0
CIRCLE
  5
94
330
68C
100
AcDbEntity
  8
1
100
AcDbCircle
 10
46.6
 20
-8.502399999999999
 30
0.0
 40
3.75
210
0.0
220
0.0
230
-1.0
  0
ARC
  5
95
330
68C
100
AcDbEntity
  8
1
100
AcDbCircle
 10
-46.6
 20
-8.502399999999999
 30
0.0
 40
1.415999999999999
100
AcDbArc
 50
18.775495
 51
31.160371
  0
ARC
  5
96
330
68C
100
AcDbEntity
  8
1
100
AcDbCircle
 10
-46.6
 20
-8.502399999999999
 30
0.0
 40
1.968499999999999
100
AcDbArc
 50
294.967933
 51
354.586511
  0
CIRCLE
  5
97
330
68C
100
AcDbEntity
  8
1
100
AcDbCircle
 10
46.6
 20
-8.502399999999999
 30
0.0
 40
3.5
210
0.0
220
0.0
230
-1.0
  0
ARC
  5
98
330
68C
100
AcDbEntity
  8
1
100
AcDbCircle
 10
-46.6
 20
-8.502399999999999
 30
0.0
 40
1.968499999999999
100
AcDbArc
 50
174.586511
 51
235.349355
  0
ARC
  5
99
330
68C
100
AcDbEntity
  8
1
100
AcDbCircle
 10
-46.6
 20
-8.502399999999999
 30
0.0
 40
1.415999999999999
100
AcDbArc
 50
31.160371
 51
85.15864399999999
  0
ARC
  5
9A
330
68C
100
AcDbEntity
  8
1
100
AcDbCircle
 10
-46.6
 20
-8.502399999999999
 30
0.0
 40
1.415999999999999
100
AcDbArc
 50
144.777222
 51
198.775495
  0
ARC
  5
9B
330
68C
100
AcDbEntity
  8
1
100
AcDbCircle
 10
-46.6
 20
-8.502399999999999
 30
0.0
 40
1.415999999999999
100
AcDbArc
 50
85.15864399999999
 51
144.777222
  0
ARC
  5
9C
330
68C
100
AcDbEntity
  8
1
100
AcDbCircle
 10
-46.6
 20
-8.502399999999999
 30
0.0
 40
1.968499999999999
100
AcDbArc
 50
55.34935500000001
 51
114.967933
  0
ARC
  5
9D
330
68C
100
AcDbEntity
  8
1
100
AcDbCircle
 10
-46.6
 20
-8.502399999999999
 30
0.0
 40
1.968499999999999
100
AcDbArc
 50
354.586511
 51
55.34935499999996
  0
ARC
  5
9E
330
68C
100
AcDbEntity
  8
1
100
AcDbCircle
 10
-46.6
 20
-8.502399999999999
 30
0.0
 40
1.415999999999999
100
AcDbArc
 50
324.777222
 51
18.775495
  0
ARC
  5
9F
330
68C
100
AcDbEntity
  8
1
100
AcDbCircle
 10
-46.6
 20
-8.502399999999999
 30
0.0
 40
1.968499999999999
100
AcDbArc
 50
235.349355
 51
294.967933
  0
ARC
  5
A0
330
68C
100
AcDbEntity
  8
1
100
AcDbCircle
 10
-46.6
 20
-8.502399999999999
 30
0.0
 40
1.968499999999999
100
AcDbArc
 50
114.967933
 51
174.586511
  0
ARC
  5
A1
330
68C
100
AcDbEntity
  8
SK1
100
AcDbCircle
 10
-9.15
 20
-5.525
 30
0.0
 40
0.4
210
0.0
220
0.0
230
-1.0
100
AcDbArc
 50
270.0
 51
0.0
  0
ARC
  5
A2
330
68C
100
AcDbEntity
  8
1
100
AcDbCircle
 10
66.79999999999999
 20
-13.2024
 30
0.0
 40
0.2
210
0.0
220
0.0
230
-1.0
100
AcDbArc
 50
0.0
 51
92.5
  0
TEXT
  5
A3
330
68C
100
AcDbEntity
  8
SK6
100
AcDbText
 10
-53.46753299999999
 20
28.925023
 30
0.0
 40
3.5
  1
QS-RF123G067-10BHP
 41
0.7669856528925622
  7
SANDVIK_STYLE
 72
     5
 11
-7.064900999999999
 21
28.925023
 31
0.0
100
AcDbText
  0
POLYLINE
  5
A4
330
68C
100
AcDbEntity
  8
1
100
AcDb3dPolyline
 66
     1
 10
0.0
 20
0.0
 30
0.0
 70
     8
  0
VERTEX
  5
A5
330
A4
100
AcDbEntity
  8
1
100
AcDbVertex
100
AcDb3dPolylineVertex
 10
-48.28838
 20
-8.022813000000001
 30
0.0
 70
    32
  0
VERTEX
  5
A6
330
A4
100
AcDbEntity
  8
1
100
AcDbVertex
100
AcDb3dPolylineVertex
 10
-48.231673
 20
-8.010778
 30
0.0
 70
    32
  0
VERTEX
  5
A7
330
A4
100
AcDbEntity
  8
1
100
AcDbVertex
100
AcDb3dPolylineVertex
 10
-48.175698
 20
-7.994699999999999
 30
0.0
 70
    32
  0
VERTEX
  5
A8
330
A4
100
AcDbEntity
  8
1
100
AcDbVertex
100
AcDb3dPolylineVertex
 10
-48.120393
 20
-7.974469
 30
0.0
 70
    32
  0
VERTEX
  5
A9
330
A4
100
AcDbEntity
  8
1
100
AcDbVertex
100
AcDb3dPolylineVertex
 10
-48.06565599999999
 20
-7.949847
 30
0.0
 70
    32
  0
VERTEX
  5
AA
330
A4
100
AcDbEntity
  8
1
100
AcDbVertex
100
AcDb3dPolylineVertex
 10
-48.01201500000001
 20
-7.920847
 30
0.0
 70
    32
  0
VERTEX
  5
AB
330
A4
100
AcDbEntity
  8
1
100
AcDbVertex
100
AcDb3dPolylineVertex
 10
-47.96009799999999
 20
-7.887578999999999
 30
0.0
 70
    32
  0
VERTEX
  5
AC
330
A4
100
AcDbEntity
  8
1
100
AcDbVertex
100
AcDb3dPolylineVertex
 10
-47.91021299999999
 20
-7.850036
 30
0.0
 70
    32
  0
VERTEX
  5
AD
330
A4
100
AcDbEntity
  8
1
100
AcDbVertex
100
AcDb3dPolylineVertex
 10
-47.86242999999999
 20
-7.807980999999999
 30
0.0
 70
    32
  0
VERTEX
  5
AE
330
A4
100
AcDbEntity
  8
1
100
AcDbVertex
100
AcDb3dPolylineVertex
 10
-47.81757
 20
-7.761872
 30
0.0
 70
    32
  0
VERTEX
  5
AF
330
A4
100
AcDbEntity
  8
1
100
AcDbVertex
100
AcDb3dPolylineVertex
 10
-47.776363
 20
-7.712335999999999
 30
0.0
 70
    32
  0
VERTEX
  5
B0
330
A4
100
AcDbEntity
  8
1
100
AcDbVertex
100
AcDb3dPolylineVertex
 10
-47.739088
 20
-7.659622999999999
 30
0.0
 70
    32
  0
VERTEX
  5
B1
330
A4
100
AcDbEntity
  8
1
100
AcDbVertex
100
AcDb3dPolylineVertex
 10
-47.705883
 20
-7.603842
 30
0.0
 70
    32
  0
VERTEX
  5
B2
330
A4
100
AcDbEntity
  8
1
100
AcDbVertex
100
AcDb3dPolylineVertex
 10
-47.67729099999999
 20
-7.546066999999999
 30
0.0
 70
    32
  0
VERTEX
  5
B3
330
A4
100
AcDbEntity
  8
1
100
AcDbVertex
100
AcDb3dPolylineVertex
 10
-47.65363599999999
 20
-7.487055999999999
 30
0.0
 70
    32
  0
VERTEX
  5
B4
330
A4
100
AcDbEntity
  8
1
100
AcDbVertex
100
AcDb3dPolylineVertex
 10
-47.634752
 20
-7.427047999999999
 30
0.0
 70
    32
  0
VERTEX
  5
B5
330
A4
100
AcDbEntity
  8
1
100
AcDbVertex
100
AcDb3dPolylineVertex
 10
-47.620677
 20
-7.366805
 30
0.0
 70
    32
  0
VERTEX
  5
B6
330
A4
100
AcDbEntity
  8
1
100
AcDbVertex
100
AcDb3dPolylineVertex
 10
-47.61130099999999
 20
-7.306936
 30
0.0
 70
    32
  0
VERTEX
  5
B7
330
A4
100
AcDbEntity
  8
1
100
AcDbVertex
100
AcDb3dPolylineVertex
 10
-47.60640399999999
 20
-7.247463999999999
 30
0.0
 70
    32
  0
VERTEX
  5
B8
330
A4
100
AcDbEntity
  8
1
100
AcDbVertex
100
AcDb3dPolylineVertex
 10
-47.605795
 20
-7.188318999999999
 30
0.0
 70
    32
  0
VERTEX
  5
B9
330
A4
100
AcDbEntity
  8
1
100
AcDbVertex
100
AcDb3dPolylineVertex
 10
-47.60937799999999
 20
-7.129678999999999
 30
0.0
 70
    32
  0
VERTEX
  5
BA
330
A4
100
AcDbEntity
  8
1
100
AcDbVertex
100
AcDb3dPolylineVertex
 10
-47.617032
 20
-7.071917999999999
 30
0.0
 70
    32
  0
SEQEND
  5
BB
330
A4
100
AcDbEntity
  8
1
  0
POLYLINE
  5
BC
330
68C
100
AcDbEntity
  8
1
100
AcDb3dPolyline
 66
     1
 10
0.0
 20
0.0
 30
0.0
 70
     8
  0
VERTEX
  5
BD
330
BC
100
AcDbEntity
  8
1
100
AcDbVertex
100
AcDb3dPolylineVertex
 10
-47.84004099999999
 20
-9.732955
 30
0.0
 70
    32
  0
VERTEX
  5
BE
330
BC
100
AcDbEntity
  8
1
100
AcDbVertex
100
AcDb3dPolylineVertex
 10
-47.849884
 20
-9.763053999999998
 30
0.0
 70
    32
  0
VERTEX
  5
BF
330
BC
100
AcDbEntity
  8
1
100
AcDbVertex
100
AcDb3dPolylineVertex
 10
-47.856802
 20
-9.794066
 30
0.0
 70
    32
  0
VERTEX
  5
C0
330
BC
100
AcDbEntity
  8
1
100
AcDbVertex
100
AcDb3dPolylineVertex
 10
-47.860711
 20
-9.826002
 30
0.0
 70
    32
  0
VERTEX
  5
C1
330
BC
100
AcDbEntity
  8
1
100
AcDbVertex
100
AcDb3dPolylineVertex
 10
-47.86149799999999
 20
-9.858691
 30
0.0
 70
    32
  0
VERTEX
  5
C2
330
BC
100
AcDbEntity
  8
1
100
AcDbVertex
100
AcDb3dPolylineVertex
 10
-47.859014
 20
-9.891572
 30
0.0
 70
    32
  0
VERTEX
  5
C3
330
BC
100
AcDbEntity
  8
1
100
AcDbVertex
100
AcDb3dPolylineVertex
 10
-47.853177
 20
-9.924388
 30
0.0
 70
    32
  0
VERTEX
  5
C4
330
BC
100
AcDbEntity
  8
1
100
AcDbVertex
100
AcDb3dPolylineVertex
 10
-47.84390199999999
 20
-9.956894
 30
0.0
 70
    32
  0
VERTEX
  5
C5
330
BC
100
AcDbEntity
  8
1
100
AcDbVertex
100
AcDb3dPolylineVertex
 10
-47.831137
 20
-9.988716
 30
0.0
 70
    32
  0
VERTEX
  5
C6
330
BC
100
AcDbEntity
  8
1
100
AcDbVertex
100
AcDb3dPolylineVertex
 10
-47.814983
 20
-10.019366
 30
0.0
 70
    32
  0
VERTEX
  5
C7
330
BC
100
AcDbEntity
  8
1
100
AcDbVertex
100
AcDb3dPolylineVertex
 10
-47.79554799999999
 20
-10.048356
 30
0.0
 70
    32
  0
VERTEX
  5
C8
330
BC
100
AcDbEntity
  8
1
100
AcDbVertex
100
AcDb3dPolylineVertex
 10
-47.772904
 20
-10.075352
 30
0.0
 70
    32
  0
VERTEX
  5
C9
330
BC
100
AcDbEntity
  8
1
100
AcDbVertex
100
AcDb3dPolylineVertex
 10
-47.747345
 20
-10.099966
 30
0.0
 70
    32
  0
VERTEX
  5
CA
330
BC
100
AcDbEntity
  8
1
100
AcDbVertex
100
AcDb3dPolylineVertex
 10
-47.71923199999999
 20
-10.121755
 30
0.0
 70
    32
  0
SEQEND
  5
CB
330
BC
100
AcDbEntity
  8
1
  0
POLYLINE
  5
CC
330
68C
100
AcDbEntity
  8
1
100
AcDb3dPolyline
 66
     1
 10
0.0
 20
0.0
 30
0.0
 70
     8
  0
VERTEX
  5
CD
330
CC
100
AcDbEntity
  8
1
100
AcDbVertex
100
AcDb3dPolylineVertex
 10
-47.430925
 20
-6.717867999999999
 30
0.0
 70
    32
  0
VERTEX
  5
CE
330
CC
100
AcDbEntity
  8
1
100
AcDbVertex
100
AcDb3dPolylineVertex
 10
-47.461486
 20
-6.734121
 30
0.0
 70
    32
  0
VERTEX
  5
CF
330
CC
100
AcDbEntity
  8
1
100
AcDbVertex
100
AcDb3dPolylineVertex
 10
-47.49017399999999
 20
-6.753466
 30
0.0
 70
    32
  0
VERTEX
  5
D0
330
CC
100
AcDbEntity
  8
1
100
AcDbVertex
100
AcDb3dPolylineVertex
 10
-47.51659899999999
 20
-6.775599999999999
 30
0.0
 70
    32
  0
VERTEX
  5
D1
330
CC
100
AcDbEntity
  8
1
100
AcDbVertex
100
AcDb3dPolylineVertex
 10
-47.540376
 20
-6.800177999999999
 30
0.0
 70
    32
  0
VERTEX
  5
D2
330
CC
100
AcDbEntity
  8
1
100
AcDbVertex
100
AcDb3dPolylineVertex
 10
-47.561283
 20
-6.826805999999999
 30
0.0
 70
    32
  0
VERTEX
  5
D3
330
CC
100
AcDbEntity
  8
1
100
AcDbVertex
100
AcDb3dPolylineVertex
 10
-47.57921699999999
 20
-6.855185999999999
 30
0.0
 70
    32
  0
VERTEX
  5
D4
330
CC
100
AcDbEntity
  8
1
100
AcDbVertex
100
AcDb3dPolylineVertex
 10
-47.594057
 20
-6.884966
 30
0.0
 70
    32
  0
VERTEX
  5
D5
330
CC
100
AcDbEntity
  8
1
100
AcDbVertex
100
AcDb3dPolylineVertex
 10
-47.60565699999999
 20
-6.915557999999999
 30
0.0
 70
    32
  0
VERTEX
  5
D6
330
CC
100
AcDbEntity
  8
1
100
AcDbVertex
100
AcDb3dPolylineVertex
 10
-47.61406799999999
 20
-6.946755999999999
 30
0.0
 70
    32
  0
VERTEX
  5
D7
330
CC
100
AcDbEntity
  8
1
100
AcDbVertex
100
AcDb3dPolylineVertex
 10
-47.619362
 20
-6.978401999999999
 30
0.0
 70
    32
  0
VERTEX
  5
D8
330
CC
100
AcDbEntity
  8
1
100
AcDbVertex
100
AcDb3dPolylineVertex
 10
-47.62157
 20
-7.009935999999999
 30
0.0
 70
    32
  0
VERTEX
  5
D9
330
CC
100
AcDbEntity
  8
1
100
AcDbVertex
100
AcDb3dPolylineVertex
 10
-47.620762
 20
-7.041122
 30
0.0
 70
    32
  0
VERTEX
  5
DA
330
CC
100
AcDbEntity
  8
1
100
AcDbVertex
100
AcDb3dPolylineVertex
 10
-47.617032
 20
-7.071917999999999
 30
0.0
 70
    32
  0
SEQEND
  5
DB
330
CC
100
AcDbEntity
  8
1
  0
POLYLINE
  5
DC
330
68C
100
AcDbEntity
  8
1
100
AcDb3dPolyline
 66
     1
 10
0.0
 20
0.0
 30
0.0
 70
     8
  0
VERTEX
  5
DD
330
DC
100
AcDbEntity
  8
1
100
AcDbVertex
100
AcDb3dPolylineVertex
 10
-40.198503
 20
-3.813816999999999
 30
0.0
 70
    32
  0
VERTEX
  5
DE
330
DC
100
AcDbEntity
  8
1
100
AcDbVertex
100
AcDb3dPolylineVertex
 10
-40.144823
 20
-3.834441
 30
0.0
 70
    32
  0
VERTEX
  5
DF
330
DC
100
AcDbEntity
  8
1
100
AcDbVertex
100
AcDb3dPolylineVertex
 10
-40.091508
 20
-3.854836
 30
0.0
 70
    32
  0
VERTEX
  5
E0
330
DC
100
AcDbEntity
  8
1
100
AcDbVertex
100
AcDb3dPolylineVertex
 10
-40.03859199999999
 20
-3.874980999999999
 30
0.0
 70
    32
  0
VERTEX
  5
E1
330
DC
100
AcDbEntity
  8
1
100
AcDbVertex
100
AcDb3dPolylineVertex
 10
-39.986107
 20
-3.894855
 30
0.0
 70
    32
  0
VERTEX
  5
E2
330
DC
100
AcDbEntity
  8
1
100
AcDbVertex
100
AcDb3dPolylineVertex
 10
-39.934085
 20
-3.914437999999999
 30
0.0
 70
    32
  0
VERTEX
  5
E3
330
DC
100
AcDbEntity
  8
1
100
AcDbVertex
100
AcDb3dPolylineVertex
 10
-39.882559
 20
-3.933709999999999
 30
0.0
 70
    32
  0
VERTEX
  5
E4
330
DC
100
AcDbEntity
  8
1
100
AcDbVertex
100
AcDb3dPolylineVertex
 10
-39.831562
 20
-3.952648999999999
 30
0.0
 70
    32
  0
SEQEND
  5
E5
330
DC
100
AcDbEntity
  8
1
  0
POLYLINE
  5
E6
330
68C
100
AcDbEntity
  8
1
100
AcDb3dPolyline
 66
     1
 10
0.0
 20
0.0
 30
0.0
 70
     8
  0
VERTEX
  5
E7
330
E6
100
AcDbEntity
  8
1
100
AcDbVertex
100
AcDb3dPolylineVertex
 10
-39.745836
 20
-4.726173
 30
0.0
 70
    32
  0
VERTEX
  5
E8
330
E6
100
AcDbEntity
  8
1
100
AcDbVertex
100
AcDb3dPolylineVertex
 10
-39.747329
 20
-4.665582999999999
 30
0.0
 70
    32
  0
VERTEX
  5
E9
330
E6
100
AcDbEntity
  8
1
100
AcDbVertex
100
AcDb3dPolylineVertex
 10
-39.749679
 20
-4.603958999999999
 30
0.0
 70
    32
  0
VERTEX
  5
EA
330
E6
100
AcDbEntity
  8
1
100
AcDbVertex
100
AcDb3dPolylineVertex
 10
-39.753004
 20
-4.541159999999999
 30
0.0
 70
    32
  0
VERTEX
  5
EB
330
E6
100
AcDbEntity
  8
1
100
AcDbVertex
100
AcDb3dPolylineVertex
 10
-39.75743
 20
-4.477032
 30
0.0
 70
    32
  0
VERTEX
  5
EC
330
E6
100
AcDbEntity
  8
1
100
AcDbVertex
100
AcDb3dPolylineVertex
 10
-39.763047
 20
-4.411696
 30
0.0
 70
    32
  0
VERTEX
  5
ED
330
E6
100
AcDbEntity
  8
1
100
AcDbVertex
100
AcDb3dPolylineVertex
 10
-39.76987000000001
 20
-4.345576
 30
0.0
 70
    32
  0
VERTEX
  5
EE
330
E6
100
AcDbEntity
  8
1
100
AcDbVertex
100
AcDb3dPolylineVertex
 10
-39.777912
 20
-4.279055
 30
0.0
 70
    32
  0
VERTEX
  5
EF
330
E6
100
AcDbEntity
  8
1
100
AcDbVertex
100
AcDb3dPolylineVertex
 10
-39.787161
 20
-4.212119999999999
 30
0.0
 70
    32
  0
VERTEX
  5
F0
330
E6
100
AcDbEntity
  8
1
100
AcDbVertex
100
AcDb3dPolylineVertex
 10
-39.797565
 20
-4.144758999999999
 30
0.0
 70
    32
  0
VERTEX
  5
F1
330
E6
100
AcDbEntity
  8
1
100
AcDbVertex
100
AcDb3dPolylineVertex
 10
-39.80907100000001
 20
-4.076991
 30
0.0
 70
    32
  0
VERTEX
  5
F2
330
E6
100
AcDbEntity
  8
1
100
AcDbVertex
100
AcDb3dPolylineVertex
 10
-39.821592
 20
-4.008906999999999
 30
0.0
 70
    32
  0
VERTEX
  5
F3
330
E6
100
AcDbEntity
  8
1
100
AcDbVertex
100
AcDb3dPolylineVertex
 10
-39.834973
 20
-3.940803999999999
 30
0.0
 70
    32
  0
VERTEX
  5
F4
330
E6
100
AcDbEntity
  8
1
100
AcDbVertex
100
AcDb3dPolylineVertex
 10
-39.849051
 20
-3.873010999999999
 30
0.0
 70
    32
  0
SEQEND
  5
F5
330
E6
100
AcDbEntity
  8
1
  0
POLYLINE
  5
F6
330
68C
100
AcDbEntity
  8
1
100
AcDb3dPolyline
 66
     1
 10
0.0
 20
0.0
 30
0.0
 70
     8
  0
VERTEX
  5
F7
330
F6
100
AcDbEntity
  8
1
100
AcDbVertex
100
AcDb3dPolylineVertex
 10
-40.407514
 20
-5.29808
 30
0.0
 70
    32
  0
VERTEX
  5
F8
330
F6
100
AcDbEntity
  8
1
100
AcDbVertex
100
AcDb3dPolylineVertex
 10
-40.341082
 20
-5.250919999999999
 30
0.0
 70
    32
  0
VERTEX
  5
F9
330
F6
100
AcDbEntity
  8
1
100
AcDbVertex
100
AcDb3dPolylineVertex
 10
-40.275461
 20
-5.202814
 30
0.0
 70
    32
  0
VERTEX
  5
FA
330
F6
100
AcDbEntity
  8
1
100
AcDbVertex
100
AcDb3dPolylineVertex
 10
-40.210752
 20
-5.153648
 30
0.0
 70
    32
  0
VERTEX
  5
FB
330
F6
100
AcDbEntity
  8
1
100
AcDbVertex
100
AcDb3dPolylineVertex
 10
-40.147052
 20
-5.103305
 30
0.0
 70
    32
  0
VERTEX
  5
FC
330
F6
100
AcDbEntity
  8
1
100
AcDbVertex
100
AcDb3dPolylineVertex
 10
-40.08446
 20
-5.051671999999999
 30
0.0
 70
    32
  0
VERTEX
  5
FD
330
F6
100
AcDbEntity
  8
1
100
AcDbVertex
100
AcDb3dPolylineVertex
 10
-40.023152
 20
-4.998708999999999
 30
0.0
 70
    32
  0
VERTEX
  5
FE
330
F6
100
AcDbEntity
  8
1
100
AcDbVertex
100
AcDb3dPolylineVertex
 10
-39.963701
 20
-4.944911
 30
0.0
 70
    32
  0
VERTEX
  5
FF
330
F6
100
AcDbEntity
  8
1
100
AcDbVertex
100
AcDb3dPolylineVertex
 10
-39.906334
 20
-4.890634999999999
 30
0.0
 70
    32
  0
VERTEX
  5
100
330
F6
100
AcDbEntity
  8
1
100
AcDbVertex
100
AcDb3dPolylineVertex
 10
-39.85109400000001
 20
-4.836098
 30
0.0
 70
    32
  0
VERTEX
  5
101
330
F6
100
AcDbEntity
  8
1
100
AcDbVertex
100
AcDb3dPolylineVertex
 10
-39.797672
 20
-4.781266999999999
 30
0.0
 70
    32
  0
VERTEX
  5
102
330
F6
100
AcDbEntity
  8
1
100
AcDbVertex
100
AcDb3dPolylineVertex
 10
-39.745836
 20
-4.726173
 30
0.0
 70
    32
  0
SEQEND
  5
103
330
F6
100
AcDbEntity
  8
1
  0
POLYLINE
  5
104
330
68C
100
AcDbEntity
  8
1
100
AcDb3dPolyline
 66
     1
 10
0.0
 20
0.0
 30
0.0
 70
     8
  0
VERTEX
  5
105
330
104
100
AcDbEntity
  8
1
100
AcDbVertex
100
AcDb3dPolylineVertex
 10
-45.359959
 20
-7.271844999999999
 30
0.0
 70
    32
  0
VERTEX
  5
106
330
104
100
AcDbEntity
  8
1
100
AcDbVertex
100
AcDb3dPolylineVertex
 10
-45.35011599999999
 20
-7.241746
 30
0.0
 70
    32
  0
VERTEX
  5
107
330
104
100
AcDbEntity
  8
1
100
AcDbVertex
100
AcDb3dPolylineVertex
 10
-45.343198
 20
-7.210733999999999
 30
0.0
 70
    32
  0
VERTEX
  5
108
330
104
100
AcDbEntity
  8
1
100
AcDbVertex
100
AcDb3dPolylineVertex
 10
-45.339289
 20
-7.178797999999999
 30
0.0
 70
    32
  0
VERTEX
  5
109
330
104
100
AcDbEntity
  8
1
100
AcDbVertex
100
AcDb3dPolylineVertex
 10
-45.338502
 20
-7.146109
 30
0.0
 70
    32
  0
VERTEX
  5
10A
330
104
100
AcDbEntity
  8
1
100
AcDbVertex
100
AcDb3dPolylineVertex
 10
-45.340986
 20
-7.113227999999999
 30
0.0
 70
    32
  0
VERTEX
  5
10B
330
104
100
AcDbEntity
  8
1
100
AcDbVertex
100
AcDb3dPolylineVertex
 10
-45.346823
 20
-7.080411999999999
 30
0.0
 70
    32
  0
VERTEX
  5
10C
330
104
100
AcDbEntity
  8
1
100
AcDbVertex
100
AcDb3dPolylineVertex
 10
-45.35609799999999
 20
-7.047905999999999
 30
0.0
 70
    32
  0
VERTEX
  5
10D
330
104
100
AcDbEntity
  8
1
100
AcDbVertex
100
AcDb3dPolylineVertex
 10
-45.36886299999999
 20
-7.016083999999999
 30
0.0
 70
    32
  0
VERTEX
  5
10E
330
104
100
AcDbEntity
  8
1
100
AcDbVertex
100
AcDb3dPolylineVertex
 10
-45.385017
 20
-6.985433999999999
 30
0.0
 70
    32
  0
VERTEX
  5
10F
330
104
100
AcDbEntity
  8
1
100
AcDbVertex
100
AcDb3dPolylineVertex
 10
-45.40445199999999
 20
-6.956444
 30
0.0
 70
    32
  0
VERTEX
  5
110
330
104
100
AcDbEntity
  8
1
100
AcDbVertex
100
AcDb3dPolylineVertex
 10
-45.427096
 20
-6.929447999999999
 30
0.0
 70
    32
  0
VERTEX
  5
111
330
104
100
AcDbEntity
  8
1
100
AcDbVertex
100
AcDb3dPolylineVertex
 10
-45.452655
 20
-6.904833999999999
 30
0.0
 70
    32
  0
VERTEX
  5
112
330
104
100
AcDbEntity
  8
1
100
AcDbVertex
100
AcDb3dPolylineVertex
 10
-45.48076799999999
 20
-6.883045
 30
0.0
 70
    32
  0
SEQEND
  5
113
330
104
100
AcDbEntity
  8
1
  0
POLYLINE
  5
114
330
68C
100
AcDbEntity
  8
1
100
AcDb3dPolyline
 66
     1
 10
0.0
 20
0.0
 30
0.0
 70
     8
  0
VERTEX
  5
115
330
114
100
AcDbEntity
  8
1
100
AcDbVertex
100
AcDb3dPolylineVertex
 10
-39.849051
 20
-3.873010999999999
 30
0.0
 70
    32
  0
VERTEX
  5
116
330
114
100
AcDbEntity
  8
1
100
AcDbVertex
100
AcDb3dPolylineVertex
 10
-39.910034
 20
-3.851811
 30
0.0
 70
    32
  0
VERTEX
  5
117
330
114
100
AcDbEntity
  8
1
100
AcDbVertex
100
AcDb3dPolylineVertex
 10
-39.972618
 20
-3.829826
 30
0.0
 70
    32
  0
VERTEX
  5
118
330
114
100
AcDbEntity
  8
1
100
AcDbVertex
100
AcDb3dPolylineVertex
 10
-40.036996
 20
-3.806959999999999
 30
0.0
 70
    32
  0
VERTEX
  5
119
330
114
100
AcDbEntity
  8
1
100
AcDbVertex
100
AcDb3dPolylineVertex
 10
-40.10336599999999
 20
-3.783117999999999
 30
0.0
 70
    32
  0
VERTEX
  5
11A
330
114
100
AcDbEntity
  8
1
100
AcDbVertex
100
AcDb3dPolylineVertex
 10
-40.17192
 20
-3.758205
 30
0.0
 70
    32
  0
VERTEX
  5
11B
330
114
100
AcDbEntity
  8
1
100
AcDbVertex
100
AcDb3dPolylineVertex
 10
-40.24274899999999
 20
-3.732162999999999
 30
0.0
 70
    32
  0
VERTEX
  5
11C
330
114
100
AcDbEntity
  8
1
100
AcDbVertex
100
AcDb3dPolylineVertex
 10
-40.315193
 20
-3.705237999999999
 30
0.0
 70
    32
  0
VERTEX
  5
11D
330
114
100
AcDbEntity
  8
1
100
AcDbVertex
100
AcDb3dPolylineVertex
 10
-40.38874
 20
-3.677634999999999
 30
0.0
 70
    32
  0
VERTEX
  5
11E
330
114
100
AcDbEntity
  8
1
100
AcDbVertex
100
AcDb3dPolylineVertex
 10
-40.463065
 20
-3.649496
 30
0.0
 70
    32
  0
VERTEX
  5
11F
330
114
100
AcDbEntity
  8
1
100
AcDbVertex
100
AcDb3dPolylineVertex
 10
-40.538163
 20
-3.620849999999999
 30
0.0
 70
    32
  0
VERTEX
  5
120
330
114
100
AcDbEntity
  8
1
100
AcDbVertex
100
AcDb3dPolylineVertex
 10
-40.613945
 20
-3.591756999999999
 30
0.0
 70
    32
  0
SEQEND
  5
121
330
114
100
AcDbEntity
  8
1
  0
POLYLINE
  5
122
330
68C
100
AcDbEntity
  8
1
100
AcDb3dPolyline
 66
     1
 10
0.0
 20
0.0
 30
0.0
 70
     8
  0
VERTEX
  5
123
330
122
100
AcDbEntity
  8
1
100
AcDbVertex
100
AcDb3dPolylineVertex
 10
-40.86018099999999
 20
-4.385723999999999
 30
0.0
 70
    32
  0
VERTEX
  5
124
330
122
100
AcDbEntity
  8
1
100
AcDbVertex
100
AcDb3dPolylineVertex
 10
-40.84361099999999
 20
-4.46588
 30
0.0
 70
    32
  0
VERTEX
  5
125
330
122
100
AcDbEntity
  8
1
100
AcDbVertex
100
AcDb3dPolylineVertex
 10
-40.828133
 20
-4.545991
 30
0.0
 70
    32
  0
VERTEX
  5
126
330
122
100
AcDbEntity
  8
1
100
AcDbVertex
100
AcDb3dPolylineVertex
 10
-40.813904
 20
-4.626058
 30
0.0
 70
    32
  0
VERTEX
  5
127
330
122
100
AcDbEntity
  8
1
100
AcDbVertex
100
AcDb3dPolylineVertex
 10
-40.80107199999999
 20
-4.706148
 30
0.0
 70
    32
  0
VERTEX
  5
128
330
122
100
AcDbEntity
  8
1
100
AcDbVertex
100
AcDb3dPolylineVertex
 10
-40.78978499999999
 20
-4.786078999999999
 30
0.0
 70
    32
  0
VERTEX
  5
129
330
122
100
AcDbEntity
  8
1
100
AcDbVertex
100
AcDb3dPolylineVertex
 10
-40.78020699999999
 20
-4.865426
 30
0.0
 70
    32
  0
VERTEX
  5
12A
330
122
100
AcDbEntity
  8
1
100
AcDbVertex
100
AcDb3dPolylineVertex
 10
-40.772465
 20
-4.943132
 30
0.0
 70
    32
  0
VERTEX
  5
12B
330
122
100
AcDbEntity
  8
1
100
AcDbVertex
100
AcDb3dPolylineVertex
 10
-40.76642899999999
 20
-5.019175999999999
 30
0.0
 70
    32
  0
VERTEX
  5
12C
330
122
100
AcDbEntity
  8
1
100
AcDbVertex
100
AcDb3dPolylineVertex
 10
-40.76193899999999
 20
-5.093713
 30
0.0
 70
    32
  0
VERTEX
  5
12D
330
122
100
AcDbEntity
  8
1
100
AcDbVertex
100
AcDb3dPolylineVertex
 10
-40.75883799999999
 20
-5.166898
 30
0.0
 70
    32
  0
VERTEX
  5
12E
330
122
100
AcDbEntity
  8
1
100
AcDbVertex
100
AcDb3dPolylineVertex
 10
-40.75696599999999
 20
-5.238885999999999
 30
0.0
 70
    32
  0
SEQEND
  5
12F
330
122
100
AcDbEntity
  8
1
  0
POLYLINE
  5
130
330
68C
100
AcDbEntity
  8
1
100
AcDb3dPolyline
 66
     1
 10
0.0
 20
0.0
 30
0.0
 70
     8
  0
VERTEX
  5
131
330
130
100
AcDbEntity
  8
1
100
AcDbVertex
100
AcDb3dPolylineVertex
 10
-41.275623
 20
-4.163663999999999
 30
0.0
 70
    32
  0
VERTEX
  5
132
330
130
100
AcDbEntity
  8
1
100
AcDbVertex
100
AcDb3dPolylineVertex
 10
-41.209191
 20
-4.116503999999999
 30
0.0
 70
    32
  0
VERTEX
  5
133
330
130
100
AcDbEntity
  8
1
100
AcDbVertex
100
AcDb3dPolylineVertex
 10
-41.143571
 20
-4.068398999999999
 30
0.0
 70
    32
  0
VERTEX
  5
134
330
130
100
AcDbEntity
  8
1
100
AcDbVertex
100
AcDb3dPolylineVertex
 10
-41.07886099999999
 20
-4.019231999999999
 30
0.0
 70
    32
  0
VERTEX
  5
135
330
130
100
AcDbEntity
  8
1
100
AcDbVertex
100
AcDb3dPolylineVertex
 10
-41.015161
 20
-3.968888999999999
 30
0.0
 70
    32
  0
VERTEX
  5
136
330
130
100
AcDbEntity
  8
1
100
AcDbVertex
100
AcDb3dPolylineVertex
 10
-40.95257
 20
-3.917255999999999
 30
0.0
 70
    32
  0
VERTEX
  5
137
330
130
100
AcDbEntity
  8
1
100
AcDbVertex
100
AcDb3dPolylineVertex
 10
-40.891261
 20
-3.864292999999999
 30
0.0
 70
    32
  0
VERTEX
  5
138
330
130
100
AcDbEntity
  8
1
100
AcDbVertex
100
AcDb3dPolylineVertex
 10
-40.83180999999999
 20
-3.810494999999999
 30
0.0
 70
    32
  0
VERTEX
  5
139
330
130
100
AcDbEntity
  8
1
100
AcDbVertex
100
AcDb3dPolylineVertex
 10
-40.77444299999999
 20
-3.756219
 30
0.0
 70
    32
  0
VERTEX
  5
13A
330
130
100
AcDbEntity
  8
1
100
AcDbVertex
100
AcDb3dPolylineVertex
 10
-40.719203
 20
-3.701681999999999
 30
0.0
 70
    32
  0
VERTEX
  5
13B
330
130
100
AcDbEntity
  8
1
100
AcDbVertex
100
AcDb3dPolylineVertex
 10
-40.665781
 20
-3.646851
 30
0.0
 70
    32
  0
VERTEX
  5
13C
330
130
100
AcDbEntity
  8
1
100
AcDbVertex
100
AcDb3dPolylineVertex
 10
-40.613945
 20
-3.591756999999999
 30
0.0
 70
    32
  0
SEQEND
  5
13D
330
130
100
AcDbEntity
  8
1
  0
POLYLINE
  5
13E
330
68C
100
AcDbEntity
  8
1
100
AcDb3dPolyline
 66
     1
 10
0.0
 20
0.0
 30
0.0
 70
     8
  0
VERTEX
  5
13F
330
13E
100
AcDbEntity
  8
1
100
AcDbVertex
100
AcDb3dPolylineVertex
 10
-41.172408
 20
-5.016826
 30
0.0
 70
    32
  0
VERTEX
  5
140
330
13E
100
AcDbEntity
  8
1
100
AcDbVertex
100
AcDb3dPolylineVertex
 10
-41.173901
 20
-4.956237
 30
0.0
 70
    32
  0
VERTEX
  5
141
330
13E
100
AcDbEntity
  8
1
100
AcDbVertex
100
AcDb3dPolylineVertex
 10
-41.176251
 20
-4.894612999999999
 30
0.0
 70
    32
  0
VERTEX
  5
142
330
13E
100
AcDbEntity
  8
1
100
AcDbVertex
100
AcDb3dPolylineVertex
 10
-41.179576
 20
-4.831812999999999
 30
0.0
 70
    32
  0
VERTEX
  5
143
330
13E
100
AcDbEntity
  8
1
100
AcDbVertex
100
AcDb3dPolylineVertex
 10
-41.18400199999999
 20
-4.767685
 30
0.0
 70
    32
  0
VERTEX
  5
144
330
13E
100
AcDbEntity
  8
1
100
AcDbVertex
100
AcDb3dPolylineVertex
 10
-41.189619
 20
-4.702348999999999
 30
0.0
 70
    32
  0
VERTEX
  5
145
330
13E
100
AcDbEntity
  8
1
100
AcDbVertex
100
AcDb3dPolylineVertex
 10
-41.19644199999999
 20
-4.636229
 30
0.0
 70
    32
  0
VERTEX
  5
146
330
13E
100
AcDbEntity
  8
1
100
AcDbVertex
100
AcDb3dPolylineVertex
 10
-41.20448399999999
 20
-4.569708999999999
 30
0.0
 70
    32
  0
VERTEX
  5
147
330
13E
100
AcDbEntity
  8
1
100
AcDbVertex
100
AcDb3dPolylineVertex
 10
-41.21373300000001
 20
-4.502773999999999
 30
0.0
 70
    32
  0
VERTEX
  5
148
330
13E
100
AcDbEntity
  8
1
100
AcDbVertex
100
AcDb3dPolylineVertex
 10
-41.224137
 20
-4.435412
 30
0.0
 70
    32
  0
VERTEX
  5
149
330
13E
100
AcDbEntity
  8
1
100
AcDbVertex
100
AcDb3dPolylineVertex
 10
-41.23564299999999
 20
-4.367644999999999
 30
0.0
 70
    32
  0
VERTEX
  5
14A
330
13E
100
AcDbEntity
  8
1
100
AcDbVertex
100
AcDb3dPolylineVertex
 10
-41.248164
 20
-4.299560999999999
 30
0.0
 70
    32
  0
VERTEX
  5
14B
330
13E
100
AcDbEntity
  8
1
100
AcDbVertex
100
AcDb3dPolylineVertex
 10
-41.261545
 20
-4.231456999999999
 30
0.0
 70
    32
  0
VERTEX
  5
14C
330
13E
100
AcDbEntity
  8
1
100
AcDbVertex
100
AcDb3dPolylineVertex
 10
-41.275623
 20
-4.163663999999999
 30
0.0
 70
    32
  0
SEQEND
  5
14D
330
13E
100
AcDbEntity
  8
1
  0
POLYLINE
  5
14E
330
68C
100
AcDbEntity
  8
1
100
AcDb3dPolyline
 66
     1
 10
0.0
 20
0.0
 30
0.0
 70
     8
  0
VERTEX
  5
14F
330
14E
100
AcDbEntity
  8
1
100
AcDbVertex
100
AcDb3dPolylineVertex
 10
-45.359959
 20
-7.271844999999999
 30
0.0
 70
    32
  0
VERTEX
  5
150
330
14E
100
AcDbEntity
  8
1
100
AcDbVertex
100
AcDb3dPolylineVertex
 10
-45.374543
 20
-7.313417999999999
 30
0.0
 70
    32
  0
VERTEX
  5
151
330
14E
100
AcDbEntity
  8
1
100
AcDbVertex
100
AcDb3dPolylineVertex
 10
-45.38692199999999
 20
-7.355789999999999
 30
0.0
 70
    32
  0
VERTEX
  5
152
330
14E
100
AcDbEntity
  8
1
100
AcDbVertex
100
AcDb3dPolylineVertex
 10
-45.397044
 20
-7.39901
 30
0.0
 70
    32
  0
VERTEX
  5
153
330
14E
100
AcDbEntity
  8
1
100
AcDbVertex
100
AcDb3dPolylineVertex
 10
-45.404858
 20
-7.443125999999999
 30
0.0
 70
    32
  0
VERTEX
  5
154
330
14E
100
AcDbEntity
  8
1
100
AcDbVertex
100
AcDb3dPolylineVertex
 10
-45.410311
 20
-7.488185999999999
 30
0.0
 70
    32
  0
VERTEX
  5
155
330
14E
100
AcDbEntity
  8
1
100
AcDbVertex
100
AcDb3dPolylineVertex
 10
-45.41333499999999
 20
-7.534189999999999
 30
0.0
 70
    32
  0
VERTEX
  5
156
330
14E
100
AcDbEntity
  8
1
100
AcDbVertex
100
AcDb3dPolylineVertex
 10
-45.413786
 20
-7.580792999999999
 30
0.0
 70
    32
  0
VERTEX
  5
157
330
14E
100
AcDbEntity
  8
1
100
AcDbVertex
100
AcDb3dPolylineVertex
 10
-45.41158699999999
 20
-7.627710999999999
 30
0.0
 70
    32
  0
VERTEX
  5
158
330
14E
100
AcDbEntity
  8
1
100
AcDbVertex
100
AcDb3dPolylineVertex
 10
-45.40667899999999
 20
-7.674777999999999
 30
0.0
 70
    32
  0
VERTEX
  5
159
330
14E
100
AcDbEntity
  8
1
100
AcDbVertex
100
AcDb3dPolylineVertex
 10
-45.398963
 20
-7.722096999999999
 30
0.0
 70
    32
  0
VERTEX
  5
15A
330
14E
100
AcDbEntity
  8
1
100
AcDbVertex
100
AcDb3dPolylineVertex
 10
-45.38829699999999
 20
-7.769711999999999
 30
0.0
 70
    32
  0
SEQEND
  5
15B
330
14E
100
AcDbEntity
  8
1
  0
POLYLINE
  5
15C
330
68C
100
AcDbEntity
  8
1
100
AcDb3dPolyline
 66
     1
 10
0.0
 20
0.0
 30
0.0
 70
     8
  0
VERTEX
  5
15D
330
15C
100
AcDbEntity
  8
1
100
AcDbVertex
100
AcDb3dPolylineVertex
 10
-53.21978299999999
 20
-13.1548
 30
0.0
 70
    32
  0
VERTEX
  5
15E
330
15C
100
AcDbEntity
  8
1
100
AcDbVertex
100
AcDb3dPolylineVertex
 10
-53.18294100000001
 20
-13.153698
 30
0.0
 70
    32
  0
VERTEX
  5
15F
330
15C
100
AcDbEntity
  8
1
100
AcDbVertex
100
AcDb3dPolylineVertex
 10
-53.146265
 20
-13.150381
 30
0.0
 70
    32
  0
VERTEX
  5
160
330
15C
100
AcDbEntity
  8
1
100
AcDbVertex
100
AcDb3dPolylineVertex
 10
-53.10972299999999
 20
-13.144811
 30
0.0
 70
    32
  0
VERTEX
  5
161
330
15C
100
AcDbEntity
  8
1
100
AcDbVertex
100
AcDb3dPolylineVertex
 10
-53.07339699999999
 20
-13.136937
 30
0.0
 70
    32
  0
VERTEX
  5
162
330
15C
100
AcDbEntity
  8
1
100
AcDbVertex
100
AcDb3dPolylineVertex
 10
-53.03773599999999
 20
-13.126796
 30
0.0
 70
    32
  0
VERTEX
  5
163
330
15C
100
AcDbEntity
  8
1
100
AcDbVertex
100
AcDb3dPolylineVertex
 10
-53.003041
 20
-13.114466
 30
0.0
 70
    32
  0
VERTEX
  5
164
330
15C
100
AcDbEntity
  8
1
100
AcDbVertex
100
AcDb3dPolylineVertex
 10
-52.969377
 20
-13.09988
 30
0.0
 70
    32
  0
VERTEX
  5
165
330
15C
100
AcDbEntity
  8
1
100
AcDbVertex
100
AcDb3dPolylineVertex
 10
-52.93679399999999
 20
-13.082927
 30
0.0
 70
    32
  0
VERTEX
  5
166
330
15C
100
AcDbEntity
  8
1
100
AcDbVertex
100
AcDb3dPolylineVertex
 10
-52.90534499999999
 20
-13.063496
 30
0.0
 70
    32
  0
VERTEX
  5
167
330
15C
100
AcDbEntity
  8
1
100
AcDbVertex
100
AcDb3dPolylineVertex
 10
-52.87519
 20
-13.041542
 30
0.0
 70
    32
  0
VERTEX
  5
168
330
15C
100
AcDbEntity
  8
1
100
AcDbVertex
100
AcDb3dPolylineVertex
 10
-52.84706299999999
 20
-13.017372
 30
0.0
 70
    32
  0
VERTEX
  5
169
330
15C
100
AcDbEntity
  8
1
100
AcDbVertex
100
AcDb3dPolylineVertex
 10
-52.82116600000001
 20
-12.990981
 30
0.0
 70
    32
  0
VERTEX
  5
16A
330
15C
100
AcDbEntity
  8
1
100
AcDbVertex
100
AcDb3dPolylineVertex
 10
-52.79759699999999
 20
-12.962212
 30
0.0
 70
    32
  0
VERTEX
  5
16B
330
15C
100
AcDbEntity
  8
1
100
AcDbVertex
100
AcDb3dPolylineVertex
 10
-52.776753
 20
-12.931221
 30
0.0
 70
    32
  0
VERTEX
  5
16C
330
15C
100
AcDbEntity
  8
1
100
AcDbVertex
100
AcDb3dPolylineVertex
 10
-52.759124
 20
-12.898328
 30
0.0
 70
    32
  0
VERTEX
  5
16D
330
15C
100
AcDbEntity
  8
1
100
AcDbVertex
100
AcDb3dPolylineVertex
 10
-52.74505999999999
 20
-12.863931
 30
0.0
 70
    32
  0
VERTEX
  5
16E
330
15C
100
AcDbEntity
  8
1
100
AcDbVertex
100
AcDb3dPolylineVertex
 10
-52.73482900000001
 20
-12.828416
 30
0.0
 70
    32
  0
VERTEX
  5
16F
330
15C
100
AcDbEntity
  8
1
100
AcDbVertex
100
AcDb3dPolylineVertex
 10
-52.72857099999999
 20
-12.791817
 30
0.0
 70
    32
  0
VERTEX
  5
170
330
15C
100
AcDbEntity
  8
1
100
AcDbVertex
100
AcDb3dPolylineVertex
 10
-52.726445
 20
-12.7548
 30
0.0
 70
    32
  0
SEQEND
  5
171
330
15C
100
AcDbEntity
  8
1
  0
POLYLINE
  5
172
330
68C
100
AcDbEntity
  8
1
100
AcDb3dPolyline
 66
     1
 10
0.0
 20
0.0
 30
0.0
 70
     8
  0
VERTEX
  5
173
330
172
100
AcDbEntity
  8
1
100
AcDbVertex
100
AcDb3dPolylineVertex
 10
4.15
 20
-10.925
 30
0.0
 70
    32
  0
VERTEX
  5
174
330
172
100
AcDbEntity
  8
1
100
AcDbVertex
100
AcDb3dPolylineVertex
 10
4.071947999999999
 20
-10.93272
 30
0.0
 70
    32
  0
VERTEX
  5
175
330
172
100
AcDbEntity
  8
1
100
AcDbVertex
100
AcDb3dPolylineVertex
 10
4.004487999999999
 20
-10.952388
 30
0.0
 70
    32
  0
VERTEX
  5
176
330
172
100
AcDbEntity
  8
1
100
AcDbVertex
100
AcDb3dPolylineVertex
 10
3.950019999999999
 20
-10.978577
 30
0.0
 70
    32
  0
VERTEX
  5
177
330
172
100
AcDbEntity
  8
1
100
AcDbVertex
100
AcDb3dPolylineVertex
 10
3.906727999999999
 20
-11.007473
 30
0.0
 70
    32
  0
VERTEX
  5
178
330
172
100
AcDbEntity
  8
1
100
AcDbVertex
100
AcDb3dPolylineVertex
 10
3.872353999999999
 20
-11.037045
 30
0.0
 70
    32
  0
VERTEX
  5
179
330
172
100
AcDbEntity
  8
1
100
AcDbVertex
100
AcDb3dPolylineVertex
 10
3.844773
 20
-11.066462
 30
0.0
 70
    32
  0
VERTEX
  5
17A
330
172
100
AcDbEntity
  8
1
100
AcDbVertex
100
AcDb3dPolylineVertex
 10
3.822763999999999
 20
-11.094868
 30
0.0
 70
    32
  0
VERTEX
  5
17B
330
172
100
AcDbEntity
  8
1
100
AcDbVertex
100
AcDb3dPolylineVertex
 10
3.80533
 20
-11.121967
 30
0.0
 70
    32
  0
VERTEX
  5
17C
330
172
100
AcDbEntity
  8
1
100
AcDbVertex
100
AcDb3dPolylineVertex
 10
3.791466999999999
 20
-11.147641
 30
0.0
 70
    32
  0
VERTEX
  5
17D
330
172
100
AcDbEntity
  8
1
100
AcDbVertex
100
AcDb3dPolylineVertex
 10
3.780480999999999
 20
-11.171811
 30
0.0
 70
    32
  0
VERTEX
  5
17E
330
172
100
AcDbEntity
  8
1
100
AcDbVertex
100
AcDb3dPolylineVertex
 10
3.771923999999999
 20
-11.194378
 30
0.0
 70
    32
  0
VERTEX
  5
17F
330
172
100
AcDbEntity
  8
1
100
AcDbVertex
100
AcDb3dPolylineVertex
 10
3.765344999999999
 20
-11.215224
 30
0.0
 70
    32
  0
VERTEX
  5
180
330
172
100
AcDbEntity
  8
1
100
AcDbVertex
100
AcDb3dPolylineVertex
 10
3.760355999999999
 20
-11.234253
 30
0.0
 70
    32
  0
VERTEX
  5
181
330
172
100
AcDbEntity
  8
1
100
AcDbVertex
100
AcDb3dPolylineVertex
 10
3.756704
 20
-11.251461
 30
0.0
 70
    32
  0
VERTEX
  5
182
330
172
100
AcDbEntity
  8
1
100
AcDbVertex
100
AcDb3dPolylineVertex
 10
3.754144999999999
 20
-11.266855
 30
0.0
 70
    32
  0
VERTEX
  5
183
330
172
100
AcDbEntity
  8
1
100
AcDbVertex
100
AcDb3dPolylineVertex
 10
3.752438999999999
 20
-11.280442
 30
0.0
 70
    32
  0
VERTEX
  5
184
330
172
100
AcDbEntity
  8
1
100
AcDbVertex
100
AcDb3dPolylineVertex
 10
3.751341999999999
 20
-11.292226
 30
0.0
 70
    32
  0
VERTEX
  5
185
330
172
100
AcDbEntity
  8
1
100
AcDbVertex
100
AcDb3dPolylineVertex
 10
3.750634999999999
 20
-11.302215
 30
0.0
 70
    32
  0
VERTEX
  5
186
330
172
100
AcDbEntity
  8
1
100
AcDbVertex
100
AcDb3dPolylineVertex
 10
3.750216
 20
-11.310404
 30
0.0
 70
    32
  0
VERTEX
  5
187
330
172
100
AcDbEntity
  8
1
100
AcDbVertex
100
AcDb3dPolylineVertex
 10
3.750015
 20
-11.316786
 30
0.0
 70
    32
  0
VERTEX
  5
188
330
172
100
AcDbEntity
  8
1
100
AcDbVertex
100
AcDb3dPolylineVertex
 10
3.749958999999999
 20
-11.321351
 30
0.0
 70
    32
  0
VERTEX
  5
189
330
172
100
AcDbEntity
  8
1
100
AcDbVertex
100
AcDb3dPolylineVertex
 10
3.749978
 20
-11.324092
 30
0.0
 70
    32
  0
VERTEX
  5
18A
330
172
100
AcDbEntity
  8
1
100
AcDbVertex
100
AcDb3dPolylineVertex
 10
3.75
 20
-11.325
 30
0.0
 70
    32
  0
SEQEND
  5
18B
330
172
100
AcDbEntity
  8
1
  0
POLYLINE
  5
18C
330
68C
100
AcDbEntity
  8
1
100
AcDb3dPolyline
 66
     1
 10
0.0
 20
0.0
 30
0.0
 70
     8
  0
VERTEX
  5
18D
330
18C
100
AcDbEntity
  8
1
100
AcDbVertex
100
AcDb3dPolylineVertex
 10
-44.64027999999999
 20
-8.688114
 30
0.0
 70
    32
  0
VERTEX
  5
18E
330
18C
100
AcDbEntity
  8
1
100
AcDbVertex
100
AcDb3dPolylineVertex
 10
-44.63886099999999
 20
-8.652573
 30
0.0
 70
    32
  0
VERTEX
  5
18F
330
18C
100
AcDbEntity
  8
1
100
AcDbVertex
100
AcDb3dPolylineVertex
 10
-44.64124799999999
 20
-8.617169999999999
 30
0.0
 70
    32
  0
VERTEX
  5
190
330
18C
100
AcDbEntity
  8
1
100
AcDbVertex
100
AcDb3dPolylineVertex
 10
-44.647334
 20
-8.582464999999999
 30
0.0
 70
    32
  0
VERTEX
  5
191
330
18C
100
AcDbEntity
  8
1
100
AcDbVertex
100
AcDb3dPolylineVertex
 10
-44.657012
 20
-8.548930999999999
 30
0.0
 70
    32
  0
VERTEX
  5
192
330
18C
100
AcDbEntity
  8
1
100
AcDbVertex
100
AcDb3dPolylineVertex
 10
-44.670071
 20
-8.51684
 30
0.0
 70
    32
  0
VERTEX
  5
193
330
18C
100
AcDbEntity
  8
1
100
AcDbVertex
100
AcDb3dPolylineVertex
 10
-44.686209
 20
-8.486589
 30
0.0
 70
    32
  0
VERTEX
  5
194
330
18C
100
AcDbEntity
  8
1
100
AcDbVertex
100
AcDb3dPolylineVertex
 10
-44.705117
 20
-8.458567999999999
 30
0.0
 70
    32
  0
VERTEX
  5
195
330
18C
100
AcDbEntity
  8
1
100
AcDbVertex
100
AcDb3dPolylineVertex
 10
-44.72647499999999
 20
-8.432978999999999
 30
0.0
 70
    32
  0
VERTEX
  5
196
330
18C
100
AcDbEntity
  8
1
100
AcDbVertex
100
AcDb3dPolylineVertex
 10
-44.75004099999999
 20
-8.409914
 30
0.0
 70
    32
  0
VERTEX
  5
197
330
18C
100
AcDbEntity
  8
1
100
AcDbVertex
100
AcDb3dPolylineVertex
 10
-44.775565
 20
-8.389476
 30
0.0
 70
    32
  0
VERTEX
  5
198
330
18C
100
AcDbEntity
  8
1
100
AcDbVertex
100
AcDb3dPolylineVertex
 10
-44.802523
 20
-8.371912
 30
0.0
 70
    32
  0
VERTEX
  5
199
330
18C
100
AcDbEntity
  8
1
100
AcDbVertex
100
AcDb3dPolylineVertex
 10
-44.83070999999999
 20
-8.357245999999999
 30
0.0
 70
    32
  0
VERTEX
  5
19A
330
18C
100
AcDbEntity
  8
1
100
AcDbVertex
100
AcDb3dPolylineVertex
 10
-44.86007999999999
 20
-8.345407000000001
 30
0.0
 70
    32
  0
SEQEND
  5
19B
330
18C
100
AcDbEntity
  8
1
  0
POLYLINE
  5
19C
330
68C
100
AcDbEntity
  8
1
100
AcDb3dPolyline
 66
     1
 10
0.0
 20
0.0
 30
0.0
 70
     8
  0
VERTEX
  5
19D
330
19C
100
AcDbEntity
  8
1
100
AcDbVertex
100
AcDb3dPolylineVertex
 10
-45.76907499999999
 20
-10.286932
 30
0.0
 70
    32
  0
VERTEX
  5
19E
330
19C
100
AcDbEntity
  8
1
100
AcDbVertex
100
AcDb3dPolylineVertex
 10
-45.738514
 20
-10.270679
 30
0.0
 70
    32
  0
VERTEX
  5
19F
330
19C
100
AcDbEntity
  8
1
100
AcDbVertex
100
AcDb3dPolylineVertex
 10
-45.70982599999999
 20
-10.251334
 30
0.0
 70
    32
  0
VERTEX
  5
1A0
330
19C
100
AcDbEntity
  8
1
100
AcDbVertex
100
AcDb3dPolylineVertex
 10
-45.683401
 20
-10.2292
 30
0.0
 70
    32
  0
VERTEX
  5
1A1
330
19C
100
AcDbEntity
  8
1
100
AcDbVertex
100
AcDb3dPolylineVertex
 10
-45.659624
 20
-10.204622
 30
0.0
 70
    32
  0
VERTEX
  5
1A2
330
19C
100
AcDbEntity
  8
1
100
AcDbVertex
100
AcDb3dPolylineVertex
 10
-45.63871699999999
 20
-10.177994
 30
0.0
 70
    32
  0
VERTEX
  5
1A3
330
19C
100
AcDbEntity
  8
1
100
AcDbVertex
100
AcDb3dPolylineVertex
 10
-45.620783
 20
-10.149614
 30
0.0
 70
    32
  0
VERTEX
  5
1A4
330
19C
100
AcDbEntity
  8
1
100
AcDbVertex
100
AcDb3dPolylineVertex
 10
-45.60594299999999
 20
-10.119834
 30
0.0
 70
    32
  0
VERTEX
  5
1A5
330
19C
100
AcDbEntity
  8
1
100
AcDbVertex
100
AcDb3dPolylineVertex
 10
-45.594343
 20
-10.089242
 30
0.0
 70
    32
  0
VERTEX
  5
1A6
330
19C
100
AcDbEntity
  8
1
100
AcDbVertex
100
AcDb3dPolylineVertex
 10
-45.58593199999999
 20
-10.058044
 30
0.0
 70
    32
  0
VERTEX
  5
1A7
330
19C
100
AcDbEntity
  8
1
100
AcDbVertex
100
AcDb3dPolylineVertex
 10
-45.580638
 20
-10.026398
 30
0.0
 70
    32
  0
VERTEX
  5
1A8
330
19C
100
AcDbEntity
  8
1
100
AcDbVertex
100
AcDb3dPolylineVertex
 10
-45.57843
 20
-9.994863999999999
 30
0.0
 70
    32
  0
VERTEX
  5
1A9
330
19C
100
AcDbEntity
  8
1
100
AcDbVertex
100
AcDb3dPolylineVertex
 10
-45.579238
 20
-9.963677999999999
 30
0.0
 70
    32
  0
VERTEX
  5
1AA
330
19C
100
AcDbEntity
  8
1
100
AcDbVertex
100
AcDb3dPolylineVertex
 10
-45.58296799999999
 20
-9.932882000000001
 30
0.0
 70
    32
  0
SEQEND
  5
1AB
330
19C
100
AcDbEntity
  8
1
  0
POLYLINE
  5
1AC
330
68C
100
AcDbEntity
  8
1
100
AcDb3dPolyline
 66
     1
 10
0.0
 20
0.0
 30
0.0
 70
     8
  0
VERTEX
  5
1AD
330
1AC
100
AcDbEntity
  8
1
100
AcDbVertex
100
AcDb3dPolylineVertex
 10
-47.71923199999999
 20
-10.121755
 30
0.0
 70
    32
  0
VERTEX
  5
1AE
330
1AC
100
AcDbEntity
  8
1
100
AcDbVertex
100
AcDb3dPolylineVertex
 10
-47.689733
 20
-10.139919
 30
0.0
 70
    32
  0
VERTEX
  5
1AF
330
1AC
100
AcDbEntity
  8
1
100
AcDbVertex
100
AcDb3dPolylineVertex
 10
-47.65854599999999
 20
-10.154877
 30
0.0
 70
    32
  0
VERTEX
  5
1B0
330
1AC
100
AcDbEntity
  8
1
100
AcDbVertex
100
AcDb3dPolylineVertex
 10
-47.626063
 20
-10.166477
 30
0.0
 70
    32
  0
VERTEX
  5
1B1
330
1AC
100
AcDbEntity
  8
1
100
AcDbVertex
100
AcDb3dPolylineVertex
 10
-47.59278
 20
-10.17457
 30
0.0
 70
    32
  0
VERTEX
  5
1B2
330
1AC
100
AcDbEntity
  8
1
100
AcDbVertex
100
AcDb3dPolylineVertex
 10
-47.559249
 20
-10.179134
 30
0.0
 70
    32
  0
VERTEX
  5
1B3
330
1AC
100
AcDbEntity
  8
1
100
AcDbVertex
100
AcDb3dPolylineVertex
 10
-47.52569499999999
 20
-10.180235
 30
0.0
 70
    32
  0
VERTEX
  5
1B4
330
1AC
100
AcDbEntity
  8
1
100
AcDbVertex
100
AcDb3dPolylineVertex
 10
-47.492422
 20
-10.177957
 30
0.0
 70
    32
  0
VERTEX
  5
1B5
330
1AC
100
AcDbEntity
  8
1
100
AcDbVertex
100
AcDb3dPolylineVertex
 10
-47.460143
 20
-10.172476
 30
0.0
 70
    32
  0
VERTEX
  5
1B6
330
1AC
100
AcDbEntity
  8
1
100
AcDbVertex
100
AcDb3dPolylineVertex
 10
-47.42899799999999
 20
-10.163939
 30
0.0
 70
    32
  0
VERTEX
  5
1B7
330
1AC
100
AcDbEntity
  8
1
100
AcDbVertex
100
AcDb3dPolylineVertex
 10
-47.399044
 20
-10.152493
 30
0.0
 70
    32
  0
VERTEX
  5
1B8
330
1AC
100
AcDbEntity
  8
1
100
AcDbVertex
100
AcDb3dPolylineVertex
 10
-47.370769
 20
-10.138463
 30
0.0
 70
    32
  0
VERTEX
  5
1B9
330
1AC
100
AcDbEntity
  8
1
100
AcDbVertex
100
AcDb3dPolylineVertex
 10
-47.344328
 20
-10.122019
 30
0.0
 70
    32
  0
VERTEX
  5
1BA
330
1AC
100
AcDbEntity
  8
1
100
AcDbVertex
100
AcDb3dPolylineVertex
 10
-47.319677
 20
-10.103243
 30
0.0
 70
    32
  0
SEQEND
  5
1BB
330
1AC
100
AcDbEntity
  8
1
  0
POLYLINE
  5
1BC
330
68C
100
AcDbEntity
  8
1
100
AcDb3dPolyline
 66
     1
 10
0.0
 20
0.0
 30
0.0
 70
     8
  0
VERTEX
  5
1BD
330
1BC
100
AcDbEntity
  8
1
100
AcDbVertex
100
AcDb3dPolylineVertex
 10
-46.159824
 20
-10.201481
 30
0.0
 70
    32
  0
VERTEX
  5
1BE
330
1BC
100
AcDbEntity
  8
1
100
AcDbVertex
100
AcDb3dPolylineVertex
 10
-46.198886
 20
-10.158648
 30
0.0
 70
    32
  0
VERTEX
  5
1BF
330
1BC
100
AcDbEntity
  8
1
100
AcDbVertex
100
AcDb3dPolylineVertex
 10
-46.24106499999999
 20
-10.118491
 30
0.0
 70
    32
  0
VERTEX
  5
1C0
330
1BC
100
AcDbEntity
  8
1
100
AcDbVertex
100
AcDb3dPolylineVertex
 10
-46.28649
 20
-10.081012
 30
0.0
 70
    32
  0
VERTEX
  5
1C1
330
1BC
100
AcDbEntity
  8
1
100
AcDbVertex
100
AcDb3dPolylineVertex
 10
-46.335414
 20
-10.046244
 30
0.0
 70
    32
  0
VERTEX
  5
1C2
330
1BC
100
AcDbEntity
  8
1
100
AcDbVertex
100
AcDb3dPolylineVertex
 10
-46.38755999999999
 20
-10.014636
 30
0.0
 70
    32
  0
VERTEX
  5
1C3
330
1BC
100
AcDbEntity
  8
1
100
AcDbVertex
100
AcDb3dPolylineVertex
 10
-46.44251699999999
 20
-9.986674
 30
0.0
 70
    32
  0
VERTEX
  5
1C4
330
1BC
100
AcDbEntity
  8
1
100
AcDbVertex
100
AcDb3dPolylineVertex
 10
-46.500135
 20
-9.962627000000001
 30
0.0
 70
    32
  0
VERTEX
  5
1C5
330
1BC
100
AcDbEntity
  8
1
100
AcDbVertex
100
AcDb3dPolylineVertex
 10
-46.56058
 20
-9.942674999999999
 30
0.0
 70
    32
  0
VERTEX
  5
1C6
330
1BC
100
AcDbEntity
  8
1
100
AcDbVertex
100
AcDb3dPolylineVertex
 10
-46.623046
 20
-9.927294999999999
 30
0.0
 70
    32
  0
VERTEX
  5
1C7
330
1BC
100
AcDbEntity
  8
1
100
AcDbVertex
100
AcDb3dPolylineVertex
 10
-46.68662
 20
-9.9168
 30
0.0
 70
    32
  0
VERTEX
  5
1C8
330
1BC
100
AcDbEntity
  8
1
100
AcDbVertex
100
AcDb3dPolylineVertex
 10
-46.75094699999999
 20
-9.911303999999999
 30
0.0
 70
    32
  0
VERTEX
  5
1C9
330
1BC
100
AcDbEntity
  8
1
100
AcDbVertex
100
AcDb3dPolylineVertex
 10
-46.81586099999999
 20
-9.910869999999999
 30
0.0
 70
    32
  0
VERTEX
  5
1CA
330
1BC
100
AcDbEntity
  8
1
100
AcDbVertex
100
AcDb3dPolylineVertex
 10
-46.880163
 20
-9.915423999999999
 30
0.0
 70
    32
  0
VERTEX
  5
1CB
330
1BC
100
AcDbEntity
  8
1
100
AcDbVertex
100
AcDb3dPolylineVertex
 10
-46.943034
 20
-9.924863
 30
0.0
 70
    32
  0
VERTEX
  5
1CC
330
1BC
100
AcDbEntity
  8
1
100
AcDbVertex
100
AcDb3dPolylineVertex
 10
-47.004352
 20
-9.938921
 30
0.0
 70
    32
  0
VERTEX
  5
1CD
330
1BC
100
AcDbEntity
  8
1
100
AcDbVertex
100
AcDb3dPolylineVertex
 10
-47.06344099999999
 20
-9.957247
 30
0.0
 70
    32
  0
VERTEX
  5
1CE
330
1BC
100
AcDbEntity
  8
1
100
AcDbVertex
100
AcDb3dPolylineVertex
 10
-47.11983
 20
-9.979438
 30
0.0
 70
    32
  0
VERTEX
  5
1CF
330
1BC
100
AcDbEntity
  8
1
100
AcDbVertex
100
AcDb3dPolylineVertex
 10
-47.173613
 20
-10.005291
 30
0.0
 70
    32
  0
VERTEX
  5
1D0
330
1BC
100
AcDbEntity
  8
1
100
AcDbVertex
100
AcDb3dPolylineVertex
 10
-47.224944
 20
-10.034679
 30
0.0
 70
    32
  0
VERTEX
  5
1D1
330
1BC
100
AcDbEntity
  8
1
100
AcDbVertex
100
AcDb3dPolylineVertex
 10
-47.273719
 20
-10.067427
 30
0.0
 70
    32
  0
VERTEX
  5
1D2
330
1BC
100
AcDbEntity
  8
1
100
AcDbVertex
100
AcDb3dPolylineVertex
 10
-47.319677
 20
-10.103243
 30
0.0
 70
    32
  0
SEQEND
  5
1D3
330
1BC
100
AcDbEntity
  8
1
  0
POLYLINE
  5
1D4
330
68C
100
AcDbEntity
  8
1
100
AcDb3dPolyline
 66
     1
 10
0.0
 20
0.0
 30
0.0
 70
     8
  0
VERTEX
  5
1D5
330
1D4
100
AcDbEntity
  8
1
100
AcDbVertex
100
AcDb3dPolylineVertex
 10
3.75
 20
-4.525
 30
0.0
 70
    32
  0
VERTEX
  5
1D6
330
1D4
100
AcDbEntity
  8
1
100
AcDbVertex
100
AcDb3dPolylineVertex
 10
3.749979
 20
-4.525891
 30
0.0
 70
    32
  0
VERTEX
  5
1D7
330
1D4
100
AcDbEntity
  8
1
100
AcDbVertex
100
AcDb3dPolylineVertex
 10
3.749959999999999
 20
-4.528624999999999
 30
0.0
 70
    32
  0
VERTEX
  5
1D8
330
1D4
100
AcDbEntity
  8
1
100
AcDbVertex
100
AcDb3dPolylineVertex
 10
3.750015
 20
-4.533191
 30
0.0
 70
    32
  0
VERTEX
  5
1D9
330
1D4
100
AcDbEntity
  8
1
100
AcDbVertex
100
AcDb3dPolylineVertex
 10
3.750216
 20
-4.539573999999999
 30
0.0
 70
    32
  0
VERTEX
  5
1DA
330
1D4
100
AcDbEntity
  8
1
100
AcDbVertex
100
AcDb3dPolylineVertex
 10
3.750633
 20
-4.54776
 30
0.0
 70
    32
  0
VERTEX
  5
1DB
330
1D4
100
AcDbEntity
  8
1
100
AcDbVertex
100
AcDb3dPolylineVertex
 10
3.751338999999999
 20
-4.557736
 30
0.0
 70
    32
  0
VERTEX
  5
1DC
330
1D4
100
AcDbEntity
  8
1
100
AcDbVertex
100
AcDb3dPolylineVertex
 10
3.752434999999999
 20
-4.569493
 30
0.0
 70
    32
  0
VERTEX
  5
1DD
330
1D4
100
AcDbEntity
  8
1
100
AcDbVertex
100
AcDb3dPolylineVertex
 10
3.754134999999999
 20
-4.583026999999999
 30
0.0
 70
    32
  0
VERTEX
  5
1DE
330
1D4
100
AcDbEntity
  8
1
100
AcDbVertex
100
AcDb3dPolylineVertex
 10
3.756673999999999
 20
-4.598339
 30
0.0
 70
    32
  0
VERTEX
  5
1DF
330
1D4
100
AcDbEntity
  8
1
100
AcDbVertex
100
AcDb3dPolylineVertex
 10
3.760286
 20
-4.615425
 30
0.0
 70
    32
  0
VERTEX
  5
1E0
330
1D4
100
AcDbEntity
  8
1
100
AcDbVertex
100
AcDb3dPolylineVertex
 10
3.765205999999999
 20
-4.634285
 30
0.0
 70
    32
  0
VERTEX
  5
1E1
330
1D4
100
AcDbEntity
  8
1
100
AcDbVertex
100
AcDb3dPolylineVertex
 10
3.771679
 20
-4.654917
 30
0.0
 70
    32
  0
VERTEX
  5
1E2
330
1D4
100
AcDbEntity
  8
1
100
AcDbVertex
100
AcDb3dPolylineVertex
 10
3.780115
 20
-4.677323999999999
 30
0.0
 70
    32
  0
VERTEX
  5
1E3
330
1D4
100
AcDbEntity
  8
1
100
AcDbVertex
100
AcDb3dPolylineVertex
 10
3.791044999999999
 20
-4.701508
 30
0.0
 70
    32
  0
VERTEX
  5
1E4
330
1D4
100
AcDbEntity
  8
1
100
AcDbVertex
100
AcDb3dPolylineVertex
 10
3.804983
 20
-4.72743
 30
0.0
 70
    32
  0
VERTEX
  5
1E5
330
1D4
100
AcDbEntity
  8
1
100
AcDbVertex
100
AcDb3dPolylineVertex
 10
3.822551
 20
-4.754805
 30
0.0
 70
    32
  0
VERTEX
  5
1E6
330
1D4
100
AcDbEntity
  8
1
100
AcDbVertex
100
AcDb3dPolylineVertex
 10
3.844603999999999
 20
-4.783336
 30
0.0
 70
    32
  0
VERTEX
  5
1E7
330
1D4
100
AcDbEntity
  8
1
100
AcDbVertex
100
AcDb3dPolylineVertex
 10
3.872016999999999
 20
-4.812630999999999
 30
0.0
 70
    32
  0
VERTEX
  5
1E8
330
1D4
100
AcDbEntity
  8
1
100
AcDbVertex
100
AcDb3dPolylineVertex
 10
3.906070999999999
 20
-4.842027999999999
 30
0.0
 70
    32
  0
VERTEX
  5
1E9
330
1D4
100
AcDbEntity
  8
1
100
AcDbVertex
100
AcDb3dPolylineVertex
 10
3.948998999999999
 20
-4.870833
 30
0.0
 70
    32
  0
VERTEX
  5
1EA
330
1D4
100
AcDbEntity
  8
1
100
AcDbVertex
100
AcDb3dPolylineVertex
 10
4.00383
 20
-4.897343
 30
0.0
 70
    32
  0
VERTEX
  5
1EB
330
1D4
100
AcDbEntity
  8
1
100
AcDbVertex
100
AcDb3dPolylineVertex
 10
4.071501999999999
 20
-4.917187999999999
 30
0.0
 70
    32
  0
VERTEX
  5
1EC
330
1D4
100
AcDbEntity
  8
1
100
AcDbVertex
100
AcDb3dPolylineVertex
 10
4.15
 20
-4.924999999999999
 30
0.0
 70
    32
  0
SEQEND
  5
1ED
330
1D4
100
AcDbEntity
  8
1
  0
POLYLINE
  5
1EE
330
68C
100
AcDbEntity
  8
1
100
AcDb3dPolyline
 66
     1
 10
0.0
 20
0.0
 30
0.0
 70
     8
  0
VERTEX
  5
1EF
330
1EE
100
AcDbEntity
  8
1
100
AcDbVertex
100
AcDb3dPolylineVertex
 10
-47.040176
 20
-6.803319
 30
0.0
 70
    32
  0
VERTEX
  5
1F0
330
1EE
100
AcDbEntity
  8
1
100
AcDbVertex
100
AcDb3dPolylineVertex
 10
-47.061365
 20
-6.780617999999999
 30
0.0
 70
    32
  0
VERTEX
  5
1F1
330
1EE
100
AcDbEntity
  8
1
100
AcDbVertex
100
AcDb3dPolylineVertex
 10
-47.084685
 20
-6.759952
 30
0.0
 70
    32
  0
VERTEX
  5
1F2
330
1EE
100
AcDbEntity
  8
1
100
AcDbVertex
100
AcDb3dPolylineVertex
 10
-47.110183
 20
-6.741385
 30
0.0
 70
    32
  0
VERTEX
  5
1F3
330
1EE
100
AcDbEntity
  8
1
100
AcDbVertex
100
AcDb3dPolylineVertex
 10
-47.13777899999999
 20
-6.725086
 30
0.0
 70
    32
  0
VERTEX
  5
1F4
330
1EE
100
AcDbEntity
  8
1
100
AcDbVertex
100
AcDb3dPolylineVertex
 10
-47.167093
 20
-6.711428999999998
 30
0.0
 70
    32
  0
VERTEX
  5
1F5
330
1EE
100
AcDbEntity
  8
1
100
AcDbVertex
100
AcDb3dPolylineVertex
 10
-47.19792199999999
 20
-6.700611999999999
 30
0.0
 70
    32
  0
VERTEX
  5
1F6
330
1EE
100
AcDbEntity
  8
1
100
AcDbVertex
100
AcDb3dPolylineVertex
 10
-47.23009
 20
-6.692824
 30
0.0
 70
    32
  0
VERTEX
  5
1F7
330
1EE
100
AcDbEntity
  8
1
100
AcDbVertex
100
AcDb3dPolylineVertex
 10
-47.263368
 20
-6.688269
 30
0.0
 70
    32
  0
VERTEX
  5
1F8
330
1EE
100
AcDbEntity
  8
1
100
AcDbVertex
100
AcDb3dPolylineVertex
 10
-47.29727899999999
 20
-6.687089999999999
 30
0.0
 70
    32
  0
VERTEX
  5
1F9
330
1EE
100
AcDbEntity
  8
1
100
AcDbVertex
100
AcDb3dPolylineVertex
 10
-47.331333
 20
-6.689427999999999
 30
0.0
 70
    32
  0
VERTEX
  5
1FA
330
1EE
100
AcDbEntity
  8
1
100
AcDbVertex
100
AcDb3dPolylineVertex
 10
-47.365287
 20
-6.695386999999999
 30
0.0
 70
    32
  0
VERTEX
  5
1FB
330
1EE
100
AcDbEntity
  8
1
100
AcDbVertex
100
AcDb3dPolylineVertex
 10
-47.398679
 20
-6.704902
 30
0.0
 70
    32
  0
VERTEX
  5
1FC
330
1EE
100
AcDbEntity
  8
1
100
AcDbVertex
100
AcDb3dPolylineVertex
 10
-47.430925
 20
-6.717867999999999
 30
0.0
 70
    32
  0
SEQEND
  5
1FD
330
1EE
100
AcDbEntity
  8
1
  0
POLYLINE
  5
1FE
330
68C
100
AcDbEntity
  8
1
100
AcDb3dPolyline
 66
     1
 10
0.0
 20
0.0
 30
0.0
 70
     8
  0
VERTEX
  5
1FF
330
1FE
100
AcDbEntity
  8
1
100
AcDbVertex
100
AcDb3dPolylineVertex
 10
-46.159824
 20
-10.201481
 30
0.0
 70
    32
  0
VERTEX
  5
200
330
1FE
100
AcDbEntity
  8
1
100
AcDbVertex
100
AcDb3dPolylineVertex
 10
-46.13863499999999
 20
-10.224182
 30
0.0
 70
    32
  0
VERTEX
  5
201
330
1FE
100
AcDbEntity
  8
1
100
AcDbVertex
100
AcDb3dPolylineVertex
 10
-46.115315
 20
-10.244848
 30
0.0
 70
    32
  0
VERTEX
  5
202
330
1FE
100
AcDbEntity
  8
1
100
AcDbVertex
100
AcDb3dPolylineVertex
 10
-46.089817
 20
-10.263415
 30
0.0
 70
    32
  0
VERTEX
  5
203
330
1FE
100
AcDbEntity
  8
1
100
AcDbVertex
100
AcDb3dPolylineVertex
 10
-46.062221
 20
-10.279714
 30
0.0
 70
    32
  0
VERTEX
  5
204
330
1FE
100
AcDbEntity
  8
1
100
AcDbVertex
100
AcDb3dPolylineVertex
 10
-46.032907
 20
-10.293371
 30
0.0
 70
    32
  0
VERTEX
  5
205
330
1FE
100
AcDbEntity
  8
1
100
AcDbVertex
100
AcDb3dPolylineVertex
 10
-46.002078
 20
-10.304188
 30
0.0
 70
    32
  0
VERTEX
  5
206
330
1FE
100
AcDbEntity
  8
1
100
AcDbVertex
100
AcDb3dPolylineVertex
 10
-45.96991
 20
-10.311976
 30
0.0
 70
    32
  0
VERTEX
  5
207
330
1FE
100
AcDbEntity
  8
1
100
AcDbVertex
100
AcDb3dPolylineVertex
 10
-45.936632
 20
-10.316531
 30
0.0
 70
    32
  0
VERTEX
  5
208
330
1FE
100
AcDbEntity
  8
1
100
AcDbVertex
100
AcDb3dPolylineVertex
 10
-45.90272099999999
 20
-10.31771
 30
0.0
 70
    32
  0
VERTEX
  5
209
330
1FE
100
AcDbEntity
  8
1
100
AcDbVertex
100
AcDb3dPolylineVertex
 10
-45.86866699999999
 20
-10.315372
 30
0.0
 70
    32
  0
VERTEX
  5
20A
330
1FE
100
AcDbEntity
  8
1
100
AcDbVertex
100
AcDb3dPolylineVertex
 10
-45.834713
 20
-10.309413
 30
0.0
 70
    32
  0
VERTEX
  5
20B
330
1FE
100
AcDbEntity
  8
1
100
AcDbVertex
100
AcDb3dPolylineVertex
 10
-45.801321
 20
-10.299898
 30
0.0
 70
    32
  0
VERTEX
  5
20C
330
1FE
100
AcDbEntity
  8
1
100
AcDbVertex
100
AcDb3dPolylineVertex
 10
-45.76907499999999
 20
-10.286932
 30
0.0
 70
    32
  0
SEQEND
  5
20D
330
1FE
100
AcDbEntity
  8
1
  0
POLYLINE
  5
20E
330
68C
100
AcDbEntity
  8
1
100
AcDb3dPolyline
 66
     1
 10
0.0
 20
0.0
 30
0.0
 70
     8
  0
VERTEX
  5
20F
330
20E
100
AcDbEntity
  8
1
100
AcDbVertex
100
AcDb3dPolylineVertex
 10
-59.635601
 20
-12.7548
 30
0.0
 70
    32
  0
VERTEX
  5
210
330
20E
100
AcDbEntity
  8
1
100
AcDbVertex
100
AcDb3dPolylineVertex
 10
-59.64465699999999
 20
-12.809791
 30
0.0
 70
    32
  0
VERTEX
  5
211
330
20E
100
AcDbEntity
  8
1
100
AcDbVertex
100
AcDb3dPolylineVertex
 10
-59.66910699999999
 20
-12.859965
 30
0.0
 70
    32
  0
VERTEX
  5
212
330
20E
100
AcDbEntity
  8
1
100
AcDbVertex
100
AcDb3dPolylineVertex
 10
-59.70395400000001
 20
-12.903469
 30
0.0
 70
    32
  0
VERTEX
  5
213
330
20E
100
AcDbEntity
  8
1
100
AcDbVertex
100
AcDb3dPolylineVertex
 10
-59.745384
 20
-12.940876
 30
0.0
 70
    32
  0
VERTEX
  5
214
330
20E
100
AcDbEntity
  8
1
100
AcDbVertex
100
AcDb3dPolylineVertex
 10
-59.790637
 20
-12.972879
 30
0.0
 70
    32
  0
VERTEX
  5
215
330
20E
100
AcDbEntity
  8
1
100
AcDbVertex
100
AcDb3dPolylineVertex
 10
-59.838701
 20
-13.000693
 30
0.0
 70
    32
  0
VERTEX
  5
216
330
20E
100
AcDbEntity
  8
1
100
AcDbVertex
100
AcDb3dPolylineVertex
 10
-59.88876999999999
 20
-13.024978
 30
0.0
 70
    32
  0
VERTEX
  5
217
330
20E
100
AcDbEntity
  8
1
100
AcDbVertex
100
AcDb3dPolylineVertex
 10
-59.940018
 20
-13.046134
 30
0.0
 70
    32
  0
VERTEX
  5
218
330
20E
100
AcDbEntity
  8
1
100
AcDbVertex
100
AcDb3dPolylineVertex
 10
-59.99202499999999
 20
-13.064619
 30
0.0
 70
    32
  0
VERTEX
  5
219
330
20E
100
AcDbEntity
  8
1
100
AcDbVertex
100
AcDb3dPolylineVertex
 10
-60.044764
 20
-13.080801
 30
0.0
 70
    32
  0
VERTEX
  5
21A
330
20E
100
AcDbEntity
  8
1
100
AcDbVertex
100
AcDb3dPolylineVertex
 10
-60.09814300000001
 20
-13.094975
 30
0.0
 70
    32
  0
VERTEX
  5
21B
330
20E
100
AcDbEntity
  8
1
100
AcDbVertex
100
AcDb3dPolylineVertex
 10
-60.152077
 20
-13.107354
 30
0.0
 70
    32
  0
VERTEX
  5
21C
330
20E
100
AcDbEntity
  8
1
100
AcDbVertex
100
AcDb3dPolylineVertex
 10
-60.206428
 20
-13.118052
 30
0.0
 70
    32
  0
VERTEX
  5
21D
330
20E
100
AcDbEntity
  8
1
100
AcDbVertex
100
AcDb3dPolylineVertex
 10
-60.26104799999999
 20
-13.127176
 30
0.0
 70
    32
  0
VERTEX
  5
21E
330
20E
100
AcDbEntity
  8
1
100
AcDbVertex
100
AcDb3dPolylineVertex
 10
-60.315789
 20
-13.134834
 30
0.0
 70
    32
  0
VERTEX
  5
21F
330
20E
100
AcDbEntity
  8
1
100
AcDbVertex
100
AcDb3dPolylineVertex
 10
-60.370511
 20
-13.141137
 30
0.0
 70
    32
  0
VERTEX
  5
220
330
20E
100
AcDbEntity
  8
1
100
AcDbVertex
100
AcDb3dPolylineVertex
 10
-60.425225
 20
-13.146181
 30
0.0
 70
    32
  0
VERTEX
  5
221
330
20E
100
AcDbEntity
  8
1
100
AcDbVertex
100
AcDb3dPolylineVertex
 10
-60.47996600000001
 20
-13.150023
 30
0.0
 70
    32
  0
VERTEX
  5
222
330
20E
100
AcDbEntity
  8
1
100
AcDbVertex
100
AcDb3dPolylineVertex
 10
-60.534734
 20
-13.152708
 30
0.0
 70
    32
  0
VERTEX
  5
223
330
20E
100
AcDbEntity
  8
1
100
AcDbVertex
100
AcDb3dPolylineVertex
 10
-60.589526
 20
-13.154285
 30
0.0
 70
    32
  0
VERTEX
  5
224
330
20E
100
AcDbEntity
  8
1
100
AcDbVertex
100
AcDb3dPolylineVertex
 10
-60.64434300000001
 20
-13.1548
 30
0.0
 70
    32
  0
SEQEND
  5
225
330
20E
100
AcDbEntity
  8
1
  0
POLYLINE
  5
226
330
68C
100
AcDbEntity
  8
1
100
AcDb3dPolyline
 66
     1
 10
0.0
 20
0.0
 30
0.0
 70
     8
  0
VERTEX
  5
227
330
226
100
AcDbEntity
  8
1
100
AcDbVertex
100
AcDb3dPolylineVertex
 10
-45.48076799999999
 20
-6.883045
 30
0.0
 70
    32
  0
VERTEX
  5
228
330
226
100
AcDbEntity
  8
1
100
AcDbVertex
100
AcDb3dPolylineVertex
 10
-45.510267
 20
-6.864880999999999
 30
0.0
 70
    32
  0
VERTEX
  5
229
330
226
100
AcDbEntity
  8
1
100
AcDbVertex
100
AcDb3dPolylineVertex
 10
-45.54145399999999
 20
-6.849922999999999
 30
0.0
 70
    32
  0
VERTEX
  5
22A
330
226
100
AcDbEntity
  8
1
100
AcDbVertex
100
AcDb3dPolylineVertex
 10
-45.573937
 20
-6.838322999999999
 30
0.0
 70
    32
  0
VERTEX
  5
22B
330
226
100
AcDbEntity
  8
1
100
AcDbVertex
100
AcDb3dPolylineVertex
 10
-45.60722
 20
-6.83023
 30
0.0
 70
    32
  0
VERTEX
  5
22C
330
226
100
AcDbEntity
  8
1
100
AcDbVertex
100
AcDb3dPolylineVertex
 10
-45.640751
 20
-6.825666
 30
0.0
 70
    32
  0
VERTEX
  5
22D
330
226
100
AcDbEntity
  8
1
100
AcDbVertex
100
AcDb3dPolylineVertex
 10
-45.67430499999999
 20
-6.824564999999999
 30
0.0
 70
    32
  0
VERTEX
  5
22E
330
226
100
AcDbEntity
  8
1
100
AcDbVertex
100
AcDb3dPolylineVertex
 10
-45.707578
 20
-6.826842999999999
 30
0.0
 70
    32
  0
VERTEX
  5
22F
330
226
100
AcDbEntity
  8
1
100
AcDbVertex
100
AcDb3dPolylineVertex
 10
-45.739857
 20
-6.832324
 30
0.0
 70
    32
  0
VERTEX
  5
230
330
226
100
AcDbEntity
  8
1
100
AcDbVertex
100
AcDb3dPolylineVertex
 10
-45.771002
 20
-6.840861
 30
0.0
 70
    32
  0
VERTEX
  5
231
330
226
100
AcDbEntity
  8
1
100
AcDbVertex
100
AcDb3dPolylineVertex
 10
-45.80095599999999
 20
-6.852307
 30
0.0
 70
    32
  0
VERTEX
  5
232
330
226
100
AcDbEntity
  8
1
100
AcDbVertex
100
AcDb3dPolylineVertex
 10
-45.829231
 20
-6.866336999999999
 30
0.0
 70
    32
  0
VERTEX
  5
233
330
226
100
AcDbEntity
  8
1
100
AcDbVertex
100
AcDb3dPolylineVertex
 10
-45.85567199999999
 20
-6.882780999999999
 30
0.0
 70
    32
  0
VERTEX
  5
234
330
226
100
AcDbEntity
  8
1
100
AcDbVertex
100
AcDb3dPolylineVertex
 10
-45.880323
 20
-6.901557
 30
0.0
 70
    32
  0
SEQEND
  5
235
330
226
100
AcDbEntity
  8
1
  0
POLYLINE
  5
236
330
68C
100
AcDbEntity
  8
1
100
AcDb3dPolyline
 66
     1
 10
0.0
 20
0.0
 30
0.0
 70
     8
  0
VERTEX
  5
237
330
236
100
AcDbEntity
  8
1
100
AcDbVertex
100
AcDb3dPolylineVertex
 10
-47.84004099999999
 20
-9.732955
 30
0.0
 70
    32
  0
VERTEX
  5
238
330
236
100
AcDbEntity
  8
1
100
AcDbVertex
100
AcDb3dPolylineVertex
 10
-47.825457
 20
-9.691382
 30
0.0
 70
    32
  0
VERTEX
  5
239
330
236
100
AcDbEntity
  8
1
100
AcDbVertex
100
AcDb3dPolylineVertex
 10
-47.813078
 20
-9.64901
 30
0.0
 70
    32
  0
VERTEX
  5
23A
330
236
100
AcDbEntity
  8
1
100
AcDbVertex
100
AcDb3dPolylineVertex
 10
-47.802956
 20
-9.605789999999998
 30
0.0
 70
    32
  0
VERTEX
  5
23B
330
236
100
AcDbEntity
  8
1
100
AcDbVertex
100
AcDb3dPolylineVertex
 10
-47.795142
 20
-9.561674
 30
0.0
 70
    32
  0
VERTEX
  5
23C
330
236
100
AcDbEntity
  8
1
100
AcDbVertex
100
AcDb3dPolylineVertex
 10
-47.789689
 20
-9.516614
 30
0.0
 70
    32
  0
VERTEX
  5
23D
330
236
100
AcDbEntity
  8
1
100
AcDbVertex
100
AcDb3dPolylineVertex
 10
-47.78666499999999
 20
-9.47061
 30
0.0
 70
    32
  0
VERTEX
  5
23E
330
236
100
AcDbEntity
  8
1
100
AcDbVertex
100
AcDb3dPolylineVertex
 10
-47.786214
 20
-9.424007000000001
 30
0.0
 70
    32
  0
VERTEX
  5
23F
330
236
100
AcDbEntity
  8
1
100
AcDbVertex
100
AcDb3dPolylineVertex
 10
-47.78841299999999
 20
-9.377088999999999
 30
0.0
 70
    32
  0
VERTEX
  5
240
330
236
100
AcDbEntity
  8
1
100
AcDbVertex
100
AcDb3dPolylineVertex
 10
-47.793321
 20
-9.330021999999999
 30
0.0
 70
    32
  0
VERTEX
  5
241
330
236
100
AcDbEntity
  8
1
100
AcDbVertex
100
AcDb3dPolylineVertex
 10
-47.801037
 20
-9.282702999999999
 30
0.0
 70
    32
  0
VERTEX
  5
242
330
236
100
AcDbEntity
  8
1
100
AcDbVertex
100
AcDb3dPolylineVertex
 10
-47.811703
 20
-9.235088000000001
 30
0.0
 70
    32
  0
SEQEND
  5
243
330
236
100
AcDbEntity
  8
1
  0
POLYLINE
  5
244
330
68C
100
AcDbEntity
  8
1
100
AcDb3dPolyline
 66
     1
 10
0.0
 20
0.0
 30
0.0
 70
     8
  0
VERTEX
  5
245
330
244
100
AcDbEntity
  8
1
100
AcDbVertex
100
AcDb3dPolylineVertex
 10
-47.040176
 20
-6.803319
 30
0.0
 70
    32
  0
VERTEX
  5
246
330
244
100
AcDbEntity
  8
1
100
AcDbVertex
100
AcDb3dPolylineVertex
 10
-47.00111399999999
 20
-6.846152
 30
0.0
 70
    32
  0
VERTEX
  5
247
330
244
100
AcDbEntity
  8
1
100
AcDbVertex
100
AcDb3dPolylineVertex
 10
-46.95893499999999
 20
-6.886308999999999
 30
0.0
 70
    32
  0
VERTEX
  5
248
330
244
100
AcDbEntity
  8
1
100
AcDbVertex
100
AcDb3dPolylineVertex
 10
-46.91351
 20
-6.923788
 30
0.0
 70
    32
  0
VERTEX
  5
249
330
244
100
AcDbEntity
  8
1
100
AcDbVertex
100
AcDb3dPolylineVertex
 10
-46.86458599999999
 20
-6.958555999999999
 30
0.0
 70
    32
  0
VERTEX
  5
24A
330
244
100
AcDbEntity
  8
1
100
AcDbVertex
100
AcDb3dPolylineVertex
 10
-46.81244
 20
-6.990164
 30
0.0
 70
    32
  0
VERTEX
  5
24B
330
244
100
AcDbEntity
  8
1
100
AcDbVertex
100
AcDb3dPolylineVertex
 10
-46.757483
 20
-7.018125999999999
 30
0.0
 70
    32
  0
VERTEX
  5
24C
330
244
100
AcDbEntity
  8
1
100
AcDbVertex
100
AcDb3dPolylineVertex
 10
-46.699865
 20
-7.042173
 30
0.0
 70
    32
  0
VERTEX
  5
24D
330
244
100
AcDbEntity
  8
1
100
AcDbVertex
100
AcDb3dPolylineVertex
 10
-46.63942
 20
-7.062124999999999
 30
0.0
 70
    32
  0
VERTEX
  5
24E
330
244
100
AcDbEntity
  8
1
100
AcDbVertex
100
AcDb3dPolylineVertex
 10
-46.576954
 20
-7.077505
 30
0.0
 70
    32
  0
VERTEX
  5
24F
330
244
100
AcDbEntity
  8
1
100
AcDbVertex
100
AcDb3dPolylineVertex
 10
-46.51337999999999
 20
-7.088
 30
0.0
 70
    32
  0
VERTEX
  5
250
330
244
100
AcDbEntity
  8
1
100
AcDbVertex
100
AcDb3dPolylineVertex
 10
-46.449053
 20
-7.093496
 30
0.0
 70
    32
  0
VERTEX
  5
251
330
244
100
AcDbEntity
  8
1
100
AcDbVertex
100
AcDb3dPolylineVertex
 10
-46.384139
 20
-7.09393
 30
0.0
 70
    32
  0
VERTEX
  5
252
330
244
100
AcDbEntity
  8
1
100
AcDbVertex
100
AcDb3dPolylineVertex
 10
-46.319837
 20
-7.089375999999999
 30
0.0
 70
    32
  0
VERTEX
  5
253
330
244
100
AcDbEntity
  8
1
100
AcDbVertex
100
AcDb3dPolylineVertex
 10
-46.256966
 20
-7.079936999999999
 30
0.0
 70
    32
  0
VERTEX
  5
254
330
244
100
AcDbEntity
  8
1
100
AcDbVertex
100
AcDb3dPolylineVertex
 10
-46.195648
 20
-7.065878999999999
 30
0.0
 70
    32
  0
VERTEX
  5
255
330
244
100
AcDbEntity
  8
1
100
AcDbVertex
100
AcDb3dPolylineVertex
 10
-46.136559
 20
-7.047552999999999
 30
0.0
 70
    32
  0
VERTEX
  5
256
330
244
100
AcDbEntity
  8
1
100
AcDbVertex
100
AcDb3dPolylineVertex
 10
-46.08017
 20
-7.025361999999999
 30
0.0
 70
    32
  0
VERTEX
  5
257
330
244
100
AcDbEntity
  8
1
100
AcDbVertex
100
AcDb3dPolylineVertex
 10
-46.02638699999999
 20
-6.999508999999999
 30
0.0
 70
    32
  0
VERTEX
  5
258
330
244
100
AcDbEntity
  8
1
100
AcDbVertex
100
AcDb3dPolylineVertex
 10
-45.975056
 20
-6.970121
 30
0.0
 70
    32
  0
VERTEX
  5
259
330
244
100
AcDbEntity
  8
1
100
AcDbVertex
100
AcDb3dPolylineVertex
 10
-45.926281
 20
-6.937373
 30
0.0
 70
    32
  0
VERTEX
  5
25A
330
244
100
AcDbEntity
  8
1
100
AcDbVertex
100
AcDb3dPolylineVertex
 10
-45.880323
 20
-6.901557
 30
0.0
 70
    32
  0
SEQEND
  5
25B
330
244
100
AcDbEntity
  8
1
  0
POLYLINE
  5
25C
330
68C
100
AcDbEntity
  8
1
100
AcDb3dPolyline
 66
     1
 10
0.0
 20
0.0
 30
0.0
 70
     8
  0
VERTEX
  5
25D
330
25C
100
AcDbEntity
  8
1
100
AcDbVertex
100
AcDb3dPolylineVertex
 10
-47.94064999999999
 20
-8.958154999999999
 30
0.0
 70
    32
  0
VERTEX
  5
25E
330
25C
100
AcDbEntity
  8
1
100
AcDbVertex
100
AcDb3dPolylineVertex
 10
-47.97703199999999
 20
-8.91101
 30
0.0
 70
    32
  0
VERTEX
  5
25F
330
25C
100
AcDbEntity
  8
1
100
AcDbVertex
100
AcDb3dPolylineVertex
 10
-48.015882
 20
-8.867475999999999
 30
0.0
 70
    32
  0
VERTEX
  5
260
330
25C
100
AcDbEntity
  8
1
100
AcDbVertex
100
AcDb3dPolylineVertex
 10
-48.057084
 20
-8.827424999999999
 30
0.0
 70
    32
  0
VERTEX
  5
261
330
25C
100
AcDbEntity
  8
1
100
AcDbVertex
100
AcDb3dPolylineVertex
 10
-48.10051699999999
 20
-8.790728999999998
 30
0.0
 70
    32
  0
VERTEX
  5
262
330
25C
100
AcDbEntity
  8
1
100
AcDbVertex
100
AcDb3dPolylineVertex
 10
-48.145955
 20
-8.757338
 30
0.0
 70
    32
  0
VERTEX
  5
263
330
25C
100
AcDbEntity
  8
1
100
AcDbVertex
100
AcDb3dPolylineVertex
 10
-48.192678
 20
-8.727596999999999
 30
0.0
 70
    32
  0
VERTEX
  5
264
330
25C
100
AcDbEntity
  8
1
100
AcDbVertex
100
AcDb3dPolylineVertex
 10
-48.240576
 20
-8.701447999999999
 30
0.0
 70
    32
  0
VERTEX
  5
265
330
25C
100
AcDbEntity
  8
1
100
AcDbVertex
100
AcDb3dPolylineVertex
 10
-48.28965499999999
 20
-8.678758999999999
 30
0.0
 70
    32
  0
VERTEX
  5
266
330
25C
100
AcDbEntity
  8
1
100
AcDbVertex
100
AcDb3dPolylineVertex
 10
-48.33992
 20
-8.659392999999999
 30
0.0
 70
    32
  0
SEQEND
  5
267
330
25C
100
AcDbEntity
  8
1
  0
POLYLINE
  5
268
330
68C
100
AcDbEntity
  8
1
100
AcDb3dPolyline
 66
     1
 10
0.0
 20
0.0
 30
0.0
 70
     8
  0
VERTEX
  5
269
330
268
100
AcDbEntity
  8
1
100
AcDbVertex
100
AcDb3dPolylineVertex
 10
-44.91162
 20
-8.981987
 30
0.0
 70
    32
  0
VERTEX
  5
26A
330
268
100
AcDbEntity
  8
1
100
AcDbVertex
100
AcDb3dPolylineVertex
 10
-44.968327
 20
-8.994021999999999
 30
0.0
 70
    32
  0
VERTEX
  5
26B
330
268
100
AcDbEntity
  8
1
100
AcDbVertex
100
AcDb3dPolylineVertex
 10
-45.024302
 20
-9.010099999999999
 30
0.0
 70
    32
  0
VERTEX
  5
26C
330
268
100
AcDbEntity
  8
1
100
AcDbVertex
100
AcDb3dPolylineVertex
 10
-45.079607
 20
-9.030331
 30
0.0
 70
    32
  0
VERTEX
  5
26D
330
268
100
AcDbEntity
  8
1
100
AcDbVertex
100
AcDb3dPolylineVertex
 10
-45.134344
 20
-9.054952999999999
 30
0.0
 70
    32
  0
VERTEX
  5
26E
330
268
100
AcDbEntity
  8
1
100
AcDbVertex
100
AcDb3dPolylineVertex
 10
-45.18798499999999
 20
-9.083952999999999
 30
0.0
 70
    32
  0
VERTEX
  5
26F
330
268
100
AcDbEntity
  8
1
100
AcDbVertex
100
AcDb3dPolylineVertex
 10
-45.239902
 20
-9.117221
 30
0.0
 70
    32
  0
VERTEX
  5
270
330
268
100
AcDbEntity
  8
1
100
AcDbVertex
100
AcDb3dPolylineVertex
 10
-45.28978699999999
 20
-9.154764
 30
0.0
 70
    32
  0
VERTEX
  5
271
330
268
100
AcDbEntity
  8
1
100
AcDbVertex
100
AcDb3dPolylineVertex
 10
-45.33757
 20
-9.196818999999999
 30
0.0
 70
    32
  0
VERTEX
  5
272
330
268
100
AcDbEntity
  8
1
100
AcDbVertex
100
AcDb3dPolylineVertex
 10
-45.38243
 20
-9.242927999999999
 30
0.0
 70
    32
  0
VERTEX
  5
273
330
268
100
AcDbEntity
  8
1
100
AcDbVertex
100
AcDb3dPolylineVertex
 10
-45.423637
 20
-9.292464
 30
0.0
 70
    32
  0
VERTEX
  5
274
330
268
100
AcDbEntity
  8
1
100
AcDbVertex
100
AcDb3dPolylineVertex
 10
-45.460912
 20
-9.345176999999999
 30
0.0
 70
    32
  0
VERTEX
  5
275
330
268
100
AcDbEntity
  8
1
100
AcDbVertex
100
AcDb3dPolylineVertex
 10
-45.49411699999999
 20
-9.400958000000001
 30
0.0
 70
    32
  0
VERTEX
  5
276
330
268
100
AcDbEntity
  8
1
100
AcDbVertex
100
AcDb3dPolylineVertex
 10
-45.522709
 20
-9.458733
 30
0.0
 70
    32
  0
VERTEX
  5
277
330
268
100
AcDbEntity
  8
1
100
AcDbVertex
100
AcDb3dPolylineVertex
 10
-45.546364
 20
-9.517744
 30
0.0
 70
    32
  0
VERTEX
  5
278
330
268
100
AcDbEntity
  8
1
100
AcDbVertex
100
AcDb3dPolylineVertex
 10
-45.565248
 20
-9.577752
 30
0.0
 70
    32
  0
VERTEX
  5
279
330
268
100
AcDbEntity
  8
1
100
AcDbVertex
100
AcDb3dPolylineVertex
 10
-45.579323
 20
-9.637995
 30
0.0
 70
    32
  0
VERTEX
  5
27A
330
268
100
AcDbEntity
  8
1
100
AcDbVertex
100
AcDb3dPolylineVertex
 10
-45.588699
 20
-9.697863999999999
 30
0.0
 70
    32
  0
VERTEX
  5
27B
330
268
100
AcDbEntity
  8
1
100
AcDbVertex
100
AcDb3dPolylineVertex
 10
-45.593596
 20
-9.757336
 30
0.0
 70
    32
  0
VERTEX
  5
27C
330
268
100
AcDbEntity
  8
1
100
AcDbVertex
100
AcDb3dPolylineVertex
 10
-45.594205
 20
-9.816480999999999
 30
0.0
 70
    32
  0
VERTEX
  5
27D
330
268
100
AcDbEntity
  8
1
100
AcDbVertex
100
AcDb3dPolylineVertex
 10
-45.59062199999999
 20
-9.875121
 30
0.0
 70
    32
  0
VERTEX
  5
27E
330
268
100
AcDbEntity
  8
1
100
AcDbVertex
100
AcDb3dPolylineVertex
 10
-45.58296799999999
 20
-9.932882000000001
 30
0.0
 70
    32
  0
SEQEND
  5
27F
330
268
100
AcDbEntity
  8
1
  0
POLYLINE
  5
280
330
68C
100
AcDbEntity
  8
1
100
AcDb3dPolyline
 66
     1
 10
0.0
 20
0.0
 30
0.0
 70
     8
  0
VERTEX
  5
281
330
280
100
AcDbEntity
  8
1
100
AcDbVertex
100
AcDb3dPolylineVertex
 10
-40.407514
 20
-5.29808
 30
0.0
 70
    32
  0
VERTEX
  5
282
330
280
100
AcDbEntity
  8
1
100
AcDbVertex
100
AcDb3dPolylineVertex
 10
-40.468497
 20
-5.27688
 30
0.0
 70
    32
  0
VERTEX
  5
283
330
280
100
AcDbEntity
  8
1
100
AcDbVertex
100
AcDb3dPolylineVertex
 10
-40.53107999999999
 20
-5.254894999999999
 30
0.0
 70
    32
  0
VERTEX
  5
284
330
280
100
AcDbEntity
  8
1
100
AcDbVertex
100
AcDb3dPolylineVertex
 10
-40.595459
 20
-5.232028999999999
 30
0.0
 70
    32
  0
VERTEX
  5
285
330
280
100
AcDbEntity
  8
1
100
AcDbVertex
100
AcDb3dPolylineVertex
 10
-40.66182799999999
 20
-5.208187
 30
0.0
 70
    32
  0
VERTEX
  5
286
330
280
100
AcDbEntity
  8
1
100
AcDbVertex
100
AcDb3dPolylineVertex
 10
-40.730382
 20
-5.183273999999999
 30
0.0
 70
    32
  0
VERTEX
  5
287
330
280
100
AcDbEntity
  8
1
100
AcDbVertex
100
AcDb3dPolylineVertex
 10
-40.80121199999999
 20
-5.157231999999999
 30
0.0
 70
    32
  0
VERTEX
  5
288
330
280
100
AcDbEntity
  8
1
100
AcDbVertex
100
AcDb3dPolylineVertex
 10
-40.873656
 20
-5.130307
 30
0.0
 70
    32
  0
VERTEX
  5
289
330
280
100
AcDbEntity
  8
1
100
AcDbVertex
100
AcDb3dPolylineVertex
 10
-40.947203
 20
-5.102704
 30
0.0
 70
    32
  0
VERTEX
  5
28A
330
280
100
AcDbEntity
  8
1
100
AcDbVertex
100
AcDb3dPolylineVertex
 10
-41.021528
 20
-5.074564999999999
 30
0.0
 70
    32
  0
VERTEX
  5
28B
330
280
100
AcDbEntity
  8
1
100
AcDbVertex
100
AcDb3dPolylineVertex
 10
-41.096625
 20
-5.045919
 30
0.0
 70
    32
  0
VERTEX
  5
28C
330
280
100
AcDbEntity
  8
1
100
AcDbVertex
100
AcDb3dPolylineVertex
 10
-41.172408
 20
-5.016826
 30
0.0
 70
    32
  0
SEQEND
  5
28D
330
280
100
AcDbEntity
  8
1
  0
POLYLINE
  5
28E
330
68C
100
AcDbEntity
  8
1
100
AcDb3dPolyline
 66
     1
 10
0.0
 20
0.0
 30
0.0
 70
     8
  0
VERTEX
  5
28F
330
28E
100
AcDbEntity
  8
1
100
AcDbVertex
100
AcDb3dPolylineVertex
 10
-48.28838
 20
-8.022813000000001
 30
0.0
 70
    32
  0
VERTEX
  5
290
330
28E
100
AcDbEntity
  8
1
100
AcDbVertex
100
AcDb3dPolylineVertex
 10
-48.318617
 20
-8.029592999999998
 30
0.0
 70
    32
  0
VERTEX
  5
291
330
28E
100
AcDbEntity
  8
1
100
AcDbVertex
100
AcDb3dPolylineVertex
 10
-48.34821999999999
 20
-8.039244999999999
 30
0.0
 70
    32
  0
VERTEX
  5
292
330
28E
100
AcDbEntity
  8
1
100
AcDbVertex
100
AcDb3dPolylineVertex
 10
-48.377157
 20
-8.051853999999998
 30
0.0
 70
    32
  0
VERTEX
  5
293
330
28E
100
AcDbEntity
  8
1
100
AcDbVertex
100
AcDb3dPolylineVertex
 10
-48.40519699999999
 20
-8.067410999999999
 30
0.0
 70
    32
  0
VERTEX
  5
294
330
28E
100
AcDbEntity
  8
1
100
AcDbVertex
100
AcDb3dPolylineVertex
 10
-48.431777
 20
-8.085753
 30
0.0
 70
    32
  0
VERTEX
  5
295
330
28E
100
AcDbEntity
  8
1
100
AcDbVertex
100
AcDb3dPolylineVertex
 10
-48.456747
 20
-8.106928999999999
 30
0.0
 70
    32
  0
VERTEX
  5
296
330
28E
100
AcDbEntity
  8
1
100
AcDbVertex
100
AcDb3dPolylineVertex
 10
-48.479907
 20
-8.130926999999999
 30
0.0
 70
    32
  0
VERTEX
  5
297
330
28E
100
AcDbEntity
  8
1
100
AcDbVertex
100
AcDb3dPolylineVertex
 10
-48.500661
 20
-8.157315999999999
 30
0.0
 70
    32
  0
VERTEX
  5
298
330
28E
100
AcDbEntity
  8
1
100
AcDbVertex
100
AcDb3dPolylineVertex
 10
-48.51874999999999
 20
-8.185914999999999
 30
0.0
 70
    32
  0
VERTEX
  5
299
330
28E
100
AcDbEntity
  8
1
100
AcDbVertex
100
AcDb3dPolylineVertex
 10
-48.533979
 20
-8.216597
 30
0.0
 70
    32
  0
VERTEX
  5
29A
330
28E
100
AcDbEntity
  8
1
100
AcDbVertex
100
AcDb3dPolylineVertex
 10
-48.54600900000001
 20
-8.248922999999999
 30
0.0
 70
    32
  0
VERTEX
  5
29B
330
28E
100
AcDbEntity
  8
1
100
AcDbVertex
100
AcDb3dPolylineVertex
 10
-48.554634
 20
-8.282419
 30
0.0
 70
    32
  0
VERTEX
  5
29C
330
28E
100
AcDbEntity
  8
1
100
AcDbVertex
100
AcDb3dPolylineVertex
 10
-48.55972
 20
-8.316686
 30
0.0
 70
    32
  0
SEQEND
  5
29D
330
28E
100
AcDbEntity
  8
1
  0
POLYLINE
  5
29E
330
68C
100
AcDbEntity
  8
1
100
AcDb3dPolyline
 66
     1
 10
0.0
 20
0.0
 30
0.0
 70
     8
  0
VERTEX
  5
29F
330
29E
100
AcDbEntity
  8
1
100
AcDbVertex
100
AcDb3dPolylineVertex
 10
-48.55972
 20
-8.316686
 30
0.0
 70
    32
  0
VERTEX
  5
2A0
330
29E
100
AcDbEntity
  8
1
100
AcDbVertex
100
AcDb3dPolylineVertex
 10
-48.561139
 20
-8.352227
 30
0.0
 70
    32
  0
VERTEX
  5
2A1
330
29E
100
AcDbEntity
  8
1
100
AcDbVertex
100
AcDb3dPolylineVertex
 10
-48.55875199999999
 20
-8.387629999999999
 30
0.0
 70
    32
  0
VERTEX
  5
2A2
330
29E
100
AcDbEntity
  8
1
100
AcDbVertex
100
AcDb3dPolylineVertex
 10
-48.552666
 20
-8.422335
 30
0.0
 70
    32
  0
VERTEX
  5
2A3
330
29E
100
AcDbEntity
  8
1
100
AcDbVertex
100
AcDb3dPolylineVertex
 10
-48.542988
 20
-8.455868999999999
 30
0.0
 70
    32
  0
VERTEX
  5
2A4
330
29E
100
AcDbEntity
  8
1
100
AcDbVertex
100
AcDb3dPolylineVertex
 10
-48.529929
 20
-8.487960000000001
 30
0.0
 70
    32
  0
VERTEX
  5
2A5
330
29E
100
AcDbEntity
  8
1
100
AcDbVertex
100
AcDb3dPolylineVertex
 10
-48.51379099999999
 20
-8.518211
 30
0.0
 70
    32
  0
VERTEX
  5
2A6
330
29E
100
AcDbEntity
  8
1
100
AcDbVertex
100
AcDb3dPolylineVertex
 10
-48.494883
 20
-8.546231999999999
 30
0.0
 70
    32
  0
VERTEX
  5
2A7
330
29E
100
AcDbEntity
  8
1
100
AcDbVertex
100
AcDb3dPolylineVertex
 10
-48.473525
 20
-8.571820999999999
 30
0.0
 70
    32
  0
VERTEX
  5
2A8
330
29E
100
AcDbEntity
  8
1
100
AcDbVertex
100
AcDb3dPolylineVertex
 10
-48.449959
 20
-8.594886
 30
0.0
 70
    32
  0
VERTEX
  5
2A9
330
29E
100
AcDbEntity
  8
1
100
AcDbVertex
100
AcDb3dPolylineVertex
 10
-48.42443499999999
 20
-8.615324000000001
 30
0.0
 70
    32
  0
VERTEX
  5
2AA
330
29E
100
AcDbEntity
  8
1
100
AcDbVertex
100
AcDb3dPolylineVertex
 10
-48.397477
 20
-8.632888000000001
 30
0.0
 70
    32
  0
VERTEX
  5
2AB
330
29E
100
AcDbEntity
  8
1
100
AcDbVertex
100
AcDb3dPolylineVertex
 10
-48.36929
 20
-8.647553999999999
 30
0.0
 70
    32
  0
VERTEX
  5
2AC
330
29E
100
AcDbEntity
  8
1
100
AcDbVertex
100
AcDb3dPolylineVertex
 10
-48.33992
 20
-8.659392999999999
 30
0.0
 70
    32
  0
SEQEND
  5
2AD
330
29E
100
AcDbEntity
  8
1
  0
POLYLINE
  5
2AE
330
68C
100
AcDbEntity
  8
1
100
AcDb3dPolyline
 66
     1
 10
0.0
 20
0.0
 30
0.0
 70
     8
  0
VERTEX
  5
2AF
330
2AE
100
AcDbEntity
  8
1
100
AcDbVertex
100
AcDb3dPolylineVertex
 10
-44.91162
 20
-8.981987
 30
0.0
 70
    32
  0
VERTEX
  5
2B0
330
2AE
100
AcDbEntity
  8
1
100
AcDbVertex
100
AcDb3dPolylineVertex
 10
-44.881383
 20
-8.975207000000001
 30
0.0
 70
    32
  0
VERTEX
  5
2B1
330
2AE
100
AcDbEntity
  8
1
100
AcDbVertex
100
AcDb3dPolylineVertex
 10
-44.85178
 20
-8.965555
 30
0.0
 70
    32
  0
VERTEX
  5
2B2
330
2AE
100
AcDbEntity
  8
1
100
AcDbVertex
100
AcDb3dPolylineVertex
 10
-44.82284299999999
 20
-8.952946
 30
0.0
 70
    32
  0
VERTEX
  5
2B3
330
2AE
100
AcDbEntity
  8
1
100
AcDbVertex
100
AcDb3dPolylineVertex
 10
-44.794803
 20
-8.937388999999999
 30
0.0
 70
    32
  0
VERTEX
  5
2B4
330
2AE
100
AcDbEntity
  8
1
100
AcDbVertex
100
AcDb3dPolylineVertex
 10
-44.768223
 20
-8.919047
 30
0.0
 70
    32
  0
VERTEX
  5
2B5
330
2AE
100
AcDbEntity
  8
1
100
AcDbVertex
100
AcDb3dPolylineVertex
 10
-44.743253
 20
-8.897871
 30
0.0
 70
    32
  0
VERTEX
  5
2B6
330
2AE
100
AcDbEntity
  8
1
100
AcDbVertex
100
AcDb3dPolylineVertex
 10
-44.72009299999999
 20
-8.873872999999999
 30
0.0
 70
    32
  0
VERTEX
  5
2B7
330
2AE
100
AcDbEntity
  8
1
100
AcDbVertex
100
AcDb3dPolylineVertex
 10
-44.699339
 20
-8.847483999999999
 30
0.0
 70
    32
  0
VERTEX
  5
2B8
330
2AE
100
AcDbEntity
  8
1
100
AcDbVertex
100
AcDb3dPolylineVertex
 10
-44.68124999999999
 20
-8.818884999999999
 30
0.0
 70
    32
  0
VERTEX
  5
2B9
330
2AE
100
AcDbEntity
  8
1
100
AcDbVertex
100
AcDb3dPolylineVertex
 10
-44.666021
 20
-8.788202999999999
 30
0.0
 70
    32
  0
VERTEX
  5
2BA
330
2AE
100
AcDbEntity
  8
1
100
AcDbVertex
100
AcDb3dPolylineVertex
 10
-44.65399099999999
 20
-8.755876999999999
 30
0.0
 70
    32
  0
VERTEX
  5
2BB
330
2AE
100
AcDbEntity
  8
1
100
AcDbVertex
100
AcDb3dPolylineVertex
 10
-44.64536599999999
 20
-8.722381
 30
0.0
 70
    32
  0
VERTEX
  5
2BC
330
2AE
100
AcDbEntity
  8
1
100
AcDbVertex
100
AcDb3dPolylineVertex
 10
-44.64027999999999
 20
-8.688114
 30
0.0
 70
    32
  0
SEQEND
  5
2BD
330
2AE
100
AcDbEntity
  8
1
  0
POLYLINE
  5
2BE
330
68C
100
AcDbEntity
  8
1
100
AcDb3dPolyline
 66
     1
 10
0.0
 20
0.0
 30
0.0
 70
     8
  0
VERTEX
  5
2BF
330
2BE
100
AcDbEntity
  8
1
100
AcDbVertex
100
AcDb3dPolylineVertex
 10
-40.198503
 20
-3.813816999999999
 30
0.0
 70
    32
  0
VERTEX
  5
2C0
330
2BE
100
AcDbEntity
  8
1
100
AcDbVertex
100
AcDb3dPolylineVertex
 10
-40.250267
 20
-3.868818
 30
0.0
 70
    32
  0
VERTEX
  5
2C1
330
2BE
100
AcDbEntity
  8
1
100
AcDbVertex
100
AcDb3dPolylineVertex
 10
-40.303575
 20
-3.923505
 30
0.0
 70
    32
  0
VERTEX
  5
2C2
330
2BE
100
AcDbEntity
  8
1
100
AcDbVertex
100
AcDb3dPolylineVertex
 10
-40.358615
 20
-3.977841
 30
0.0
 70
    32
  0
VERTEX
  5
2C3
330
2BE
100
AcDbEntity
  8
1
100
AcDbVertex
100
AcDb3dPolylineVertex
 10
-40.415574
 20
-4.031787999999999
 30
0.0
 70
    32
  0
VERTEX
  5
2C4
330
2BE
100
AcDbEntity
  8
1
100
AcDbVertex
100
AcDb3dPolylineVertex
 10
-40.47464
 20
-4.085307
 30
0.0
 70
    32
  0
VERTEX
  5
2C5
330
2BE
100
AcDbEntity
  8
1
100
AcDbVertex
100
AcDb3dPolylineVertex
 10
-40.535911
 20
-4.138291999999999
 30
0.0
 70
    32
  0
VERTEX
  5
2C6
330
2BE
100
AcDbEntity
  8
1
100
AcDbVertex
100
AcDb3dPolylineVertex
 10
-40.598812
 20
-4.190246
 30
0.0
 70
    32
  0
VERTEX
  5
2C7
330
2BE
100
AcDbEntity
  8
1
100
AcDbVertex
100
AcDb3dPolylineVertex
 10
-40.662887
 20
-4.240934999999999
 30
0.0
 70
    32
  0
VERTEX
  5
2C8
330
2BE
100
AcDbEntity
  8
1
100
AcDbVertex
100
AcDb3dPolylineVertex
 10
-40.727836
 20
-4.290280999999999
 30
0.0
 70
    32
  0
VERTEX
  5
2C9
330
2BE
100
AcDbEntity
  8
1
100
AcDbVertex
100
AcDb3dPolylineVertex
 10
-40.793634
 20
-4.338496
 30
0.0
 70
    32
  0
VERTEX
  5
2CA
330
2BE
100
AcDbEntity
  8
1
100
AcDbVertex
100
AcDb3dPolylineVertex
 10
-40.86018099999999
 20
-4.385723999999999
 30
0.0
 70
    32
  0
SEQEND
  5
2CB
330
2BE
100
AcDbEntity
  8
1
  0
POLYLINE
  5
2CC
330
68C
100
AcDbEntity
  8
1
100
AcDb3dPolyline
 66
     1
 10
0.0
 20
0.0
 30
0.0
 70
     8
  0
VERTEX
  5
2CD
330
2CC
100
AcDbEntity
  8
1
100
AcDbVertex
100
AcDb3dPolylineVertex
 10
-45.25934999999999
 20
-8.046644999999999
 30
0.0
 70
    32
  0
VERTEX
  5
2CE
330
2CC
100
AcDbEntity
  8
1
100
AcDbVertex
100
AcDb3dPolylineVertex
 10
-45.222968
 20
-8.09379
 30
0.0
 70
    32
  0
VERTEX
  5
2CF
330
2CC
100
AcDbEntity
  8
1
100
AcDbVertex
100
AcDb3dPolylineVertex
 10
-45.18411799999999
 20
-8.137324000000001
 30
0.0
 70
    32
  0
VERTEX
  5
2D0
330
2CC
100
AcDbEntity
  8
1
100
AcDbVertex
100
AcDb3dPolylineVertex
 10
-45.14291599999999
 20
-8.177374999999999
 30
0.0
 70
    32
  0
VERTEX
  5
2D1
330
2CC
100
AcDbEntity
  8
1
100
AcDbVertex
100
AcDb3dPolylineVertex
 10
-45.099483
 20
-8.214071
 30
0.0
 70
    32
  0
VERTEX
  5
2D2
330
2CC
100
AcDbEntity
  8
1
100
AcDbVertex
100
AcDb3dPolylineVertex
 10
-45.054045
 20
-8.247461999999998
 30
0.0
 70
    32
  0
VERTEX
  5
2D3
330
2CC
100
AcDbEntity
  8
1
100
AcDbVertex
100
AcDb3dPolylineVertex
 10
-45.00732199999999
 20
-8.277203
 30
0.0
 70
    32
  0
VERTEX
  5
2D4
330
2CC
100
AcDbEntity
  8
1
100
AcDbVertex
100
AcDb3dPolylineVertex
 10
-44.95942399999999
 20
-8.303352
 30
0.0
 70
    32
  0
VERTEX
  5
2D5
330
2CC
100
AcDbEntity
  8
1
100
AcDbVertex
100
AcDb3dPolylineVertex
 10
-44.910345
 20
-8.326041
 30
0.0
 70
    32
  0
VERTEX
  5
2D6
330
2CC
100
AcDbEntity
  8
1
100
AcDbVertex
100
AcDb3dPolylineVertex
 10
-44.86007999999999
 20
-8.345407000000001
 30
0.0
 70
    32
  0
SEQEND
  5
2D7
330
2CC
100
AcDbEntity
  8
1
  0
POLYLINE
  5
2D8
330
68C
100
AcDbEntity
  8
1
100
AcDb3dPolyline
 66
     1
 10
0.0
 20
0.0
 30
0.0
 70
     8
  0
VERTEX
  5
2D9
330
2D8
100
AcDbEntity
  8
1
100
AcDbVertex
100
AcDb3dPolylineVertex
 10
-39.745836
 20
-4.726173
 30
0.0
 70
    32
  0
VERTEX
  5
2DA
330
2D8
100
AcDbEntity
  8
1
100
AcDbVertex
100
AcDb3dPolylineVertex
 10
-39.729235
 20
-4.680420999999999
 30
0.0
 70
    32
  0
VERTEX
  5
2DB
330
2D8
100
AcDbEntity
  8
1
100
AcDbVertex
100
AcDb3dPolylineVertex
 10
-39.71500800000001
 20
-4.633955
 30
0.0
 70
    32
  0
VERTEX
  5
2DC
330
2D8
100
AcDbEntity
  8
1
100
AcDbVertex
100
AcDb3dPolylineVertex
 10
-39.703198
 20
-4.586914
 30
0.0
 70
    32
  0
VERTEX
  5
2DD
330
2D8
100
AcDbEntity
  8
1
100
AcDbVertex
100
AcDb3dPolylineVertex
 10
-39.69384
 20
-4.539442
 30
0.0
 70
    32
  0
VERTEX
  5
2DE
330
2D8
100
AcDbEntity
  8
1
100
AcDbVertex
100
AcDb3dPolylineVertex
 10
-39.686963
 20
-4.491683
 30
0.0
 70
    32
  0
VERTEX
  5
2DF
330
2D8
100
AcDbEntity
  8
1
100
AcDbVertex
100
AcDb3dPolylineVertex
 10
-39.682587
 20
-4.443782999999999
 30
0.0
 70
    32
  0
VERTEX
  5
2E0
330
2D8
100
AcDbEntity
  8
1
100
AcDbVertex
100
AcDb3dPolylineVertex
 10
-39.680727
 20
-4.395884999999999
 30
0.0
 70
    32
  0
VERTEX
  5
2E1
330
2D8
100
AcDbEntity
  8
1
100
AcDbVertex
100
AcDb3dPolylineVertex
 10
-39.681387
 20
-4.348136
 30
0.0
 70
    32
  0
VERTEX
  5
2E2
330
2D8
100
AcDbEntity
  8
1
100
AcDbVertex
100
AcDb3dPolylineVertex
 10
-39.684566
 20
-4.300682
 30
0.0
 70
    32
  0
VERTEX
  5
2E3
330
2D8
100
AcDbEntity
  8
1
100
AcDbVertex
100
AcDb3dPolylineVertex
 10
-39.690255
 20
-4.253664999999999
 30
0.0
 70
    32
  0
VERTEX
  5
2E4
330
2D8
100
AcDbEntity
  8
1
100
AcDbVertex
100
AcDb3dPolylineVertex
 10
-39.69843400000001
 20
-4.207228999999999
 30
0.0
 70
    32
  0
VERTEX
  5
2E5
330
2D8
100
AcDbEntity
  8
1
100
AcDbVertex
100
AcDb3dPolylineVertex
 10
-39.709081
 20
-4.161515
 30
0.0
 70
    32
  0
VERTEX
  5
2E6
330
2D8
100
AcDbEntity
  8
1
100
AcDbVertex
100
AcDb3dPolylineVertex
 10
-39.722162
 20
-4.116661999999999
 30
0.0
 70
    32
  0
VERTEX
  5
2E7
330
2D8
100
AcDbEntity
  8
1
100
AcDbVertex
100
AcDb3dPolylineVertex
 10
-39.737639
 20
-4.072805999999999
 30
0.0
 70
    32
  0
VERTEX
  5
2E8
330
2D8
100
AcDbEntity
  8
1
100
AcDbVertex
100
AcDb3dPolylineVertex
 10
-39.755463
 20
-4.030079999999999
 30
0.0
 70
    32
  0
VERTEX
  5
2E9
330
2D8
100
AcDbEntity
  8
1
100
AcDbVertex
100
AcDb3dPolylineVertex
 10
-39.77558
 20
-3.988612999999999
 30
0.0
 70
    32
  0
VERTEX
  5
2EA
330
2D8
100
AcDbEntity
  8
1
100
AcDbVertex
100
AcDb3dPolylineVertex
 10
-39.797931
 20
-3.948533
 30
0.0
 70
    32
  0
VERTEX
  5
2EB
330
2D8
100
AcDbEntity
  8
1
100
AcDbVertex
100
AcDb3dPolylineVertex
 10
-39.822446
 20
-3.909959999999999
 30
0.0
 70
    32
  0
VERTEX
  5
2EC
330
2D8
100
AcDbEntity
  8
1
100
AcDbVertex
100
AcDb3dPolylineVertex
 10
-39.849051
 20
-3.873010999999999
 30
0.0
 70
    32
  0
SEQEND
  5
2ED
330
2D8
100
AcDbEntity
  8
1
  0
POLYLINE
  5
2EE
330
68C
100
AcDbEntity
  8
1
100
AcDb3dPolyline
 66
     1
 10
0.0
 20
0.0
 30
0.0
 70
     8
  0
VERTEX
  5
2EF
330
2EE
100
AcDbEntity
  8
1
100
AcDbVertex
100
AcDb3dPolylineVertex
 10
-41.217828
 20
-5.767797999999999
 30
0.0
 70
    32
  0
VERTEX
  5
2F0
330
2EE
100
AcDbEntity
  8
1
100
AcDbVertex
100
AcDb3dPolylineVertex
 10
-40.784457
 20
-5.907286
 30
0.0
 70
    32
  0
VERTEX
  5
2F1
330
2EE
100
AcDbEntity
  8
1
100
AcDbVertex
100
AcDb3dPolylineVertex
 10
-40.32142299999999
 20
-5.888302999999999
 30
0.0
 70
    32
  0
VERTEX
  5
2F2
330
2EE
100
AcDbEntity
  8
1
100
AcDbVertex
100
AcDb3dPolylineVertex
 10
-39.878904
 20
-5.712907
 30
0.0
 70
    32
  0
VERTEX
  5
2F3
330
2EE
100
AcDbEntity
  8
1
100
AcDbVertex
100
AcDb3dPolylineVertex
 10
-39.504852
 20
-5.400104999999999
 30
0.0
 70
    32
  0
VERTEX
  5
2F4
330
2EE
100
AcDbEntity
  8
1
100
AcDbVertex
100
AcDb3dPolylineVertex
 10
-39.239803
 20
-4.983794
 30
0.0
 70
    32
  0
VERTEX
  5
2F5
330
2EE
100
AcDbEntity
  8
1
100
AcDbVertex
100
AcDb3dPolylineVertex
 10
-39.112478
 20
-4.509087
 30
0.0
 70
    32
  0
VERTEX
  5
2F6
330
2EE
100
AcDbEntity
  8
1
100
AcDbVertex
100
AcDb3dPolylineVertex
 10
-39.136676
 20
-4.027426
 30
0.0
 70
    32
  0
VERTEX
  5
2F7
330
2EE
100
AcDbEntity
  8
1
100
AcDbVertex
100
AcDb3dPolylineVertex
 10
-39.309774
 20
-3.591007999999999
 30
0.0
 70
    32
  0
VERTEX
  5
2F8
330
2EE
100
AcDbEntity
  8
1
100
AcDbVertex
100
AcDb3dPolylineVertex
 10
-39.613014
 20
-3.247122999999999
 30
0.0
 70
    32
  0
VERTEX
  5
2F9
330
2EE
100
AcDbEntity
  8
1
100
AcDbVertex
100
AcDb3dPolylineVertex
 10
-40.01353499999999
 20
-3.033039
 30
0.0
 70
    32
  0
VERTEX
  5
2FA
330
2EE
100
AcDbEntity
  8
1
100
AcDbVertex
100
AcDb3dPolylineVertex
 10
-40.46793499999999
 20
-2.971953
 30
0.0
 70
    32
  0
VERTEX
  5
2FB
330
2EE
100
AcDbEntity
  8
1
100
AcDbVertex
100
AcDb3dPolylineVertex
 10
-40.926973
 20
-3.070486
 30
0.0
 70
    32
  0
VERTEX
  5
2FC
330
2EE
100
AcDbEntity
  8
1
100
AcDbVertex
100
AcDb3dPolylineVertex
 10
-41.34090399999999
 20
-3.317960999999999
 30
0.0
 70
    32
  0
VERTEX
  5
2FD
330
2EE
100
AcDbEntity
  8
1
100
AcDbVertex
100
AcDb3dPolylineVertex
 10
-41.664873
 20
-3.687558
 30
0.0
 70
    32
  0
VERTEX
  5
2FE
330
2EE
100
AcDbEntity
  8
1
100
AcDbVertex
100
AcDb3dPolylineVertex
 10
-41.86377199999999
 20
-4.139226999999999
 30
0.0
 70
    32
  0
VERTEX
  5
2FF
330
2EE
100
AcDbEntity
  8
1
100
AcDbVertex
100
AcDb3dPolylineVertex
 10
-41.916049
 20
-4.624023
 30
0.0
 70
    32
  0
VERTEX
  5
300
330
2EE
100
AcDbEntity
  8
1
100
AcDbVertex
100
AcDb3dPolylineVertex
 10
-41.816037
 20
-5.089409999999999
 30
0.0
 70
    32
  0
VERTEX
  5
301
330
2EE
100
AcDbEntity
  8
1
100
AcDbVertex
100
AcDb3dPolylineVertex
 10
-41.574575
 20
-5.484955999999999
 30
0.0
 70
    32
  0
VERTEX
  5
302
330
2EE
100
AcDbEntity
  8
1
100
AcDbVertex
100
AcDb3dPolylineVertex
 10
-41.217828
 20
-5.767797999999999
 30
0.0
 70
    32
  0
SEQEND
  5
303
330
2EE
100
AcDbEntity
  8
1
  0
POLYLINE
  5
304
330
68C
100
AcDbEntity
  8
1
100
AcDb3dPolyline
 66
     1
 10
0.0
 20
0.0
 30
0.0
 70
     8
  0
VERTEX
  5
305
330
304
100
AcDbEntity
  8
1
100
AcDbVertex
100
AcDb3dPolylineVertex
 10
-41.172408
 20
-5.016826
 30
0.0
 70
    32
  0
VERTEX
  5
306
330
304
100
AcDbEntity
  8
1
100
AcDbVertex
100
AcDb3dPolylineVertex
 10
-41.143793
 20
-5.052037999999999
 30
0.0
 70
    32
  0
VERTEX
  5
307
330
304
100
AcDbEntity
  8
1
100
AcDbVertex
100
AcDb3dPolylineVertex
 10
-41.11325599999999
 20
-5.085405
 30
0.0
 70
    32
  0
VERTEX
  5
308
330
304
100
AcDbEntity
  8
1
100
AcDbVertex
100
AcDb3dPolylineVertex
 10
-41.08088799999999
 20
-5.116827999999999
 30
0.0
 70
    32
  0
VERTEX
  5
309
330
304
100
AcDbEntity
  8
1
100
AcDbVertex
100
AcDb3dPolylineVertex
 10
-41.046789
 20
-5.146209999999999
 30
0.0
 70
    32
  0
VERTEX
  5
30A
330
304
100
AcDbEntity
  8
1
100
AcDbVertex
100
AcDb3dPolylineVertex
 10
-41.011062
 20
-5.173462
 30
0.0
 70
    32
  0
VERTEX
  5
30B
330
304
100
AcDbEntity
  8
1
100
AcDbVertex
100
AcDb3dPolylineVertex
 10
-40.973816
 20
-5.198501999999999
 30
0.0
 70
    32
  0
VERTEX
  5
30C
330
304
100
AcDbEntity
  8
1
100
AcDbVertex
100
AcDb3dPolylineVertex
 10
-40.935163
 20
-5.221252999999999
 30
0.0
 70
    32
  0
VERTEX
  5
30D
330
304
100
AcDbEntity
  8
1
100
AcDbVertex
100
AcDb3dPolylineVertex
 10
-40.89522099999999
 20
-5.241647
 30
0.0
 70
    32
  0
VERTEX
  5
30E
330
304
100
AcDbEntity
  8
1
100
AcDbVertex
100
AcDb3dPolylineVertex
 10
-40.854112
 20
-5.259619999999999
 30
0.0
 70
    32
  0
VERTEX
  5
30F
330
304
100
AcDbEntity
  8
1
100
AcDbVertex
100
AcDb3dPolylineVertex
 10
-40.81196
 20
-5.275119999999999
 30
0.0
 70
    32
  0
VERTEX
  5
310
330
304
100
AcDbEntity
  8
1
100
AcDbVertex
100
AcDb3dPolylineVertex
 10
-40.768893
 20
-5.288098
 30
0.0
 70
    32
  0
VERTEX
  5
311
330
304
100
AcDbEntity
  8
1
100
AcDbVertex
100
AcDb3dPolylineVertex
 10
-40.72504099999999
 20
-5.298516
 30
0.0
 70
    32
  0
VERTEX
  5
312
330
304
100
AcDbEntity
  8
1
100
AcDbVertex
100
AcDb3dPolylineVertex
 10
-40.680539
 20
-5.306341
 30
0.0
 70
    32
  0
VERTEX
  5
313
330
304
100
AcDbEntity
  8
1
100
AcDbVertex
100
AcDb3dPolylineVertex
 10
-40.63552199999999
 20
-5.31155
 30
0.0
 70
    32
  0
VERTEX
  5
314
330
304
100
AcDbEntity
  8
1
100
AcDbVertex
100
AcDb3dPolylineVertex
 10
-40.590125
 20
-5.314127
 30
0.0
 70
    32
  0
VERTEX
  5
315
330
304
100
AcDbEntity
  8
1
100
AcDbVertex
100
AcDb3dPolylineVertex
 10
-40.544487
 20
-5.314065
 30
0.0
 70
    32
  0
VERTEX
  5
316
330
304
100
AcDbEntity
  8
1
100
AcDbVertex
100
AcDb3dPolylineVertex
 10
-40.49874699999999
 20
-5.311361999999999
 30
0.0
 70
    32
  0
VERTEX
  5
317
330
304
100
AcDbEntity
  8
1
100
AcDbVertex
100
AcDb3dPolylineVertex
 10
-40.453043
 20
-5.306028999999999
 30
0.0
 70
    32
  0
VERTEX
  5
318
330
304
100
AcDbEntity
  8
1
100
AcDbVertex
100
AcDb3dPolylineVertex
 10
-40.407514
 20
-5.29808
 30
0.0
 70
    32
  0
SEQEND
  5
319
330
304
100
AcDbEntity
  8
1
  0
POLYLINE
  5
31A
330
68C
100
AcDbEntity
  8
1
100
AcDb3dPolyline
 66
     1
 10
0.0
 20
0.0
 30
0.0
 70
     8
  0
VERTEX
  5
31B
330
31A
100
AcDbEntity
  8
1
100
AcDbVertex
100
AcDb3dPolylineVertex
 10
-39.849051
 20
-3.873010999999999
 30
0.0
 70
    32
  0
VERTEX
  5
31C
330
31A
100
AcDbEntity
  8
1
100
AcDbVertex
100
AcDb3dPolylineVertex
 10
-39.877666
 20
-3.8378
 30
0.0
 70
    32
  0
VERTEX
  5
31D
330
31A
100
AcDbEntity
  8
1
100
AcDbVertex
100
AcDb3dPolylineVertex
 10
-39.908204
 20
-3.804431999999999
 30
0.0
 70
    32
  0
VERTEX
  5
31E
330
31A
100
AcDbEntity
  8
1
100
AcDbVertex
100
AcDb3dPolylineVertex
 10
-39.94057100000001
 20
-3.773008999999999
 30
0.0
 70
    32
  0
VERTEX
  5
31F
330
31A
100
AcDbEntity
  8
1
100
AcDbVertex
100
AcDb3dPolylineVertex
 10
-39.97467
 20
-3.743626999999999
 30
0.0
 70
    32
  0
VERTEX
  5
320
330
31A
100
AcDbEntity
  8
1
100
AcDbVertex
100
AcDb3dPolylineVertex
 10
-40.01039699999999
 20
-3.716375
 30
0.0
 70
    32
  0
VERTEX
  5
321
330
31A
100
AcDbEntity
  8
1
100
AcDbVertex
100
AcDb3dPolylineVertex
 10
-40.047643
 20
-3.691335
 30
0.0
 70
    32
  0
VERTEX
  5
322
330
31A
100
AcDbEntity
  8
1
100
AcDbVertex
100
AcDb3dPolylineVertex
 10
-40.086296
 20
-3.668583999999999
 30
0.0
 70
    32
  0
VERTEX
  5
323
330
31A
100
AcDbEntity
  8
1
100
AcDbVertex
100
AcDb3dPolylineVertex
 10
-40.126238
 20
-3.64819
 30
0.0
 70
    32
  0
VERTEX
  5
324
330
31A
100
AcDbEntity
  8
1
100
AcDbVertex
100
AcDb3dPolylineVertex
 10
-40.16734699999999
 20
-3.630217
 30
0.0
 70
    32
  0
VERTEX
  5
325
330
31A
100
AcDbEntity
  8
1
100
AcDbVertex
100
AcDb3dPolylineVertex
 10
-40.209499
 20
-3.614716999999999
 30
0.0
 70
    32
  0
VERTEX
  5
326
330
31A
100
AcDbEntity
  8
1
100
AcDbVertex
100
AcDb3dPolylineVertex
 10
-40.25256699999999
 20
-3.601738999999999
 30
0.0
 70
    32
  0
VERTEX
  5
327
330
31A
100
AcDbEntity
  8
1
100
AcDbVertex
100
AcDb3dPolylineVertex
 10
-40.296418
 20
-3.591320999999999
 30
0.0
 70
    32
  0
VERTEX
  5
328
330
31A
100
AcDbEntity
  8
1
100
AcDbVertex
100
AcDb3dPolylineVertex
 10
-40.34092
 20
-3.583495999999999
 30
0.0
 70
    32
  0
VERTEX
  5
329
330
31A
100
AcDbEntity
  8
1
100
AcDbVertex
100
AcDb3dPolylineVertex
 10
-40.38593699999999
 20
-3.578287
 30
0.0
 70
    32
  0
VERTEX
  5
32A
330
31A
100
AcDbEntity
  8
1
100
AcDbVertex
100
AcDb3dPolylineVertex
 10
-40.431334
 20
-3.575709999999999
 30
0.0
 70
    32
  0
VERTEX
  5
32B
330
31A
100
AcDbEntity
  8
1
100
AcDbVertex
100
AcDb3dPolylineVertex
 10
-40.47697199999999
 20
-3.575773
 30
0.0
 70
    32
  0
VERTEX
  5
32C
330
31A
100
AcDbEntity
  8
1
100
AcDbVertex
100
AcDb3dPolylineVertex
 10
-40.52271199999999
 20
-3.578475
 30
0.0
 70
    32
  0
VERTEX
  5
32D
330
31A
100
AcDbEntity
  8
1
100
AcDbVertex
100
AcDb3dPolylineVertex
 10
-40.568416
 20
-3.583808
 30
0.0
 70
    32
  0
VERTEX
  5
32E
330
31A
100
AcDbEntity
  8
1
100
AcDbVertex
100
AcDb3dPolylineVertex
 10
-40.613945
 20
-3.591756999999999
 30
0.0
 70
    32
  0
SEQEND
  5
32F
330
31A
100
AcDbEntity
  8
1
  0
POLYLINE
  5
330
330
68C
100
AcDbEntity
  8
1
100
AcDb3dPolyline
 66
     1
 10
0.0
 20
0.0
 30
0.0
 70
     8
  0
VERTEX
  5
331
330
330
100
AcDbEntity
  8
1
100
AcDbVertex
100
AcDb3dPolylineVertex
 10
-41.275623
 20
-4.163663999999999
 30
0.0
 70
    32
  0
VERTEX
  5
332
330
330
100
AcDbEntity
  8
1
100
AcDbVertex
100
AcDb3dPolylineVertex
 10
-41.29222399999999
 20
-4.209416
 30
0.0
 70
    32
  0
VERTEX
  5
333
330
330
100
AcDbEntity
  8
1
100
AcDbVertex
100
AcDb3dPolylineVertex
 10
-41.306451
 20
-4.255881999999999
 30
0.0
 70
    32
  0
VERTEX
  5
334
330
330
100
AcDbEntity
  8
1
100
AcDbVertex
100
AcDb3dPolylineVertex
 10
-41.318261
 20
-4.302923
 30
0.0
 70
    32
  0
VERTEX
  5
335
330
330
100
AcDbEntity
  8
1
100
AcDbVertex
100
AcDb3dPolylineVertex
 10
-41.327619
 20
-4.350394999999999
 30
0.0
 70
    32
  0
VERTEX
  5
336
330
330
100
AcDbEntity
  8
1
100
AcDbVertex
100
AcDb3dPolylineVertex
 10
-41.334496
 20
-4.398153999999999
 30
0.0
 70
    32
  0
VERTEX
  5
337
330
330
100
AcDbEntity
  8
1
100
AcDbVertex
100
AcDb3dPolylineVertex
 10
-41.33887199999999
 20
-4.446054
 30
0.0
 70
    32
  0
VERTEX
  5
338
330
330
100
AcDbEntity
  8
1
100
AcDbVertex
100
AcDb3dPolylineVertex
 10
-41.340732
 20
-4.493951999999999
 30
0.0
 70
    32
  0
VERTEX
  5
339
330
330
100
AcDbEntity
  8
1
100
AcDbVertex
100
AcDb3dPolylineVertex
 10
-41.340072
 20
-4.541700999999999
 30
0.0
 70
    32
  0
VERTEX
  5
33A
330
330
100
AcDbEntity
  8
1
100
AcDbVertex
100
AcDb3dPolylineVertex
 10
-41.33689299999999
 20
-4.589154999999999
 30
0.0
 70
    32
  0
VERTEX
  5
33B
330
330
100
AcDbEntity
  8
1
100
AcDbVertex
100
AcDb3dPolylineVertex
 10
-41.33120499999999
 20
-4.636172
 30
0.0
 70
    32
  0
VERTEX
  5
33C
330
330
100
AcDbEntity
  8
1
100
AcDbVertex
100
AcDb3dPolylineVertex
 10
-41.323025
 20
-4.682608
 30
0.0
 70
    32
  0
VERTEX
  5
33D
330
330
100
AcDbEntity
  8
1
100
AcDbVertex
100
AcDb3dPolylineVertex
 10
-41.312378
 20
-4.728322
 30
0.0
 70
    32
  0
VERTEX
  5
33E
330
330
100
AcDbEntity
  8
1
100
AcDbVertex
100
AcDb3dPolylineVertex
 10
-41.29929699999999
 20
-4.773175
 30
0.0
 70
    32
  0
VERTEX
  5
33F
330
330
100
AcDbEntity
  8
1
100
AcDbVertex
100
AcDb3dPolylineVertex
 10
-41.283821
 20
-4.817031
 30
0.0
 70
    32
  0
VERTEX
  5
340
330
330
100
AcDbEntity
  8
1
100
AcDbVertex
100
AcDb3dPolylineVertex
 10
-41.26599699999999
 20
-4.859757
 30
0.0
 70
    32
  0
VERTEX
  5
341
330
330
100
AcDbEntity
  8
1
100
AcDbVertex
100
AcDb3dPolylineVertex
 10
-41.24587899999999
 20
-4.901224
 30
0.0
 70
    32
  0
VERTEX
  5
342
330
330
100
AcDbEntity
  8
1
100
AcDbVertex
100
AcDb3dPolylineVertex
 10
-41.223528
 20
-4.941303999999999
 30
0.0
 70
    32
  0
VERTEX
  5
343
330
330
100
AcDbEntity
  8
1
100
AcDbVertex
100
AcDb3dPolylineVertex
 10
-41.199013
 20
-4.979877
 30
0.0
 70
    32
  0
VERTEX
  5
344
330
330
100
AcDbEntity
  8
1
100
AcDbVertex
100
AcDb3dPolylineVertex
 10
-41.172408
 20
-5.016826
 30
0.0
 70
    32
  0
SEQEND
  5
345
330
330
100
AcDbEntity
  8
1
  0
POLYLINE
  5
346
330
68C
100
AcDbEntity
  8
1
100
AcDb3dPolyline
 66
     1
 10
0.0
 20
0.0
 30
0.0
 70
     8
  0
VERTEX
  5
347
330
346
100
AcDbEntity
  8
1
100
AcDbVertex
100
AcDb3dPolylineVertex
 10
-40.407514
 20
-5.29808
 30
0.0
 70
    32
  0
VERTEX
  5
348
330
346
100
AcDbEntity
  8
1
100
AcDbVertex
100
AcDb3dPolylineVertex
 10
-40.362299
 20
-5.287539999999999
 30
0.0
 70
    32
  0
VERTEX
  5
349
330
346
100
AcDbEntity
  8
1
100
AcDbVertex
100
AcDb3dPolylineVertex
 10
-40.317534
 20
-5.274441999999999
 30
0.0
 70
    32
  0
VERTEX
  5
34A
330
346
100
AcDbEntity
  8
1
100
AcDbVertex
100
AcDb3dPolylineVertex
 10
-40.273357
 20
-5.258823999999999
 30
0.0
 70
    32
  0
VERTEX
  5
34B
330
346
100
AcDbEntity
  8
1
100
AcDbVertex
100
AcDb3dPolylineVertex
 10
-40.2299
 20
-5.240733999999999
 30
0.0
 70
    32
  0
VERTEX
  5
34C
330
346
100
AcDbEntity
  8
1
100
AcDbVertex
100
AcDb3dPolylineVertex
 10
-40.187296
 20
-5.220226999999999
 30
0.0
 70
    32
  0
VERTEX
  5
34D
330
346
100
AcDbEntity
  8
1
100
AcDbVertex
100
AcDb3dPolylineVertex
 10
-40.14567399999999
 20
-5.197366
 30
0.0
 70
    32
  0
VERTEX
  5
34E
330
346
100
AcDbEntity
  8
1
100
AcDbVertex
100
AcDb3dPolylineVertex
 10
-40.10516099999999
 20
-5.172219999999999
 30
0.0
 70
    32
  0
VERTEX
  5
34F
330
346
100
AcDbEntity
  8
1
100
AcDbVertex
100
AcDb3dPolylineVertex
 10
-40.06587899999999
 20
-5.144865
 30
0.0
 70
    32
  0
VERTEX
  5
350
330
346
100
AcDbEntity
  8
1
100
AcDbVertex
100
AcDb3dPolylineVertex
 10
-40.027949
 20
-5.115383999999999
 30
0.0
 70
    32
  0
VERTEX
  5
351
330
346
100
AcDbEntity
  8
1
100
AcDbVertex
100
AcDb3dPolylineVertex
 10
-39.991485
 20
-5.083866999999999
 30
0.0
 70
    32
  0
VERTEX
  5
352
330
346
100
AcDbEntity
  8
1
100
AcDbVertex
100
AcDb3dPolylineVertex
 10
-39.956597
 20
-5.050408999999999
 30
0.0
 70
    32
  0
VERTEX
  5
353
330
346
100
AcDbEntity
  8
1
100
AcDbVertex
100
AcDb3dPolylineVertex
 10
-39.923393
 20
-5.015112999999999
 30
0.0
 70
    32
  0
VERTEX
  5
354
330
346
100
AcDbEntity
  8
1
100
AcDbVertex
100
AcDb3dPolylineVertex
 10
-39.89197199999999
 20
-4.978085
 30
0.0
 70
    32
  0
VERTEX
  5
355
330
346
100
AcDbEntity
  8
1
100
AcDbVertex
100
AcDb3dPolylineVertex
 10
-39.862431
 20
-4.939436999999999
 30
0.0
 70
    32
  0
VERTEX
  5
356
330
346
100
AcDbEntity
  8
1
100
AcDbVertex
100
AcDb3dPolylineVertex
 10
-39.834858
 20
-4.899287999999999
 30
0.0
 70
    32
  0
VERTEX
  5
357
330
346
100
AcDbEntity
  8
1
100
AcDbVertex
100
AcDb3dPolylineVertex
 10
-39.80933800000001
 20
-4.857758999999999
 30
0.0
 70
    32
  0
VERTEX
  5
358
330
346
100
AcDbEntity
  8
1
100
AcDbVertex
100
AcDb3dPolylineVertex
 10
-39.785948
 20
-4.814976
 30
0.0
 70
    32
  0
VERTEX
  5
359
330
346
100
AcDbEntity
  8
1
100
AcDbVertex
100
AcDb3dPolylineVertex
 10
-39.764759
 20
-4.771069999999999
 30
0.0
 70
    32
  0
VERTEX
  5
35A
330
346
100
AcDbEntity
  8
1
100
AcDbVertex
100
AcDb3dPolylineVertex
 10
-39.745836
 20
-4.726173
 30
0.0
 70
    32
  0
SEQEND
  5
35B
330
346
100
AcDbEntity
  8
1
  0
POLYLINE
  5
35C
330
68C
100
AcDbEntity
  8
1
100
AcDb3dPolyline
 66
     1
 10
0.0
 20
0.0
 30
0.0
 70
     8
  0
VERTEX
  5
35D
330
35C
100
AcDbEntity
  8
1
100
AcDbVertex
100
AcDb3dPolylineVertex
 10
-40.613945
 20
-3.591756999999999
 30
0.0
 70
    32
  0
VERTEX
  5
35E
330
35C
100
AcDbEntity
  8
1
100
AcDbVertex
100
AcDb3dPolylineVertex
 10
-40.65916
 20
-3.602297
 30
0.0
 70
    32
  0
VERTEX
  5
35F
330
35C
100
AcDbEntity
  8
1
100
AcDbVertex
100
AcDb3dPolylineVertex
 10
-40.70392499999999
 20
-3.615394999999999
 30
0.0
 70
    32
  0
VERTEX
  5
360
330
35C
100
AcDbEntity
  8
1
100
AcDbVertex
100
AcDb3dPolylineVertex
 10
-40.748103
 20
-3.631012999999999
 30
0.0
 70
    32
  0
VERTEX
  5
361
330
35C
100
AcDbEntity
  8
1
100
AcDbVertex
100
AcDb3dPolylineVertex
 10
-40.79156
 20
-3.649102999999999
 30
0.0
 70
    32
  0
VERTEX
  5
362
330
35C
100
AcDbEntity
  8
1
100
AcDbVertex
100
AcDb3dPolylineVertex
 10
-40.83416399999999
 20
-3.66961
 30
0.0
 70
    32
  0
VERTEX
  5
363
330
35C
100
AcDbEntity
  8
1
100
AcDbVertex
100
AcDb3dPolylineVertex
 10
-40.875785
 20
-3.692470999999999
 30
0.0
 70
    32
  0
VERTEX
  5
364
330
35C
100
AcDbEntity
  8
1
100
AcDbVertex
100
AcDb3dPolylineVertex
 10
-40.91629799999999
 20
-3.717616999999999
 30
0.0
 70
    32
  0
VERTEX
  5
365
330
35C
100
AcDbEntity
  8
1
100
AcDbVertex
100
AcDb3dPolylineVertex
 10
-40.95557999999999
 20
-3.744973
 30
0.0
 70
    32
  0
VERTEX
  5
366
330
35C
100
AcDbEntity
  8
1
100
AcDbVertex
100
AcDb3dPolylineVertex
 10
-40.99351
 20
-3.774452999999999
 30
0.0
 70
    32
  0
VERTEX
  5
367
330
35C
100
AcDbEntity
  8
1
100
AcDbVertex
100
AcDb3dPolylineVertex
 10
-41.02997399999999
 20
-3.805969999999999
 30
0.0
 70
    32
  0
VERTEX
  5
368
330
35C
100
AcDbEntity
  8
1
100
AcDbVertex
100
AcDb3dPolylineVertex
 10
-41.06486199999999
 20
-3.839427999999999
 30
0.0
 70
    32
  0
VERTEX
  5
369
330
35C
100
AcDbEntity
  8
1
100
AcDbVertex
100
AcDb3dPolylineVertex
 10
-41.09806599999999
 20
-3.874723999999999
 30
0.0
 70
    32
  0
VERTEX
  5
36A
330
35C
100
AcDbEntity
  8
1
100
AcDbVertex
100
AcDb3dPolylineVertex
 10
-41.12948699999999
 20
-3.911751999999999
 30
0.0
 70
    32
  0
VERTEX
  5
36B
330
35C
100
AcDbEntity
  8
1
100
AcDbVertex
100
AcDb3dPolylineVertex
 10
-41.15902799999999
 20
-3.9504
 30
0.0
 70
    32
  0
VERTEX
  5
36C
330
35C
100
AcDbEntity
  8
1
100
AcDbVertex
100
AcDb3dPolylineVertex
 10
-41.186601
 20
-3.990548999999999
 30
0.0
 70
    32
  0
VERTEX
  5
36D
330
35C
100
AcDbEntity
  8
1
100
AcDbVertex
100
AcDb3dPolylineVertex
 10
-41.212121
 20
-4.032078
 30
0.0
 70
    32
  0
VERTEX
  5
36E
330
35C
100
AcDbEntity
  8
1
100
AcDbVertex
100
AcDb3dPolylineVertex
 10
-41.23551099999999
 20
-4.074861
 30
0.0
 70
    32
  0
VERTEX
  5
36F
330
35C
100
AcDbEntity
  8
1
100
AcDbVertex
100
AcDb3dPolylineVertex
 10
-41.2567
 20
-4.118767
 30
0.0
 70
    32
  0
VERTEX
  5
370
330
35C
100
AcDbEntity
  8
1
100
AcDbVertex
100
AcDb3dPolylineVertex
 10
-41.275623
 20
-4.163663999999999
 30
0.0
 70
    32
  0
SEQEND
  5
371
330
35C
100
AcDbEntity
  8
1
  0
POLYLINE
  5
372
330
68C
100
AcDbEntity
  8
1
100
AcDb3dPolyline
 66
     1
 10
0.0
 20
0.0
 30
0.0
 70
     8
  0
VERTEX
  5
373
330
372
100
AcDbEntity
  8
1
100
AcDbVertex
100
AcDb3dPolylineVertex
 10
-38.779552
 20
-5.075056
 30
0.0
 70
    32
  0
VERTEX
  5
374
330
372
100
AcDbEntity
  8
1
100
AcDbVertex
100
AcDb3dPolylineVertex
 10
-38.666841
 20
-4.449216
 30
0.0
 70
    32
  0
VERTEX
  5
375
330
372
100
AcDbEntity
  8
1
100
AcDbVertex
100
AcDb3dPolylineVertex
 10
-38.767009
 20
-3.807344999999999
 30
0.0
 70
    32
  0
VERTEX
  5
376
330
372
100
AcDbEntity
  8
1
100
AcDbVertex
100
AcDb3dPolylineVertex
 10
-39.070078
 20
-3.213386999999999
 30
0.0
 70
    32
  0
VERTEX
  5
377
330
372
100
AcDbEntity
  8
1
100
AcDbVertex
100
AcDb3dPolylineVertex
 10
-39.545857
 20
-2.726512
 30
0.0
 70
    32
  0
VERTEX
  5
378
330
372
100
AcDbEntity
  8
1
100
AcDbVertex
100
AcDb3dPolylineVertex
 10
-40.14694699999999
 20
-2.395224
 30
0.0
 70
    32
  0
VERTEX
  5
379
330
372
100
AcDbEntity
  8
1
100
AcDbVertex
100
AcDb3dPolylineVertex
 10
-40.813468
 20
-2.252524999999999
 30
0.0
 70
    32
  0
VERTEX
  5
37A
330
372
100
AcDbEntity
  8
1
100
AcDbVertex
100
AcDb3dPolylineVertex
 10
-41.47902
 20
-2.312631999999999
 30
0.0
 70
    32
  0
VERTEX
  5
37B
330
372
100
AcDbEntity
  8
1
100
AcDbVertex
100
AcDb3dPolylineVertex
 10
-42.0773
 20
-2.569555999999999
 30
0.0
 70
    32
  0
VERTEX
  5
37C
330
372
100
AcDbEntity
  8
1
100
AcDbVertex
100
AcDb3dPolylineVertex
 10
-42.548708
 20
-2.997701999999999
 30
0.0
 70
    32
  0
VERTEX
  5
37D
330
372
100
AcDbEntity
  8
1
100
AcDbVertex
100
AcDb3dPolylineVertex
 10
-42.84628099999999
 20
-3.554418
 30
0.0
 70
    32
  0
VERTEX
  5
37E
330
372
100
AcDbEntity
  8
1
100
AcDbVertex
100
AcDb3dPolylineVertex
 10
-42.940375
 20
-4.184244
 30
0.0
 70
    32
  0
VERTEX
  5
37F
330
372
100
AcDbEntity
  8
1
100
AcDbVertex
100
AcDb3dPolylineVertex
 10
-42.82161699999999
 20
-4.824436
 30
0.0
 70
    32
  0
VERTEX
  5
380
330
372
100
AcDbEntity
  8
1
100
AcDbVertex
100
AcDb3dPolylineVertex
 10
-42.50183599999999
 20
-5.411217999999999
 30
0.0
 70
    32
  0
VERTEX
  5
381
330
372
100
AcDbEntity
  8
1
100
AcDbVertex
100
AcDb3dPolylineVertex
 10
-42.01289
 20
-5.886133
 30
0.0
 70
    32
  0
VERTEX
  5
382
330
372
100
AcDbEntity
  8
1
100
AcDbVertex
100
AcDb3dPolylineVertex
 10
-41.403488
 20
-6.201870999999999
 30
0.0
 70
    32
  0
VERTEX
  5
383
330
372
100
AcDbEntity
  8
1
100
AcDbVertex
100
AcDb3dPolylineVertex
 10
-40.734339
 20
-6.326976999999999
 30
0.0
 70
    32
  0
VERTEX
  5
384
330
372
100
AcDbEntity
  8
1
100
AcDbVertex
100
AcDb3dPolylineVertex
 10
-40.07210399999999
 20
-6.248988999999999
 30
0.0
 70
    32
  0
VERTEX
  5
385
330
372
100
AcDbEntity
  8
1
100
AcDbVertex
100
AcDb3dPolylineVertex
 10
-39.482756
 20
-5.975674999999999
 30
0.0
 70
    32
  0
VERTEX
  5
386
330
372
100
AcDbEntity
  8
1
100
AcDbVertex
100
AcDb3dPolylineVertex
 10
-39.025005
 20
-5.534263
 30
0.0
 70
    32
  0
SEQEND
  5
387
330
372
100
AcDbEntity
  8
1
  0
POLYLINE
  5
388
330
68C
100
AcDbEntity
  8
1
100
AcDb3dPolyline
 66
     1
 10
0.0
 20
0.0
 30
0.0
 70
     8
  0
VERTEX
  5
389
330
388
100
AcDbEntity
  8
1
100
AcDbVertex
100
AcDb3dPolylineVertex
 10
-39.705444
 20
-2.615358
 30
0.0
 70
    32
  0
VERTEX
  5
38A
330
388
100
AcDbEntity
  8
1
100
AcDbVertex
100
AcDb3dPolylineVertex
 10
-39.979652
 20
-2.525733
 30
0.0
 70
    32
  0
VERTEX
  5
38B
330
388
100
AcDbEntity
  8
1
100
AcDbVertex
100
AcDb3dPolylineVertex
 10
-40.26686199999999
 20
-2.483091999999999
 30
0.0
 70
    32
  0
VERTEX
  5
38C
330
388
100
AcDbEntity
  8
1
100
AcDbVertex
100
AcDb3dPolylineVertex
 10
-40.560041
 20
-2.488477999999999
 30
0.0
 70
    32
  0
VERTEX
  5
38D
330
388
100
AcDbEntity
  8
1
100
AcDbVertex
100
AcDb3dPolylineVertex
 10
-40.852013
 20
-2.54176
 30
0.0
 70
    32
  0
VERTEX
  5
38E
330
388
100
AcDbEntity
  8
1
100
AcDbVertex
100
AcDb3dPolylineVertex
 10
-41.13563099999999
 20
-2.641633
 30
0.0
 70
    32
  0
VERTEX
  5
38F
330
388
100
AcDbEntity
  8
1
100
AcDbVertex
100
AcDb3dPolylineVertex
 10
-41.40395
 20
-2.785652
 30
0.0
 70
    32
  0
VERTEX
  5
390
330
388
100
AcDbEntity
  8
1
100
AcDbVertex
100
AcDb3dPolylineVertex
 10
-41.65040199999999
 20
-2.970291999999999
 30
0.0
 70
    32
  0
VERTEX
  5
391
330
388
100
AcDbEntity
  8
1
100
AcDbVertex
100
AcDb3dPolylineVertex
 10
-41.868954
 20
-3.191031999999999
 30
0.0
 70
    32
  0
VERTEX
  5
392
330
388
100
AcDbEntity
  8
1
100
AcDbVertex
100
AcDb3dPolylineVertex
 10
-42.05425499999999
 20
-3.442469
 30
0.0
 70
    32
  0
VERTEX
  5
393
330
388
100
AcDbEntity
  8
1
100
AcDbVertex
100
AcDb3dPolylineVertex
 10
-42.201769
 20
-3.718445999999999
 30
0.0
 70
    32
  0
VERTEX
  5
394
330
388
100
AcDbEntity
  8
1
100
AcDbVertex
100
AcDb3dPolylineVertex
 10
-42.307885
 20
-4.012208999999999
 30
0.0
 70
    32
  0
VERTEX
  5
395
330
388
100
AcDbEntity
  8
1
100
AcDbVertex
100
AcDb3dPolylineVertex
 10
-42.37000399999999
 20
-4.316563999999999
 30
0.0
 70
    32
  0
VERTEX
  5
396
330
388
100
AcDbEntity
  8
1
100
AcDbVertex
100
AcDb3dPolylineVertex
 10
-42.38660699999999
 20
-4.624062
 30
0.0
 70
    32
  0
VERTEX
  5
397
330
388
100
AcDbEntity
  8
1
100
AcDbVertex
100
AcDb3dPolylineVertex
 10
-42.357286
 20
-4.927173999999999
 30
0.0
 70
    32
  0
VERTEX
  5
398
330
388
100
AcDbEntity
  8
1
100
AcDbVertex
100
AcDb3dPolylineVertex
 10
-42.28276
 20
-5.21848
 30
0.0
 70
    32
  0
VERTEX
  5
399
330
388
100
AcDbEntity
  8
1
100
AcDbVertex
100
AcDb3dPolylineVertex
 10
-42.164852
 20
-5.490848999999999
 30
0.0
 70
    32
  0
VERTEX
  5
39A
330
388
100
AcDbEntity
  8
1
100
AcDbVertex
100
AcDb3dPolylineVertex
 10
-42.00645
 20
-5.737612
 30
0.0
 70
    32
  0
VERTEX
  5
39B
330
388
100
AcDbEntity
  8
1
100
AcDbVertex
100
AcDb3dPolylineVertex
 10
-41.811432
 20
-5.952727999999999
 30
0.0
 70
    32
  0
VERTEX
  5
39C
330
388
100
AcDbEntity
  8
1
100
AcDbVertex
100
AcDb3dPolylineVertex
 10
-41.584571
 20
-6.130931999999999
 30
0.0
 70
    32
  0
SEQEND
  5
39D
330
388
100
AcDbEntity
  8
1
  0
POLYLINE
  5
39E
330
68C
100
AcDbEntity
  8
1
100
AcDb3dPolyline
 66
     1
 10
0.0
 20
0.0
 30
0.0
 70
     8
  0
VERTEX
  5
39F
330
39E
100
AcDbEntity
  8
1
100
AcDbVertex
100
AcDb3dPolylineVertex
 10
-67.0
 20
-14.0024
 30
0.0
 70
    32
  0
VERTEX
  5
3A0
330
39E
100
AcDbEntity
  8
1
100
AcDbVertex
100
AcDb3dPolylineVertex
 10
-67.018513
 20
-14.009219
 30
0.0
 70
    32
  0
VERTEX
  5
3A1
330
39E
100
AcDbEntity
  8
1
100
AcDbVertex
100
AcDb3dPolylineVertex
 10
-67.03652099999999
 20
-14.029491
 30
0.0
 70
    32
  0
VERTEX
  5
3A2
330
39E
100
AcDbEntity
  8
1
100
AcDbVertex
100
AcDb3dPolylineVertex
 10
-67.05353199999999
 20
-14.062663
 30
0.0
 70
    32
  0
VERTEX
  5
3A3
330
39E
100
AcDbEntity
  8
1
100
AcDbVertex
100
AcDb3dPolylineVertex
 10
-67.069084
 20
-14.10783
 30
0.0
 70
    32
  0
VERTEX
  5
3A4
330
39E
100
AcDbEntity
  8
1
100
AcDbVertex
100
AcDb3dPolylineVertex
 10
-67.082751
 20
-14.163759
 30
0.0
 70
    32
  0
VERTEX
  5
3A5
330
39E
100
AcDbEntity
  8
1
100
AcDbVertex
100
AcDb3dPolylineVertex
 10
-67.094161
 20
-14.228926
 30
0.0
 70
    32
  0
VERTEX
  5
3A6
330
39E
100
AcDbEntity
  8
1
100
AcDbVertex
100
AcDb3dPolylineVertex
 10
-67.103002
 20
-14.301552
 30
0.0
 70
    32
  0
VERTEX
  5
3A7
330
39E
100
AcDbEntity
  8
1
100
AcDbVertex
100
AcDb3dPolylineVertex
 10
-67.10903399999999
 20
-14.379657
 30
0.0
 70
    32
  0
VERTEX
  5
3A8
330
39E
100
AcDbEntity
  8
1
100
AcDbVertex
100
AcDb3dPolylineVertex
 10
-67.11209100000001
 20
-14.46111
 30
0.0
 70
    32
  0
VERTEX
  5
3A9
330
39E
100
AcDbEntity
  8
1
100
AcDbVertex
100
AcDb3dPolylineVertex
 10
-67.11209100000001
 20
-14.543689
 30
0.0
 70
    32
  0
VERTEX
  5
3AA
330
39E
100
AcDbEntity
  8
1
100
AcDbVertex
100
AcDb3dPolylineVertex
 10
-67.10903399999999
 20
-14.625142
 30
0.0
 70
    32
  0
VERTEX
  5
3AB
330
39E
100
AcDbEntity
  8
1
100
AcDbVertex
100
AcDb3dPolylineVertex
 10
-67.103002
 20
-14.703247
 30
0.0
 70
    32
  0
VERTEX
  5
3AC
330
39E
100
AcDbEntity
  8
1
100
AcDbVertex
100
AcDb3dPolylineVertex
 10
-67.094161
 20
-14.775873
 30
0.0
 70
    32
  0
VERTEX
  5
3AD
330
39E
100
AcDbEntity
  8
1
100
AcDbVertex
100
AcDb3dPolylineVertex
 10
-67.082751
 20
-14.84104
 30
0.0
 70
    32
  0
VERTEX
  5
3AE
330
39E
100
AcDbEntity
  8
1
100
AcDbVertex
100
AcDb3dPolylineVertex
 10
-67.069084
 20
-14.89697
 30
0.0
 70
    32
  0
VERTEX
  5
3AF
330
39E
100
AcDbEntity
  8
1
100
AcDbVertex
100
AcDb3dPolylineVertex
 10
-67.053533
 20
-14.942136
 30
0.0
 70
    32
  0
VERTEX
  5
3B0
330
39E
100
AcDbEntity
  8
1
100
AcDbVertex
100
AcDb3dPolylineVertex
 10
-67.03652099999999
 20
-14.975308
 30
0.0
 70
    32
  0
VERTEX
  5
3B1
330
39E
100
AcDbEntity
  8
1
100
AcDbVertex
100
AcDb3dPolylineVertex
 10
-67.018513
 20
-14.99558
 30
0.0
 70
    32
  0
VERTEX
  5
3B2
330
39E
100
AcDbEntity
  8
1
100
AcDbVertex
100
AcDb3dPolylineVertex
 10
-67.0
 20
-15.0024
 30
0.0
 70
    32
  0
SEQEND
  5
3B3
330
39E
100
AcDbEntity
  8
1
  0
POLYLINE
  5
3B4
330
68C
100
AcDbEntity
  8
1
100
AcDb3dPolyline
 66
     1
 10
0.0
 20
0.0
 30
0.0
 70
     8
  0
VERTEX
  5
3B5
330
3B4
100
AcDbEntity
  8
1
100
AcDbVertex
100
AcDb3dPolylineVertex
 10
-39.773296
 20
-3.138795
 30
0.0
 70
    32
  0
VERTEX
  5
3B6
330
3B4
100
AcDbEntity
  8
1
100
AcDbVertex
100
AcDb3dPolylineVertex
 10
-39.98212500000001
 20
-3.056576999999999
 30
0.0
 70
    32
  0
VERTEX
  5
3B7
330
3B4
100
AcDbEntity
  8
1
100
AcDbVertex
100
AcDb3dPolylineVertex
 10
-40.203296
 20
-3.01189
 30
0.0
 70
    32
  0
VERTEX
  5
3B8
330
3B4
100
AcDbEntity
  8
1
100
AcDbVertex
100
AcDb3dPolylineVertex
 10
-40.430969
 20
-3.005915
 30
0.0
 70
    32
  0
VERTEX
  5
3B9
330
3B4
100
AcDbEntity
  8
1
100
AcDbVertex
100
AcDb3dPolylineVertex
 10
-40.65913
 20
-3.038807999999999
 30
0.0
 70
    32
  0
VERTEX
  5
3BA
330
3B4
100
AcDbEntity
  8
1
100
AcDbVertex
100
AcDb3dPolylineVertex
 10
-40.881755
 20
-3.109701999999999
 30
0.0
 70
    32
  0
VERTEX
  5
3BB
330
3B4
100
AcDbEntity
  8
1
100
AcDbVertex
100
AcDb3dPolylineVertex
 10
-41.092962
 20
-3.216724
 30
0.0
 70
    32
  0
VERTEX
  5
3BC
330
3B4
100
AcDbEntity
  8
1
100
AcDbVertex
100
AcDb3dPolylineVertex
 10
-41.28717499999999
 20
-3.357047
 30
0.0
 70
    32
  0
VERTEX
  5
3BD
330
3B4
100
AcDbEntity
  8
1
100
AcDbVertex
100
AcDb3dPolylineVertex
 10
-41.459263
 20
-3.526966
 30
0.0
 70
    32
  0
VERTEX
  5
3BE
330
3B4
100
AcDbEntity
  8
1
100
AcDbVertex
100
AcDb3dPolylineVertex
 10
-41.604683
 20
-3.721992999999999
 30
0.0
 70
    32
  0
VERTEX
  5
3BF
330
3B4
100
AcDbEntity
  8
1
100
AcDbVertex
100
AcDb3dPolylineVertex
 10
-41.719594
 20
-3.936976999999999
 30
0.0
 70
    32
  0
VERTEX
  5
3C0
330
3B4
100
AcDbEntity
  8
1
100
AcDbVertex
100
AcDb3dPolylineVertex
 10
-41.80095999999999
 20
-4.166241
 30
0.0
 70
    32
  0
VERTEX
  5
3C1
330
3B4
100
AcDbEntity
  8
1
100
AcDbVertex
100
AcDb3dPolylineVertex
 10
-41.846633
 20
-4.403729
 30
0.0
 70
    32
  0
VERTEX
  5
3C2
330
3B4
100
AcDbEntity
  8
1
100
AcDbVertex
100
AcDb3dPolylineVertex
 10
-41.855408
 20
-4.643169999999999
 30
0.0
 70
    32
  0
VERTEX
  5
3C3
330
3B4
100
AcDbEntity
  8
1
100
AcDbVertex
100
AcDb3dPolylineVertex
 10
-41.827051
 20
-4.878239999999999
 30
0.0
 70
    32
  0
VERTEX
  5
3C4
330
3B4
100
AcDbEntity
  8
1
100
AcDbVertex
100
AcDb3dPolylineVertex
 10
-41.762312
 20
-5.102730999999999
 30
0.0
 70
    32
  0
VERTEX
  5
3C5
330
3B4
100
AcDbEntity
  8
1
100
AcDbVertex
100
AcDb3dPolylineVertex
 10
-41.6629
 20
-5.310713999999999
 30
0.0
 70
    32
  0
VERTEX
  5
3C6
330
3B4
100
AcDbEntity
  8
1
100
AcDbVertex
100
AcDb3dPolylineVertex
 10
-41.53144199999999
 20
-5.496696
 30
0.0
 70
    32
  0
VERTEX
  5
3C7
330
3B4
100
AcDbEntity
  8
1
100
AcDbVertex
100
AcDb3dPolylineVertex
 10
-41.371409
 20
-5.655764999999999
 30
0.0
 70
    32
  0
VERTEX
  5
3C8
330
3B4
100
AcDbEntity
  8
1
100
AcDbVertex
100
AcDb3dPolylineVertex
 10
-41.187027
 20
-5.783720999999999
 30
0.0
 70
    32
  0
SEQEND
  5
3C9
330
3B4
100
AcDbEntity
  8
1
  0
POLYLINE
  5
3CA
330
68C
100
AcDbEntity
  8
1
100
AcDb3dPolyline
 66
     1
 10
0.0
 20
0.0
 30
0.0
 70
     8
  0
VERTEX
  5
3CB
330
3CA
100
AcDbEntity
  8
1
100
AcDbVertex
100
AcDb3dPolylineVertex
 10
-41.073345
 20
-5.497489999999999
 30
0.0
 70
    32
  0
VERTEX
  5
3CC
330
3CA
100
AcDbEntity
  8
1
100
AcDbVertex
100
AcDb3dPolylineVertex
 10
-40.72852499999999
 20
-5.608475
 30
0.0
 70
    32
  0
VERTEX
  5
3CD
330
3CA
100
AcDbEntity
  8
1
100
AcDbVertex
100
AcDb3dPolylineVertex
 10
-40.36010499999999
 20
-5.593372
 30
0.0
 70
    32
  0
VERTEX
  5
3CE
330
3CA
100
AcDbEntity
  8
1
100
AcDbVertex
100
AcDb3dPolylineVertex
 10
-40.008007
 20
-5.453815
 30
0.0
 70
    32
  0
VERTEX
  5
3CF
330
3CA
100
AcDbEntity
  8
1
100
AcDbVertex
100
AcDb3dPolylineVertex
 10
-39.710386
 20
-5.204928999999999
 30
0.0
 70
    32
  0
VERTEX
  5
3D0
330
3CA
100
AcDbEntity
  8
1
100
AcDbVertex
100
AcDb3dPolylineVertex
 10
-39.499496
 20
-4.873683999999999
 30
0.0
 70
    32
  0
VERTEX
  5
3D1
330
3CA
100
AcDbEntity
  8
1
100
AcDbVertex
100
AcDb3dPolylineVertex
 10
-39.398188
 20
-4.495974999999999
 30
0.0
 70
    32
  0
VERTEX
  5
3D2
330
3CA
100
AcDbEntity
  8
1
100
AcDbVertex
100
AcDb3dPolylineVertex
 10
-39.417441
 20
-4.112733999999999
 30
0.0
 70
    32
  0
VERTEX
  5
3D3
330
3CA
100
AcDbEntity
  8
1
100
AcDbVertex
100
AcDb3dPolylineVertex
 10
-39.555169
 20
-3.76549
 30
0.0
 70
    32
  0
VERTEX
  5
3D4
330
3CA
100
AcDbEntity
  8
1
100
AcDbVertex
100
AcDb3dPolylineVertex
 10
-39.796447
 20
-3.491873
 30
0.0
 70
    32
  0
VERTEX
  5
3D5
330
3CA
100
AcDbEntity
  8
1
100
AcDbVertex
100
AcDb3dPolylineVertex
 10
-40.11512899999999
 20
-3.321533
 30
0.0
 70
    32
  0
VERTEX
  5
3D6
330
3CA
100
AcDbEntity
  8
1
100
AcDbVertex
100
AcDb3dPolylineVertex
 10
-40.47668
 20
-3.272928999999999
 30
0.0
 70
    32
  0
VERTEX
  5
3D7
330
3CA
100
AcDbEntity
  8
1
100
AcDbVertex
100
AcDb3dPolylineVertex
 10
-40.84192
 20
-3.351329
 30
0.0
 70
    32
  0
VERTEX
  5
3D8
330
3CA
100
AcDbEntity
  8
1
100
AcDbVertex
100
AcDb3dPolylineVertex
 10
-41.17127199999999
 20
-3.548236
 30
0.0
 70
    32
  0
VERTEX
  5
3D9
330
3CA
100
AcDbEntity
  8
1
100
AcDbVertex
100
AcDb3dPolylineVertex
 10
-41.429043
 20
-3.842312
 30
0.0
 70
    32
  0
VERTEX
  5
3DA
330
3CA
100
AcDbEntity
  8
1
100
AcDbVertex
100
AcDb3dPolylineVertex
 10
-41.5873
 20
-4.20169
 30
0.0
 70
    32
  0
VERTEX
  5
3DB
330
3CA
100
AcDbEntity
  8
1
100
AcDbVertex
100
AcDb3dPolylineVertex
 10
-41.628895
 20
-4.587425999999999
 30
0.0
 70
    32
  0
VERTEX
  5
3DC
330
3CA
100
AcDbEntity
  8
1
100
AcDbVertex
100
AcDb3dPolylineVertex
 10
-41.549319
 20
-4.957718999999999
 30
0.0
 70
    32
  0
VERTEX
  5
3DD
330
3CA
100
AcDbEntity
  8
1
100
AcDbVertex
100
AcDb3dPolylineVertex
 10
-41.357196
 20
-5.272441999999999
 30
0.0
 70
    32
  0
VERTEX
  5
3DE
330
3CA
100
AcDbEntity
  8
1
100
AcDbVertex
100
AcDb3dPolylineVertex
 10
-41.073345
 20
-5.497489999999999
 30
0.0
 70
    32
  0
SEQEND
  5
3DF
330
3CA
100
AcDbEntity
  8
1
  0
DIMENSION
  5
3E0
330
68C
100
AcDbEntity
  8
2
100
AcDbDimension
  2
*D0
 10
-77.259039
 20
0.0
 30
0.0
 11
-79.009039
 21
-9.620936999999999
 31
0.0
  1
16
 71
     5
 42
-1.0
  3
SANDVIK_DIM
100
AcDbAlignedDimension
 13
-67.0
 23
-16.0274
 33
0.0
 14
-33.4
 24
0.0
 34
0.0
 50
90.0
100
AcDbRotatedDimension
  0
DIMENSION
  5
3E1
330
68C
100
AcDbEntity
  8
2
100
AcDbDimension
  2
*D1
 10
-35.0
 20
7.857085999999999
 30
0.0
 11
-53.04473699999999
 21
9.607086
 31
0.0
  1
32
 71
     5
 42
-1.0
  3
SANDVIK_DIM
100
AcDbAlignedDimension
 13
-67.0
 23
-16.0274
 33
0.0
 14
-35.0
 24
0.0
 34
0.0
100
AcDbRotatedDimension
  0
DIMENSION
  5
3E2
330
68C
100
AcDbEntity
  8
SK2
100
AcDbDimension
  2
*D2
 10
3.0
 20
-34.32688
 30
0.0
 11
-34.044737
 21
-32.57688
 31
0.0
  1
70
 71
     5
 42
-1.0
  3
SANDVIK_DIM
100
AcDbAlignedDimension
 13
-67.0
 23
-16.0274
 33
0.0
 14
3.0
 24
-12.876066
 34
0.0
100
AcDbRotatedDimension
  0
DIMENSION
  5
3E3
330
68C
100
AcDbEntity
  8
2
100
AcDbDimension
  2
*D3
 10
37.185839
 20
0.0
 30
0.0
 11
35.435839
 21
-14.085526
 31
0.0
  1
15.875
 71
     5
 42
-1.0
  3
SANDVIK_DIM
100
AcDbAlignedDimension
 13
3.0
 23
-15.875
 33
0.0
 14
0.0
 24
0.0
 34
0.0
 50
90.0
100
AcDbRotatedDimension
  0
DIMENSION
  5
3E4
330
68C
100
AcDbEntity
  8
2
100
AcDbDimension
  2
*D4
 10
0.0
 20
18.069723
 30
0.0
 11
-35.544737
 21
19.819723
 31
0.0
  1
67
 71
     5
 42
-1.0
  3
SANDVIK_DIM
100
AcDbAlignedDimension
 13
-67.0
 23
-16.0274
 33
0.0
 14
0.0
 24
0.0
 34
0.0
100
AcDbRotatedDimension
  0
DIMENSION
  5
3E5
330
68C
100
AcDbEntity
  8
SK2
100
AcDbDimension
  2
*D5
 10
-87.484762
 20
0.0
 30
0.0
 11
-89.23476200000001
 21
-9.620936999999999
 31
0.0
  1
16
 71
     5
 42
-1.0
  3
SANDVIK_DIM
100
AcDbAlignedDimension
 13
-67.0
 23
-16.0274
 33
0.0
 14
-33.4
 24
0.0
 34
0.0
 50
90.0
100
AcDbRotatedDimension
  0
DIMENSION
  5
3E6
330
68C
100
AcDbEntity
  8
2
100
AcDbDimension
  2
*D6
 10
0.0
 20
6.434453999999999
 30
0.0
 11
13.696629
 21
8.184453999999998
 31
0.0
  1
x45%%d
 71
     5
 42
-1.0
  3
SANDVIK_DIM
100
AcDbAlignedDimension
 13
3.0
 23
-2.973933999999999
 33
0.0
 14
0.0
 24
0.0
 34
0.0
100
AcDbRotatedDimension
  0
DIMENSION
  5
3E7
330
68C
100
AcDbEntity
  8
2
100
AcDbDimension
  2
*D7
 10
3.0
 20
-25.760199
 30
0.0
 11
-13.478362
 21
-24.010199
 31
0.0
  1
x45%%d
 71
     5
 42
-1.0
  3
SANDVIK_DIM
100
AcDbAlignedDimension
 13
0.0
 23
-15.85
 33
0.0
 14
3.0
 24
-12.876066
 34
0.0
100
AcDbRotatedDimension
  0
ENDSEC
  0
SECTION
  2
OBJECTS
  0
DICTIONARY
  5
628
330
0
100
AcDbDictionary
281
     1
  3
ACAD_CIP_PREVIOUS_PRODUCT_INFO
350
6C5
  3
ACAD_COLOR
350
67E
  3
ACAD_DETAILVIEWSTYLE
350
686
  3
ACAD_GROUP
350
629
  3
ACAD_LAYOUT
350
67D
  3
ACAD_MATERIAL
350
62C
  3
ACAD_MLEADERSTYLE
350
681
  3
ACAD_MLINESTYLE
350
67A
  3
ACAD_PLOTSETTINGS
350
67C
  3
ACAD_PLOTSTYLENAME
350
62A
  3
ACAD_SCALELIST
350
65E
  3
ACAD_SECTIONVIEWSTYLE
350
683
  3
ACAD_TABLESTYLE
350
67F
  3
ACAD_VISUALSTYLE
350
645
  3
ACDB_RECOMPOSE_DATA
350
721
  3
AcDbVariableDictionary
350
714
  3
DWGPROPS
350
722
  0
DICTIONARY
  5
6C8
330
670
100
AcDbDictionary
280
     1
281
     1
  3
ADSK_XREC_LAYER_RECONCILED
360
6C9
  0
DICTIONARY
  5
6CA
330
690
100
AcDbDictionary
280
     1
281
     1
  3
ADSK_XREC_LAYER_RECONCILED
360
6CB
  0
DICTIONARY
  5
6CC
330
694
100
AcDbDictionary
280
     1
281
     1
  3
ADSK_XREC_LAYER_RECONCILED
360
6CD
  0
DICTIONARY
  5
6CE
330
695
100
AcDbDictionary
280
     1
281
     1
  3
ADSK_XREC_LAYER_RECONCILED
360
6CF
  0
DICTIONARY
  5
6D0
330
696
100
AcDbDictionary
280
     1
281
     1
  3
ADSK_XREC_LAYER_RECONCILED
360
6D1
  0
DICTIONARY
  5
6D2
330
697
100
AcDbDictionary
280
     1
281
     1
  3
ADSK_XREC_LAYER_RECONCILED
360
6D3
  0
DICTIONARY
  5
6D4
330
698
100
AcDbDictionary
280
     1
281
     1
  3
ADSK_XREC_LAYER_RECONCILED
360
6D5
  0
DICTIONARY
  5
6D6
330
699
100
AcDbDictionary
280
     1
281
     1
  3
ADSK_XREC_LAYER_RECONCILED
360
6D7
  0
DICTIONARY
  5
6D8
330
69A
100
AcDbDictionary
280
     1
281
     1
  3
ADSK_XREC_LAYER_RECONCILED
360
6D9
  0
DICTIONARY
  5
6DA
330
69B
100
AcDbDictionary
280
     1
281
     1
  3
ADSK_XREC_LAYER_RECONCILED
360
6DB
  0
DICTIONARY
  5
6DC
330
69C
100
AcDbDictionary
280
     1
281
     1
  3
ADSK_XREC_LAYER_RECONCILED
360
6DD
  0
DICTIONARY
  5
6DE
330
69D
100
AcDbDictionary
280
     1
281
     1
  3
ADSK_XREC_LAYER_RECONCILED
360
6DF
  0
DICTIONARY
  5
6E0
330
69E
100
AcDbDictionary
280
     1
281
     1
  3
ADSK_XREC_LAYER_RECONCILED
360
6E1
  0
DICTIONARY
  5
6E2
330
69F
100
AcDbDictionary
280
     1
281
     1
  3
ADSK_XREC_LAYER_RECONCILED
360
6E3
  0
DICTIONARY
  5
6E4
330
6A0
100
AcDbDictionary
280
     1
281
     1
  3
ADSK_XREC_LAYER_RECONCILED
360
6E5
  0
DICTIONARY
  5
6E6
330
6A1
100
AcDbDictionary
280
     1
281
     1
  3
ADSK_XREC_LAYER_RECONCILED
360
6E7
  0
DICTIONARY
  5
6E8
330
6A2
100
AcDbDictionary
280
     1
281
     1
  3
ADSK_XREC_LAYER_RECONCILED
360
6E9
  0
DICTIONARY
  5
6EA
330
6A3
100
AcDbDictionary
280
     1
281
     1
  3
ADSK_XREC_LAYER_RECONCILED
360
6EB
  0
DICTIONARY
  5
6EC
330
6A4
100
AcDbDictionary
280
     1
281
     1
  3
ADSK_XREC_LAYER_RECONCILED
360
6ED
  0
DICTIONARY
  5
6EE
330
6A5
100
AcDbDictionary
280
     1
281
     1
  3
ADSK_XREC_LAYER_RECONCILED
360
6EF
  0
DICTIONARY
  5
6F0
330
6A6
100
AcDbDictionary
280
     1
281
     1
  3
ADSK_XREC_LAYER_RECONCILED
360
6F1
  0
DICTIONARY
  5
6F2
330
6A7
100
AcDbDictionary
280
     1
281
     1
  3
ADSK_XREC_LAYER_RECONCILED
360
6F3
  0
DICTIONARY
  5
6F4
330
6A8
100
AcDbDictionary
280
     1
281
     1
  3
ADSK_XREC_LAYER_RECONCILED
360
6F5
  0
DICTIONARY
  5
6F6
330
6A9
100
AcDbDictionary
280
     1
281
     1
  3
ADSK_XREC_LAYER_RECONCILED
360
6F7
  0
DICTIONARY
  5
6F8
330
6AA
100
AcDbDictionary
280
     1
281
     1
  3
ADSK_XREC_LAYER_RECONCILED
360
6F9
  0
DICTIONARY
  5
6FA
330
6AB
100
AcDbDictionary
280
     1
281
     1
  3
ADSK_XREC_LAYER_RECONCILED
360
6FB
  0
DICTIONARY
  5
6FC
330
6AC
100
AcDbDictionary
280
     1
281
     1
  3
ADSK_XREC_LAYER_RECONCILED
360
6FD
  0
DICTIONARY
  5
6FE
330
6AD
100
AcDbDictionary
280
     1
281
     1
  3
ADSK_XREC_LAYER_RECONCILED
360
6FF
  0
DICTIONARY
  5
700
330
6AE
100
AcDbDictionary
280
     1
281
     1
  3
ADSK_XREC_LAYER_RECONCILED
360
701
  0
DICTIONARY
  5
702
330
6AF
100
AcDbDictionary
280
     1
281
     1
  3
ADSK_XREC_LAYER_RECONCILED
360
703
  0
DICTIONARY
  5
704
330
6B0
100
AcDbDictionary
280
     1
281
     1
  3
ADSK_XREC_LAYER_RECONCILED
360
705
  0
DICTIONARY
  5
706
330
6B1
100
AcDbDictionary
280
     1
281
     1
  3
ADSK_XREC_LAYER_RECONCILED
360
707
  0
DICTIONARY
  5
708
330
6B2
100
AcDbDictionary
280
     1
281
     1
  3
ADSK_XREC_LAYER_RECONCILED
360
709
  0
DICTIONARY
  5
70A
330
6B3
100
AcDbDictionary
280
     1
281
     1
  3
ADSK_XREC_LAYER_RECONCILED
360
70B
  0
DICTIONARY
  5
70C
330
6B4
100
AcDbDictionary
280
     1
281
     1
  3
ADSK_XREC_LAYER_RECONCILED
360
70D
  0
DICTIONARY
  5
70E
330
6B5
100
AcDbDictionary
280
     1
281
     1
  3
ADSK_XREC_LAYER_RECONCILED
360
70F
  0
DICTIONARY
  5
710
330
6B6
100
AcDbDictionary
280
     1
281
     1
  3
ADSK_XREC_LAYER_RECONCILED
360
711
  0
DICTIONARY
  5
712
330
6B7
100
AcDbDictionary
280
     1
281
     1
  3
ADSK_XREC_LAYER_RECONCILED
360
713
  0
XRECORD
  5
6C5
102
{ACAD_REACTORS
330
628
102
}
330
628
100
AcDbXrecord
280
     1
300
AMECH_PP
300
2013
300
PDSU_F_S
  0
DICTIONARY
  5
67E
102
{ACAD_REACTORS
330
628
102
}
330
628
100
AcDbDictionary
281
     1
  0
DICTIONARY
  5
686
102
{ACAD_REACTORS
330
628
102
}
330
628
100
AcDbDictionary
281
     1
  3
Imperial24
350
687
  0
DICTIONARY
  5
629
102
{ACAD_REACTORS
330
628
102
}
330
628
100
AcDbDictionary
281
     1
  0
DICTIONARY
  5
67D
102
{ACAD_REACTORS
330
628
102
}
330
628
100
AcDbDictionary
281
     1
  3
Layout1
350
68B
  3
Model
350
68F
  0
DICTIONARY
  5
62C
102
{ACAD_REACTORS
330
628
102
}
330
628
100
AcDbDictionary
281
     1
  3
ByBlock
350
635
  3
ByLayer
350
62D
  3
Global
350
63D
  0
DICTIONARY
  5
681
102
{ACAD_REACTORS
330
628
102
}
330
628
100
AcDbDictionary
281
     1
  3
Standard
350
682
  0
DICTIONARY
  5
67A
102
{ACAD_REACTORS
330
628
102
}
330
628
100
AcDbDictionary
281
     1
  3
Standard
350
67B
  0
DICTIONARY
  5
67C
102
{ACAD_REACTORS
330
628
102
}
330
628
100
AcDbDictionary
281
     1
  0
ACDBDICTIONARYWDFLT
  5
62A
102
{ACAD_REACTORS
330
628
102
}
330
628
100
AcDbDictionary
281
     1
  3
Normal
350
62B
100
AcDbDictionaryWithDefault
340
62B
  0
DICTIONARY
  5
65E
102
{ACAD_REACTORS
330
628
102
}
330
628
100
AcDbDictionary
281
     1
  3
A0
350
65F
  3
A1
350
660
  3
A2
350
661
  3
A3
350
662
  3
A4
350
663
  3
A5
350
664
  3
A6
350
665
  3
A7
350
666
  3
A8
350
667
  3
A9
350
668
  3
B0
350
669
  3
B1
350
66A
  3
B2
350
66B
  3
B3
350
66C
  3
B4
350
66D
  3
B5
350
66E
  3
B6
350
66F
  0
DICTIONARY
  5
683
102
{ACAD_REACTORS
330
628
102
}
330
628
100
AcDbDictionary
281
     1
  3
Imperial24
350
685
  0
DICTIONARY
  5
67F
102
{ACAD_REACTORS
330
628
102
}
330
628
100
AcDbDictionary
281
     1
  3
Standard
350
680
  0
DICTIONARY
  5
645
102
{ACAD_REACTORS
330
628
102
}
330
628
100
AcDbDictionary
281
     1
  3
2dWireframe
350
64B
  3
Basic
350
64A
  3
Brighten
350
651
  3
ColorChange
350
655
  3
Conceptual
350
64E
  3
Dim
350
650
  3
EdgeColorOff
350
65D
  3
Facepattern
350
654
  3
Flat
350
646
  3
FlatWithEdges
350
647
  3
Gouraud
350
648
  3
GouraudWithEdges
350
649
  3
Hidden
350
64D
  3
JitterOff
350
65B
  3
Linepattern
350
653
  3
OverhangOff
350
65C
  3
Realistic
350
64F
  3
Shaded
350
65A
  3
Shaded with edges
350
659
  3
Shades of Gray
350
656
  3
Sketchy
350
657
  3
Thicken
350
652
  3
Wireframe
350
64C
  3
X-Ray
350
658
  0
XRECORD
  5
721
102
{ACAD_REACTORS
330
628
102
}
330
628
100
AcDbXrecord
280
     1
 90
        1
330
680
  0
DICTIONARY
  5
714
102
{ACAD_REACTORS
330
628
102
}
330
628
100
AcDbDictionary
281
     1
  3
CANNOSCALE
350
719
  3
CMLEADERSTYLE
350
716
  3
CTABLESTYLE
350
715
  3
CVIEWDETAILSTYLE
350
717
  3
CVIEWSECTIONSTYLE
350
718
  3
DIMASSOC
350
71C
  3
INDEXCTL
350
71B
  3
SORTENTS
350
71A
  3
XCLIPFRAME
350
71D
  0
XRECORD
  5
722
102
{ACAD_REACTORS
330
628
102
}
330
628
100
AcDbXrecord
280
     1
  1
DWGPROPS COOKIE
  2

  3

  4

  6

  7

  8
Micke
  9

300
=
301
=
302
=
303
=
304
=
305
=
306
=
307
=
308
=
309
=
 40
0.0000057175925926
 41
2456818.633582778
 42
2456818.633588403
  1

 90
        0
  0
XRECORD
  5
6C9
102
{ACAD_REACTORS
330
6C8
102
}
330
6C8
100
AcDbXrecord
280
     1
290
     1
  0
XRECORD
  5
6CB
102
{ACAD_REACTORS
330
6CA
102
}
330
6CA
100
AcDbXrecord
280
     1
290
     1
  0
XRECORD
  5
6CD
102
{ACAD_REACTORS
330
6CC
102
}
330
6CC
100
AcDbXrecord
280
     1
290
     1
  0
XRECORD
  5
6CF
102
{ACAD_REACTORS
330
6CE
102
}
330
6CE
100
AcDbXrecord
280
     1
290
     1
  0
XRECORD
  5
6D1
102
{ACAD_REACTORS
330
6D0
102
}
330
6D0
100
AcDbXrecord
280
     1
290
     1
  0
XRECORD
  5
6D3
102
{ACAD_REACTORS
330
6D2
102
}
330
6D2
100
AcDbXrecord
280
     1
290
     1
  0
XRECORD
  5
6D5
102
{ACAD_REACTORS
330
6D4
102
}
330
6D4
100
AcDbXrecord
280
     1
290
     1
  0
XRECORD
  5
6D7
102
{ACAD_REACTORS
330
6D6
102
}
330
6D6
100
AcDbXrecord
280
     1
290
     1
  0
XRECORD
  5
6D9
102
{ACAD_REACTORS
330
6D8
102
}
330
6D8
100
AcDbXrecord
280
     1
290
     1
  0
XRECORD
  5
6DB
102
{ACAD_REACTORS
330
6DA
102
}
330
6DA
100
AcDbXrecord
280
     1
290
     1
  0
XRECORD
  5
6DD
102
{ACAD_REACTORS
330
6DC
102
}
330
6DC
100
AcDbXrecord
280
     1
290
     1
  0
XRECORD
  5
6DF
102
{ACAD_REACTORS
330
6DE
102
}
330
6DE
100
AcDbXrecord
280
     1
290
     1
  0
XRECORD
  5
6E1
102
{ACAD_REACTORS
330
6E0
102
}
330
6E0
100
AcDbXrecord
280
     1
290
     1
  0
XRECORD
  5
6E3
102
{ACAD_REACTORS
330
6E2
102
}
330
6E2
100
AcDbXrecord
280
     1
290
     1
  0
XRECORD
  5
6E5
102
{ACAD_REACTORS
330
6E4
102
}
330
6E4
100
AcDbXrecord
280
     1
290
     1
  0
XRECORD
  5
6E7
102
{ACAD_REACTORS
330
6E6
102
}
330
6E6
100
AcDbXrecord
280
     1
290
     1
  0
XRECORD
  5
6E9
102
{ACAD_REACTORS
330
6E8
102
}
330
6E8
100
AcDbXrecord
280
     1
290
     1
  0
XRECORD
  5
6EB
102
{ACAD_REACTORS
330
6EA
102
}
330
6EA
100
AcDbXrecord
280
     1
290
     1
  0
XRECORD
  5
6ED
102
{ACAD_REACTORS
330
6EC
102
}
330
6EC
100
AcDbXrecord
280
     1
290
     1
  0
XRECORD
  5
6EF
102
{ACAD_REACTORS
330
6EE
102
}
330
6EE
100
AcDbXrecord
280
     1
290
     1
  0
XRECORD
  5
6F1
102
{ACAD_REACTORS
330
6F0
102
}
330
6F0
100
AcDbXrecord
280
     1
290
     1
  0
XRECORD
  5
6F3
102
{ACAD_REACTORS
330
6F2
102
}
330
6F2
100
AcDbXrecord
280
     1
290
     1
  0
XRECORD
  5
6F5
102
{ACAD_REACTORS
330
6F4
102
}
330
6F4
100
AcDbXrecord
280
     1
290
     1
  0
XRECORD
  5
6F7
102
{ACAD_REACTORS
330
6F6
102
}
330
6F6
100
AcDbXrecord
280
     1
290
     1
  0
XRECORD
  5
6F9
102
{ACAD_REACTORS
330
6F8
102
}
330
6F8
100
AcDbXrecord
280
     1
290
     1
  0
XRECORD
  5
6FB
102
{ACAD_REACTORS
330
6FA
102
}
330
6FA
100
AcDbXrecord
280
     1
290
     1
  0
XRECORD
  5
6FD
102
{ACAD_REACTORS
330
6FC
102
}
330
6FC
100
AcDbXrecord
280
     1
290
     1
  0
XRECORD
  5
6FF
102
{ACAD_REACTORS
330
6FE
102
}
330
6FE
100
AcDbXrecord
280
     1
290
     1
  0
XRECORD
  5
701
102
{ACAD_REACTORS
330
700
102
}
330
700
100
AcDbXrecord
280
     1
290
     1
  0
XRECORD
  5
703
102
{ACAD_REACTORS
330
702
102
}
330
702
100
AcDbXrecord
280
     1
290
     1
  0
XRECORD
  5
705
102
{ACAD_REACTORS
330
704
102
}
330
704
100
AcDbXrecord
280
     1
290
     1
  0
XRECORD
  5
707
102
{ACAD_REACTORS
330
706
102
}
330
706
100
AcDbXrecord
280
     1
290
     1
  0
XRECORD
  5
709
102
{ACAD_REACTORS
330
708
102
}
330
708
100
AcDbXrecord
280
     1
290
     1
  0
XRECORD
  5
70B
102
{ACAD_REACTORS
330
70A
102
}
330
70A
100
AcDbXrecord
280
     1
290
     1
  0
XRECORD
  5
70D
102
{ACAD_REACTORS
330
70C
102
}
330
70C
100
AcDbXrecord
280
     1
290
     1
  0
XRECORD
  5
70F
102
{ACAD_REACTORS
330
70E
102
}
330
70E
100
AcDbXrecord
280
     1
290
     1
  0
XRECORD
  5
711
102
{ACAD_REACTORS
330
710
102
}
330
710
100
AcDbXrecord
280
     1
290
     1
  0
XRECORD
  5
713
102
{ACAD_REACTORS
330
712
102
}
330
712
100
AcDbXrecord
280
     1
290
     1
  0
ACDBDETAILVIEWSTYLE
  5
687
102
{ACAD_REACTORS
330
686
102
}
330
686
100
AcDbModelDocViewStyle
 70
     0
  3
Imperial24
290
     0
100
AcDbDetailViewStyle
 70
     0
 71
     0
 90
        3
 71
     1
340
671
 40
0.24
340
0
 40
0.24
300

 40
0.36
280
     3
 71
     2
340
678
 90
       25
 71
     3
340
671
 40
0.24
 90
        1
 40
0.75
 90
        1
300
%<\AcVar ViewType \f "%tc1">% %<\AcVar ViewDetailId>%\PSCALE %<\AcVar ViewScale \f "%sn">%
 71
     4
340
678
 90
       25
340
678
 90
       25
280
     0
  0
LAYOUT
  5
68B
102
{ACAD_XDICTIONARY
360
759
102
}
102
{ACAD_REACTORS
330
67D
102
}
330
67D
100
AcDbPlotSettings
  1

  2
Brother DCP-9020CDW Printer
  4

  6

 40
0.0
 41
0.0
 42
0.0
 43
0.0
 44
0.0
 45
0.0
 46
0.0
 47
0.0
 48
0.0
 49
0.0
140
0.0
141
0.0
142
1.0
143
1.0
 70
   688
 72
     0
 73
     0
 74
     5
  7

 75
    16
147
1.0
148
0.0
149
0.0
100
AcDbLayout
  1
Layout1
 70
     1
 71
     1
 10
0.0
 20
0.0
 11
12.0
 21
9.0
 12
0.0
 22
0.0
 32
0.0
 14
1.000000000000000E+20
 24
1.000000000000000E+20
 34
1.000000000000000E+20
 15
-1.000000000000000E+20
 25
-1.000000000000000E+20
 35
-1.000000000000000E+20
146
0.0
 13
0.0
 23
0.0
 33
0.0
 16
1.0
 26
0.0
 36
0.0
 17
0.0
 27
1.0
 37
0.0
 76
     0
330
688
  0
LAYOUT
  5
68F
102
{ACAD_XDICTIONARY
360
75B
102
}
102
{ACAD_REACTORS
330
67D
102
}
330
67D
100
AcDbPlotSettings
  1

  2
Brother DCP-9020CDW Printer
  4

  6

 40
0.0
 41
0.0
 42
0.0
 43
0.0
 44
0.0
 45
0.0
 46
0.0
 47
0.0
 48
0.0
 49
0.0
140
0.0
141
0.0
142
1.0
143
1.0
 70
  1712
 72
     0
 73
     0
 74
     0
  7

 75
     0
147
1.0
148
0.0
149
0.0
100
AcDbLayout
  1
Model
 70
     1
 71
     0
 10
0.0
 20
0.0
 11
12.0
 21
9.0
 12
0.0
 22
0.0
 32
0.0
 14
0.0
 24
0.0
 34
0.0
 15
0.0
 25
0.0
 35
0.0
146
0.0
 13
0.0
 23
0.0
 33
0.0
 16
1.0
 26
0.0
 36
0.0
 17
0.0
 27
1.0
 37
0.0
 76
     0
330
68C
331
6BB
  0
MATERIAL
  5
635
102
{ACAD_XDICTIONARY
360
636
102
}
102
{ACAD_REACTORS
330
62C
102
}
330
62C
100
AcDbMaterial
  1
ByBlock
 72
     0
 43
0.0208333333333333
 43
0.0
 43
0.0
 43
0.0
 43
0.0
 43
0.0208333333333333
 43
0.0
 43
0.0
 43
0.0
 43
0.0
 43
1.0
 43
0.0
 43
0.0
 43
0.0
 43
0.0
 43
1.0
 77
     0
 47
0.0208333333333333
 47
0.0
 47
0.0
 47
0.0
 47
0.0
 47
0.0208333333333333
 47
0.0
 47
0.0
 47
0.0
 47
0.0
 47
1.0
 47
0.0
 47
0.0
 47
0.0
 47
0.0
 47
1.0
171
     0
 49
0.0208333333333333
 49
0.0
 49
0.0
 49
0.0
 49
0.0
 49
0.0208333333333333
 49
0.0
 49
0.0
 49
0.0
 49
0.0
 49
1.0
 49
0.0
 49
0.0
 49
0.0
 49
0.0
 49
1.0
175
     0
142
0.0208333333333333
142
0.0
142
0.0
142
0.0
142
0.0
142
0.0208333333333333
142
0.0
142
0.0
142
0.0
142
0.0
142
1.0
142
0.0
142
0.0
142
0.0
142
0.0
142
1.0
179
     0
144
0.0208333333333333
144
0.0
144
0.0
144
0.0
144
0.0
144
0.0208333333333333
144
0.0
144
0.0
144
0.0
144
0.0
144
1.0
144
0.0
144
0.0
144
0.0
144
0.0
144
1.0
147
0.0208333333333333
147
0.0
147
0.0
147
0.0
147
0.0
147
0.0208333333333333
147
0.0
147
0.0
147
0.0
147
0.0
147
1.0
147
0.0
147
0.0
147
0.0
147
0.0
147
1.0
  0
MATERIAL
  5
62D
102
{ACAD_XDICTIONARY
360
62E
102
}
102
{ACAD_REACTORS
330
62C
102
}
330
62C
100
AcDbMaterial
  1
ByLayer
 72
     0
 43
0.0208333333333333
 43
0.0
 43
0.0
 43
0.0
 43
0.0
 43
0.0208333333333333
 43
0.0
 43
0.0
 43
0.0
 43
0.0
 43
1.0
 43
0.0
 43
0.0
 43
0.0
 43
0.0
 43
1.0
 77
     0
 47
0.0208333333333333
 47
0.0
 47
0.0
 47
0.0
 47
0.0
 47
0.0208333333333333
 47
0.0
 47
0.0
 47
0.0
 47
0.0
 47
1.0
 47
0.0
 47
0.0
 47
0.0
 47
0.0
 47
1.0
171
     0
 49
0.0208333333333333
 49
0.0
 49
0.0
 49
0.0
 49
0.0
 49
0.0208333333333333
 49
0.0
 49
0.0
 49
0.0
 49
0.0
 49
1.0
 49
0.0
 49
0.0
 49
0.0
 49
0.0
 49
1.0
175
     0
142
0.0208333333333333
142
0.0
142
0.0
142
0.0
142
0.0
142
0.0208333333333333
142
0.0
142
0.0
142
0.0
142
0.0
142
1.0
142
0.0
142
0.0
142
0.0
142
0.0
142
1.0
179
     0
144
0.0208333333333333
144
0.0
144
0.0
144
0.0
144
0.0
144
0.0208333333333333
144
0.0
144
0.0
144
0.0
144
0.0
144
1.0
144
0.0
144
0.0
144
0.0
144
0.0
144
1.0
147
0.0208333333333333
147
0.0
147
0.0
147
0.0
147
0.0
147
0.0208333333333333
147
0.0
147
0.0
147
0.0
147
0.0
147
1.0
147
0.0
147
0.0
147
0.0
147
0.0
147
1.0
  0
MATERIAL
  5
63D
102
{ACAD_XDICTIONARY
360
63E
102
}
102
{ACAD_REACTORS
330
62C
102
}
330
62C
100
AcDbMaterial
  1
Global
 72
     0
 43
0.0208333333333333
 43
0.0
 43
0.0
 43
0.0
 43
0.0
 43
0.0208333333333333
 43
0.0
 43
0.0
 43
0.0
 43
0.0
 43
1.0
 43
0.0
 43
0.0
 43
0.0
 43
0.0
 43
1.0
 77
     0
 47
0.0208333333333333
 47
0.0
 47
0.0
 47
0.0
 47
0.0
 47
0.0208333333333333
 47
0.0
 47
0.0
 47
0.0
 47
0.0
 47
1.0
 47
0.0
 47
0.0
 47
0.0
 47
0.0
 47
1.0
171
     0
 49
0.0208333333333333
 49
0.0
 49
0.0
 49
0.0
 49
0.0
 49
0.0208333333333333
 49
0.0
 49
0.0
 49
0.0
 49
0.0
 49
1.0
 49
0.0
 49
0.0
 49
0.0
 49
0.0
 49
1.0
175
     0
142
0.0208333333333333
142
0.0
142
0.0
142
0.0
142
0.0
142
0.0208333333333333
142
0.0
142
0.0
142
0.0
142
0.0
142
1.0
142
0.0
142
0.0
142
0.0
142
0.0
142
1.0
179
     0
144
0.0208333333333333
144
0.0
144
0.0
144
0.0
144
0.0
144
0.0208333333333333
144
0.0
144
0.0
144
0.0
144
0.0
144
1.0
144
0.0
144
0.0
144
0.0
144
0.0
144
1.0
147
0.0208333333333333
147
0.0
147
0.0
147
0.0
147
0.0
147
0.0208333333333333
147
0.0
147
0.0
147
0.0
147
0.0
147
1.0
147
0.0
147
0.0
147
0.0
147
0.0
147
1.0
  0
MLEADERSTYLE
  5
682
102
{ACAD_REACTORS
330
681
102
}
330
681
100
AcDbMLeaderStyle
170
     2
171
     1
172
     0
 90
        2
 40
0.0
 41
0.0
173
     1
 91
-1056964608
340
676
 92
       -2
290
     1
 42
0.09
291
     1
 43
0.36
  3
Standard
 44
0.18
300

342
671
174
     1
178
     6
175
     1
176
     0
 93
-1056964608
 45
0.18
292
     0
297
     0
 46
0.18
 94
-1056964608
 47
1.0
 49
1.0
140
1.0
293
     1
141
0.0
294
     1
177
     0
142
1.0
295
     0
296
     0
143
0.125
1001
ACAD_MLEADERVER
1070
     2
  0
MLINESTYLE
  5
67B
102
{ACAD_REACTORS
330
67A
102
}
330
67A
100
AcDbMlineStyle
  2
STANDARD
 70
     0
  3

 62
   256
 51
90.0
 52
90.0
 71
     2
 49
0.5
 62
   256
  6
BYLAYER
 49
-0.5
 62
   256
  6
BYLAYER
  0
ACDBPLACEHOLDER
  5
62B
102
{ACAD_REACTORS
330
62A
102
}
330
62A
  0
SCALE
  5
65F
102
{ACAD_REACTORS
330
65E
102
}
330
65E
100
AcDbScale
 70
     0
300
1:1
140
1.0
141
1.0
290
     1
  0
SCALE
  5
660
102
{ACAD_REACTORS
330
65E
102
}
330
65E
100
AcDbScale
 70
     0
300
1/128" = 1'-0"
140
0.0078125
141
12.0
290
     0
  0
SCALE
  5
661
102
{ACAD_REACTORS
330
65E
102
}
330
65E
100
AcDbScale
 70
     0
300
1/64" = 1'-0"
140
0.015625
141
12.0
290
     0
  0
SCALE
  5
662
102
{ACAD_REACTORS
330
65E
102
}
330
65E
100
AcDbScale
 70
     0
300
1/32" = 1'-0"
140
0.03125
141
12.0
290
     0
  0
SCALE
  5
663
102
{ACAD_REACTORS
330
65E
102
}
330
65E
100
AcDbScale
 70
     0
300
1/16" = 1'-0"
140
0.0625
141
12.0
290
     0
  0
SCALE
  5
664
102
{ACAD_REACTORS
330
65E
102
}
330
65E
100
AcDbScale
 70
     0
300
3/32" = 1'-0"
140
0.09375
141
12.0
290
     0
  0
SCALE
  5
665
102
{ACAD_REACTORS
330
65E
102
}
330
65E
100
AcDbScale
 70
     0
300
1/8" = 1'-0"
140
0.125
141
12.0
290
     0
  0
SCALE
  5
666
102
{ACAD_REACTORS
330
65E
102
}
330
65E
100
AcDbScale
 70
     0
300
3/16" = 1'-0"
140
0.1875
141
12.0
290
     0
  0
SCALE
  5
667
102
{ACAD_REACTORS
330
65E
102
}
330
65E
100
AcDbScale
 70
     0
300
1/4" = 1'-0"
140
0.25
141
12.0
290
     0
  0
SCALE
  5
668
102
{ACAD_REACTORS
330
65E
102
}
330
65E
100
AcDbScale
 70
     0
300
3/8" = 1'-0"
140
0.375
141
12.0
290
     0
  0
SCALE
  5
669
102
{ACAD_REACTORS
330
65E
102
}
330
65E
100
AcDbScale
 70
     0
300
1/2" = 1'-0"
140
0.5
141
12.0
290
     0
  0
SCALE
  5
66A
102
{ACAD_REACTORS
330
65E
102
}
330
65E
100
AcDbScale
 70
     0
300
3/4" = 1'-0"
140
0.75
141
12.0
290
     0
  0
SCALE
  5
66B
102
{ACAD_REACTORS
330
65E
102
}
330
65E
100
AcDbScale
 70
     0
300
1" = 1'-0"
140
1.0
141
12.0
290
     0
  0
SCALE
  5
66C
102
{ACAD_REACTORS
330
65E
102
}
330
65E
100
AcDbScale
 70
     0
300
1-1/2" = 1'-0"
140
1.5
141
12.0
290
     0
  0
SCALE
  5
66D
102
{ACAD_REACTORS
330
65E
102
}
330
65E
100
AcDbScale
 70
     0
300
3" = 1'-0"
140
3.0
141
12.0
290
     0
  0
SCALE
  5
66E
102
{ACAD_REACTORS
330
65E
102
}
330
65E
100
AcDbScale
 70
     0
300
6" = 1'-0"
140
6.0
141
12.0
290
     0
  0
SCALE
  5
66F
102
{ACAD_REACTORS
330
65E
102
}
330
65E
100
AcDbScale
 70
     0
300
1'-0" = 1'-0"
140
12.0
141
12.0
290
     0
  0
ACDBSECTIONVIEWSTYLE
  5
685
102
{ACAD_REACTORS
330
683
102
}
330
683
100
AcDbModelDocViewStyle
 70
     0
  3
Imperial24
290
     0
100
AcDbSectionViewStyle
 70
     0
 71
     0
 90
       78
 71
     1
340
671
 40
0.24
340
0
340
0
 40
0.24
300
I, O, Q, S, X, Z
 40
0.48
 90
        3
 40
0.18
 90
        1
 71
     2
340
684
 90
       25
340
678
 90
       50
 40
0.24
 40
0.0
 40
0.24
 71
     3
340
671
 40
0.24
 90
        1
 40
0.75
 90
        1
300
%<\AcVar ViewType \f "%tc1">% %<\AcVar ViewSectionStartId>%-%<\AcVar ViewSectionEndId>%\PSCALE %<\AcVar ViewScale \f "%sn">%
 71
     4
300
ANSI31
 40
1.0
 90
        0
290
     0
290
     0
 90
        6
 40
0.0
 40
1.570796326794896
 40
0.2617993877991494
 40
1.308996938995747
 40
-0.2617993877991494
 40
1.832595714594046
  0
TABLESTYLE
  5
680
102
{ACAD_XDICTIONARY
360
71F
102
}
102
{ACAD_REACTORS
330
67F
102
}
330
67F
100
AcDbTableStyle
  3
Standard
 70
     0
 71
     0
 40
0.06
 41
0.06
280
     0
281
     0
  7
STANDARD
140
0.18
170
     2
 62
     0
 63
     7
283
     0
274
    -2
284
     1
 64
     0
275
    -2
285
     1
 65
     0
276
    -2
286
     1
 66
     0
277
    -2
287
     1
 67
     0
278
    -2
288
     1
 68
     0
279
    -2
289
     1
 69
     0
  7
STANDARD
140
0.25
170
     5
 62
     0
 63
     7
283
     0
274
    -2
284
     1
 64
     0
275
    -2
285
     1
 65
     0
276
    -2
286
     1
 66
     0
277
    -2
287
     1
 67
     0
278
    -2
288
     1
 68
     0
279
    -2
289
     1
 69
     0
  7
STANDARD
140
0.18
170
     5
 62
     0
 63
     7
283
     0
274
    -2
284
     1
 64
     0
275
    -2
285
     1
 65
     0
276
    -2
286
     1
 66
     0
277
    -2
287
     1
 67
     0
278
    -2
288
     1
 68
     0
279
    -2
289
     1
 69
     0
  0
VISUALSTYLE
  5
64B
102
{ACAD_XDICTIONARY
360
731
102
}
102
{ACAD_REACTORS
330
645
102
}
330
645
100
AcDbVisualStyle
  2
2dWireframe
 70
     4
 71
     0
 72
     2
 73
     0
 90
        0
 40
-0.6
 41
-30.0
 62
     5
 63
     7
 74
     1
 91
        4
 64
     7
 65
   257
 75
     1
175
     1
 42
1.0
 92
        0
 66
   257
 43
1.0
 76
     1
 77
     6
 78
     2
 67
     7
 79
     5
170
     0
171
     0
290
     0
174
     0
 93
        1
 44
0.0
173
     0
291
     0
 45
0.0
1001
ACAD
1000
AcDbSavedByObjectVersion
1070
     0
  0
VISUALSTYLE
  5
64A
102
{ACAD_XDICTIONARY
360
72F
102
}
102
{ACAD_REACTORS
330
645
102
}
330
645
100
AcDbVisualStyle
  2
Basic
 70
     7
 71
     1
 72
     0
 73
     1
 90
        0
 40
-0.6
 41
-30.0
 62
     5
 63
     7
 74
     0
 91
        4
 64
     7
 65
   257
 75
     1
175
     1
 42
1.0
 92
        8
 66
     7
 43
1.0
 76
     1
 77
     6
 78
     2
 67
     7
 79
     5
170
     0
171
     0
290
     0
174
     0
 93
        1
 44
0.0
173
     0
291
     1
 45
0.0
1001
ACAD
1000
AcDbSavedByObjectVersion
1070
     0
  0
VISUALSTYLE
  5
651
102
{ACAD_XDICTIONARY
360
73D
102
}
102
{ACAD_REACTORS
330
645
102
}
330
645
100
AcDbVisualStyle
  2
Brighten
 70
    12
 71
     2
 72
     2
 73
     0
 90
        0
 40
-0.6
 41
-30.0
 62
     5
 63
     7
 74
     1
 91
        4
 64
     7
 65
   257
 75
     1
175
     1
 42
1.0
 92
        8
 66
     7
 43
1.0
 76
     1
 77
     6
 78
     2
 67
     7
 79
     5
170
     0
171
     0
290
     0
174
     0
 93
        1
 44
50.0
173
     0
291
     1
 45
0.0
1001
ACAD
1000
AcDbSavedByObjectVersion
1070
     0
  0
VISUALSTYLE
  5
655
102
{ACAD_XDICTIONARY
360
745
102
}
102
{ACAD_REACTORS
330
645
102
}
330
645
100
AcDbVisualStyle
  2
ColorChange
 70
    16
 71
     2
 72
     2
 73
     3
 90
        0
 40
-0.6
 41
-30.0
 62
     5
 63
     8
 74
     1
 91
        4
 64
     7
 65
   257
 75
     1
175
     1
 42
1.0
 92
        8
 66
     8
 43
1.0
 76
     1
 77
     6
 78
     2
 67
     7
 79
     5
170
     0
171
     0
290
     0
174
     0
 93
        1
 44
0.0
173
     0
291
     1
 45
0.0
1001
ACAD
1000
AcDbSavedByObjectVersion
1070
     0
  0
VISUALSTYLE
  5
64E
102
{ACAD_XDICTIONARY
360
737
102
}
102
{ACAD_REACTORS
330
645
102
}
330
645
100
AcDbVisualStyle
  2
Conceptual
 70
     9
 71
     3
 72
     2
 73
     0
 90
        0
 40
-0.6
 41
-30.0
 62
     5
 63
     7
 74
     2
 91
        2
 64
     7
 65
   257
 75
     1
175
     1
 42
179.0
 92
        8
 66
     7
 43
1.0
 76
     1
 77
     6
 78
     2
 67
     7
 79
     3
170
     0
171
     0
290
     0
174
     0
 93
        1
 44
0.0
173
     0
291
     0
 45
0.0
1001
ACAD
1000
AcDbSavedByObjectVersion
1070
     0
  0
VISUALSTYLE
  5
650
102
{ACAD_XDICTIONARY
360
73B
102
}
102
{ACAD_REACTORS
330
645
102
}
330
645
100
AcDbVisualStyle
  2
Dim
 70
    11
 71
     2
 72
     2
 73
     0
 90
        0
 40
-0.6
 41
-30.0
 62
     5
 63
     7
 74
     1
 91
        4
 64
     7
 65
   257
 75
     1
175
     1
 42
1.0
 92
        8
 66
     7
 43
1.0
 76
     1
 77
     6
 78
     2
 67
     7
 79
     5
170
     0
171
     0
290
     0
174
     0
 93
        1
 44
-50.0
173
     0
291
     1
 45
0.0
1001
ACAD
1000
AcDbSavedByObjectVersion
1070
     0
  0
VISUALSTYLE
  5
65D
102
{ACAD_XDICTIONARY
360
755
102
}
102
{ACAD_REACTORS
330
645
102
}
330
645
100
AcDbVisualStyle
  2
EdgeColorOff
 70
    22
 71
     2
 72
     2
 73
     0
 90
        0
 40
-0.6
 41
-30.0
 62
     5
 63
     7
 74
     1
 91
        4
 64
     7
 65
   257
 75
     1
175
     1
 42
1.0
 92
        8
 66
     7
 43
1.0
 76
     1
 77
     6
 78
     2
 67
     7
 79
     5
170
     0
171
     0
290
     0
174
     0
 93
        1
 44
0.0
173
     0
291
     1
 45
0.0
1001
ACAD
1000
AcDbSavedByObjectVersion
1070
     0
  0
VISUALSTYLE
  5
654
102
{ACAD_XDICTIONARY
360
743
102
}
102
{ACAD_REACTORS
330
645
102
}
330
645
100
AcDbVisualStyle
  2
Facepattern
 70
    15
 71
     2
 72
     2
 73
     0
 90
        0
 40
-0.6
 41
-30.0
 62
     5
 63
     7
 74
     1
 91
        4
 64
     7
 65
   257
 75
     1
175
     1
 42
1.0
 92
        8
 66
     7
 43
1.0
 76
     1
 77
     6
 78
     2
 67
     7
 79
     5
170
     0
171
     0
290
     0
174
     0
 93
        1
 44
0.0
173
     0
291
     1
 45
0.0
1001
ACAD
1000
AcDbSavedByObjectVersion
1070
     0
  0
VISUALSTYLE
  5
646
102
{ACAD_XDICTIONARY
360
727
102
}
102
{ACAD_REACTORS
330
645
102
}
330
645
100
AcDbVisualStyle
  2
Flat
 70
     0
 71
     2
 72
     1
 73
     1
 90
        2
 40
-0.6
 41
30.0
 62
     5
 63
     7
 74
     0
 91
        0
 64
     7
 65
   257
 75
     1
175
     1
 42
1.0
 92
        8
 66
     7
 43
1.0
 76
     1
 77
     6
 78
     2
 67
     7
 79
     5
170
     0
171
     0
290
     0
174
     0
 93
       13
 44
0.0
173
     0
291
     1
 45
0.0
1001
ACAD
1000
AcDbSavedByObjectVersion
1070
     0
  0
VISUALSTYLE
  5
647
102
{ACAD_XDICTIONARY
360
729
102
}
102
{ACAD_REACTORS
330
645
102
}
330
645
100
AcDbVisualStyle
  2
FlatWithEdges
 70
     1
 71
     2
 72
     1
 73
     1
 90
        2
 40
-0.6
 41
30.0
 62
     5
 63
     7
 74
     1
 91
        0
 64
     7
 65
   257
 75
     1
175
     1
 42
1.0
 92
        0
 66
   257
 43
1.0
 76
     1
 77
     6
 78
     2
 67
     7
 79
     5
170
     0
171
     0
290
     0
174
     0
 93
       13
 44
0.0
173
     0
291
     1
 45
0.0
1001
ACAD
1000
AcDbSavedByObjectVersion
1070
     0
  0
VISUALSTYLE
  5
648
102
{ACAD_XDICTIONARY
360
72B
102
}
102
{ACAD_REACTORS
330
645
102
}
330
645
100
AcDbVisualStyle
  2
Gouraud
 70
     2
 71
     2
 72
     2
 73
     1
 90
        2
 40
-0.6
 41
30.0
 62
     5
 63
     7
 74
     0
 91
        0
 64
     7
 65
   257
 75
     1
175
     1
 42
1.0
 92
        0
 66
     7
 43
1.0
 76
     1
 77
     6
 78
     2
 67
     7
 79
     5
170
     0
171
     0
290
     0
174
     0
 93
       13
 44
0.0
173
     0
291
     1
 45
0.0
1001
ACAD
1000
AcDbSavedByObjectVersion
1070
     0
  0
VISUALSTYLE
  5
649
102
{ACAD_XDICTIONARY
360
72D
102
}
102
{ACAD_REACTORS
330
645
102
}
330
645
100
AcDbVisualStyle
  2
GouraudWithEdges
 70
     3
 71
     2
 72
     2
 73
     1
 90
        2
 40
-0.6
 41
30.0
 62
     5
 63
     7
 74
     1
 91
        0
 64
     7
 65
   257
 75
     1
175
     1
 42
1.0
 92
        0
 66
   257
 43
1.0
 76
     1
 77
     6
 78
     2
 67
     7
 79
     5
170
     0
171
     0
290
     0
174
     0
 93
       13
 44
0.0
173
     0
291
     1
 45
0.0
1001
ACAD
1000
AcDbSavedByObjectVersion
1070
     0
  0
VISUALSTYLE
  5
64D
102
{ACAD_XDICTIONARY
360
735
102
}
102
{ACAD_REACTORS
330
645
102
}
330
645
100
AcDbVisualStyle
  2
Hidden
 70
     6
 71
     1
 72
     2
 73
     2
 90
        0
 40
-0.6
 41
-30.0
 62
     5
 63
     7
 74
     2
 91
        2
 64
     7
 65
   257
 75
     2
175
     1
 42
40.0
 92
        0
 66
   257
 43
1.0
 76
     1
 77
     6
 78
     2
 67
     7
 79
     3
170
     0
171
     0
290
     0
174
     0
 93
        1
 44
0.0
173
     0
291
     0
 45
0.0
1001
ACAD
1000
AcDbSavedByObjectVersion
1070
     0
  0
VISUALSTYLE
  5
65B
102
{ACAD_XDICTIONARY
360
751
102
}
102
{ACAD_REACTORS
330
645
102
}
330
645
100
AcDbVisualStyle
  2
JitterOff
 70
    20
 71
     2
 72
     2
 73
     0
 90
        0
 40
-0.6
 41
-30.0
 62
     5
 63
     7
 74
     1
 91
        4
 64
     7
 65
   257
 75
     1
175
     1
 42
1.0
 92
       10
 66
     7
 43
1.0
 76
     1
 77
     6
 78
     2
 67
     7
 79
     5
170
     0
171
     0
290
     0
174
     0
 93
        1
 44
0.0
173
     0
291
     1
 45
0.0
1001
ACAD
1000
AcDbSavedByObjectVersion
1070
     0
  0
VISUALSTYLE
  5
653
102
{ACAD_XDICTIONARY
360
741
102
}
102
{ACAD_REACTORS
330
645
102
}
330
645
100
AcDbVisualStyle
  2
Linepattern
 70
    14
 71
     2
 72
     2
 73
     0
 90
        0
 40
-0.6
 41
-30.0
 62
     5
 63
     7
 74
     1
 91
        4
 64
     7
 65
   257
 75
     7
175
     7
 42
1.0
 92
        8
 66
     7
 43
1.0
 76
     1
 77
     6
 78
     2
 67
     7
 79
     5
170
     0
171
     0
290
     0
174
     0
 93
        1
 44
0.0
173
     0
291
     1
 45
0.0
1001
ACAD
1000
AcDbSavedByObjectVersion
1070
     0
  0
VISUALSTYLE
  5
65C
102
{ACAD_XDICTIONARY
360
753
102
}
102
{ACAD_REACTORS
330
645
102
}
330
645
100
AcDbVisualStyle
  2
OverhangOff
 70
    21
 71
     2
 72
     2
 73
     0
 90
        0
 40
-0.6
 41
-30.0
 62
     5
 63
     7
 74
     1
 91
        4
 64
     7
 65
   257
 75
     1
175
     1
 42
1.0
 92
        9
 66
     7
 43
1.0
 76
     1
 77
     6
 78
     2
 67
     7
 79
     5
170
     0
171
     0
290
     0
174
     0
 93
        1
 44
0.0
173
     0
291
     1
 45
0.0
1001
ACAD
1000
AcDbSavedByObjectVersion
1070
     0
  0
VISUALSTYLE
  5
64F
102
{ACAD_XDICTIONARY
360
739
102
}
102
{ACAD_REACTORS
330
645
102
}
330
645
100
AcDbVisualStyle
  2
Realistic
 70
     8
 71
     2
 72
     3
 73
     0
 90
        2
 40
-0.6
 41
30.0
 62
     5
 63
     7
 74
     0
 91
        0
 64
     7
 65
   257
 75
     1
175
     1
 42
1.0
 92
        8
 66
   257
 43
1.0
 76
     1
 77
     6
 78
     2
 67
     7
 79
     3
170
     0
171
     0
290
     0
174
     0
 93
       13
 44
0.0
173
     0
291
     0
 45
0.0
1001
ACAD
1000
AcDbSavedByObjectVersion
1070
     0
  0
VISUALSTYLE
  5
65A
102
{ACAD_XDICTIONARY
360
74F
102
}
102
{ACAD_REACTORS
330
645
102
}
330
645
100
AcDbVisualStyle
  2
Shaded
 70
    27
 71
     2
 72
     2
 73
     1
 90
        2
 40
-0.6
 41
30.0
 62
     5
 63
     7
 74
     0
 91
        4
 64
     7
 65
   257
 75
     1
175
     1
 42
1.0
 92
        8
 66
   257
 43
1.0
 76
     1
 77
     6
 78
     2
 67
     8
 79
     3
170
     0
171
     0
290
     0
174
     0
 93
        5
 44
0.0
173
     0
291
     0
 45
0.0
1001
ACAD
1000
AcDbSavedByObjectVersion
1070
     0
  0
VISUALSTYLE
  5
659
102
{ACAD_XDICTIONARY
360
74D
102
}
102
{ACAD_REACTORS
330
645
102
}
330
645
100
AcDbVisualStyle
  2
Shaded with edges
 70
    26
 71
     2
 72
     2
 73
     1
 90
        2
 40
-0.6
 41
30.0
 62
     5
 63
     7
 74
     1
 91
       10
 64
     7
 65
   257
 75
     2
175
     1
 42
1.0
 92
        8
 66
   257
 43
1.0
 76
     1
 77
     6
 78
     2
 67
     7
 79
     3
170
     0
171
     0
290
     0
174
     0
 93
        5
 44
0.0
173
     0
291
     0
 45
0.0
1001
ACAD
1000
AcDbSavedByObjectVersion
1070
     0
  0
VISUALSTYLE
  5
656
102
{ACAD_XDICTIONARY
360
747
102
}
102
{ACAD_REACTORS
330
645
102
}
330
645
100
AcDbVisualStyle
  2
Shades of Gray
 70
    23
 71
     2
 72
     2
 73
     3
 90
        0
 40
-0.6
 41
-30.0
 62
     5
 63
     7
 74
     2
 91
        2
 64
     7
 65
     7
 75
     1
175
     1
 42
40.0
 92
        8
 66
     7
 43
1.0
 76
     1
 77
     6
 78
     2
 67
     7
 79
     3
170
     0
171
     0
290
     0
174
     0
 93
        1
 44
0.0
173
     0
291
     0
 45
0.0
1001
ACAD
1000
AcDbSavedByObjectVersion
1070
     0
  0
VISUALSTYLE
  5
657
102
{ACAD_XDICTIONARY
360
749
102
}
102
{ACAD_REACTORS
330
645
102
}
330
645
100
AcDbVisualStyle
  2
Sketchy
 70
    24
 71
     1
 72
     2
 73
     2
 90
        0
 40
-0.6
 41
-30.0
 62
     5
 63
     7
 74
     2
 91
        2
 64
     7
 65
     7
 75
     1
175
     1
 42
40.0
 92
       11
 66
     7
 43
1.0
 76
     1
 77
     6
 78
     2
 67
     7
 79
     6
170
     0
171
     0
290
     0
174
     0
 93
        1
 44
0.0
173
     0
291
     0
 45
0.0
1001
ACAD
1000
AcDbSavedByObjectVersion
1070
     0
  0
VISUALSTYLE
  5
652
102
{ACAD_XDICTIONARY
360
73F
102
}
102
{ACAD_REACTORS
330
645
102
}
330
645
100
AcDbVisualStyle
  2
Thicken
 70
    13
 71
     2
 72
     2
 73
     0
 90
        0
 40
-0.6
 41
-30.0
 62
     5
 63
     7
 74
     1
 91
        4
 64
     7
 65
   257
 75
     1
175
     1
 42
1.0
 92
       12
 66
     7
 43
1.0
 76
     1
 77
     6
 78
     2
 67
     7
 79
     5
170
     0
171
     0
290
     0
174
     0
 93
        1
 44
0.0
173
     0
291
     1
 45
0.0
1001
ACAD
1000
AcDbSavedByObjectVersion
1070
     0
  0
VISUALSTYLE
  5
64C
102
{ACAD_XDICTIONARY
360
733
102
}
102
{ACAD_REACTORS
330
645
102
}
330
645
100
AcDbVisualStyle
  2
Wireframe
 70
     5
 71
     0
 72
     2
 73
     0
 90
        0
 40
-0.6
 41
-30.0
 62
     5
 63
     7
 74
     1
 91
        4
 64
     7
 65
   257
 75
     1
175
     1
 42
1.0
 92
        0
 66
   257
 43
1.0
 76
     1
 77
     6
 78
     2
 67
     7
 79
     3
170
     0
171
     0
290
     0
174
     0
 93
        1
 44
0.0
173
     0
291
     0
 45
0.0
1001
ACAD
1000
AcDbSavedByObjectVersion
1070
     0
  0
VISUALSTYLE
  5
658
102
{ACAD_XDICTIONARY
360
74B
102
}
102
{ACAD_REACTORS
330
645
102
}
330
645
100
AcDbVisualStyle
  2
X-Ray
 70
    25
 71
     2
 72
     2
 73
     1
 90
        1
 40
0.5
 41
-30.0
 62
     5
 63
     7
 74
     1
 91
        0
 64
     7
 65
   257
 75
     1
175
     1
 42
1.0
 92
        8
 66
     7
 43
1.0
 76
     1
 77
     6
 78
     2
 67
     7
 79
     3
170
     0
171
     0
290
     0
174
     0
 93
       13
 44
0.0
173
     0
291
     0
 45
0.0
1001
ACAD
1000
AcDbSavedByObjectVersion
1070
     0
  0
DICTIONARYVAR
  5
719
102
{ACAD_REACTORS
330
714
102
}
330
714
100
DictionaryVariables
280
     0
  1
1:1
  0
DICTIONARYVAR
  5
716
102
{ACAD_REACTORS
330
714
102
}
330
714
100
DictionaryVariables
280
     0
  1
STANDARD
  0
DICTIONARYVAR
  5
715
102
{ACAD_REACTORS
330
714
102
}
330
714
100
DictionaryVariables
280
     0
  1
STANDARD
  0
DICTIONARYVAR
  5
717
102
{ACAD_REACTORS
330
714
102
}
330
714
100
DictionaryVariables
280
     0
  1
Imperial24
  0
DICTIONARYVAR
  5
718
102
{ACAD_REACTORS
330
714
102
}
330
714
100
DictionaryVariables
280
     0
  1
Imperial24
  0
DICTIONARYVAR
  5
71C
102
{ACAD_REACTORS
330
714
102
}
330
714
100
DictionaryVariables
280
     0
  1
1
  0
DICTIONARYVAR
  5
71B
102
{ACAD_REACTORS
330
714
102
}
330
714
100
DictionaryVariables
280
     0
  1
0
  0
DICTIONARYVAR
  5
71A
102
{ACAD_REACTORS
330
714
102
}
330
714
100
DictionaryVariables
280
     0
  1
127
  0
DICTIONARYVAR
  5
71D
102
{ACAD_REACTORS
330
714
102
}
330
714
100
DictionaryVariables
280
     0
  1
2
  0
DICTIONARY
  5
759
330
68B
100
AcDbDictionary
280
     1
281
     1
  3
ACAD_XREC_ROUNDTRIP
360
75A
  0
DICTIONARY
  5
75B
330
68F
100
AcDbDictionary
280
     1
281
     1
  3
ACAD_XREC_ROUNDTRIP
360
75C
  0
DICTIONARY
  5
636
330
635
100
AcDbDictionary
280
     1
281
     1
  3
ACAD_XREC_ROUNDTRIP
360
725
  3
BUMPTILE
360
638
  3
DIFFUSETILE
360
637
  3
OPACITYTILE
360
63B
  3
REFLECTIONTILE
360
63A
  3
REFRACTIONTILE
360
63C
  3
SPECULARTILE
360
639
  0
DICTIONARY
  5
62E
330
62D
100
AcDbDictionary
280
     1
281
     1
  3
ACAD_XREC_ROUNDTRIP
360
724
  3
BUMPTILE
360
630
  3
DIFFUSETILE
360
62F
  3
OPACITYTILE
360
633
  3
REFLECTIONTILE
360
632
  3
REFRACTIONTILE
360
634
  3
SPECULARTILE
360
631
  0
DICTIONARY
  5
63E
330
63D
100
AcDbDictionary
280
     1
281
     1
  3
ACAD_XREC_ROUNDTRIP
360
726
  3
BUMPTILE
360
640
  3
DIFFUSETILE
360
63F
  3
OPACITYTILE
360
643
  3
REFLECTIONTILE
360
642
  3
REFRACTIONTILE
360
644
  3
SPECULARTILE
360
641
  0
DICTIONARY
  5
71F
330
680
100
AcDbDictionary
280
     1
281
     1
  3
ACAD_ROUNDTRIP_2008_TABLESTYLE_CELLSTYLEMAP
360
720
  3
ACAD_XREC_ROUNDTRIP
360
757
  0
DICTIONARY
  5
731
330
64B
100
AcDbDictionary
280
     1
281
     1
  3
ACAD_XREC_ROUNDTRIP
360
732
  0
DICTIONARY
  5
72F
330
64A
100
AcDbDictionary
280
     1
281
     1
  3
ACAD_XREC_ROUNDTRIP
360
730
  0
DICTIONARY
  5
73D
330
651
100
AcDbDictionary
280
     1
281
     1
  3
ACAD_XREC_ROUNDTRIP
360
73E
  0
DICTIONARY
  5
745
330
655
100
AcDbDictionary
280
     1
281
     1
  3
ACAD_XREC_ROUNDTRIP
360
746
  0
DICTIONARY
  5
737
330
64E
100
AcDbDictionary
280
     1
281
     1
  3
ACAD_XREC_ROUNDTRIP
360
738
  0
DICTIONARY
  5
73B
330
650
100
AcDbDictionary
280
     1
281
     1
  3
ACAD_XREC_ROUNDTRIP
360
73C
  0
DICTIONARY
  5
755
330
65D
100
AcDbDictionary
280
     1
281
     1
  3
ACAD_XREC_ROUNDTRIP
360
756
  0
DICTIONARY
  5
743
330
654
100
AcDbDictionary
280
     1
281
     1
  3
ACAD_XREC_ROUNDTRIP
360
744
  0
DICTIONARY
  5
727
330
646
100
AcDbDictionary
280
     1
281
     1
  3
ACAD_XREC_ROUNDTRIP
360
728
  0
DICTIONARY
  5
729
330
647
100
AcDbDictionary
280
     1
281
     1
  3
ACAD_XREC_ROUNDTRIP
360
72A
  0
DICTIONARY
  5
72B
330
648
100
AcDbDictionary
280
     1
281
     1
  3
ACAD_XREC_ROUNDTRIP
360
72C
  0
DICTIONARY
  5
72D
330
649
100
AcDbDictionary
280
     1
281
     1
  3
ACAD_XREC_ROUNDTRIP
360
72E
  0
DICTIONARY
  5
735
330
64D
100
AcDbDictionary
280
     1
281
     1
  3
ACAD_XREC_ROUNDTRIP
360
736
  0
DICTIONARY
  5
751
330
65B
100
AcDbDictionary
280
     1
281
     1
  3
ACAD_XREC_ROUNDTRIP
360
752
  0
DICTIONARY
  5
741
330
653
100
AcDbDictionary
280
     1
281
     1
  3
ACAD_XREC_ROUNDTRIP
360
742
  0
DICTIONARY
  5
753
330
65C
100
AcDbDictionary
280
     1
281
     1
  3
ACAD_XREC_ROUNDTRIP
360
754
  0
DICTIONARY
  5
739
330
64F
100
AcDbDictionary
280
     1
281
     1
  3
ACAD_XREC_ROUNDTRIP
360
73A
  0
DICTIONARY
  5
74F
330
65A
100
AcDbDictionary
280
     1
281
     1
  3
ACAD_XREC_ROUNDTRIP
360
750
  0
DICTIONARY
  5
74D
330
659
100
AcDbDictionary
280
     1
281
     1
  3
ACAD_XREC_ROUNDTRIP
360
74E
  0
DICTIONARY
  5
747
330
656
100
AcDbDictionary
280
     1
281
     1
  3
ACAD_XREC_ROUNDTRIP
360
748
  0
DICTIONARY
  5
749
330
657
100
AcDbDictionary
280
     1
281
     1
  3
ACAD_XREC_ROUNDTRIP
360
74A
  0
DICTIONARY
  5
73F
330
652
100
AcDbDictionary
280
     1
281
     1
  3
ACAD_XREC_ROUNDTRIP
360
740
  0
DICTIONARY
  5
733
330
64C
100
AcDbDictionary
280
     1
281
     1
  3
ACAD_XREC_ROUNDTRIP
360
734
  0
DICTIONARY
  5
74B
330
658
100
AcDbDictionary
280
     1
281
     1
  3
ACAD_XREC_ROUNDTRIP
360
74C
  0
XRECORD
  5
75A
102
{ACAD_REACTORS
330
759
102
}
330
759
100
AcDbXrecord
280
     1
102
SHADEPLOT
 70
     0
102
SHADEPLOTRESLEVEL
 70
     2
102
SHADEPLOTCUSTOMDPI
 70
   300
  0
XRECORD
  5
75C
102
{ACAD_REACTORS
330
75B
102
}
330
75B
100
AcDbXrecord
280
     1
102
SHADEPLOT
 70
     0
102
SHADEPLOTRESLEVEL
 70
     2
102
SHADEPLOTCUSTOMDPI
 70
   300
  0
XRECORD
  5
725
102
{ACAD_REACTORS
330
636
102
}
330
636
100
AcDbXrecord
280
     1
102
MATERIAL
148
0.0
149
0.0
149
0.0
 93
        0
 94
      127
282
     0
 72
     0
 77
     0
171
     0
175
     0
179
     0
273
     0
  0
XRECORD
  5
638
102
{ACAD_REACTORS
330
636
102
}
330
636
100
AcDbXrecord
280
     1
270
     1
271
     1
  0
XRECORD
  5
637
102
{ACAD_REACTORS
330
636
102
}
330
636
100
AcDbXrecord
280
     1
270
     1
271
     1
  0
XRECORD
  5
63B
102
{ACAD_REACTORS
330
636
102
}
330
636
100
AcDbXrecord
280
     1
270
     1
271
     1
  0
XRECORD
  5
63A
102
{ACAD_REACTORS
330
636
102
}
330
636
100
AcDbXrecord
280
     1
270
     1
271
     1
  0
XRECORD
  5
63C
102
{ACAD_REACTORS
330
636
102
}
330
636
100
AcDbXrecord
280
     1
270
     1
271
     1
  0
XRECORD
  5
639
102
{ACAD_REACTORS
330
636
102
}
330
636
100
AcDbXrecord
280
     1
270
     1
271
     1
  0
XRECORD
  5
724
102
{ACAD_REACTORS
330
62E
102
}
330
62E
100
AcDbXrecord
280
     1
102
MATERIAL
148
0.0
149
0.0
149
0.0
 93
        0
 94
      127
282
     0
 72
     0
 77
     0
171
     0
175
     0
179
     0
273
     0
  0
XRECORD
  5
630
102
{ACAD_REACTORS
330
62E
102
}
330
62E
100
AcDbXrecord
280
     1
270
     1
271
     1
  0
XRECORD
  5
62F
102
{ACAD_REACTORS
330
62E
102
}
330
62E
100
AcDbXrecord
280
     1
270
     1
271
     1
  0
XRECORD
  5
633
102
{ACAD_REACTORS
330
62E
102
}
330
62E
100
AcDbXrecord
280
     1
270
     1
271
     1
  0
XRECORD
  5
632
102
{ACAD_REACTORS
330
62E
102
}
330
62E
100
AcDbXrecord
280
     1
270
     1
271
     1
  0
XRECORD
  5
634
102
{ACAD_REACTORS
330
62E
102
}
330
62E
100
AcDbXrecord
280
     1
270
     1
271
     1
  0
XRECORD
  5
631
102
{ACAD_REACTORS
330
62E
102
}
330
62E
100
AcDbXrecord
280
     1
270
     1
271
     1
  0
XRECORD
  5
726
102
{ACAD_REACTORS
330
63E
102
}
330
63E
100
AcDbXrecord
280
     1
102
MATERIAL
148
0.0
149
0.0
149
0.0
 93
        0
 94
      127
282
     0
 72
     0
 77
     0
171
     0
175
     0
179
     0
273
     0
  0
XRECORD
  5
640
102
{ACAD_REACTORS
330
63E
102
}
330
63E
100
AcDbXrecord
280
     1
270
     1
271
     1
  0
XRECORD
  5
63F
102
{ACAD_REACTORS
330
63E
102
}
330
63E
100
AcDbXrecord
280
     1
270
     1
271
     1
  0
XRECORD
  5
643
102
{ACAD_REACTORS
330
63E
102
}
330
63E
100
AcDbXrecord
280
     1
270
     1
271
     1
  0
XRECORD
  5
642
102
{ACAD_REACTORS
330
63E
102
}
330
63E
100
AcDbXrecord
280
     1
270
     1
271
     1
  0
XRECORD
  5
644
102
{ACAD_REACTORS
330
63E
102
}
330
63E
100
AcDbXrecord
280
     1
270
     1
271
     1
  0
XRECORD
  5
641
102
{ACAD_REACTORS
330
63E
102
}
330
63E
100
AcDbXrecord
280
     1
270
     1
271
     1
  0
CELLSTYLEMAP
  5
720
102
{ACAD_REACTORS
330
71F
102
}
330
71F
100
AcDbCellStyleMap
 90
        3
300
CELLSTYLE
  1
TABLEFORMAT_BEGIN
 90
        5
170
     1
 91
        0
 92
    32768
 62
   257
 93
        1
300
CONTENTFORMAT
  1
CONTENTFORMAT_BEGIN
 90
        0
 91
        0
 92
      512
 93
        0
300

 40
0.0
140
1.0
 94
        5
 62
     0
340
671
144
0.25
309
CONTENTFORMAT_END
171
     0
 94
        0
309
TABLEFORMAT_END
  1
CELLSTYLE_BEGIN
 90
        1
 91
        1
300
_TITLE
309
CELLSTYLE_END
300
CELLSTYLE
  1
TABLEFORMAT_BEGIN
 90
        5
170
     1
 91
        0
 92
        0
 62
   257
 93
        1
300
CONTENTFORMAT
  1
CONTENTFORMAT_BEGIN
 90
        0
 91
        0
 92
      512
 93
        0
300

 40
0.0
140
1.0
 94
        5
 62
     0
340
671
144
0.18
309
CONTENTFORMAT_END
171
     0
 94
        0
309
TABLEFORMAT_END
  1
CELLSTYLE_BEGIN
 90
        2
 91
        1
300
_HEADER
309
CELLSTYLE_END
300
CELLSTYLE
  1
TABLEFORMAT_BEGIN
 90
        5
170
     1
 91
        0
 92
        0
 62
   257
 93
        1
300
CONTENTFORMAT
  1
CONTENTFORMAT_BEGIN
 90
        0
 91
        0
 92
      512
 93
        0
300

 40
0.0
140
1.0
 94
        2
 62
     0
340
671
144
0.18
309
CONTENTFORMAT_END
171
     0
 94
        0
309
TABLEFORMAT_END
  1
CELLSTYLE_BEGIN
 90
        3
 91
        2
300
_DATA
309
CELLSTYLE_END
  0
XRECORD
  5
757
102
{ACAD_REACTORS
330
71F
102
}
330
71F
100
AcDbXrecord
280
     1
102
ACAD_ROUNDTRIP_PRE2007_TABLESTYLE
 90
      512
 91
        0
  1

 92
      512
 93
        0
  2

 94
      512
 95
        0
  3

  0
XRECORD
  5
732
102
{ACAD_REACTORS
330
731
102
}
330
731
100
AcDbXrecord
280
     1
102
RTVSPost2010Prop28
280
     1
102
RTVSPost2010PropOp28
 70
     1
102
RTVSPost2010Prop29
280
     1
102
RTVSPost2010PropOp29
 70
     1
102
RTVSPost2010Prop30
280
     0
102
RTVSPost2010PropOp30
 70
     1
102
RTVSPost2010Prop31
280
     0
102
RTVSPost2010PropOp31
 70
     1
102
RTVSPost2010Prop32
280
     0
102
RTVSPost2010PropOp32
 70
     1
102
RTVSPost2010Prop33
280
     0
102
RTVSPost2010PropOp33
 70
     1
102
RTVSPost2010Prop34
280
     0
102
RTVSPost2010PropOp34
 70
     1
102
RTVSPost2010Prop35
280
     0
102
RTVSPost2010PropOp35
 70
     1
102
RTVSPost2010Prop36
280
     0
102
RTVSPost2010PropOp36
 70
     1
102
RTVSPost2010Prop37
 90
       50
102
RTVSPost2010PropOp37
 70
     1
102
RTVSPost2010Prop38
140
0.0
102
RTVSPost2010PropOp38
 70
     1
102
RTVSPost2010Prop39
140
1.0
102
RTVSPost2010PropOp39
 70
     1
102
RTVSPost2010Prop40
 90
        0
102
RTVSPost2010PropOp40
 70
     1
102
RTVSPost2010Prop41ColorIndex
 90
       18
102
RTVSPost2010Prop41ColorRGB
 90
        0
102
RTVSPost2010PropOp41
 70
     1
102
RTVSPost2010Prop42
 90
       50
102
RTVSPost2010PropOp42
 70
     1
102
RTVSPost2010Prop43
 90
        3
102
RTVSPost2010PropOp43
 70
     1
102
RTVSPost2010Prop44ColorIndex
 90
        5
102
RTVSPost2010Prop44ColorRGB
 90
      255
102
RTVSPost2010PropOp44
 70
     1
102
RTVSPost2010Prop45
280
     0
102
RTVSPost2010PropOp45
 70
     1
102
RTVSPost2010Prop46
 90
       50
102
RTVSPost2010PropOp46
 70
     1
102
RTVSPost2010Prop47
 90
       50
102
RTVSPost2010PropOp47
 70
     1
102
RTVSPost2010Prop48
 90
       50
102
RTVSPost2010PropOp48
 70
     1
102
RTVSPost2010Prop49
280
     0
102
RTVSPost2010PropOp49
 70
     1
102
RTVSPost2010Prop50
 90
       50
102
RTVSPost2010PropOp50
 70
     1
102
RTVSPost2010Prop51ColorIndex
 90
      256
102
RTVSPost2010Prop51ColorRGB
 90
-16777216
102
RTVSPost2010PropOp51
 70
     0
102
RTVSPost2010Prop52
140
1.0
102
RTVSPost2010PropOp52
 70
     0
102
RTVSPost2010Prop53
 90
        2
102
RTVSPost2010PropOp53
 70
     1
102
RTVSPost2010Prop54
  1
strokes_ogs.tif
102
RTVSPost2010PropOp54
 70
     1
102
RTVSPost2010Prop55
280
     0
102
RTVSPost2010PropOp55
 70
     1
102
RTVSPost2010Prop56
140
1.0
102
RTVSPost2010PropOp56
 70
     1
102
RTVSPost2010Prop57
140
1.0
102
RTVSPost2010PropOp57
 70
     1
102
RTVSPropertyOp0
 70
     1
102
RTVSPropertyOp1
 70
     1
102
RTVSPropertyOp2
 70
     1
102
RTVSPropertyOp3
 70
     1
102
RTVSPropertyOp4
 70
     1
102
RTVSPropertyOp5
 70
     1
102
RTVSPropertyOp6
 70
     1
102
RTVSPropertyOp7
 70
     1
102
RTVSPropertyOp8
 70
     1
102
RTVSPropertyOp9
 70
     1
102
RTVSPropertyOp10
 70
     1
102
RTVSPropertyOp11
 70
     1
102
RTVSPropertyOp12
 70
     1
102
RTVSPropertyOp13
 70
     1
102
RTVSPropertyOp14
 70
     1
102
RTVSPropertyOp15
 70
     1
102
RTVSPropertyOp16
 70
     1
102
RTVSPropertyOp17
 70
     1
102
RTVSPropertyOp18
 70
     1
102
RTVSPropertyOp19
 70
     1
102
RTVSPropertyOp20
 70
     1
102
RTVSPropertyOp21
 70
     1
102
RTVSPropertyOp22
 70
     1
102
RTVSPropertyOp23
 70
     1
102
RTVSPropertyOp24
 70
     1
102
RTVSPropertyOp25
 70
     1
102
RTVSPropertyOp26
 70
     1
102
RTVSPropertyOp27
 70
     1
102
RTVSPropertyOp28
 70
     1
102
RTVSPropertyOp29
 70
     1
102
RTVSPropertyOp30
 70
     1
102
RTVSPropertyOp31
 70
     1
102
RTVSPropertyOp32
 70
     1
102
RTVSPropertyOp33
 70
     1
102
RTVSPropertyOp34
 70
     1
102
RTVSPropertyOp35
 70
     1
102
RTVSPropertyOp36
 70
     1
102
RTVSPropertyOp37
 70
     1
102
RTVSPropertyOp38
 70
     1
102
RTVSPropertyOp39
 70
     1
102
RTVSPropertyOp40
 70
     1
102
RTVSPropertyOp41
 70
     1
102
RTVSPropertyOp42
 70
     1
102
RTVSPropertyOp43
 70
     1
102
RTVSPropertyOp44
 70
     1
102
RTVSPropertyOp45
 70
     1
102
RTVSPropertyOp46
 70
     1
102
RTVSPropertyOp47
 70
     1
102
RTVSPropertyOp48
 70
     1
102
RTVSPropertyOp49
 70
     1
102
RTVSPropertyOp50
 70
     1
102
RTVSPropertyOp51
 70
     0
102
RTVSPropertyOp52
 70
     0
102
RTVSPropertyOp53
 70
     1
102
RTVSPropertyOp54
 70
     1
102
RTVSPropertyOp55
 70
     1
102
RTVSPropertyOp56
 70
     1
102
RTVSPropertyOp57
 70
     1
102
RTVSPropertyOp58
 70
     1
102
RTVSPropertyOp59
 70
     1
102
RTVSPropertyOp60
 70
     1
102
RTVSPropertyOp61
 70
     1
102
RTVSPropertyOp62
 70
     1
  0
XRECORD
  5
730
102
{ACAD_REACTORS
330
72F
102
}
330
72F
100
AcDbXrecord
280
     1
102
RTVSPost2010Prop28
280
     0
102
RTVSPost2010PropOp28
 70
     1
102
RTVSPost2010Prop29
280
     1
102
RTVSPost2010PropOp29
 70
     1
102
RTVSPost2010Prop30
280
     1
102
RTVSPost2010PropOp30
 70
     1
102
RTVSPost2010Prop31
280
     0
102
RTVSPost2010PropOp31
 70
     1
102
RTVSPost2010Prop32
280
     0
102
RTVSPost2010PropOp32
 70
     1
102
RTVSPost2010Prop33
280
     0
102
RTVSPost2010PropOp33
 70
     1
102
RTVSPost2010Prop34
280
     0
102
RTVSPost2010PropOp34
 70
     1
102
RTVSPost2010Prop35
280
     0
102
RTVSPost2010PropOp35
 70
     1
102
RTVSPost2010Prop36
280
     0
102
RTVSPost2010PropOp36
 70
     1
102
RTVSPost2010Prop37
 90
       50
102
RTVSPost2010PropOp37
 70
     1
102
RTVSPost2010Prop38
140
0.0
102
RTVSPost2010PropOp38
 70
     1
102
RTVSPost2010Prop39
140
1.0
102
RTVSPost2010PropOp39
 70
     1
102
RTVSPost2010Prop40
 90
        0
102
RTVSPost2010PropOp40
 70
     1
102
RTVSPost2010Prop41ColorIndex
 90
       18
102
RTVSPost2010Prop41ColorRGB
 90
        0
102
RTVSPost2010PropOp41
 70
     1
102
RTVSPost2010Prop42
 90
       50
102
RTVSPost2010PropOp42
 70
     1
102
RTVSPost2010Prop43
 90
        3
102
RTVSPost2010PropOp43
 70
     1
102
RTVSPost2010Prop44ColorIndex
 90
        5
102
RTVSPost2010Prop44ColorRGB
 90
      255
102
RTVSPost2010PropOp44
 70
     1
102
RTVSPost2010Prop45
280
     0
102
RTVSPost2010PropOp45
 70
     1
102
RTVSPost2010Prop46
 90
       50
102
RTVSPost2010PropOp46
 70
     1
102
RTVSPost2010Prop47
 90
       50
102
RTVSPost2010PropOp47
 70
     1
102
RTVSPost2010Prop48
 90
       50
102
RTVSPost2010PropOp48
 70
     1
102
RTVSPost2010Prop49
280
     0
102
RTVSPost2010PropOp49
 70
     1
102
RTVSPost2010Prop50
 90
       50
102
RTVSPost2010PropOp50
 70
     1
102
RTVSPost2010Prop51ColorIndex
 90
      256
102
RTVSPost2010Prop51ColorRGB
 90
-16777216
102
RTVSPost2010PropOp51
 70
     0
102
RTVSPost2010Prop52
140
1.0
102
RTVSPost2010PropOp52
 70
     0
102
RTVSPost2010Prop53
 90
        2
102
RTVSPost2010PropOp53
 70
     1
102
RTVSPost2010Prop54
  1
strokes_ogs.tif
102
RTVSPost2010PropOp54
 70
     1
102
RTVSPost2010Prop55
280
     0
102
RTVSPost2010PropOp55
 70
     1
102
RTVSPost2010Prop56
140
1.0
102
RTVSPost2010PropOp56
 70
     1
102
RTVSPost2010Prop57
140
1.0
102
RTVSPost2010PropOp57
 70
     1
102
RTVSPropertyOp0
 70
     1
102
RTVSPropertyOp1
 70
     1
102
RTVSPropertyOp2
 70
     1
102
RTVSPropertyOp3
 70
     1
102
RTVSPropertyOp4
 70
     1
102
RTVSPropertyOp5
 70
     1
102
RTVSPropertyOp6
 70
     1
102
RTVSPropertyOp7
 70
     1
102
RTVSPropertyOp8
 70
     1
102
RTVSPropertyOp9
 70
     1
102
RTVSPropertyOp10
 70
     1
102
RTVSPropertyOp11
 70
     1
102
RTVSPropertyOp12
 70
     1
102
RTVSPropertyOp13
 70
     1
102
RTVSPropertyOp14
 70
     1
102
RTVSPropertyOp15
 70
     1
102
RTVSPropertyOp16
 70
     1
102
RTVSPropertyOp17
 70
     1
102
RTVSPropertyOp18
 70
     1
102
RTVSPropertyOp19
 70
     1
102
RTVSPropertyOp20
 70
     1
102
RTVSPropertyOp21
 70
     1
102
RTVSPropertyOp22
 70
     1
102
RTVSPropertyOp23
 70
     1
102
RTVSPropertyOp24
 70
     1
102
RTVSPropertyOp25
 70
     1
102
RTVSPropertyOp26
 70
     1
102
RTVSPropertyOp27
 70
     1
102
RTVSPropertyOp28
 70
     1
102
RTVSPropertyOp29
 70
     1
102
RTVSPropertyOp30
 70
     1
102
RTVSPropertyOp31
 70
     1
102
RTVSPropertyOp32
 70
     1
102
RTVSPropertyOp33
 70
     1
102
RTVSPropertyOp34
 70
     1
102
RTVSPropertyOp35
 70
     1
102
RTVSPropertyOp36
 70
     1
102
RTVSPropertyOp37
 70
     1
102
RTVSPropertyOp38
 70
     1
102
RTVSPropertyOp39
 70
     1
102
RTVSPropertyOp40
 70
     1
102
RTVSPropertyOp41
 70
     1
102
RTVSPropertyOp42
 70
     1
102
RTVSPropertyOp43
 70
     1
102
RTVSPropertyOp44
 70
     1
102
RTVSPropertyOp45
 70
     1
102
RTVSPropertyOp46
 70
     1
102
RTVSPropertyOp47
 70
     1
102
RTVSPropertyOp48
 70
     1
102
RTVSPropertyOp49
 70
     1
102
RTVSPropertyOp50
 70
     1
102
RTVSPropertyOp51
 70
     0
102
RTVSPropertyOp52
 70
     0
102
RTVSPropertyOp53
 70
     1
102
RTVSPropertyOp54
 70
     1
102
RTVSPropertyOp55
 70
     1
102
RTVSPropertyOp56
 70
     1
102
RTVSPropertyOp57
 70
     1
102
RTVSPropertyOp58
 70
     1
102
RTVSPropertyOp59
 70
     1
102
RTVSPropertyOp60
 70
     1
102
RTVSPropertyOp61
 70
     1
102
RTVSPropertyOp62
 70
     1
  0
XRECORD
  5
73E
102
{ACAD_REACTORS
330
73D
102
}
330
73D
100
AcDbXrecord
280
     1
102
RTVSPost2010Prop28
280
     0
102
RTVSPost2010PropOp28
 70
     1
102
RTVSPost2010Prop29
280
     1
102
RTVSPost2010PropOp29
 70
     1
102
RTVSPost2010Prop30
280
     1
102
RTVSPost2010PropOp30
 70
     1
102
RTVSPost2010Prop31
280
     0
102
RTVSPost2010PropOp31
 70
     1
102
RTVSPost2010Prop32
280
     0
102
RTVSPost2010PropOp32
 70
     1
102
RTVSPost2010Prop33
280
     0
102
RTVSPost2010PropOp33
 70
     1
102
RTVSPost2010Prop34
280
     0
102
RTVSPost2010PropOp34
 70
     1
102
RTVSPost2010Prop35
280
     0
102
RTVSPost2010PropOp35
 70
     1
102
RTVSPost2010Prop36
280
     0
102
RTVSPost2010PropOp36
 70
     1
102
RTVSPost2010Prop37
 90
       50
102
RTVSPost2010PropOp37
 70
     1
102
RTVSPost2010Prop38
140
0.0
102
RTVSPost2010PropOp38
 70
     1
102
RTVSPost2010Prop39
140
1.0
102
RTVSPost2010PropOp39
 70
     1
102
RTVSPost2010Prop40
 90
        0
102
RTVSPost2010PropOp40
 70
     1
102
RTVSPost2010Prop41ColorIndex
 90
       18
102
RTVSPost2010Prop41ColorRGB
 90
        0
102
RTVSPost2010PropOp41
 70
     1
102
RTVSPost2010Prop42
 90
       50
102
RTVSPost2010PropOp42
 70
     1
102
RTVSPost2010Prop43
 90
        3
102
RTVSPost2010PropOp43
 70
     1
102
RTVSPost2010Prop44ColorIndex
 90
        5
102
RTVSPost2010Prop44ColorRGB
 90
      255
102
RTVSPost2010PropOp44
 70
     1
102
RTVSPost2010Prop45
280
     0
102
RTVSPost2010PropOp45
 70
     1
102
RTVSPost2010Prop46
 90
       50
102
RTVSPost2010PropOp46
 70
     1
102
RTVSPost2010Prop47
 90
       50
102
RTVSPost2010PropOp47
 70
     1
102
RTVSPost2010Prop48
 90
       50
102
RTVSPost2010PropOp48
 70
     1
102
RTVSPost2010Prop49
280
     0
102
RTVSPost2010PropOp49
 70
     1
102
RTVSPost2010Prop50
 90
       50
102
RTVSPost2010PropOp50
 70
     1
102
RTVSPost2010Prop51ColorIndex
 90
      256
102
RTVSPost2010Prop51ColorRGB
 90
-16777216
102
RTVSPost2010PropOp51
 70
     0
102
RTVSPost2010Prop52
140
1.0
102
RTVSPost2010PropOp52
 70
     0
102
RTVSPost2010Prop53
 90
        2
102
RTVSPost2010PropOp53
 70
     1
102
RTVSPost2010Prop54
  1
strokes_ogs.tif
102
RTVSPost2010PropOp54
 70
     1
102
RTVSPost2010Prop55
280
     0
102
RTVSPost2010PropOp55
 70
     1
102
RTVSPost2010Prop56
140
1.0
102
RTVSPost2010PropOp56
 70
     1
102
RTVSPost2010Prop57
140
1.0
102
RTVSPost2010PropOp57
 70
     1
102
RTVSPropertyOp0
 70
     1
102
RTVSPropertyOp1
 70
     1
102
RTVSPropertyOp2
 70
     1
102
RTVSPropertyOp3
 70
     1
102
RTVSPropertyOp4
 70
     1
102
RTVSPropertyOp5
 70
     1
102
RTVSPropertyOp6
 70
     1
102
RTVSPropertyOp7
 70
     1
102
RTVSPropertyOp8
 70
     1
102
RTVSPropertyOp9
 70
     1
102
RTVSPropertyOp10
 70
     1
102
RTVSPropertyOp11
 70
     1
102
RTVSPropertyOp12
 70
     1
102
RTVSPropertyOp13
 70
     1
102
RTVSPropertyOp14
 70
     1
102
RTVSPropertyOp15
 70
     1
102
RTVSPropertyOp16
 70
     1
102
RTVSPropertyOp17
 70
     1
102
RTVSPropertyOp18
 70
     1
102
RTVSPropertyOp19
 70
     1
102
RTVSPropertyOp20
 70
     1
102
RTVSPropertyOp21
 70
     1
102
RTVSPropertyOp22
 70
     1
102
RTVSPropertyOp23
 70
     1
102
RTVSPropertyOp24
 70
     1
102
RTVSPropertyOp25
 70
     1
102
RTVSPropertyOp26
 70
     1
102
RTVSPropertyOp27
 70
     1
102
RTVSPropertyOp28
 70
     1
102
RTVSPropertyOp29
 70
     1
102
RTVSPropertyOp30
 70
     1
102
RTVSPropertyOp31
 70
     1
102
RTVSPropertyOp32
 70
     1
102
RTVSPropertyOp33
 70
     1
102
RTVSPropertyOp34
 70
     1
102
RTVSPropertyOp35
 70
     1
102
RTVSPropertyOp36
 70
     1
102
RTVSPropertyOp37
 70
     1
102
RTVSPropertyOp38
 70
     1
102
RTVSPropertyOp39
 70
     1
102
RTVSPropertyOp40
 70
     1
102
RTVSPropertyOp41
 70
     1
102
RTVSPropertyOp42
 70
     1
102
RTVSPropertyOp43
 70
     1
102
RTVSPropertyOp44
 70
     1
102
RTVSPropertyOp45
 70
     1
102
RTVSPropertyOp46
 70
     1
102
RTVSPropertyOp47
 70
     1
102
RTVSPropertyOp48
 70
     1
102
RTVSPropertyOp49
 70
     1
102
RTVSPropertyOp50
 70
     1
102
RTVSPropertyOp51
 70
     0
102
RTVSPropertyOp52
 70
     0
102
RTVSPropertyOp53
 70
     1
102
RTVSPropertyOp54
 70
     1
102
RTVSPropertyOp55
 70
     1
102
RTVSPropertyOp56
 70
     1
102
RTVSPropertyOp57
 70
     1
102
RTVSPropertyOp58
 70
     1
102
RTVSPropertyOp59
 70
     1
102
RTVSPropertyOp60
 70
     1
102
RTVSPropertyOp61
 70
     1
102
RTVSPropertyOp62
 70
     1
  0
XRECORD
  5
746
102
{ACAD_REACTORS
330
745
102
}
330
745
100
AcDbXrecord
280
     1
102
RTVSPost2010Prop28
280
     0
102
RTVSPost2010PropOp28
 70
     1
102
RTVSPost2010Prop29
280
     1
102
RTVSPost2010PropOp29
 70
     1
102
RTVSPost2010Prop30
280
     1
102
RTVSPost2010PropOp30
 70
     1
102
RTVSPost2010Prop31
280
     0
102
RTVSPost2010PropOp31
 70
     1
102
RTVSPost2010Prop32
280
     0
102
RTVSPost2010PropOp32
 70
     1
102
RTVSPost2010Prop33
280
     0
102
RTVSPost2010PropOp33
 70
     1
102
RTVSPost2010Prop34
280
     0
102
RTVSPost2010PropOp34
 70
     1
102
RTVSPost2010Prop35
280
     0
102
RTVSPost2010PropOp35
 70
     1
102
RTVSPost2010Prop36
280
     0
102
RTVSPost2010PropOp36
 70
     1
102
RTVSPost2010Prop37
 90
       50
102
RTVSPost2010PropOp37
 70
     1
102
RTVSPost2010Prop38
140
0.0
102
RTVSPost2010PropOp38
 70
     1
102
RTVSPost2010Prop39
140
1.0
102
RTVSPost2010PropOp39
 70
     1
102
RTVSPost2010Prop40
 90
        0
102
RTVSPost2010PropOp40
 70
     1
102
RTVSPost2010Prop41ColorIndex
 90
       18
102
RTVSPost2010Prop41ColorRGB
 90
        0
102
RTVSPost2010PropOp41
 70
     1
102
RTVSPost2010Prop42
 90
       50
102
RTVSPost2010PropOp42
 70
     1
102
RTVSPost2010Prop43
 90
        3
102
RTVSPost2010PropOp43
 70
     1
102
RTVSPost2010Prop44ColorIndex
 90
        5
102
RTVSPost2010Prop44ColorRGB
 90
      255
102
RTVSPost2010PropOp44
 70
     1
102
RTVSPost2010Prop45
280
     0
102
RTVSPost2010PropOp45
 70
     1
102
RTVSPost2010Prop46
 90
       50
102
RTVSPost2010PropOp46
 70
     1
102
RTVSPost2010Prop47
 90
       50
102
RTVSPost2010PropOp47
 70
     1
102
RTVSPost2010Prop48
 90
       50
102
RTVSPost2010PropOp48
 70
     1
102
RTVSPost2010Prop49
280
     0
102
RTVSPost2010PropOp49
 70
     1
102
RTVSPost2010Prop50
 90
       50
102
RTVSPost2010PropOp50
 70
     1
102
RTVSPost2010Prop51ColorIndex
 90
      256
102
RTVSPost2010Prop51ColorRGB
 90
-16777216
102
RTVSPost2010PropOp51
 70
     0
102
RTVSPost2010Prop52
140
1.0
102
RTVSPost2010PropOp52
 70
     0
102
RTVSPost2010Prop53
 90
        2
102
RTVSPost2010PropOp53
 70
     1
102
RTVSPost2010Prop54
  1
strokes_ogs.tif
102
RTVSPost2010PropOp54
 70
     1
102
RTVSPost2010Prop55
280
     0
102
RTVSPost2010PropOp55
 70
     1
102
RTVSPost2010Prop56
140
1.0
102
RTVSPost2010PropOp56
 70
     1
102
RTVSPost2010Prop57
140
1.0
102
RTVSPost2010PropOp57
 70
     1
102
RTVSPropertyOp0
 70
     1
102
RTVSPropertyOp1
 70
     1
102
RTVSPropertyOp2
 70
     1
102
RTVSPropertyOp3
 70
     1
102
RTVSPropertyOp4
 70
     1
102
RTVSPropertyOp5
 70
     1
102
RTVSPropertyOp6
 70
     1
102
RTVSPropertyOp7
 70
     1
102
RTVSPropertyOp8
 70
     1
102
RTVSPropertyOp9
 70
     1
102
RTVSPropertyOp10
 70
     1
102
RTVSPropertyOp11
 70
     1
102
RTVSPropertyOp12
 70
     1
102
RTVSPropertyOp13
 70
     1
102
RTVSPropertyOp14
 70
     1
102
RTVSPropertyOp15
 70
     1
102
RTVSPropertyOp16
 70
     1
102
RTVSPropertyOp17
 70
     1
102
RTVSPropertyOp18
 70
     1
102
RTVSPropertyOp19
 70
     1
102
RTVSPropertyOp20
 70
     1
102
RTVSPropertyOp21
 70
     1
102
RTVSPropertyOp22
 70
     1
102
RTVSPropertyOp23
 70
     1
102
RTVSPropertyOp24
 70
     1
102
RTVSPropertyOp25
 70
     1
102
RTVSPropertyOp26
 70
     1
102
RTVSPropertyOp27
 70
     1
102
RTVSPropertyOp28
 70
     1
102
RTVSPropertyOp29
 70
     1
102
RTVSPropertyOp30
 70
     1
102
RTVSPropertyOp31
 70
     1
102
RTVSPropertyOp32
 70
     1
102
RTVSPropertyOp33
 70
     1
102
RTVSPropertyOp34
 70
     1
102
RTVSPropertyOp35
 70
     1
102
RTVSPropertyOp36
 70
     1
102
RTVSPropertyOp37
 70
     1
102
RTVSPropertyOp38
 70
     1
102
RTVSPropertyOp39
 70
     1
102
RTVSPropertyOp40
 70
     1
102
RTVSPropertyOp41
 70
     1
102
RTVSPropertyOp42
 70
     1
102
RTVSPropertyOp43
 70
     1
102
RTVSPropertyOp44
 70
     1
102
RTVSPropertyOp45
 70
     1
102
RTVSPropertyOp46
 70
     1
102
RTVSPropertyOp47
 70
     1
102
RTVSPropertyOp48
 70
     1
102
RTVSPropertyOp49
 70
     1
102
RTVSPropertyOp50
 70
     1
102
RTVSPropertyOp51
 70
     0
102
RTVSPropertyOp52
 70
     0
102
RTVSPropertyOp53
 70
     1
102
RTVSPropertyOp54
 70
     1
102
RTVSPropertyOp55
 70
     1
102
RTVSPropertyOp56
 70
     1
102
RTVSPropertyOp57
 70
     1
102
RTVSPropertyOp58
 70
     1
102
RTVSPropertyOp59
 70
     1
102
RTVSPropertyOp60
 70
     1
102
RTVSPropertyOp61
 70
     1
102
RTVSPropertyOp62
 70
     1
  0
XRECORD
  5
738
102
{ACAD_REACTORS
330
737
102
}
330
737
100
AcDbXrecord
280
     1
102
RTVSPost2010Prop28
280
     0
102
RTVSPost2010PropOp28
 70
     1
102
RTVSPost2010Prop29
280
     1
102
RTVSPost2010PropOp29
 70
     1
102
RTVSPost2010Prop30
280
     1
102
RTVSPost2010PropOp30
 70
     1
102
RTVSPost2010Prop31
280
     0
102
RTVSPost2010PropOp31
 70
     1
102
RTVSPost2010Prop32
280
     0
102
RTVSPost2010PropOp32
 70
     1
102
RTVSPost2010Prop33
280
     0
102
RTVSPost2010PropOp33
 70
     1
102
RTVSPost2010Prop34
280
     0
102
RTVSPost2010PropOp34
 70
     1
102
RTVSPost2010Prop35
280
     0
102
RTVSPost2010PropOp35
 70
     1
102
RTVSPost2010Prop36
280
     0
102
RTVSPost2010PropOp36
 70
     1
102
RTVSPost2010Prop37
 90
       50
102
RTVSPost2010PropOp37
 70
     1
102
RTVSPost2010Prop38
140
0.0
102
RTVSPost2010PropOp38
 70
     1
102
RTVSPost2010Prop39
140
1.0
102
RTVSPost2010PropOp39
 70
     1
102
RTVSPost2010Prop40
 90
        0
102
RTVSPost2010PropOp40
 70
     1
102
RTVSPost2010Prop41ColorIndex
 90
       18
102
RTVSPost2010Prop41ColorRGB
 90
        0
102
RTVSPost2010PropOp41
 70
     1
102
RTVSPost2010Prop42
 90
       50
102
RTVSPost2010PropOp42
 70
     1
102
RTVSPost2010Prop43
 90
        3
102
RTVSPost2010PropOp43
 70
     1
102
RTVSPost2010Prop44ColorIndex
 90
        5
102
RTVSPost2010Prop44ColorRGB
 90
      255
102
RTVSPost2010PropOp44
 70
     1
102
RTVSPost2010Prop45
280
     0
102
RTVSPost2010PropOp45
 70
     1
102
RTVSPost2010Prop46
 90
       50
102
RTVSPost2010PropOp46
 70
     1
102
RTVSPost2010Prop47
 90
       50
102
RTVSPost2010PropOp47
 70
     1
102
RTVSPost2010Prop48
 90
       50
102
RTVSPost2010PropOp48
 70
     1
102
RTVSPost2010Prop49
280
     0
102
RTVSPost2010PropOp49
 70
     1
102
RTVSPost2010Prop50
 90
       50
102
RTVSPost2010PropOp50
 70
     1
102
RTVSPost2010Prop51ColorIndex
 90
      256
102
RTVSPost2010Prop51ColorRGB
 90
-16777216
102
RTVSPost2010PropOp51
 70
     0
102
RTVSPost2010Prop52
140
1.0
102
RTVSPost2010PropOp52
 70
     0
102
RTVSPost2010Prop53
 90
        2
102
RTVSPost2010PropOp53
 70
     1
102
RTVSPost2010Prop54
  1
strokes_ogs.tif
102
RTVSPost2010PropOp54
 70
     1
102
RTVSPost2010Prop55
280
     0
102
RTVSPost2010PropOp55
 70
     1
102
RTVSPost2010Prop56
140
1.0
102
RTVSPost2010PropOp56
 70
     1
102
RTVSPost2010Prop57
140
1.0
102
RTVSPost2010PropOp57
 70
     1
102
RTVSPropertyOp0
 70
     1
102
RTVSPropertyOp1
 70
     1
102
RTVSPropertyOp2
 70
     1
102
RTVSPropertyOp3
 70
     1
102
RTVSPropertyOp4
 70
     1
102
RTVSPropertyOp5
 70
     1
102
RTVSPropertyOp6
 70
     1
102
RTVSPropertyOp7
 70
     1
102
RTVSPropertyOp8
 70
     1
102
RTVSPropertyOp9
 70
     1
102
RTVSPropertyOp10
 70
     1
102
RTVSPropertyOp11
 70
     1
102
RTVSPropertyOp12
 70
     1
102
RTVSPropertyOp13
 70
     1
102
RTVSPropertyOp14
 70
     1
102
RTVSPropertyOp15
 70
     1
102
RTVSPropertyOp16
 70
     1
102
RTVSPropertyOp17
 70
     1
102
RTVSPropertyOp18
 70
     1
102
RTVSPropertyOp19
 70
     1
102
RTVSPropertyOp20
 70
     1
102
RTVSPropertyOp21
 70
     1
102
RTVSPropertyOp22
 70
     1
102
RTVSPropertyOp23
 70
     1
102
RTVSPropertyOp24
 70
     1
102
RTVSPropertyOp25
 70
     1
102
RTVSPropertyOp26
 70
     1
102
RTVSPropertyOp27
 70
     1
102
RTVSPropertyOp28
 70
     1
102
RTVSPropertyOp29
 70
     1
102
RTVSPropertyOp30
 70
     1
102
RTVSPropertyOp31
 70
     1
102
RTVSPropertyOp32
 70
     1
102
RTVSPropertyOp33
 70
     1
102
RTVSPropertyOp34
 70
     1
102
RTVSPropertyOp35
 70
     1
102
RTVSPropertyOp36
 70
     1
102
RTVSPropertyOp37
 70
     1
102
RTVSPropertyOp38
 70
     1
102
RTVSPropertyOp39
 70
     1
102
RTVSPropertyOp40
 70
     1
102
RTVSPropertyOp41
 70
     1
102
RTVSPropertyOp42
 70
     1
102
RTVSPropertyOp43
 70
     1
102
RTVSPropertyOp44
 70
     1
102
RTVSPropertyOp45
 70
     1
102
RTVSPropertyOp46
 70
     1
102
RTVSPropertyOp47
 70
     1
102
RTVSPropertyOp48
 70
     1
102
RTVSPropertyOp49
 70
     1
102
RTVSPropertyOp50
 70
     1
102
RTVSPropertyOp51
 70
     0
102
RTVSPropertyOp52
 70
     0
102
RTVSPropertyOp53
 70
     1
102
RTVSPropertyOp54
 70
     1
102
RTVSPropertyOp55
 70
     1
102
RTVSPropertyOp56
 70
     1
102
RTVSPropertyOp57
 70
     1
102
RTVSPropertyOp58
 70
     1
102
RTVSPropertyOp59
 70
     1
102
RTVSPropertyOp60
 70
     1
102
RTVSPropertyOp61
 70
     1
102
RTVSPropertyOp62
 70
     1
  0
XRECORD
  5
73C
102
{ACAD_REACTORS
330
73B
102
}
330
73B
100
AcDbXrecord
280
     1
102
RTVSPost2010Prop28
280
     0
102
RTVSPost2010PropOp28
 70
     1
102
RTVSPost2010Prop29
280
     1
102
RTVSPost2010PropOp29
 70
     1
102
RTVSPost2010Prop30
280
     1
102
RTVSPost2010PropOp30
 70
     1
102
RTVSPost2010Prop31
280
     0
102
RTVSPost2010PropOp31
 70
     1
102
RTVSPost2010Prop32
280
     0
102
RTVSPost2010PropOp32
 70
     1
102
RTVSPost2010Prop33
280
     0
102
RTVSPost2010PropOp33
 70
     1
102
RTVSPost2010Prop34
280
     0
102
RTVSPost2010PropOp34
 70
     1
102
RTVSPost2010Prop35
280
     0
102
RTVSPost2010PropOp35
 70
     1
102
RTVSPost2010Prop36
280
     0
102
RTVSPost2010PropOp36
 70
     1
102
RTVSPost2010Prop37
 90
       50
102
RTVSPost2010PropOp37
 70
     1
102
RTVSPost2010Prop38
140
0.0
102
RTVSPost2010PropOp38
 70
     1
102
RTVSPost2010Prop39
140
1.0
102
RTVSPost2010PropOp39
 70
     1
102
RTVSPost2010Prop40
 90
        0
102
RTVSPost2010PropOp40
 70
     1
102
RTVSPost2010Prop41ColorIndex
 90
       18
102
RTVSPost2010Prop41ColorRGB
 90
        0
102
RTVSPost2010PropOp41
 70
     1
102
RTVSPost2010Prop42
 90
       50
102
RTVSPost2010PropOp42
 70
     1
102
RTVSPost2010Prop43
 90
        3
102
RTVSPost2010PropOp43
 70
     1
102
RTVSPost2010Prop44ColorIndex
 90
        5
102
RTVSPost2010Prop44ColorRGB
 90
      255
102
RTVSPost2010PropOp44
 70
     1
102
RTVSPost2010Prop45
280
     0
102
RTVSPost2010PropOp45
 70
     1
102
RTVSPost2010Prop46
 90
       50
102
RTVSPost2010PropOp46
 70
     1
102
RTVSPost2010Prop47
 90
       50
102
RTVSPost2010PropOp47
 70
     1
102
RTVSPost2010Prop48
 90
       50
102
RTVSPost2010PropOp48
 70
     1
102
RTVSPost2010Prop49
280
     0
102
RTVSPost2010PropOp49
 70
     1
102
RTVSPost2010Prop50
 90
       50
102
RTVSPost2010PropOp50
 70
     1
102
RTVSPost2010Prop51ColorIndex
 90
      256
102
RTVSPost2010Prop51ColorRGB
 90
-16777216
102
RTVSPost2010PropOp51
 70
     0
102
RTVSPost2010Prop52
140
1.0
102
RTVSPost2010PropOp52
 70
     0
102
RTVSPost2010Prop53
 90
        2
102
RTVSPost2010PropOp53
 70
     1
102
RTVSPost2010Prop54
  1
strokes_ogs.tif
102
RTVSPost2010PropOp54
 70
     1
102
RTVSPost2010Prop55
280
     0
102
RTVSPost2010PropOp55
 70
     1
102
RTVSPost2010Prop56
140
1.0
102
RTVSPost2010PropOp56
 70
     1
102
RTVSPost2010Prop57
140
1.0
102
RTVSPost2010PropOp57
 70
     1
102
RTVSPropertyOp0
 70
     1
102
RTVSPropertyOp1
 70
     1
102
RTVSPropertyOp2
 70
     1
102
RTVSPropertyOp3
 70
     1
102
RTVSPropertyOp4
 70
     1
102
RTVSPropertyOp5
 70
     1
102
RTVSPropertyOp6
 70
     1
102
RTVSPropertyOp7
 70
     1
102
RTVSPropertyOp8
 70
     1
102
RTVSPropertyOp9
 70
     1
102
RTVSPropertyOp10
 70
     1
102
RTVSPropertyOp11
 70
     1
102
RTVSPropertyOp12
 70
     1
102
RTVSPropertyOp13
 70
     1
102
RTVSPropertyOp14
 70
     1
102
RTVSPropertyOp15
 70
     1
102
RTVSPropertyOp16
 70
     1
102
RTVSPropertyOp17
 70
     1
102
RTVSPropertyOp18
 70
     1
102
RTVSPropertyOp19
 70
     1
102
RTVSPropertyOp20
 70
     1
102
RTVSPropertyOp21
 70
     1
102
RTVSPropertyOp22
 70
     1
102
RTVSPropertyOp23
 70
     1
102
RTVSPropertyOp24
 70
     1
102
RTVSPropertyOp25
 70
     1
102
RTVSPropertyOp26
 70
     1
102
RTVSPropertyOp27
 70
     1
102
RTVSPropertyOp28
 70
     1
102
RTVSPropertyOp29
 70
     1
102
RTVSPropertyOp30
 70
     1
102
RTVSPropertyOp31
 70
     1
102
RTVSPropertyOp32
 70
     1
102
RTVSPropertyOp33
 70
     1
102
RTVSPropertyOp34
 70
     1
102
RTVSPropertyOp35
 70
     1
102
RTVSPropertyOp36
 70
     1
102
RTVSPropertyOp37
 70
     1
102
RTVSPropertyOp38
 70
     1
102
RTVSPropertyOp39
 70
     1
102
RTVSPropertyOp40
 70
     1
102
RTVSPropertyOp41
 70
     1
102
RTVSPropertyOp42
 70
     1
102
RTVSPropertyOp43
 70
     1
102
RTVSPropertyOp44
 70
     1
102
RTVSPropertyOp45
 70
     1
102
RTVSPropertyOp46
 70
     1
102
RTVSPropertyOp47
 70
     1
102
RTVSPropertyOp48
 70
     1
102
RTVSPropertyOp49
 70
     1
102
RTVSPropertyOp50
 70
     1
102
RTVSPropertyOp51
 70
     0
102
RTVSPropertyOp52
 70
     0
102
RTVSPropertyOp53
 70
     1
102
RTVSPropertyOp54
 70
     1
102
RTVSPropertyOp55
 70
     1
102
RTVSPropertyOp56
 70
     1
102
RTVSPropertyOp57
 70
     1
102
RTVSPropertyOp58
 70
     1
102
RTVSPropertyOp59
 70
     1
102
RTVSPropertyOp60
 70
     1
102
RTVSPropertyOp61
 70
     1
102
RTVSPropertyOp62
 70
     1
  0
XRECORD
  5
756
102
{ACAD_REACTORS
330
755
102
}
330
755
100
AcDbXrecord
280
     1
102
RTVSPost2010Prop28
280
     0
102
RTVSPost2010PropOp28
 70
     1
102
RTVSPost2010Prop29
280
     1
102
RTVSPost2010PropOp29
 70
     1
102
RTVSPost2010Prop30
280
     1
102
RTVSPost2010PropOp30
 70
     1
102
RTVSPost2010Prop31
280
     0
102
RTVSPost2010PropOp31
 70
     1
102
RTVSPost2010Prop32
280
     0
102
RTVSPost2010PropOp32
 70
     1
102
RTVSPost2010Prop33
280
     0
102
RTVSPost2010PropOp33
 70
     1
102
RTVSPost2010Prop34
280
     0
102
RTVSPost2010PropOp34
 70
     1
102
RTVSPost2010Prop35
280
     0
102
RTVSPost2010PropOp35
 70
     1
102
RTVSPost2010Prop36
280
     0
102
RTVSPost2010PropOp36
 70
     1
102
RTVSPost2010Prop37
 90
       50
102
RTVSPost2010PropOp37
 70
     0
102
RTVSPost2010Prop38
140
0.0
102
RTVSPost2010PropOp38
 70
     0
102
RTVSPost2010Prop39
140
1.0
102
RTVSPost2010PropOp39
 70
     0
102
RTVSPost2010Prop40
 90
        0
102
RTVSPost2010PropOp40
 70
     0
102
RTVSPost2010Prop41ColorIndex
 90
       18
102
RTVSPost2010Prop41ColorRGB
 90
        0
102
RTVSPost2010PropOp41
 70
     0
102
RTVSPost2010Prop42
 90
       50
102
RTVSPost2010PropOp42
 70
     0
102
RTVSPost2010Prop43
 90
        3
102
RTVSPost2010PropOp43
 70
     0
102
RTVSPost2010Prop44ColorIndex
 90
        5
102
RTVSPost2010Prop44ColorRGB
 90
      255
102
RTVSPost2010PropOp44
 70
     0
102
RTVSPost2010Prop45
280
     0
102
RTVSPost2010PropOp45
 70
     1
102
RTVSPost2010Prop46
 90
       50
102
RTVSPost2010PropOp46
 70
     0
102
RTVSPost2010Prop47
 90
       50
102
RTVSPost2010PropOp47
 70
     0
102
RTVSPost2010Prop48
 90
       50
102
RTVSPost2010PropOp48
 70
     0
102
RTVSPost2010Prop49
280
     0
102
RTVSPost2010PropOp49
 70
     1
102
RTVSPost2010Prop50
 90
       50
102
RTVSPost2010PropOp50
 70
     0
102
RTVSPost2010Prop51ColorIndex
 90
      256
102
RTVSPost2010Prop51ColorRGB
 90
-16777216
102
RTVSPost2010PropOp51
 70
     0
102
RTVSPost2010Prop52
140
1.0
102
RTVSPost2010PropOp52
 70
     0
102
RTVSPost2010Prop53
 90
        2
102
RTVSPost2010PropOp53
 70
     0
102
RTVSPost2010Prop54
  1
strokes_ogs.tif
102
RTVSPost2010PropOp54
 70
     0
102
RTVSPost2010Prop55
280
     0
102
RTVSPost2010PropOp55
 70
     1
102
RTVSPost2010Prop56
140
1.0
102
RTVSPost2010PropOp56
 70
     0
102
RTVSPost2010Prop57
140
1.0
102
RTVSPost2010PropOp57
 70
     0
102
RTVSPropertyOp0
 70
     0
102
RTVSPropertyOp1
 70
     0
102
RTVSPropertyOp2
 70
     0
102
RTVSPropertyOp3
 70
     0
102
RTVSPropertyOp4
 70
     0
102
RTVSPropertyOp5
 70
     0
102
RTVSPropertyOp6
 70
     0
102
RTVSPropertyOp7
 70
     0
102
RTVSPropertyOp8
 70
     0
102
RTVSPropertyOp9
 70
     0
102
RTVSPropertyOp10
 70
     0
102
RTVSPropertyOp11
 70
     0
102
RTVSPropertyOp12
 70
     0
102
RTVSPropertyOp13
 70
     0
102
RTVSPropertyOp14
 70
     2
102
RTVSPropertyOp15
 70
     0
102
RTVSPropertyOp16
 70
     0
102
RTVSPropertyOp17
 70
     0
102
RTVSPropertyOp18
 70
     0
102
RTVSPropertyOp19
 70
     0
102
RTVSPropertyOp20
 70
     0
102
RTVSPropertyOp21
 70
     0
102
RTVSPropertyOp22
 70
     0
102
RTVSPropertyOp23
 70
     0
102
RTVSPropertyOp24
 70
     0
102
RTVSPropertyOp25
 70
     0
102
RTVSPropertyOp26
 70
     0
102
RTVSPropertyOp27
 70
     0
102
RTVSPropertyOp28
 70
     1
102
RTVSPropertyOp29
 70
     1
102
RTVSPropertyOp30
 70
     1
102
RTVSPropertyOp31
 70
     1
102
RTVSPropertyOp32
 70
     1
102
RTVSPropertyOp33
 70
     1
102
RTVSPropertyOp34
 70
     1
102
RTVSPropertyOp35
 70
     1
102
RTVSPropertyOp36
 70
     1
102
RTVSPropertyOp37
 70
     0
102
RTVSPropertyOp38
 70
     0
102
RTVSPropertyOp39
 70
     0
102
RTVSPropertyOp40
 70
     0
102
RTVSPropertyOp41
 70
     0
102
RTVSPropertyOp42
 70
     0
102
RTVSPropertyOp43
 70
     0
102
RTVSPropertyOp44
 70
     0
102
RTVSPropertyOp45
 70
     1
102
RTVSPropertyOp46
 70
     0
102
RTVSPropertyOp47
 70
     0
102
RTVSPropertyOp48
 70
     0
102
RTVSPropertyOp49
 70
     1
102
RTVSPropertyOp50
 70
     0
102
RTVSPropertyOp51
 70
     0
102
RTVSPropertyOp52
 70
     0
102
RTVSPropertyOp53
 70
     0
102
RTVSPropertyOp54
 70
     0
102
RTVSPropertyOp55
 70
     1
102
RTVSPropertyOp56
 70
     0
102
RTVSPropertyOp57
 70
     0
102
RTVSPropertyOp58
 70
     0
102
RTVSPropertyOp59
 70
     0
102
RTVSPropertyOp60
 70
     0
102
RTVSPropertyOp61
 70
     0
102
RTVSPropertyOp62
 70
     0
  0
XRECORD
  5
744
102
{ACAD_REACTORS
330
743
102
}
330
743
100
AcDbXrecord
280
     1
102
RTVSPost2010Prop28
280
     0
102
RTVSPost2010PropOp28
 70
     1
102
RTVSPost2010Prop29
280
     1
102
RTVSPost2010PropOp29
 70
     1
102
RTVSPost2010Prop30
280
     1
102
RTVSPost2010PropOp30
 70
     1
102
RTVSPost2010Prop31
280
     0
102
RTVSPost2010PropOp31
 70
     1
102
RTVSPost2010Prop32
280
     0
102
RTVSPost2010PropOp32
 70
     1
102
RTVSPost2010Prop33
280
     0
102
RTVSPost2010PropOp33
 70
     1
102
RTVSPost2010Prop34
280
     0
102
RTVSPost2010PropOp34
 70
     1
102
RTVSPost2010Prop35
280
     0
102
RTVSPost2010PropOp35
 70
     1
102
RTVSPost2010Prop36
280
     0
102
RTVSPost2010PropOp36
 70
     1
102
RTVSPost2010Prop37
 90
       50
102
RTVSPost2010PropOp37
 70
     1
102
RTVSPost2010Prop38
140
0.0
102
RTVSPost2010PropOp38
 70
     1
102
RTVSPost2010Prop39
140
1.0
102
RTVSPost2010PropOp39
 70
     1
102
RTVSPost2010Prop40
 90
        0
102
RTVSPost2010PropOp40
 70
     1
102
RTVSPost2010Prop41ColorIndex
 90
       18
102
RTVSPost2010Prop41ColorRGB
 90
        0
102
RTVSPost2010PropOp41
 70
     1
102
RTVSPost2010Prop42
 90
       50
102
RTVSPost2010PropOp42
 70
     1
102
RTVSPost2010Prop43
 90
        3
102
RTVSPost2010PropOp43
 70
     1
102
RTVSPost2010Prop44ColorIndex
 90
        5
102
RTVSPost2010Prop44ColorRGB
 90
      255
102
RTVSPost2010PropOp44
 70
     1
102
RTVSPost2010Prop45
280
     0
102
RTVSPost2010PropOp45
 70
     1
102
RTVSPost2010Prop46
 90
       50
102
RTVSPost2010PropOp46
 70
     1
102
RTVSPost2010Prop47
 90
       50
102
RTVSPost2010PropOp47
 70
     1
102
RTVSPost2010Prop48
 90
       50
102
RTVSPost2010PropOp48
 70
     1
102
RTVSPost2010Prop49
280
     0
102
RTVSPost2010PropOp49
 70
     1
102
RTVSPost2010Prop50
 90
       50
102
RTVSPost2010PropOp50
 70
     1
102
RTVSPost2010Prop51ColorIndex
 90
      256
102
RTVSPost2010Prop51ColorRGB
 90
-16777216
102
RTVSPost2010PropOp51
 70
     0
102
RTVSPost2010Prop52
140
1.0
102
RTVSPost2010PropOp52
 70
     0
102
RTVSPost2010Prop53
 90
        2
102
RTVSPost2010PropOp53
 70
     1
102
RTVSPost2010Prop54
  1
strokes_ogs.tif
102
RTVSPost2010PropOp54
 70
     1
102
RTVSPost2010Prop55
280
     0
102
RTVSPost2010PropOp55
 70
     1
102
RTVSPost2010Prop56
140
1.0
102
RTVSPost2010PropOp56
 70
     1
102
RTVSPost2010Prop57
140
1.0
102
RTVSPost2010PropOp57
 70
     1
102
RTVSPropertyOp0
 70
     1
102
RTVSPropertyOp1
 70
     1
102
RTVSPropertyOp2
 70
     1
102
RTVSPropertyOp3
 70
     1
102
RTVSPropertyOp4
 70
     1
102
RTVSPropertyOp5
 70
     1
102
RTVSPropertyOp6
 70
     1
102
RTVSPropertyOp7
 70
     1
102
RTVSPropertyOp8
 70
     1
102
RTVSPropertyOp9
 70
     1
102
RTVSPropertyOp10
 70
     1
102
RTVSPropertyOp11
 70
     1
102
RTVSPropertyOp12
 70
     1
102
RTVSPropertyOp13
 70
     1
102
RTVSPropertyOp14
 70
     1
102
RTVSPropertyOp15
 70
     1
102
RTVSPropertyOp16
 70
     1
102
RTVSPropertyOp17
 70
     1
102
RTVSPropertyOp18
 70
     1
102
RTVSPropertyOp19
 70
     1
102
RTVSPropertyOp20
 70
     1
102
RTVSPropertyOp21
 70
     1
102
RTVSPropertyOp22
 70
     1
102
RTVSPropertyOp23
 70
     1
102
RTVSPropertyOp24
 70
     1
102
RTVSPropertyOp25
 70
     1
102
RTVSPropertyOp26
 70
     1
102
RTVSPropertyOp27
 70
     1
102
RTVSPropertyOp28
 70
     1
102
RTVSPropertyOp29
 70
     1
102
RTVSPropertyOp30
 70
     1
102
RTVSPropertyOp31
 70
     1
102
RTVSPropertyOp32
 70
     1
102
RTVSPropertyOp33
 70
     1
102
RTVSPropertyOp34
 70
     1
102
RTVSPropertyOp35
 70
     1
102
RTVSPropertyOp36
 70
     1
102
RTVSPropertyOp37
 70
     1
102
RTVSPropertyOp38
 70
     1
102
RTVSPropertyOp39
 70
     1
102
RTVSPropertyOp40
 70
     1
102
RTVSPropertyOp41
 70
     1
102
RTVSPropertyOp42
 70
     1
102
RTVSPropertyOp43
 70
     1
102
RTVSPropertyOp44
 70
     1
102
RTVSPropertyOp45
 70
     1
102
RTVSPropertyOp46
 70
     1
102
RTVSPropertyOp47
 70
     1
102
RTVSPropertyOp48
 70
     1
102
RTVSPropertyOp49
 70
     1
102
RTVSPropertyOp50
 70
     1
102
RTVSPropertyOp51
 70
     0
102
RTVSPropertyOp52
 70
     0
102
RTVSPropertyOp53
 70
     1
102
RTVSPropertyOp54
 70
     1
102
RTVSPropertyOp55
 70
     1
102
RTVSPropertyOp56
 70
     1
102
RTVSPropertyOp57
 70
     1
102
RTVSPropertyOp58
 70
     1
102
RTVSPropertyOp59
 70
     1
102
RTVSPropertyOp60
 70
     1
102
RTVSPropertyOp61
 70
     1
102
RTVSPropertyOp62
 70
     1
  0
XRECORD
  5
728
102
{ACAD_REACTORS
330
727
102
}
330
727
100
AcDbXrecord
280
     1
102
RTVSPost2010Prop28
280
     0
102
RTVSPost2010PropOp28
 70
     1
102
RTVSPost2010Prop29
280
     1
102
RTVSPost2010PropOp29
 70
     1
102
RTVSPost2010Prop30
280
     1
102
RTVSPost2010PropOp30
 70
     1
102
RTVSPost2010Prop31
280
     0
102
RTVSPost2010PropOp31
 70
     1
102
RTVSPost2010Prop32
280
     0
102
RTVSPost2010PropOp32
 70
     1
102
RTVSPost2010Prop33
280
     0
102
RTVSPost2010PropOp33
 70
     1
102
RTVSPost2010Prop34
280
     0
102
RTVSPost2010PropOp34
 70
     1
102
RTVSPost2010Prop35
280
     0
102
RTVSPost2010PropOp35
 70
     1
102
RTVSPost2010Prop36
280
     0
102
RTVSPost2010PropOp36
 70
     1
102
RTVSPost2010Prop37
 90
       50
102
RTVSPost2010PropOp37
 70
     1
102
RTVSPost2010Prop38
140
0.0
102
RTVSPost2010PropOp38
 70
     1
102
RTVSPost2010Prop39
140
1.0
102
RTVSPost2010PropOp39
 70
     1
102
RTVSPost2010Prop40
 90
        0
102
RTVSPost2010PropOp40
 70
     1
102
RTVSPost2010Prop41ColorIndex
 90
       18
102
RTVSPost2010Prop41ColorRGB
 90
        0
102
RTVSPost2010PropOp41
 70
     1
102
RTVSPost2010Prop42
 90
       50
102
RTVSPost2010PropOp42
 70
     1
102
RTVSPost2010Prop43
 90
        3
102
RTVSPost2010PropOp43
 70
     1
102
RTVSPost2010Prop44ColorIndex
 90
        5
102
RTVSPost2010Prop44ColorRGB
 90
      255
102
RTVSPost2010PropOp44
 70
     1
102
RTVSPost2010Prop45
280
     0
102
RTVSPost2010PropOp45
 70
     1
102
RTVSPost2010Prop46
 90
       50
102
RTVSPost2010PropOp46
 70
     1
102
RTVSPost2010Prop47
 90
       50
102
RTVSPost2010PropOp47
 70
     1
102
RTVSPost2010Prop48
 90
       50
102
RTVSPost2010PropOp48
 70
     1
102
RTVSPost2010Prop49
280
     0
102
RTVSPost2010PropOp49
 70
     1
102
RTVSPost2010Prop50
 90
       50
102
RTVSPost2010PropOp50
 70
     1
102
RTVSPost2010Prop51ColorIndex
 90
      256
102
RTVSPost2010Prop51ColorRGB
 90
-16777216
102
RTVSPost2010PropOp51
 70
     0
102
RTVSPost2010Prop52
140
1.0
102
RTVSPost2010PropOp52
 70
     0
102
RTVSPost2010Prop53
 90
        2
102
RTVSPost2010PropOp53
 70
     1
102
RTVSPost2010Prop54
  1
strokes_ogs.tif
102
RTVSPost2010PropOp54
 70
     1
102
RTVSPost2010Prop55
280
     0
102
RTVSPost2010PropOp55
 70
     1
102
RTVSPost2010Prop56
140
1.0
102
RTVSPost2010PropOp56
 70
     1
102
RTVSPost2010Prop57
140
1.0
102
RTVSPost2010PropOp57
 70
     1
102
RTVSPropertyOp0
 70
     1
102
RTVSPropertyOp1
 70
     1
102
RTVSPropertyOp2
 70
     1
102
RTVSPropertyOp3
 70
     1
102
RTVSPropertyOp4
 70
     1
102
RTVSPropertyOp5
 70
     1
102
RTVSPropertyOp6
 70
     1
102
RTVSPropertyOp7
 70
     1
102
RTVSPropertyOp8
 70
     1
102
RTVSPropertyOp9
 70
     1
102
RTVSPropertyOp10
 70
     1
102
RTVSPropertyOp11
 70
     1
102
RTVSPropertyOp12
 70
     1
102
RTVSPropertyOp13
 70
     1
102
RTVSPropertyOp14
 70
     1
102
RTVSPropertyOp15
 70
     1
102
RTVSPropertyOp16
 70
     1
102
RTVSPropertyOp17
 70
     1
102
RTVSPropertyOp18
 70
     1
102
RTVSPropertyOp19
 70
     1
102
RTVSPropertyOp20
 70
     1
102
RTVSPropertyOp21
 70
     1
102
RTVSPropertyOp22
 70
     1
102
RTVSPropertyOp23
 70
     1
102
RTVSPropertyOp24
 70
     1
102
RTVSPropertyOp25
 70
     1
102
RTVSPropertyOp26
 70
     1
102
RTVSPropertyOp27
 70
     1
102
RTVSPropertyOp28
 70
     1
102
RTVSPropertyOp29
 70
     1
102
RTVSPropertyOp30
 70
     1
102
RTVSPropertyOp31
 70
     1
102
RTVSPropertyOp32
 70
     1
102
RTVSPropertyOp33
 70
     1
102
RTVSPropertyOp34
 70
     1
102
RTVSPropertyOp35
 70
     1
102
RTVSPropertyOp36
 70
     1
102
RTVSPropertyOp37
 70
     1
102
RTVSPropertyOp38
 70
     1
102
RTVSPropertyOp39
 70
     1
102
RTVSPropertyOp40
 70
     1
102
RTVSPropertyOp41
 70
     1
102
RTVSPropertyOp42
 70
     1
102
RTVSPropertyOp43
 70
     1
102
RTVSPropertyOp44
 70
     1
102
RTVSPropertyOp45
 70
     1
102
RTVSPropertyOp46
 70
     1
102
RTVSPropertyOp47
 70
     1
102
RTVSPropertyOp48
 70
     1
102
RTVSPropertyOp49
 70
     1
102
RTVSPropertyOp50
 70
     1
102
RTVSPropertyOp51
 70
     0
102
RTVSPropertyOp52
 70
     0
102
RTVSPropertyOp53
 70
     1
102
RTVSPropertyOp54
 70
     1
102
RTVSPropertyOp55
 70
     1
102
RTVSPropertyOp56
 70
     1
102
RTVSPropertyOp57
 70
     1
102
RTVSPropertyOp58
 70
     1
102
RTVSPropertyOp59
 70
     1
102
RTVSPropertyOp60
 70
     1
102
RTVSPropertyOp61
 70
     1
102
RTVSPropertyOp62
 70
     1
  0
XRECORD
  5
72A
102
{ACAD_REACTORS
330
729
102
}
330
729
100
AcDbXrecord
280
     1
102
RTVSPost2010Prop28
280
     0
102
RTVSPost2010PropOp28
 70
     1
102
RTVSPost2010Prop29
280
     1
102
RTVSPost2010PropOp29
 70
     1
102
RTVSPost2010Prop30
280
     1
102
RTVSPost2010PropOp30
 70
     1
102
RTVSPost2010Prop31
280
     0
102
RTVSPost2010PropOp31
 70
     1
102
RTVSPost2010Prop32
280
     0
102
RTVSPost2010PropOp32
 70
     1
102
RTVSPost2010Prop33
280
     0
102
RTVSPost2010PropOp33
 70
     1
102
RTVSPost2010Prop34
280
     0
102
RTVSPost2010PropOp34
 70
     1
102
RTVSPost2010Prop35
280
     0
102
RTVSPost2010PropOp35
 70
     1
102
RTVSPost2010Prop36
280
     0
102
RTVSPost2010PropOp36
 70
     1
102
RTVSPost2010Prop37
 90
       50
102
RTVSPost2010PropOp37
 70
     1
102
RTVSPost2010Prop38
140
0.0
102
RTVSPost2010PropOp38
 70
     1
102
RTVSPost2010Prop39
140
1.0
102
RTVSPost2010PropOp39
 70
     1
102
RTVSPost2010Prop40
 90
        0
102
RTVSPost2010PropOp40
 70
     1
102
RTVSPost2010Prop41ColorIndex
 90
       18
102
RTVSPost2010Prop41ColorRGB
 90
        0
102
RTVSPost2010PropOp41
 70
     1
102
RTVSPost2010Prop42
 90
       50
102
RTVSPost2010PropOp42
 70
     1
102
RTVSPost2010Prop43
 90
        3
102
RTVSPost2010PropOp43
 70
     1
102
RTVSPost2010Prop44ColorIndex
 90
        5
102
RTVSPost2010Prop44ColorRGB
 90
      255
102
RTVSPost2010PropOp44
 70
     1
102
RTVSPost2010Prop45
280
     0
102
RTVSPost2010PropOp45
 70
     1
102
RTVSPost2010Prop46
 90
       50
102
RTVSPost2010PropOp46
 70
     1
102
RTVSPost2010Prop47
 90
       50
102
RTVSPost2010PropOp47
 70
     1
102
RTVSPost2010Prop48
 90
       50
102
RTVSPost2010PropOp48
 70
     1
102
RTVSPost2010Prop49
280
     0
102
RTVSPost2010PropOp49
 70
     1
102
RTVSPost2010Prop50
 90
       50
102
RTVSPost2010PropOp50
 70
     1
102
RTVSPost2010Prop51ColorIndex
 90
      256
102
RTVSPost2010Prop51ColorRGB
 90
-16777216
102
RTVSPost2010PropOp51
 70
     0
102
RTVSPost2010Prop52
140
1.0
102
RTVSPost2010PropOp52
 70
     0
102
RTVSPost2010Prop53
 90
        2
102
RTVSPost2010PropOp53
 70
     1
102
RTVSPost2010Prop54
  1
strokes_ogs.tif
102
RTVSPost2010PropOp54
 70
     1
102
RTVSPost2010Prop55
280
     0
102
RTVSPost2010PropOp55
 70
     1
102
RTVSPost2010Prop56
140
1.0
102
RTVSPost2010PropOp56
 70
     1
102
RTVSPost2010Prop57
140
1.0
102
RTVSPost2010PropOp57
 70
     1
102
RTVSPropertyOp0
 70
     1
102
RTVSPropertyOp1
 70
     1
102
RTVSPropertyOp2
 70
     1
102
RTVSPropertyOp3
 70
     1
102
RTVSPropertyOp4
 70
     1
102
RTVSPropertyOp5
 70
     1
102
RTVSPropertyOp6
 70
     1
102
RTVSPropertyOp7
 70
     1
102
RTVSPropertyOp8
 70
     1
102
RTVSPropertyOp9
 70
     1
102
RTVSPropertyOp10
 70
     1
102
RTVSPropertyOp11
 70
     1
102
RTVSPropertyOp12
 70
     1
102
RTVSPropertyOp13
 70
     1
102
RTVSPropertyOp14
 70
     1
102
RTVSPropertyOp15
 70
     1
102
RTVSPropertyOp16
 70
     1
102
RTVSPropertyOp17
 70
     1
102
RTVSPropertyOp18
 70
     1
102
RTVSPropertyOp19
 70
     1
102
RTVSPropertyOp20
 70
     1
102
RTVSPropertyOp21
 70
     1
102
RTVSPropertyOp22
 70
     1
102
RTVSPropertyOp23
 70
     1
102
RTVSPropertyOp24
 70
     1
102
RTVSPropertyOp25
 70
     1
102
RTVSPropertyOp26
 70
     1
102
RTVSPropertyOp27
 70
     1
102
RTVSPropertyOp28
 70
     1
102
RTVSPropertyOp29
 70
     1
102
RTVSPropertyOp30
 70
     1
102
RTVSPropertyOp31
 70
     1
102
RTVSPropertyOp32
 70
     1
102
RTVSPropertyOp33
 70
     1
102
RTVSPropertyOp34
 70
     1
102
RTVSPropertyOp35
 70
     1
102
RTVSPropertyOp36
 70
     1
102
RTVSPropertyOp37
 70
     1
102
RTVSPropertyOp38
 70
     1
102
RTVSPropertyOp39
 70
     1
102
RTVSPropertyOp40
 70
     1
102
RTVSPropertyOp41
 70
     1
102
RTVSPropertyOp42
 70
     1
102
RTVSPropertyOp43
 70
     1
102
RTVSPropertyOp44
 70
     1
102
RTVSPropertyOp45
 70
     1
102
RTVSPropertyOp46
 70
     1
102
RTVSPropertyOp47
 70
     1
102
RTVSPropertyOp48
 70
     1
102
RTVSPropertyOp49
 70
     1
102
RTVSPropertyOp50
 70
     1
102
RTVSPropertyOp51
 70
     0
102
RTVSPropertyOp52
 70
     0
102
RTVSPropertyOp53
 70
     1
102
RTVSPropertyOp54
 70
     1
102
RTVSPropertyOp55
 70
     1
102
RTVSPropertyOp56
 70
     1
102
RTVSPropertyOp57
 70
     1
102
RTVSPropertyOp58
 70
     1
102
RTVSPropertyOp59
 70
     1
102
RTVSPropertyOp60
 70
     1
102
RTVSPropertyOp61
 70
     1
102
RTVSPropertyOp62
 70
     1
  0
XRECORD
  5
72C
102
{ACAD_REACTORS
330
72B
102
}
330
72B
100
AcDbXrecord
280
     1
102
RTVSPost2010Prop28
280
     0
102
RTVSPost2010PropOp28
 70
     1
102
RTVSPost2010Prop29
280
     1
102
RTVSPost2010PropOp29
 70
     1
102
RTVSPost2010Prop30
280
     1
102
RTVSPost2010PropOp30
 70
     1
102
RTVSPost2010Prop31
280
     0
102
RTVSPost2010PropOp31
 70
     1
102
RTVSPost2010Prop32
280
     0
102
RTVSPost2010PropOp32
 70
     1
102
RTVSPost2010Prop33
280
     0
102
RTVSPost2010PropOp33
 70
     1
102
RTVSPost2010Prop34
280
     0
102
RTVSPost2010PropOp34
 70
     1
102
RTVSPost2010Prop35
280
     0
102
RTVSPost2010PropOp35
 70
     1
102
RTVSPost2010Prop36
280
     0
102
RTVSPost2010PropOp36
 70
     1
102
RTVSPost2010Prop37
 90
       50
102
RTVSPost2010PropOp37
 70
     1
102
RTVSPost2010Prop38
140
0.0
102
RTVSPost2010PropOp38
 70
     1
102
RTVSPost2010Prop39
140
1.0
102
RTVSPost2010PropOp39
 70
     1
102
RTVSPost2010Prop40
 90
        0
102
RTVSPost2010PropOp40
 70
     1
102
RTVSPost2010Prop41ColorIndex
 90
       18
102
RTVSPost2010Prop41ColorRGB
 90
        0
102
RTVSPost2010PropOp41
 70
     1
102
RTVSPost2010Prop42
 90
       50
102
RTVSPost2010PropOp42
 70
     1
102
RTVSPost2010Prop43
 90
        3
102
RTVSPost2010PropOp43
 70
     1
102
RTVSPost2010Prop44ColorIndex
 90
        5
102
RTVSPost2010Prop44ColorRGB
 90
      255
102
RTVSPost2010PropOp44
 70
     1
102
RTVSPost2010Prop45
280
     0
102
RTVSPost2010PropOp45
 70
     1
102
RTVSPost2010Prop46
 90
       50
102
RTVSPost2010PropOp46
 70
     1
102
RTVSPost2010Prop47
 90
       50
102
RTVSPost2010PropOp47
 70
     1
102
RTVSPost2010Prop48
 90
       50
102
RTVSPost2010PropOp48
 70
     1
102
RTVSPost2010Prop49
280
     0
102
RTVSPost2010PropOp49
 70
     1
102
RTVSPost2010Prop50
 90
       50
102
RTVSPost2010PropOp50
 70
     1
102
RTVSPost2010Prop51ColorIndex
 90
      256
102
RTVSPost2010Prop51ColorRGB
 90
-16777216
102
RTVSPost2010PropOp51
 70
     0
102
RTVSPost2010Prop52
140
1.0
102
RTVSPost2010PropOp52
 70
     0
102
RTVSPost2010Prop53
 90
        2
102
RTVSPost2010PropOp53
 70
     1
102
RTVSPost2010Prop54
  1
strokes_ogs.tif
102
RTVSPost2010PropOp54
 70
     1
102
RTVSPost2010Prop55
280
     0
102
RTVSPost2010PropOp55
 70
     1
102
RTVSPost2010Prop56
140
1.0
102
RTVSPost2010PropOp56
 70
     1
102
RTVSPost2010Prop57
140
1.0
102
RTVSPost2010PropOp57
 70
     1
102
RTVSPropertyOp0
 70
     1
102
RTVSPropertyOp1
 70
     1
102
RTVSPropertyOp2
 70
     1
102
RTVSPropertyOp3
 70
     1
102
RTVSPropertyOp4
 70
     1
102
RTVSPropertyOp5
 70
     1
102
RTVSPropertyOp6
 70
     1
102
RTVSPropertyOp7
 70
     1
102
RTVSPropertyOp8
 70
     1
102
RTVSPropertyOp9
 70
     1
102
RTVSPropertyOp10
 70
     1
102
RTVSPropertyOp11
 70
     1
102
RTVSPropertyOp12
 70
     1
102
RTVSPropertyOp13
 70
     1
102
RTVSPropertyOp14
 70
     1
102
RTVSPropertyOp15
 70
     1
102
RTVSPropertyOp16
 70
     1
102
RTVSPropertyOp17
 70
     1
102
RTVSPropertyOp18
 70
     1
102
RTVSPropertyOp19
 70
     1
102
RTVSPropertyOp20
 70
     1
102
RTVSPropertyOp21
 70
     1
102
RTVSPropertyOp22
 70
     1
102
RTVSPropertyOp23
 70
     1
102
RTVSPropertyOp24
 70
     1
102
RTVSPropertyOp25
 70
     1
102
RTVSPropertyOp26
 70
     1
102
RTVSPropertyOp27
 70
     1
102
RTVSPropertyOp28
 70
     1
102
RTVSPropertyOp29
 70
     1
102
RTVSPropertyOp30
 70
     1
102
RTVSPropertyOp31
 70
     1
102
RTVSPropertyOp32
 70
     1
102
RTVSPropertyOp33
 70
     1
102
RTVSPropertyOp34
 70
     1
102
RTVSPropertyOp35
 70
     1
102
RTVSPropertyOp36
 70
     1
102
RTVSPropertyOp37
 70
     1
102
RTVSPropertyOp38
 70
     1
102
RTVSPropertyOp39
 70
     1
102
RTVSPropertyOp40
 70
     1
102
RTVSPropertyOp41
 70
     1
102
RTVSPropertyOp42
 70
     1
102
RTVSPropertyOp43
 70
     1
102
RTVSPropertyOp44
 70
     1
102
RTVSPropertyOp45
 70
     1
102
RTVSPropertyOp46
 70
     1
102
RTVSPropertyOp47
 70
     1
102
RTVSPropertyOp48
 70
     1
102
RTVSPropertyOp49
 70
     1
102
RTVSPropertyOp50
 70
     1
102
RTVSPropertyOp51
 70
     0
102
RTVSPropertyOp52
 70
     0
102
RTVSPropertyOp53
 70
     1
102
RTVSPropertyOp54
 70
     1
102
RTVSPropertyOp55
 70
     1
102
RTVSPropertyOp56
 70
     1
102
RTVSPropertyOp57
 70
     1
102
RTVSPropertyOp58
 70
     1
102
RTVSPropertyOp59
 70
     1
102
RTVSPropertyOp60
 70
     1
102
RTVSPropertyOp61
 70
     1
102
RTVSPropertyOp62
 70
     1
  0
XRECORD
  5
72E
102
{ACAD_REACTORS
330
72D
102
}
330
72D
100
AcDbXrecord
280
     1
102
RTVSPost2010Prop28
280
     0
102
RTVSPost2010PropOp28
 70
     1
102
RTVSPost2010Prop29
280
     1
102
RTVSPost2010PropOp29
 70
     1
102
RTVSPost2010Prop30
280
     1
102
RTVSPost2010PropOp30
 70
     1
102
RTVSPost2010Prop31
280
     0
102
RTVSPost2010PropOp31
 70
     1
102
RTVSPost2010Prop32
280
     0
102
RTVSPost2010PropOp32
 70
     1
102
RTVSPost2010Prop33
280
     0
102
RTVSPost2010PropOp33
 70
     1
102
RTVSPost2010Prop34
280
     0
102
RTVSPost2010PropOp34
 70
     1
102
RTVSPost2010Prop35
280
     0
102
RTVSPost2010PropOp35
 70
     1
102
RTVSPost2010Prop36
280
     0
102
RTVSPost2010PropOp36
 70
     1
102
RTVSPost2010Prop37
 90
       50
102
RTVSPost2010PropOp37
 70
     1
102
RTVSPost2010Prop38
140
0.0
102
RTVSPost2010PropOp38
 70
     1
102
RTVSPost2010Prop39
140
1.0
102
RTVSPost2010PropOp39
 70
     1
102
RTVSPost2010Prop40
 90
        0
102
RTVSPost2010PropOp40
 70
     1
102
RTVSPost2010Prop41ColorIndex
 90
       18
102
RTVSPost2010Prop41ColorRGB
 90
        0
102
RTVSPost2010PropOp41
 70
     1
102
RTVSPost2010Prop42
 90
       50
102
RTVSPost2010PropOp42
 70
     1
102
RTVSPost2010Prop43
 90
        3
102
RTVSPost2010PropOp43
 70
     1
102
RTVSPost2010Prop44ColorIndex
 90
        5
102
RTVSPost2010Prop44ColorRGB
 90
      255
102
RTVSPost2010PropOp44
 70
     1
102
RTVSPost2010Prop45
280
     0
102
RTVSPost2010PropOp45
 70
     1
102
RTVSPost2010Prop46
 90
       50
102
RTVSPost2010PropOp46
 70
     1
102
RTVSPost2010Prop47
 90
       50
102
RTVSPost2010PropOp47
 70
     1
102
RTVSPost2010Prop48
 90
       50
102
RTVSPost2010PropOp48
 70
     1
102
RTVSPost2010Prop49
280
     0
102
RTVSPost2010PropOp49
 70
     1
102
RTVSPost2010Prop50
 90
       50
102
RTVSPost2010PropOp50
 70
     1
102
RTVSPost2010Prop51ColorIndex
 90
      256
102
RTVSPost2010Prop51ColorRGB
 90
-16777216
102
RTVSPost2010PropOp51
 70
     0
102
RTVSPost2010Prop52
140
1.0
102
RTVSPost2010PropOp52
 70
     0
102
RTVSPost2010Prop53
 90
        2
102
RTVSPost2010PropOp53
 70
     1
102
RTVSPost2010Prop54
  1
strokes_ogs.tif
102
RTVSPost2010PropOp54
 70
     1
102
RTVSPost2010Prop55
280
     0
102
RTVSPost2010PropOp55
 70
     1
102
RTVSPost2010Prop56
140
1.0
102
RTVSPost2010PropOp56
 70
     1
102
RTVSPost2010Prop57
140
1.0
102
RTVSPost2010PropOp57
 70
     1
102
RTVSPropertyOp0
 70
     1
102
RTVSPropertyOp1
 70
     1
102
RTVSPropertyOp2
 70
     1
102
RTVSPropertyOp3
 70
     1
102
RTVSPropertyOp4
 70
     1
102
RTVSPropertyOp5
 70
     1
102
RTVSPropertyOp6
 70
     1
102
RTVSPropertyOp7
 70
     1
102
RTVSPropertyOp8
 70
     1
102
RTVSPropertyOp9
 70
     1
102
RTVSPropertyOp10
 70
     1
102
RTVSPropertyOp11
 70
     1
102
RTVSPropertyOp12
 70
     1
102
RTVSPropertyOp13
 70
     1
102
RTVSPropertyOp14
 70
     1
102
RTVSPropertyOp15
 70
     1
102
RTVSPropertyOp16
 70
     1
102
RTVSPropertyOp17
 70
     1
102
RTVSPropertyOp18
 70
     1
102
RTVSPropertyOp19
 70
     1
102
RTVSPropertyOp20
 70
     1
102
RTVSPropertyOp21
 70
     1
102
RTVSPropertyOp22
 70
     1
102
RTVSPropertyOp23
 70
     1
102
RTVSPropertyOp24
 70
     1
102
RTVSPropertyOp25
 70
     1
102
RTVSPropertyOp26
 70
     1
102
RTVSPropertyOp27
 70
     1
102
RTVSPropertyOp28
 70
     1
102
RTVSPropertyOp29
 70
     1
102
RTVSPropertyOp30
 70
     1
102
RTVSPropertyOp31
 70
     1
102
RTVSPropertyOp32
 70
     1
102
RTVSPropertyOp33
 70
     1
102
RTVSPropertyOp34
 70
     1
102
RTVSPropertyOp35
 70
     1
102
RTVSPropertyOp36
 70
     1
102
RTVSPropertyOp37
 70
     1
102
RTVSPropertyOp38
 70
     1
102
RTVSPropertyOp39
 70
     1
102
RTVSPropertyOp40
 70
     1
102
RTVSPropertyOp41
 70
     1
102
RTVSPropertyOp42
 70
     1
102
RTVSPropertyOp43
 70
     1
102
RTVSPropertyOp44
 70
     1
102
RTVSPropertyOp45
 70
     1
102
RTVSPropertyOp46
 70
     1
102
RTVSPropertyOp47
 70
     1
102
RTVSPropertyOp48
 70
     1
102
RTVSPropertyOp49
 70
     1
102
RTVSPropertyOp50
 70
     1
102
RTVSPropertyOp51
 70
     0
102
RTVSPropertyOp52
 70
     0
102
RTVSPropertyOp53
 70
     1
102
RTVSPropertyOp54
 70
     1
102
RTVSPropertyOp55
 70
     1
102
RTVSPropertyOp56
 70
     1
102
RTVSPropertyOp57
 70
     1
102
RTVSPropertyOp58
 70
     1
102
RTVSPropertyOp59
 70
     1
102
RTVSPropertyOp60
 70
     1
102
RTVSPropertyOp61
 70
     1
102
RTVSPropertyOp62
 70
     1
  0
XRECORD
  5
736
102
{ACAD_REACTORS
330
735
102
}
330
735
100
AcDbXrecord
280
     1
102
RTVSPost2010Prop28
280
     0
102
RTVSPost2010PropOp28
 70
     1
102
RTVSPost2010Prop29
280
     1
102
RTVSPost2010PropOp29
 70
     1
102
RTVSPost2010Prop30
280
     1
102
RTVSPost2010PropOp30
 70
     1
102
RTVSPost2010Prop31
280
     0
102
RTVSPost2010PropOp31
 70
     1
102
RTVSPost2010Prop32
280
     0
102
RTVSPost2010PropOp32
 70
     1
102
RTVSPost2010Prop33
280
     0
102
RTVSPost2010PropOp33
 70
     1
102
RTVSPost2010Prop34
280
     0
102
RTVSPost2010PropOp34
 70
     1
102
RTVSPost2010Prop35
280
     0
102
RTVSPost2010PropOp35
 70
     1
102
RTVSPost2010Prop36
280
     0
102
RTVSPost2010PropOp36
 70
     1
102
RTVSPost2010Prop37
 90
       50
102
RTVSPost2010PropOp37
 70
     1
102
RTVSPost2010Prop38
140
0.0
102
RTVSPost2010PropOp38
 70
     1
102
RTVSPost2010Prop39
140
1.0
102
RTVSPost2010PropOp39
 70
     1
102
RTVSPost2010Prop40
 90
        0
102
RTVSPost2010PropOp40
 70
     1
102
RTVSPost2010Prop41ColorIndex
 90
       18
102
RTVSPost2010Prop41ColorRGB
 90
        0
102
RTVSPost2010PropOp41
 70
     1
102
RTVSPost2010Prop42
 90
       50
102
RTVSPost2010PropOp42
 70
     1
102
RTVSPost2010Prop43
 90
        3
102
RTVSPost2010PropOp43
 70
     1
102
RTVSPost2010Prop44ColorIndex
 90
        5
102
RTVSPost2010Prop44ColorRGB
 90
      255
102
RTVSPost2010PropOp44
 70
     1
102
RTVSPost2010Prop45
280
     0
102
RTVSPost2010PropOp45
 70
     1
102
RTVSPost2010Prop46
 90
       50
102
RTVSPost2010PropOp46
 70
     1
102
RTVSPost2010Prop47
 90
       50
102
RTVSPost2010PropOp47
 70
     1
102
RTVSPost2010Prop48
 90
       50
102
RTVSPost2010PropOp48
 70
     1
102
RTVSPost2010Prop49
280
     0
102
RTVSPost2010PropOp49
 70
     1
102
RTVSPost2010Prop50
 90
       50
102
RTVSPost2010PropOp50
 70
     1
102
RTVSPost2010Prop51ColorIndex
 90
      256
102
RTVSPost2010Prop51ColorRGB
 90
-16777216
102
RTVSPost2010PropOp51
 70
     0
102
RTVSPost2010Prop52
140
1.0
102
RTVSPost2010PropOp52
 70
     0
102
RTVSPost2010Prop53
 90
        2
102
RTVSPost2010PropOp53
 70
     1
102
RTVSPost2010Prop54
  1
strokes_ogs.tif
102
RTVSPost2010PropOp54
 70
     1
102
RTVSPost2010Prop55
280
     0
102
RTVSPost2010PropOp55
 70
     1
102
RTVSPost2010Prop56
140
1.0
102
RTVSPost2010PropOp56
 70
     1
102
RTVSPost2010Prop57
140
1.0
102
RTVSPost2010PropOp57
 70
     1
102
RTVSPropertyOp0
 70
     1
102
RTVSPropertyOp1
 70
     1
102
RTVSPropertyOp2
 70
     1
102
RTVSPropertyOp3
 70
     1
102
RTVSPropertyOp4
 70
     1
102
RTVSPropertyOp5
 70
     1
102
RTVSPropertyOp6
 70
     1
102
RTVSPropertyOp7
 70
     1
102
RTVSPropertyOp8
 70
     1
102
RTVSPropertyOp9
 70
     1
102
RTVSPropertyOp10
 70
     1
102
RTVSPropertyOp11
 70
     1
102
RTVSPropertyOp12
 70
     1
102
RTVSPropertyOp13
 70
     1
102
RTVSPropertyOp14
 70
     1
102
RTVSPropertyOp15
 70
     1
102
RTVSPropertyOp16
 70
     1
102
RTVSPropertyOp17
 70
     1
102
RTVSPropertyOp18
 70
     1
102
RTVSPropertyOp19
 70
     1
102
RTVSPropertyOp20
 70
     1
102
RTVSPropertyOp21
 70
     1
102
RTVSPropertyOp22
 70
     1
102
RTVSPropertyOp23
 70
     1
102
RTVSPropertyOp24
 70
     1
102
RTVSPropertyOp25
 70
     1
102
RTVSPropertyOp26
 70
     1
102
RTVSPropertyOp27
 70
     1
102
RTVSPropertyOp28
 70
     1
102
RTVSPropertyOp29
 70
     1
102
RTVSPropertyOp30
 70
     1
102
RTVSPropertyOp31
 70
     1
102
RTVSPropertyOp32
 70
     1
102
RTVSPropertyOp33
 70
     1
102
RTVSPropertyOp34
 70
     1
102
RTVSPropertyOp35
 70
     1
102
RTVSPropertyOp36
 70
     1
102
RTVSPropertyOp37
 70
     1
102
RTVSPropertyOp38
 70
     1
102
RTVSPropertyOp39
 70
     1
102
RTVSPropertyOp40
 70
     1
102
RTVSPropertyOp41
 70
     1
102
RTVSPropertyOp42
 70
     1
102
RTVSPropertyOp43
 70
     1
102
RTVSPropertyOp44
 70
     1
102
RTVSPropertyOp45
 70
     1
102
RTVSPropertyOp46
 70
     1
102
RTVSPropertyOp47
 70
     1
102
RTVSPropertyOp48
 70
     1
102
RTVSPropertyOp49
 70
     1
102
RTVSPropertyOp50
 70
     1
102
RTVSPropertyOp51
 70
     0
102
RTVSPropertyOp52
 70
     0
102
RTVSPropertyOp53
 70
     1
102
RTVSPropertyOp54
 70
     1
102
RTVSPropertyOp55
 70
     1
102
RTVSPropertyOp56
 70
     1
102
RTVSPropertyOp57
 70
     1
102
RTVSPropertyOp58
 70
     1
102
RTVSPropertyOp59
 70
     1
102
RTVSPropertyOp60
 70
     1
102
RTVSPropertyOp61
 70
     1
102
RTVSPropertyOp62
 70
     1
  0
XRECORD
  5
752
102
{ACAD_REACTORS
330
751
102
}
330
751
100
AcDbXrecord
280
     1
102
RTVSPost2010Prop28
280
     0
102
RTVSPost2010PropOp28
 70
     1
102
RTVSPost2010Prop29
280
     1
102
RTVSPost2010PropOp29
 70
     1
102
RTVSPost2010Prop30
280
     1
102
RTVSPost2010PropOp30
 70
     1
102
RTVSPost2010Prop31
280
     0
102
RTVSPost2010PropOp31
 70
     1
102
RTVSPost2010Prop32
280
     0
102
RTVSPost2010PropOp32
 70
     1
102
RTVSPost2010Prop33
280
     0
102
RTVSPost2010PropOp33
 70
     1
102
RTVSPost2010Prop34
280
     0
102
RTVSPost2010PropOp34
 70
     1
102
RTVSPost2010Prop35
280
     0
102
RTVSPost2010PropOp35
 70
     1
102
RTVSPost2010Prop36
280
     0
102
RTVSPost2010PropOp36
 70
     1
102
RTVSPost2010Prop37
 90
       50
102
RTVSPost2010PropOp37
 70
     0
102
RTVSPost2010Prop38
140
0.0
102
RTVSPost2010PropOp38
 70
     0
102
RTVSPost2010Prop39
140
1.0
102
RTVSPost2010PropOp39
 70
     0
102
RTVSPost2010Prop40
 90
        0
102
RTVSPost2010PropOp40
 70
     0
102
RTVSPost2010Prop41ColorIndex
 90
       18
102
RTVSPost2010Prop41ColorRGB
 90
        0
102
RTVSPost2010PropOp41
 70
     0
102
RTVSPost2010Prop42
 90
       50
102
RTVSPost2010PropOp42
 70
     0
102
RTVSPost2010Prop43
 90
        3
102
RTVSPost2010PropOp43
 70
     0
102
RTVSPost2010Prop44ColorIndex
 90
        5
102
RTVSPost2010Prop44ColorRGB
 90
      255
102
RTVSPost2010PropOp44
 70
     0
102
RTVSPost2010Prop45
280
     0
102
RTVSPost2010PropOp45
 70
     1
102
RTVSPost2010Prop46
 90
       50
102
RTVSPost2010PropOp46
 70
     0
102
RTVSPost2010Prop47
 90
       50
102
RTVSPost2010PropOp47
 70
     0
102
RTVSPost2010Prop48
 90
       50
102
RTVSPost2010PropOp48
 70
     0
102
RTVSPost2010Prop49
280
     0
102
RTVSPost2010PropOp49
 70
     1
102
RTVSPost2010Prop50
 90
       50
102
RTVSPost2010PropOp50
 70
     0
102
RTVSPost2010Prop51ColorIndex
 90
      256
102
RTVSPost2010Prop51ColorRGB
 90
-16777216
102
RTVSPost2010PropOp51
 70
     0
102
RTVSPost2010Prop52
140
1.0
102
RTVSPost2010PropOp52
 70
     0
102
RTVSPost2010Prop53
 90
        2
102
RTVSPost2010PropOp53
 70
     0
102
RTVSPost2010Prop54
  1
strokes_ogs.tif
102
RTVSPost2010PropOp54
 70
     0
102
RTVSPost2010Prop55
280
     0
102
RTVSPost2010PropOp55
 70
     1
102
RTVSPost2010Prop56
140
1.0
102
RTVSPost2010PropOp56
 70
     0
102
RTVSPost2010Prop57
140
1.0
102
RTVSPost2010PropOp57
 70
     0
102
RTVSPropertyOp0
 70
     0
102
RTVSPropertyOp1
 70
     0
102
RTVSPropertyOp2
 70
     0
102
RTVSPropertyOp3
 70
     0
102
RTVSPropertyOp4
 70
     0
102
RTVSPropertyOp5
 70
     0
102
RTVSPropertyOp6
 70
     0
102
RTVSPropertyOp7
 70
     0
102
RTVSPropertyOp8
 70
     0
102
RTVSPropertyOp9
 70
     0
102
RTVSPropertyOp10
 70
     0
102
RTVSPropertyOp11
 70
     0
102
RTVSPropertyOp12
 70
     0
102
RTVSPropertyOp13
 70
     0
102
RTVSPropertyOp14
 70
     2
102
RTVSPropertyOp15
 70
     0
102
RTVSPropertyOp16
 70
     0
102
RTVSPropertyOp17
 70
     0
102
RTVSPropertyOp18
 70
     0
102
RTVSPropertyOp19
 70
     0
102
RTVSPropertyOp20
 70
     0
102
RTVSPropertyOp21
 70
     0
102
RTVSPropertyOp22
 70
     0
102
RTVSPropertyOp23
 70
     0
102
RTVSPropertyOp24
 70
     0
102
RTVSPropertyOp25
 70
     0
102
RTVSPropertyOp26
 70
     0
102
RTVSPropertyOp27
 70
     0
102
RTVSPropertyOp28
 70
     1
102
RTVSPropertyOp29
 70
     1
102
RTVSPropertyOp30
 70
     1
102
RTVSPropertyOp31
 70
     1
102
RTVSPropertyOp32
 70
     1
102
RTVSPropertyOp33
 70
     1
102
RTVSPropertyOp34
 70
     1
102
RTVSPropertyOp35
 70
     1
102
RTVSPropertyOp36
 70
     1
102
RTVSPropertyOp37
 70
     0
102
RTVSPropertyOp38
 70
     0
102
RTVSPropertyOp39
 70
     0
102
RTVSPropertyOp40
 70
     0
102
RTVSPropertyOp41
 70
     0
102
RTVSPropertyOp42
 70
     0
102
RTVSPropertyOp43
 70
     0
102
RTVSPropertyOp44
 70
     0
102
RTVSPropertyOp45
 70
     1
102
RTVSPropertyOp46
 70
     0
102
RTVSPropertyOp47
 70
     0
102
RTVSPropertyOp48
 70
     0
102
RTVSPropertyOp49
 70
     1
102
RTVSPropertyOp50
 70
     0
102
RTVSPropertyOp51
 70
     0
102
RTVSPropertyOp52
 70
     0
102
RTVSPropertyOp53
 70
     0
102
RTVSPropertyOp54
 70
     0
102
RTVSPropertyOp55
 70
     1
102
RTVSPropertyOp56
 70
     0
102
RTVSPropertyOp57
 70
     0
102
RTVSPropertyOp58
 70
     0
102
RTVSPropertyOp59
 70
     0
102
RTVSPropertyOp60
 70
     0
102
RTVSPropertyOp61
 70
     0
102
RTVSPropertyOp62
 70
     0
  0
XRECORD
  5
742
102
{ACAD_REACTORS
330
741
102
}
330
741
100
AcDbXrecord
280
     1
102
RTVSPost2010Prop28
280
     0
102
RTVSPost2010PropOp28
 70
     1
102
RTVSPost2010Prop29
280
     1
102
RTVSPost2010PropOp29
 70
     1
102
RTVSPost2010Prop30
280
     1
102
RTVSPost2010PropOp30
 70
     1
102
RTVSPost2010Prop31
280
     0
102
RTVSPost2010PropOp31
 70
     1
102
RTVSPost2010Prop32
280
     0
102
RTVSPost2010PropOp32
 70
     1
102
RTVSPost2010Prop33
280
     0
102
RTVSPost2010PropOp33
 70
     1
102
RTVSPost2010Prop34
280
     0
102
RTVSPost2010PropOp34
 70
     1
102
RTVSPost2010Prop35
280
     0
102
RTVSPost2010PropOp35
 70
     1
102
RTVSPost2010Prop36
280
     0
102
RTVSPost2010PropOp36
 70
     1
102
RTVSPost2010Prop37
 90
       50
102
RTVSPost2010PropOp37
 70
     1
102
RTVSPost2010Prop38
140
0.0
102
RTVSPost2010PropOp38
 70
     1
102
RTVSPost2010Prop39
140
1.0
102
RTVSPost2010PropOp39
 70
     1
102
RTVSPost2010Prop40
 90
        0
102
RTVSPost2010PropOp40
 70
     1
102
RTVSPost2010Prop41ColorIndex
 90
       18
102
RTVSPost2010Prop41ColorRGB
 90
        0
102
RTVSPost2010PropOp41
 70
     1
102
RTVSPost2010Prop42
 90
       50
102
RTVSPost2010PropOp42
 70
     1
102
RTVSPost2010Prop43
 90
        3
102
RTVSPost2010PropOp43
 70
     1
102
RTVSPost2010Prop44ColorIndex
 90
        5
102
RTVSPost2010Prop44ColorRGB
 90
      255
102
RTVSPost2010PropOp44
 70
     1
102
RTVSPost2010Prop45
280
     0
102
RTVSPost2010PropOp45
 70
     1
102
RTVSPost2010Prop46
 90
       50
102
RTVSPost2010PropOp46
 70
     1
102
RTVSPost2010Prop47
 90
       50
102
RTVSPost2010PropOp47
 70
     1
102
RTVSPost2010Prop48
 90
       50
102
RTVSPost2010PropOp48
 70
     1
102
RTVSPost2010Prop49
280
     0
102
RTVSPost2010PropOp49
 70
     1
102
RTVSPost2010Prop50
 90
       50
102
RTVSPost2010PropOp50
 70
     1
102
RTVSPost2010Prop51ColorIndex
 90
      256
102
RTVSPost2010Prop51ColorRGB
 90
-16777216
102
RTVSPost2010PropOp51
 70
     0
102
RTVSPost2010Prop52
140
1.0
102
RTVSPost2010PropOp52
 70
     0
102
RTVSPost2010Prop53
 90
        2
102
RTVSPost2010PropOp53
 70
     1
102
RTVSPost2010Prop54
  1
strokes_ogs.tif
102
RTVSPost2010PropOp54
 70
     1
102
RTVSPost2010Prop55
280
     0
102
RTVSPost2010PropOp55
 70
     1
102
RTVSPost2010Prop56
140
1.0
102
RTVSPost2010PropOp56
 70
     1
102
RTVSPost2010Prop57
140
1.0
102
RTVSPost2010PropOp57
 70
     1
102
RTVSPropertyOp0
 70
     1
102
RTVSPropertyOp1
 70
     1
102
RTVSPropertyOp2
 70
     1
102
RTVSPropertyOp3
 70
     1
102
RTVSPropertyOp4
 70
     1
102
RTVSPropertyOp5
 70
     1
102
RTVSPropertyOp6
 70
     1
102
RTVSPropertyOp7
 70
     1
102
RTVSPropertyOp8
 70
     1
102
RTVSPropertyOp9
 70
     1
102
RTVSPropertyOp10
 70
     1
102
RTVSPropertyOp11
 70
     1
102
RTVSPropertyOp12
 70
     1
102
RTVSPropertyOp13
 70
     1
102
RTVSPropertyOp14
 70
     1
102
RTVSPropertyOp15
 70
     1
102
RTVSPropertyOp16
 70
     1
102
RTVSPropertyOp17
 70
     1
102
RTVSPropertyOp18
 70
     1
102
RTVSPropertyOp19
 70
     1
102
RTVSPropertyOp20
 70
     1
102
RTVSPropertyOp21
 70
     1
102
RTVSPropertyOp22
 70
     1
102
RTVSPropertyOp23
 70
     1
102
RTVSPropertyOp24
 70
     1
102
RTVSPropertyOp25
 70
     1
102
RTVSPropertyOp26
 70
     1
102
RTVSPropertyOp27
 70
     1
102
RTVSPropertyOp28
 70
     1
102
RTVSPropertyOp29
 70
     1
102
RTVSPropertyOp30
 70
     1
102
RTVSPropertyOp31
 70
     1
102
RTVSPropertyOp32
 70
     1
102
RTVSPropertyOp33
 70
     1
102
RTVSPropertyOp34
 70
     1
102
RTVSPropertyOp35
 70
     1
102
RTVSPropertyOp36
 70
     1
102
RTVSPropertyOp37
 70
     1
102
RTVSPropertyOp38
 70
     1
102
RTVSPropertyOp39
 70
     1
102
RTVSPropertyOp40
 70
     1
102
RTVSPropertyOp41
 70
     1
102
RTVSPropertyOp42
 70
     1
102
RTVSPropertyOp43
 70
     1
102
RTVSPropertyOp44
 70
     1
102
RTVSPropertyOp45
 70
     1
102
RTVSPropertyOp46
 70
     1
102
RTVSPropertyOp47
 70
     1
102
RTVSPropertyOp48
 70
     1
102
RTVSPropertyOp49
 70
     1
102
RTVSPropertyOp50
 70
     1
102
RTVSPropertyOp51
 70
     0
102
RTVSPropertyOp52
 70
     0
102
RTVSPropertyOp53
 70
     1
102
RTVSPropertyOp54
 70
     1
102
RTVSPropertyOp55
 70
     1
102
RTVSPropertyOp56
 70
     1
102
RTVSPropertyOp57
 70
     1
102
RTVSPropertyOp58
 70
     1
102
RTVSPropertyOp59
 70
     1
102
RTVSPropertyOp60
 70
     1
102
RTVSPropertyOp61
 70
     1
102
RTVSPropertyOp62
 70
     1
  0
XRECORD
  5
754
102
{ACAD_REACTORS
330
753
102
}
330
753
100
AcDbXrecord
280
     1
102
RTVSPost2010Prop28
280
     0
102
RTVSPost2010PropOp28
 70
     1
102
RTVSPost2010Prop29
280
     1
102
RTVSPost2010PropOp29
 70
     1
102
RTVSPost2010Prop30
280
     1
102
RTVSPost2010PropOp30
 70
     1
102
RTVSPost2010Prop31
280
     0
102
RTVSPost2010PropOp31
 70
     1
102
RTVSPost2010Prop32
280
     0
102
RTVSPost2010PropOp32
 70
     1
102
RTVSPost2010Prop33
280
     0
102
RTVSPost2010PropOp33
 70
     1
102
RTVSPost2010Prop34
280
     0
102
RTVSPost2010PropOp34
 70
     1
102
RTVSPost2010Prop35
280
     0
102
RTVSPost2010PropOp35
 70
     1
102
RTVSPost2010Prop36
280
     0
102
RTVSPost2010PropOp36
 70
     1
102
RTVSPost2010Prop37
 90
       50
102
RTVSPost2010PropOp37
 70
     0
102
RTVSPost2010Prop38
140
0.0
102
RTVSPost2010PropOp38
 70
     0
102
RTVSPost2010Prop39
140
1.0
102
RTVSPost2010PropOp39
 70
     0
102
RTVSPost2010Prop40
 90
        0
102
RTVSPost2010PropOp40
 70
     0
102
RTVSPost2010Prop41ColorIndex
 90
       18
102
RTVSPost2010Prop41ColorRGB
 90
        0
102
RTVSPost2010PropOp41
 70
     0
102
RTVSPost2010Prop42
 90
       50
102
RTVSPost2010PropOp42
 70
     0
102
RTVSPost2010Prop43
 90
        3
102
RTVSPost2010PropOp43
 70
     0
102
RTVSPost2010Prop44ColorIndex
 90
        5
102
RTVSPost2010Prop44ColorRGB
 90
      255
102
RTVSPost2010PropOp44
 70
     0
102
RTVSPost2010Prop45
280
     0
102
RTVSPost2010PropOp45
 70
     1
102
RTVSPost2010Prop46
 90
       50
102
RTVSPost2010PropOp46
 70
     0
102
RTVSPost2010Prop47
 90
       50
102
RTVSPost2010PropOp47
 70
     0
102
RTVSPost2010Prop48
 90
       50
102
RTVSPost2010PropOp48
 70
     0
102
RTVSPost2010Prop49
280
     0
102
RTVSPost2010PropOp49
 70
     1
102
RTVSPost2010Prop50
 90
       50
102
RTVSPost2010PropOp50
 70
     0
102
RTVSPost2010Prop51ColorIndex
 90
      256
102
RTVSPost2010Prop51ColorRGB
 90
-16777216
102
RTVSPost2010PropOp51
 70
     0
102
RTVSPost2010Prop52
140
1.0
102
RTVSPost2010PropOp52
 70
     0
102
RTVSPost2010Prop53
 90
        2
102
RTVSPost2010PropOp53
 70
     0
102
RTVSPost2010Prop54
  1
strokes_ogs.tif
102
RTVSPost2010PropOp54
 70
     0
102
RTVSPost2010Prop55
280
     0
102
RTVSPost2010PropOp55
 70
     1
102
RTVSPost2010Prop56
140
1.0
102
RTVSPost2010PropOp56
 70
     0
102
RTVSPost2010Prop57
140
1.0
102
RTVSPost2010PropOp57
 70
     0
102
RTVSPropertyOp0
 70
     0
102
RTVSPropertyOp1
 70
     0
102
RTVSPropertyOp2
 70
     0
102
RTVSPropertyOp3
 70
     0
102
RTVSPropertyOp4
 70
     0
102
RTVSPropertyOp5
 70
     0
102
RTVSPropertyOp6
 70
     0
102
RTVSPropertyOp7
 70
     0
102
RTVSPropertyOp8
 70
     0
102
RTVSPropertyOp9
 70
     0
102
RTVSPropertyOp10
 70
     0
102
RTVSPropertyOp11
 70
     0
102
RTVSPropertyOp12
 70
     0
102
RTVSPropertyOp13
 70
     0
102
RTVSPropertyOp14
 70
     2
102
RTVSPropertyOp15
 70
     0
102
RTVSPropertyOp16
 70
     0
102
RTVSPropertyOp17
 70
     0
102
RTVSPropertyOp18
 70
     0
102
RTVSPropertyOp19
 70
     0
102
RTVSPropertyOp20
 70
     0
102
RTVSPropertyOp21
 70
     0
102
RTVSPropertyOp22
 70
     0
102
RTVSPropertyOp23
 70
     0
102
RTVSPropertyOp24
 70
     0
102
RTVSPropertyOp25
 70
     0
102
RTVSPropertyOp26
 70
     0
102
RTVSPropertyOp27
 70
     0
102
RTVSPropertyOp28
 70
     1
102
RTVSPropertyOp29
 70
     1
102
RTVSPropertyOp30
 70
     1
102
RTVSPropertyOp31
 70
     1
102
RTVSPropertyOp32
 70
     1
102
RTVSPropertyOp33
 70
     1
102
RTVSPropertyOp34
 70
     1
102
RTVSPropertyOp35
 70
     1
102
RTVSPropertyOp36
 70
     1
102
RTVSPropertyOp37
 70
     0
102
RTVSPropertyOp38
 70
     0
102
RTVSPropertyOp39
 70
     0
102
RTVSPropertyOp40
 70
     0
102
RTVSPropertyOp41
 70
     0
102
RTVSPropertyOp42
 70
     0
102
RTVSPropertyOp43
 70
     0
102
RTVSPropertyOp44
 70
     0
102
RTVSPropertyOp45
 70
     1
102
RTVSPropertyOp46
 70
     0
102
RTVSPropertyOp47
 70
     0
102
RTVSPropertyOp48
 70
     0
102
RTVSPropertyOp49
 70
     1
102
RTVSPropertyOp50
 70
     0
102
RTVSPropertyOp51
 70
     0
102
RTVSPropertyOp52
 70
     0
102
RTVSPropertyOp53
 70
     0
102
RTVSPropertyOp54
 70
     0
102
RTVSPropertyOp55
 70
     1
102
RTVSPropertyOp56
 70
     0
102
RTVSPropertyOp57
 70
     0
102
RTVSPropertyOp58
 70
     0
102
RTVSPropertyOp59
 70
     0
102
RTVSPropertyOp60
 70
     0
102
RTVSPropertyOp61
 70
     0
102
RTVSPropertyOp62
 70
     0
  0
XRECORD
  5
73A
102
{ACAD_REACTORS
330
739
102
}
330
739
100
AcDbXrecord
280
     1
102
RTVSPost2010Prop28
280
     0
102
RTVSPost2010PropOp28
 70
     1
102
RTVSPost2010Prop29
280
     1
102
RTVSPost2010PropOp29
 70
     1
102
RTVSPost2010Prop30
280
     1
102
RTVSPost2010PropOp30
 70
     1
102
RTVSPost2010Prop31
280
     0
102
RTVSPost2010PropOp31
 70
     1
102
RTVSPost2010Prop32
280
     0
102
RTVSPost2010PropOp32
 70
     1
102
RTVSPost2010Prop33
280
     0
102
RTVSPost2010PropOp33
 70
     1
102
RTVSPost2010Prop34
280
     0
102
RTVSPost2010PropOp34
 70
     1
102
RTVSPost2010Prop35
280
     0
102
RTVSPost2010PropOp35
 70
     1
102
RTVSPost2010Prop36
280
     0
102
RTVSPost2010PropOp36
 70
     1
102
RTVSPost2010Prop37
 90
       50
102
RTVSPost2010PropOp37
 70
     1
102
RTVSPost2010Prop38
140
0.0
102
RTVSPost2010PropOp38
 70
     1
102
RTVSPost2010Prop39
140
1.0
102
RTVSPost2010PropOp39
 70
     1
102
RTVSPost2010Prop40
 90
        0
102
RTVSPost2010PropOp40
 70
     1
102
RTVSPost2010Prop41ColorIndex
 90
       18
102
RTVSPost2010Prop41ColorRGB
 90
        0
102
RTVSPost2010PropOp41
 70
     1
102
RTVSPost2010Prop42
 90
       50
102
RTVSPost2010PropOp42
 70
     1
102
RTVSPost2010Prop43
 90
        3
102
RTVSPost2010PropOp43
 70
     1
102
RTVSPost2010Prop44ColorIndex
 90
        5
102
RTVSPost2010Prop44ColorRGB
 90
      255
102
RTVSPost2010PropOp44
 70
     1
102
RTVSPost2010Prop45
280
     0
102
RTVSPost2010PropOp45
 70
     1
102
RTVSPost2010Prop46
 90
       50
102
RTVSPost2010PropOp46
 70
     1
102
RTVSPost2010Prop47
 90
       50
102
RTVSPost2010PropOp47
 70
     1
102
RTVSPost2010Prop48
 90
       50
102
RTVSPost2010PropOp48
 70
     1
102
RTVSPost2010Prop49
280
     0
102
RTVSPost2010PropOp49
 70
     1
102
RTVSPost2010Prop50
 90
       50
102
RTVSPost2010PropOp50
 70
     1
102
RTVSPost2010Prop51ColorIndex
 90
      256
102
RTVSPost2010Prop51ColorRGB
 90
-16777216
102
RTVSPost2010PropOp51
 70
     0
102
RTVSPost2010Prop52
140
1.0
102
RTVSPost2010PropOp52
 70
     0
102
RTVSPost2010Prop53
 90
        2
102
RTVSPost2010PropOp53
 70
     1
102
RTVSPost2010Prop54
  1
strokes_ogs.tif
102
RTVSPost2010PropOp54
 70
     1
102
RTVSPost2010Prop55
280
     0
102
RTVSPost2010PropOp55
 70
     1
102
RTVSPost2010Prop56
140
1.0
102
RTVSPost2010PropOp56
 70
     1
102
RTVSPost2010Prop57
140
1.0
102
RTVSPost2010PropOp57
 70
     1
102
RTVSPropertyOp0
 70
     1
102
RTVSPropertyOp1
 70
     1
102
RTVSPropertyOp2
 70
     1
102
RTVSPropertyOp3
 70
     1
102
RTVSPropertyOp4
 70
     1
102
RTVSPropertyOp5
 70
     1
102
RTVSPropertyOp6
 70
     1
102
RTVSPropertyOp7
 70
     1
102
RTVSPropertyOp8
 70
     1
102
RTVSPropertyOp9
 70
     1
102
RTVSPropertyOp10
 70
     1
102
RTVSPropertyOp11
 70
     1
102
RTVSPropertyOp12
 70
     1
102
RTVSPropertyOp13
 70
     1
102
RTVSPropertyOp14
 70
     1
102
RTVSPropertyOp15
 70
     1
102
RTVSPropertyOp16
 70
     1
102
RTVSPropertyOp17
 70
     1
102
RTVSPropertyOp18
 70
     1
102
RTVSPropertyOp19
 70
     1
102
RTVSPropertyOp20
 70
     1
102
RTVSPropertyOp21
 70
     1
102
RTVSPropertyOp22
 70
     1
102
RTVSPropertyOp23
 70
     1
102
RTVSPropertyOp24
 70
     1
102
RTVSPropertyOp25
 70
     1
102
RTVSPropertyOp26
 70
     1
102
RTVSPropertyOp27
 70
     1
102
RTVSPropertyOp28
 70
     1
102
RTVSPropertyOp29
 70
     1
102
RTVSPropertyOp30
 70
     1
102
RTVSPropertyOp31
 70
     1
102
RTVSPropertyOp32
 70
     1
102
RTVSPropertyOp33
 70
     1
102
RTVSPropertyOp34
 70
     1
102
RTVSPropertyOp35
 70
     1
102
RTVSPropertyOp36
 70
     1
102
RTVSPropertyOp37
 70
     1
102
RTVSPropertyOp38
 70
     1
102
RTVSPropertyOp39
 70
     1
102
RTVSPropertyOp40
 70
     1
102
RTVSPropertyOp41
 70
     1
102
RTVSPropertyOp42
 70
     1
102
RTVSPropertyOp43
 70
     1
102
RTVSPropertyOp44
 70
     1
102
RTVSPropertyOp45
 70
     1
102
RTVSPropertyOp46
 70
     1
102
RTVSPropertyOp47
 70
     1
102
RTVSPropertyOp48
 70
     1
102
RTVSPropertyOp49
 70
     1
102
RTVSPropertyOp50
 70
     1
102
RTVSPropertyOp51
 70
     0
102
RTVSPropertyOp52
 70
     0
102
RTVSPropertyOp53
 70
     1
102
RTVSPropertyOp54
 70
     1
102
RTVSPropertyOp55
 70
     1
102
RTVSPropertyOp56
 70
     1
102
RTVSPropertyOp57
 70
     1
102
RTVSPropertyOp58
 70
     1
102
RTVSPropertyOp59
 70
     1
102
RTVSPropertyOp60
 70
     1
102
RTVSPropertyOp61
 70
     1
102
RTVSPropertyOp62
 70
     1
  0
XRECORD
  5
750
102
{ACAD_REACTORS
330
74F
102
}
330
74F
100
AcDbXrecord
280
     1
102
RTVSPost2010Prop28
280
     0
102
RTVSPost2010PropOp28
 70
     1
102
RTVSPost2010Prop29
280
     1
102
RTVSPost2010PropOp29
 70
     1
102
RTVSPost2010Prop30
280
     1
102
RTVSPost2010PropOp30
 70
     1
102
RTVSPost2010Prop31
280
     0
102
RTVSPost2010PropOp31
 70
     1
102
RTVSPost2010Prop32
280
     0
102
RTVSPost2010PropOp32
 70
     1
102
RTVSPost2010Prop33
280
     0
102
RTVSPost2010PropOp33
 70
     1
102
RTVSPost2010Prop34
280
     0
102
RTVSPost2010PropOp34
 70
     1
102
RTVSPost2010Prop35
280
     0
102
RTVSPost2010PropOp35
 70
     1
102
RTVSPost2010Prop36
280
     0
102
RTVSPost2010PropOp36
 70
     1
102
RTVSPost2010Prop37
 90
       50
102
RTVSPost2010PropOp37
 70
     1
102
RTVSPost2010Prop38
140
0.0
102
RTVSPost2010PropOp38
 70
     1
102
RTVSPost2010Prop39
140
1.0
102
RTVSPost2010PropOp39
 70
     1
102
RTVSPost2010Prop40
 90
        0
102
RTVSPost2010PropOp40
 70
     1
102
RTVSPost2010Prop41ColorIndex
 90
       18
102
RTVSPost2010Prop41ColorRGB
 90
        0
102
RTVSPost2010PropOp41
 70
     1
102
RTVSPost2010Prop42
 90
       50
102
RTVSPost2010PropOp42
 70
     1
102
RTVSPost2010Prop43
 90
        3
102
RTVSPost2010PropOp43
 70
     1
102
RTVSPost2010Prop44ColorIndex
 90
        5
102
RTVSPost2010Prop44ColorRGB
 90
      255
102
RTVSPost2010PropOp44
 70
     1
102
RTVSPost2010Prop45
280
     0
102
RTVSPost2010PropOp45
 70
     1
102
RTVSPost2010Prop46
 90
       50
102
RTVSPost2010PropOp46
 70
     1
102
RTVSPost2010Prop47
 90
       50
102
RTVSPost2010PropOp47
 70
     1
102
RTVSPost2010Prop48
 90
       50
102
RTVSPost2010PropOp48
 70
     1
102
RTVSPost2010Prop49
280
     0
102
RTVSPost2010PropOp49
 70
     1
102
RTVSPost2010Prop50
 90
       50
102
RTVSPost2010PropOp50
 70
     1
102
RTVSPost2010Prop51ColorIndex
 90
      256
102
RTVSPost2010Prop51ColorRGB
 90
-16777216
102
RTVSPost2010PropOp51
 70
     0
102
RTVSPost2010Prop52
140
1.0
102
RTVSPost2010PropOp52
 70
     0
102
RTVSPost2010Prop53
 90
        2
102
RTVSPost2010PropOp53
 70
     1
102
RTVSPost2010Prop54
  1
strokes_ogs.tif
102
RTVSPost2010PropOp54
 70
     1
102
RTVSPost2010Prop55
280
     0
102
RTVSPost2010PropOp55
 70
     1
102
RTVSPost2010Prop56
140
1.0
102
RTVSPost2010PropOp56
 70
     1
102
RTVSPost2010Prop57
140
1.0
102
RTVSPost2010PropOp57
 70
     1
102
RTVSPropertyOp0
 70
     1
102
RTVSPropertyOp1
 70
     1
102
RTVSPropertyOp2
 70
     1
102
RTVSPropertyOp3
 70
     1
102
RTVSPropertyOp4
 70
     1
102
RTVSPropertyOp5
 70
     1
102
RTVSPropertyOp6
 70
     1
102
RTVSPropertyOp7
 70
     1
102
RTVSPropertyOp8
 70
     1
102
RTVSPropertyOp9
 70
     1
102
RTVSPropertyOp10
 70
     1
102
RTVSPropertyOp11
 70
     1
102
RTVSPropertyOp12
 70
     1
102
RTVSPropertyOp13
 70
     1
102
RTVSPropertyOp14
 70
     1
102
RTVSPropertyOp15
 70
     1
102
RTVSPropertyOp16
 70
     1
102
RTVSPropertyOp17
 70
     1
102
RTVSPropertyOp18
 70
     1
102
RTVSPropertyOp19
 70
     1
102
RTVSPropertyOp20
 70
     1
102
RTVSPropertyOp21
 70
     1
102
RTVSPropertyOp22
 70
     1
102
RTVSPropertyOp23
 70
     1
102
RTVSPropertyOp24
 70
     1
102
RTVSPropertyOp25
 70
     1
102
RTVSPropertyOp26
 70
     1
102
RTVSPropertyOp27
 70
     1
102
RTVSPropertyOp28
 70
     1
102
RTVSPropertyOp29
 70
     1
102
RTVSPropertyOp30
 70
     1
102
RTVSPropertyOp31
 70
     1
102
RTVSPropertyOp32
 70
     1
102
RTVSPropertyOp33
 70
     1
102
RTVSPropertyOp34
 70
     1
102
RTVSPropertyOp35
 70
     1
102
RTVSPropertyOp36
 70
     1
102
RTVSPropertyOp37
 70
     1
102
RTVSPropertyOp38
 70
     1
102
RTVSPropertyOp39
 70
     1
102
RTVSPropertyOp40
 70
     1
102
RTVSPropertyOp41
 70
     1
102
RTVSPropertyOp42
 70
     1
102
RTVSPropertyOp43
 70
     1
102
RTVSPropertyOp44
 70
     1
102
RTVSPropertyOp45
 70
     1
102
RTVSPropertyOp46
 70
     1
102
RTVSPropertyOp47
 70
     1
102
RTVSPropertyOp48
 70
     1
102
RTVSPropertyOp49
 70
     1
102
RTVSPropertyOp50
 70
     1
102
RTVSPropertyOp51
 70
     0
102
RTVSPropertyOp52
 70
     0
102
RTVSPropertyOp53
 70
     1
102
RTVSPropertyOp54
 70
     1
102
RTVSPropertyOp55
 70
     1
102
RTVSPropertyOp56
 70
     1
102
RTVSPropertyOp57
 70
     1
102
RTVSPropertyOp58
 70
     1
102
RTVSPropertyOp59
 70
     1
102
RTVSPropertyOp60
 70
     1
102
RTVSPropertyOp61
 70
     1
102
RTVSPropertyOp62
 70
     1
  0
XRECORD
  5
74E
102
{ACAD_REACTORS
330
74D
102
}
330
74D
100
AcDbXrecord
280
     1
102
RTVSPost2010Prop28
280
     0
102
RTVSPost2010PropOp28
 70
     1
102
RTVSPost2010Prop29
280
     1
102
RTVSPost2010PropOp29
 70
     1
102
RTVSPost2010Prop30
280
     1
102
RTVSPost2010PropOp30
 70
     1
102
RTVSPost2010Prop31
280
     0
102
RTVSPost2010PropOp31
 70
     1
102
RTVSPost2010Prop32
280
     0
102
RTVSPost2010PropOp32
 70
     1
102
RTVSPost2010Prop33
280
     0
102
RTVSPost2010PropOp33
 70
     1
102
RTVSPost2010Prop34
280
     0
102
RTVSPost2010PropOp34
 70
     1
102
RTVSPost2010Prop35
280
     0
102
RTVSPost2010PropOp35
 70
     1
102
RTVSPost2010Prop36
280
     0
102
RTVSPost2010PropOp36
 70
     1
102
RTVSPost2010Prop37
 90
       50
102
RTVSPost2010PropOp37
 70
     1
102
RTVSPost2010Prop38
140
0.0
102
RTVSPost2010PropOp38
 70
     1
102
RTVSPost2010Prop39
140
1.0
102
RTVSPost2010PropOp39
 70
     1
102
RTVSPost2010Prop40
 90
        0
102
RTVSPost2010PropOp40
 70
     1
102
RTVSPost2010Prop41ColorIndex
 90
       18
102
RTVSPost2010Prop41ColorRGB
 90
        0
102
RTVSPost2010PropOp41
 70
     1
102
RTVSPost2010Prop42
 90
       50
102
RTVSPost2010PropOp42
 70
     1
102
RTVSPost2010Prop43
 90
        3
102
RTVSPost2010PropOp43
 70
     1
102
RTVSPost2010Prop44ColorIndex
 90
        5
102
RTVSPost2010Prop44ColorRGB
 90
      255
102
RTVSPost2010PropOp44
 70
     1
102
RTVSPost2010Prop45
280
     0
102
RTVSPost2010PropOp45
 70
     1
102
RTVSPost2010Prop46
 90
       50
102
RTVSPost2010PropOp46
 70
     1
102
RTVSPost2010Prop47
 90
       50
102
RTVSPost2010PropOp47
 70
     1
102
RTVSPost2010Prop48
 90
       50
102
RTVSPost2010PropOp48
 70
     1
102
RTVSPost2010Prop49
280
     0
102
RTVSPost2010PropOp49
 70
     1
102
RTVSPost2010Prop50
 90
       50
102
RTVSPost2010PropOp50
 70
     1
102
RTVSPost2010Prop51ColorIndex
 90
      256
102
RTVSPost2010Prop51ColorRGB
 90
-16777216
102
RTVSPost2010PropOp51
 70
     0
102
RTVSPost2010Prop52
140
1.0
102
RTVSPost2010PropOp52
 70
     0
102
RTVSPost2010Prop53
 90
        2
102
RTVSPost2010PropOp53
 70
     1
102
RTVSPost2010Prop54
  1
strokes_ogs.tif
102
RTVSPost2010PropOp54
 70
     1
102
RTVSPost2010Prop55
280
     0
102
RTVSPost2010PropOp55
 70
     1
102
RTVSPost2010Prop56
140
1.0
102
RTVSPost2010PropOp56
 70
     1
102
RTVSPost2010Prop57
140
1.0
102
RTVSPost2010PropOp57
 70
     1
102
RTVSPropertyOp0
 70
     1
102
RTVSPropertyOp1
 70
     1
102
RTVSPropertyOp2
 70
     1
102
RTVSPropertyOp3
 70
     1
102
RTVSPropertyOp4
 70
     1
102
RTVSPropertyOp5
 70
     1
102
RTVSPropertyOp6
 70
     1
102
RTVSPropertyOp7
 70
     1
102
RTVSPropertyOp8
 70
     1
102
RTVSPropertyOp9
 70
     1
102
RTVSPropertyOp10
 70
     1
102
RTVSPropertyOp11
 70
     1
102
RTVSPropertyOp12
 70
     1
102
RTVSPropertyOp13
 70
     1
102
RTVSPropertyOp14
 70
     1
102
RTVSPropertyOp15
 70
     1
102
RTVSPropertyOp16
 70
     1
102
RTVSPropertyOp17
 70
     1
102
RTVSPropertyOp18
 70
     1
102
RTVSPropertyOp19
 70
     1
102
RTVSPropertyOp20
 70
     1
102
RTVSPropertyOp21
 70
     1
102
RTVSPropertyOp22
 70
     1
102
RTVSPropertyOp23
 70
     1
102
RTVSPropertyOp24
 70
     1
102
RTVSPropertyOp25
 70
     1
102
RTVSPropertyOp26
 70
     1
102
RTVSPropertyOp27
 70
     1
102
RTVSPropertyOp28
 70
     1
102
RTVSPropertyOp29
 70
     1
102
RTVSPropertyOp30
 70
     1
102
RTVSPropertyOp31
 70
     1
102
RTVSPropertyOp32
 70
     1
102
RTVSPropertyOp33
 70
     1
102
RTVSPropertyOp34
 70
     1
102
RTVSPropertyOp35
 70
     1
102
RTVSPropertyOp36
 70
     1
102
RTVSPropertyOp37
 70
     1
102
RTVSPropertyOp38
 70
     1
102
RTVSPropertyOp39
 70
     1
102
RTVSPropertyOp40
 70
     1
102
RTVSPropertyOp41
 70
     1
102
RTVSPropertyOp42
 70
     1
102
RTVSPropertyOp43
 70
     1
102
RTVSPropertyOp44
 70
     1
102
RTVSPropertyOp45
 70
     1
102
RTVSPropertyOp46
 70
     1
102
RTVSPropertyOp47
 70
     1
102
RTVSPropertyOp48
 70
     1
102
RTVSPropertyOp49
 70
     1
102
RTVSPropertyOp50
 70
     1
102
RTVSPropertyOp51
 70
     0
102
RTVSPropertyOp52
 70
     0
102
RTVSPropertyOp53
 70
     1
102
RTVSPropertyOp54
 70
     1
102
RTVSPropertyOp55
 70
     1
102
RTVSPropertyOp56
 70
     1
102
RTVSPropertyOp57
 70
     1
102
RTVSPropertyOp58
 70
     1
102
RTVSPropertyOp59
 70
     1
102
RTVSPropertyOp60
 70
     1
102
RTVSPropertyOp61
 70
     1
102
RTVSPropertyOp62
 70
     1
  0
XRECORD
  5
748
102
{ACAD_REACTORS
330
747
102
}
330
747
100
AcDbXrecord
280
     1
102
RTVSPost2010Prop28
280
     0
102
RTVSPost2010PropOp28
 70
     1
102
RTVSPost2010Prop29
280
     1
102
RTVSPost2010PropOp29
 70
     1
102
RTVSPost2010Prop30
280
     1
102
RTVSPost2010PropOp30
 70
     1
102
RTVSPost2010Prop31
280
     0
102
RTVSPost2010PropOp31
 70
     1
102
RTVSPost2010Prop32
280
     0
102
RTVSPost2010PropOp32
 70
     1
102
RTVSPost2010Prop33
280
     0
102
RTVSPost2010PropOp33
 70
     1
102
RTVSPost2010Prop34
280
     0
102
RTVSPost2010PropOp34
 70
     1
102
RTVSPost2010Prop35
280
     0
102
RTVSPost2010PropOp35
 70
     1
102
RTVSPost2010Prop36
280
     0
102
RTVSPost2010PropOp36
 70
     1
102
RTVSPost2010Prop37
 90
       50
102
RTVSPost2010PropOp37
 70
     1
102
RTVSPost2010Prop38
140
0.0
102
RTVSPost2010PropOp38
 70
     1
102
RTVSPost2010Prop39
140
1.0
102
RTVSPost2010PropOp39
 70
     1
102
RTVSPost2010Prop40
 90
        0
102
RTVSPost2010PropOp40
 70
     1
102
RTVSPost2010Prop41ColorIndex
 90
       18
102
RTVSPost2010Prop41ColorRGB
 90
        0
102
RTVSPost2010PropOp41
 70
     1
102
RTVSPost2010Prop42
 90
       50
102
RTVSPost2010PropOp42
 70
     1
102
RTVSPost2010Prop43
 90
        3
102
RTVSPost2010PropOp43
 70
     1
102
RTVSPost2010Prop44ColorIndex
 90
        5
102
RTVSPost2010Prop44ColorRGB
 90
      255
102
RTVSPost2010PropOp44
 70
     1
102
RTVSPost2010Prop45
280
     0
102
RTVSPost2010PropOp45
 70
     1
102
RTVSPost2010Prop46
 90
       50
102
RTVSPost2010PropOp46
 70
     1
102
RTVSPost2010Prop47
 90
       50
102
RTVSPost2010PropOp47
 70
     1
102
RTVSPost2010Prop48
 90
       50
102
RTVSPost2010PropOp48
 70
     1
102
RTVSPost2010Prop49
280
     0
102
RTVSPost2010PropOp49
 70
     1
102
RTVSPost2010Prop50
 90
       50
102
RTVSPost2010PropOp50
 70
     1
102
RTVSPost2010Prop51ColorIndex
 90
      256
102
RTVSPost2010Prop51ColorRGB
 90
-16777216
102
RTVSPost2010PropOp51
 70
     0
102
RTVSPost2010Prop52
140
1.0
102
RTVSPost2010PropOp52
 70
     0
102
RTVSPost2010Prop53
 90
        2
102
RTVSPost2010PropOp53
 70
     1
102
RTVSPost2010Prop54
  1
strokes_ogs.tif
102
RTVSPost2010PropOp54
 70
     1
102
RTVSPost2010Prop55
280
     0
102
RTVSPost2010PropOp55
 70
     1
102
RTVSPost2010Prop56
140
1.0
102
RTVSPost2010PropOp56
 70
     1
102
RTVSPost2010Prop57
140
1.0
102
RTVSPost2010PropOp57
 70
     1
102
RTVSPropertyOp0
 70
     1
102
RTVSPropertyOp1
 70
     1
102
RTVSPropertyOp2
 70
     1
102
RTVSPropertyOp3
 70
     1
102
RTVSPropertyOp4
 70
     1
102
RTVSPropertyOp5
 70
     1
102
RTVSPropertyOp6
 70
     1
102
RTVSPropertyOp7
 70
     1
102
RTVSPropertyOp8
 70
     1
102
RTVSPropertyOp9
 70
     1
102
RTVSPropertyOp10
 70
     1
102
RTVSPropertyOp11
 70
     1
102
RTVSPropertyOp12
 70
     1
102
RTVSPropertyOp13
 70
     1
102
RTVSPropertyOp14
 70
     1
102
RTVSPropertyOp15
 70
     1
102
RTVSPropertyOp16
 70
     1
102
RTVSPropertyOp17
 70
     1
102
RTVSPropertyOp18
 70
     1
102
RTVSPropertyOp19
 70
     1
102
RTVSPropertyOp20
 70
     1
102
RTVSPropertyOp21
 70
     1
102
RTVSPropertyOp22
 70
     1
102
RTVSPropertyOp23
 70
     1
102
RTVSPropertyOp24
 70
     1
102
RTVSPropertyOp25
 70
     1
102
RTVSPropertyOp26
 70
     1
102
RTVSPropertyOp27
 70
     1
102
RTVSPropertyOp28
 70
     1
102
RTVSPropertyOp29
 70
     1
102
RTVSPropertyOp30
 70
     1
102
RTVSPropertyOp31
 70
     1
102
RTVSPropertyOp32
 70
     1
102
RTVSPropertyOp33
 70
     1
102
RTVSPropertyOp34
 70
     1
102
RTVSPropertyOp35
 70
     1
102
RTVSPropertyOp36
 70
     1
102
RTVSPropertyOp37
 70
     1
102
RTVSPropertyOp38
 70
     1
102
RTVSPropertyOp39
 70
     1
102
RTVSPropertyOp40
 70
     1
102
RTVSPropertyOp41
 70
     1
102
RTVSPropertyOp42
 70
     1
102
RTVSPropertyOp43
 70
     1
102
RTVSPropertyOp44
 70
     1
102
RTVSPropertyOp45
 70
     1
102
RTVSPropertyOp46
 70
     1
102
RTVSPropertyOp47
 70
     1
102
RTVSPropertyOp48
 70
     1
102
RTVSPropertyOp49
 70
     1
102
RTVSPropertyOp50
 70
     1
102
RTVSPropertyOp51
 70
     0
102
RTVSPropertyOp52
 70
     0
102
RTVSPropertyOp53
 70
     1
102
RTVSPropertyOp54
 70
     1
102
RTVSPropertyOp55
 70
     1
102
RTVSPropertyOp56
 70
     1
102
RTVSPropertyOp57
 70
     1
102
RTVSPropertyOp58
 70
     1
102
RTVSPropertyOp59
 70
     1
102
RTVSPropertyOp60
 70
     1
102
RTVSPropertyOp61
 70
     1
102
RTVSPropertyOp62
 70
     1
  0
XRECORD
  5
74A
102
{ACAD_REACTORS
330
749
102
}
330
749
100
AcDbXrecord
280
     1
102
RTVSPost2010Prop28
280
     0
102
RTVSPost2010PropOp28
 70
     1
102
RTVSPost2010Prop29
280
     1
102
RTVSPost2010PropOp29
 70
     1
102
RTVSPost2010Prop30
280
     1
102
RTVSPost2010PropOp30
 70
     1
102
RTVSPost2010Prop31
280
     0
102
RTVSPost2010PropOp31
 70
     1
102
RTVSPost2010Prop32
280
     0
102
RTVSPost2010PropOp32
 70
     1
102
RTVSPost2010Prop33
280
     0
102
RTVSPost2010PropOp33
 70
     1
102
RTVSPost2010Prop34
280
     0
102
RTVSPost2010PropOp34
 70
     1
102
RTVSPost2010Prop35
280
     0
102
RTVSPost2010PropOp35
 70
     1
102
RTVSPost2010Prop36
280
     0
102
RTVSPost2010PropOp36
 70
     1
102
RTVSPost2010Prop37
 90
       50
102
RTVSPost2010PropOp37
 70
     1
102
RTVSPost2010Prop38
140
0.0
102
RTVSPost2010PropOp38
 70
     1
102
RTVSPost2010Prop39
140
1.0
102
RTVSPost2010PropOp39
 70
     1
102
RTVSPost2010Prop40
 90
        0
102
RTVSPost2010PropOp40
 70
     1
102
RTVSPost2010Prop41ColorIndex
 90
       18
102
RTVSPost2010Prop41ColorRGB
 90
        0
102
RTVSPost2010PropOp41
 70
     1
102
RTVSPost2010Prop42
 90
       50
102
RTVSPost2010PropOp42
 70
     1
102
RTVSPost2010Prop43
 90
        3
102
RTVSPost2010PropOp43
 70
     1
102
RTVSPost2010Prop44ColorIndex
 90
        5
102
RTVSPost2010Prop44ColorRGB
 90
      255
102
RTVSPost2010PropOp44
 70
     1
102
RTVSPost2010Prop45
280
     0
102
RTVSPost2010PropOp45
 70
     1
102
RTVSPost2010Prop46
 90
       50
102
RTVSPost2010PropOp46
 70
     1
102
RTVSPost2010Prop47
 90
       50
102
RTVSPost2010PropOp47
 70
     1
102
RTVSPost2010Prop48
 90
       50
102
RTVSPost2010PropOp48
 70
     1
102
RTVSPost2010Prop49
280
     0
102
RTVSPost2010PropOp49
 70
     1
102
RTVSPost2010Prop50
 90
       50
102
RTVSPost2010PropOp50
 70
     1
102
RTVSPost2010Prop51ColorIndex
 90
      256
102
RTVSPost2010Prop51ColorRGB
 90
-16777216
102
RTVSPost2010PropOp51
 70
     0
102
RTVSPost2010Prop52
140
1.0
102
RTVSPost2010PropOp52
 70
     0
102
RTVSPost2010Prop53
 90
        2
102
RTVSPost2010PropOp53
 70
     1
102
RTVSPost2010Prop54
  1
strokes_ogs.tif
102
RTVSPost2010PropOp54
 70
     1
102
RTVSPost2010Prop55
280
     0
102
RTVSPost2010PropOp55
 70
     1
102
RTVSPost2010Prop56
140
1.0
102
RTVSPost2010PropOp56
 70
     1
102
RTVSPost2010Prop57
140
1.0
102
RTVSPost2010PropOp57
 70
     1
102
RTVSPropertyOp0
 70
     1
102
RTVSPropertyOp1
 70
     1
102
RTVSPropertyOp2
 70
     1
102
RTVSPropertyOp3
 70
     1
102
RTVSPropertyOp4
 70
     1
102
RTVSPropertyOp5
 70
     1
102
RTVSPropertyOp6
 70
     1
102
RTVSPropertyOp7
 70
     1
102
RTVSPropertyOp8
 70
     1
102
RTVSPropertyOp9
 70
     1
102
RTVSPropertyOp10
 70
     1
102
RTVSPropertyOp11
 70
     1
102
RTVSPropertyOp12
 70
     1
102
RTVSPropertyOp13
 70
     1
102
RTVSPropertyOp14
 70
     1
102
RTVSPropertyOp15
 70
     1
102
RTVSPropertyOp16
 70
     1
102
RTVSPropertyOp17
 70
     1
102
RTVSPropertyOp18
 70
     1
102
RTVSPropertyOp19
 70
     1
102
RTVSPropertyOp20
 70
     1
102
RTVSPropertyOp21
 70
     1
102
RTVSPropertyOp22
 70
     1
102
RTVSPropertyOp23
 70
     1
102
RTVSPropertyOp24
 70
     1
102
RTVSPropertyOp25
 70
     1
102
RTVSPropertyOp26
 70
     1
102
RTVSPropertyOp27
 70
     1
102
RTVSPropertyOp28
 70
     1
102
RTVSPropertyOp29
 70
     1
102
RTVSPropertyOp30
 70
     1
102
RTVSPropertyOp31
 70
     1
102
RTVSPropertyOp32
 70
     1
102
RTVSPropertyOp33
 70
     1
102
RTVSPropertyOp34
 70
     1
102
RTVSPropertyOp35
 70
     1
102
RTVSPropertyOp36
 70
     1
102
RTVSPropertyOp37
 70
     1
102
RTVSPropertyOp38
 70
     1
102
RTVSPropertyOp39
 70
     1
102
RTVSPropertyOp40
 70
     1
102
RTVSPropertyOp41
 70
     1
102
RTVSPropertyOp42
 70
     1
102
RTVSPropertyOp43
 70
     1
102
RTVSPropertyOp44
 70
     1
102
RTVSPropertyOp45
 70
     1
102
RTVSPropertyOp46
 70
     1
102
RTVSPropertyOp47
 70
     1
102
RTVSPropertyOp48
 70
     1
102
RTVSPropertyOp49
 70
     1
102
RTVSPropertyOp50
 70
     1
102
RTVSPropertyOp51
 70
     0
102
RTVSPropertyOp52
 70
     0
102
RTVSPropertyOp53
 70
     1
102
RTVSPropertyOp54
 70
     1
102
RTVSPropertyOp55
 70
     1
102
RTVSPropertyOp56
 70
     1
102
RTVSPropertyOp57
 70
     1
102
RTVSPropertyOp58
 70
     1
102
RTVSPropertyOp59
 70
     1
102
RTVSPropertyOp60
 70
     1
102
RTVSPropertyOp61
 70
     1
102
RTVSPropertyOp62
 70
     1
  0
XRECORD
  5
740
102
{ACAD_REACTORS
330
73F
102
}
330
73F
100
AcDbXrecord
280
     1
102
RTVSPost2010Prop28
280
     0
102
RTVSPost2010PropOp28
 70
     1
102
RTVSPost2010Prop29
280
     1
102
RTVSPost2010PropOp29
 70
     1
102
RTVSPost2010Prop30
280
     1
102
RTVSPost2010PropOp30
 70
     1
102
RTVSPost2010Prop31
280
     0
102
RTVSPost2010PropOp31
 70
     1
102
RTVSPost2010Prop32
280
     0
102
RTVSPost2010PropOp32
 70
     1
102
RTVSPost2010Prop33
280
     0
102
RTVSPost2010PropOp33
 70
     1
102
RTVSPost2010Prop34
280
     0
102
RTVSPost2010PropOp34
 70
     1
102
RTVSPost2010Prop35
280
     0
102
RTVSPost2010PropOp35
 70
     1
102
RTVSPost2010Prop36
280
     0
102
RTVSPost2010PropOp36
 70
     1
102
RTVSPost2010Prop37
 90
       50
102
RTVSPost2010PropOp37
 70
     1
102
RTVSPost2010Prop38
140
0.0
102
RTVSPost2010PropOp38
 70
     1
102
RTVSPost2010Prop39
140
1.0
102
RTVSPost2010PropOp39
 70
     1
102
RTVSPost2010Prop40
 90
        0
102
RTVSPost2010PropOp40
 70
     1
102
RTVSPost2010Prop41ColorIndex
 90
       18
102
RTVSPost2010Prop41ColorRGB
 90
        0
102
RTVSPost2010PropOp41
 70
     1
102
RTVSPost2010Prop42
 90
       50
102
RTVSPost2010PropOp42
 70
     1
102
RTVSPost2010Prop43
 90
        3
102
RTVSPost2010PropOp43
 70
     1
102
RTVSPost2010Prop44ColorIndex
 90
        5
102
RTVSPost2010Prop44ColorRGB
 90
      255
102
RTVSPost2010PropOp44
 70
     1
102
RTVSPost2010Prop45
280
     0
102
RTVSPost2010PropOp45
 70
     1
102
RTVSPost2010Prop46
 90
       50
102
RTVSPost2010PropOp46
 70
     1
102
RTVSPost2010Prop47
 90
       50
102
RTVSPost2010PropOp47
 70
     1
102
RTVSPost2010Prop48
 90
       50
102
RTVSPost2010PropOp48
 70
     1
102
RTVSPost2010Prop49
280
     0
102
RTVSPost2010PropOp49
 70
     1
102
RTVSPost2010Prop50
 90
       50
102
RTVSPost2010PropOp50
 70
     1
102
RTVSPost2010Prop51ColorIndex
 90
      256
102
RTVSPost2010Prop51ColorRGB
 90
-16777216
102
RTVSPost2010PropOp51
 70
     0
102
RTVSPost2010Prop52
140
1.0
102
RTVSPost2010PropOp52
 70
     0
102
RTVSPost2010Prop53
 90
        2
102
RTVSPost2010PropOp53
 70
     1
102
RTVSPost2010Prop54
  1
strokes_ogs.tif
102
RTVSPost2010PropOp54
 70
     1
102
RTVSPost2010Prop55
280
     0
102
RTVSPost2010PropOp55
 70
     1
102
RTVSPost2010Prop56
140
1.0
102
RTVSPost2010PropOp56
 70
     1
102
RTVSPost2010Prop57
140
1.0
102
RTVSPost2010PropOp57
 70
     1
102
RTVSPropertyOp0
 70
     1
102
RTVSPropertyOp1
 70
     1
102
RTVSPropertyOp2
 70
     1
102
RTVSPropertyOp3
 70
     1
102
RTVSPropertyOp4
 70
     1
102
RTVSPropertyOp5
 70
     1
102
RTVSPropertyOp6
 70
     1
102
RTVSPropertyOp7
 70
     1
102
RTVSPropertyOp8
 70
     1
102
RTVSPropertyOp9
 70
     1
102
RTVSPropertyOp10
 70
     1
102
RTVSPropertyOp11
 70
     1
102
RTVSPropertyOp12
 70
     1
102
RTVSPropertyOp13
 70
     1
102
RTVSPropertyOp14
 70
     1
102
RTVSPropertyOp15
 70
     1
102
RTVSPropertyOp16
 70
     1
102
RTVSPropertyOp17
 70
     1
102
RTVSPropertyOp18
 70
     1
102
RTVSPropertyOp19
 70
     1
102
RTVSPropertyOp20
 70
     1
102
RTVSPropertyOp21
 70
     1
102
RTVSPropertyOp22
 70
     1
102
RTVSPropertyOp23
 70
     1
102
RTVSPropertyOp24
 70
     1
102
RTVSPropertyOp25
 70
     1
102
RTVSPropertyOp26
 70
     1
102
RTVSPropertyOp27
 70
     1
102
RTVSPropertyOp28
 70
     1
102
RTVSPropertyOp29
 70
     1
102
RTVSPropertyOp30
 70
     1
102
RTVSPropertyOp31
 70
     1
102
RTVSPropertyOp32
 70
     1
102
RTVSPropertyOp33
 70
     1
102
RTVSPropertyOp34
 70
     1
102
RTVSPropertyOp35
 70
     1
102
RTVSPropertyOp36
 70
     1
102
RTVSPropertyOp37
 70
     1
102
RTVSPropertyOp38
 70
     1
102
RTVSPropertyOp39
 70
     1
102
RTVSPropertyOp40
 70
     1
102
RTVSPropertyOp41
 70
     1
102
RTVSPropertyOp42
 70
     1
102
RTVSPropertyOp43
 70
     1
102
RTVSPropertyOp44
 70
     1
102
RTVSPropertyOp45
 70
     1
102
RTVSPropertyOp46
 70
     1
102
RTVSPropertyOp47
 70
     1
102
RTVSPropertyOp48
 70
     1
102
RTVSPropertyOp49
 70
     1
102
RTVSPropertyOp50
 70
     1
102
RTVSPropertyOp51
 70
     0
102
RTVSPropertyOp52
 70
     0
102
RTVSPropertyOp53
 70
     1
102
RTVSPropertyOp54
 70
     1
102
RTVSPropertyOp55
 70
     1
102
RTVSPropertyOp56
 70
     1
102
RTVSPropertyOp57
 70
     1
102
RTVSPropertyOp58
 70
     1
102
RTVSPropertyOp59
 70
     1
102
RTVSPropertyOp60
 70
     1
102
RTVSPropertyOp61
 70
     1
102
RTVSPropertyOp62
 70
     1
  0
XRECORD
  5
734
102
{ACAD_REACTORS
330
733
102
}
330
733
100
AcDbXrecord
280
     1
102
RTVSPost2010Prop28
280
     0
102
RTVSPost2010PropOp28
 70
     1
102
RTVSPost2010Prop29
280
     1
102
RTVSPost2010PropOp29
 70
     1
102
RTVSPost2010Prop30
280
     1
102
RTVSPost2010PropOp30
 70
     1
102
RTVSPost2010Prop31
280
     0
102
RTVSPost2010PropOp31
 70
     1
102
RTVSPost2010Prop32
280
     0
102
RTVSPost2010PropOp32
 70
     1
102
RTVSPost2010Prop33
280
     0
102
RTVSPost2010PropOp33
 70
     1
102
RTVSPost2010Prop34
280
     0
102
RTVSPost2010PropOp34
 70
     1
102
RTVSPost2010Prop35
280
     0
102
RTVSPost2010PropOp35
 70
     1
102
RTVSPost2010Prop36
280
     0
102
RTVSPost2010PropOp36
 70
     1
102
RTVSPost2010Prop37
 90
       50
102
RTVSPost2010PropOp37
 70
     1
102
RTVSPost2010Prop38
140
0.0
102
RTVSPost2010PropOp38
 70
     1
102
RTVSPost2010Prop39
140
1.0
102
RTVSPost2010PropOp39
 70
     1
102
RTVSPost2010Prop40
 90
        0
102
RTVSPost2010PropOp40
 70
     1
102
RTVSPost2010Prop41ColorIndex
 90
       18
102
RTVSPost2010Prop41ColorRGB
 90
        0
102
RTVSPost2010PropOp41
 70
     1
102
RTVSPost2010Prop42
 90
       50
102
RTVSPost2010PropOp42
 70
     1
102
RTVSPost2010Prop43
 90
        3
102
RTVSPost2010PropOp43
 70
     1
102
RTVSPost2010Prop44ColorIndex
 90
        5
102
RTVSPost2010Prop44ColorRGB
 90
      255
102
RTVSPost2010PropOp44
 70
     1
102
RTVSPost2010Prop45
280
     0
102
RTVSPost2010PropOp45
 70
     1
102
RTVSPost2010Prop46
 90
       50
102
RTVSPost2010PropOp46
 70
     1
102
RTVSPost2010Prop47
 90
       50
102
RTVSPost2010PropOp47
 70
     1
102
RTVSPost2010Prop48
 90
       50
102
RTVSPost2010PropOp48
 70
     1
102
RTVSPost2010Prop49
280
     0
102
RTVSPost2010PropOp49
 70
     1
102
RTVSPost2010Prop50
 90
       50
102
RTVSPost2010PropOp50
 70
     1
102
RTVSPost2010Prop51ColorIndex
 90
      256
102
RTVSPost2010Prop51ColorRGB
 90
-16777216
102
RTVSPost2010PropOp51
 70
     0
102
RTVSPost2010Prop52
140
1.0
102
RTVSPost2010PropOp52
 70
     0
102
RTVSPost2010Prop53
 90
        2
102
RTVSPost2010PropOp53
 70
     1
102
RTVSPost2010Prop54
  1
strokes_ogs.tif
102
RTVSPost2010PropOp54
 70
     1
102
RTVSPost2010Prop55
280
     0
102
RTVSPost2010PropOp55
 70
     1
102
RTVSPost2010Prop56
140
1.0
102
RTVSPost2010PropOp56
 70
     1
102
RTVSPost2010Prop57
140
1.0
102
RTVSPost2010PropOp57
 70
     1
102
RTVSPropertyOp0
 70
     1
102
RTVSPropertyOp1
 70
     1
102
RTVSPropertyOp2
 70
     1
102
RTVSPropertyOp3
 70
     1
102
RTVSPropertyOp4
 70
     1
102
RTVSPropertyOp5
 70
     1
102
RTVSPropertyOp6
 70
     1
102
RTVSPropertyOp7
 70
     1
102
RTVSPropertyOp8
 70
     1
102
RTVSPropertyOp9
 70
     1
102
RTVSPropertyOp10
 70
     1
102
RTVSPropertyOp11
 70
     1
102
RTVSPropertyOp12
 70
     1
102
RTVSPropertyOp13
 70
     1
102
RTVSPropertyOp14
 70
     1
102
RTVSPropertyOp15
 70
     1
102
RTVSPropertyOp16
 70
     1
102
RTVSPropertyOp17
 70
     1
102
RTVSPropertyOp18
 70
     1
102
RTVSPropertyOp19
 70
     1
102
RTVSPropertyOp20
 70
     1
102
RTVSPropertyOp21
 70
     1
102
RTVSPropertyOp22
 70
     1
102
RTVSPropertyOp23
 70
     1
102
RTVSPropertyOp24
 70
     1
102
RTVSPropertyOp25
 70
     1
102
RTVSPropertyOp26
 70
     1
102
RTVSPropertyOp27
 70
     1
102
RTVSPropertyOp28
 70
     1
102
RTVSPropertyOp29
 70
     1
102
RTVSPropertyOp30
 70
     1
102
RTVSPropertyOp31
 70
     1
102
RTVSPropertyOp32
 70
     1
102
RTVSPropertyOp33
 70
     1
102
RTVSPropertyOp34
 70
     1
102
RTVSPropertyOp35
 70
     1
102
RTVSPropertyOp36
 70
     1
102
RTVSPropertyOp37
 70
     1
102
RTVSPropertyOp38
 70
     1
102
RTVSPropertyOp39
 70
     1
102
RTVSPropertyOp40
 70
     1
102
RTVSPropertyOp41
 70
     1
102
RTVSPropertyOp42
 70
     1
102
RTVSPropertyOp43
 70
     1
102
RTVSPropertyOp44
 70
     1
102
RTVSPropertyOp45
 70
     1
102
RTVSPropertyOp46
 70
     1
102
RTVSPropertyOp47
 70
     1
102
RTVSPropertyOp48
 70
     1
102
RTVSPropertyOp49
 70
     1
102
RTVSPropertyOp50
 70
     1
102
RTVSPropertyOp51
 70
     0
102
RTVSPropertyOp52
 70
     0
102
RTVSPropertyOp53
 70
     1
102
RTVSPropertyOp54
 70
     1
102
RTVSPropertyOp55
 70
     1
102
RTVSPropertyOp56
 70
     1
102
RTVSPropertyOp57
 70
     1
102
RTVSPropertyOp58
 70
     1
102
RTVSPropertyOp59
 70
     1
102
RTVSPropertyOp60
 70
     1
102
RTVSPropertyOp61
 70
     1
102
RTVSPropertyOp62
 70
     1
  0
XRECORD
  5
74C
102
{ACAD_REACTORS
330
74B
102
}
330
74B
100
AcDbXrecord
280
     1
102
RTVSPost2010Prop28
280
     0
102
RTVSPost2010PropOp28
 70
     1
102
RTVSPost2010Prop29
280
     1
102
RTVSPost2010PropOp29
 70
     1
102
RTVSPost2010Prop30
280
     1
102
RTVSPost2010PropOp30
 70
     1
102
RTVSPost2010Prop31
280
     0
102
RTVSPost2010PropOp31
 70
     1
102
RTVSPost2010Prop32
280
     0
102
RTVSPost2010PropOp32
 70
     1
102
RTVSPost2010Prop33
280
     0
102
RTVSPost2010PropOp33
 70
     1
102
RTVSPost2010Prop34
280
     0
102
RTVSPost2010PropOp34
 70
     1
102
RTVSPost2010Prop35
280
     0
102
RTVSPost2010PropOp35
 70
     1
102
RTVSPost2010Prop36
280
     0
102
RTVSPost2010PropOp36
 70
     1
102
RTVSPost2010Prop37
 90
       50
102
RTVSPost2010PropOp37
 70
     1
102
RTVSPost2010Prop38
140
0.0
102
RTVSPost2010PropOp38
 70
     1
102
RTVSPost2010Prop39
140
1.0
102
RTVSPost2010PropOp39
 70
     1
102
RTVSPost2010Prop40
 90
        0
102
RTVSPost2010PropOp40
 70
     1
102
RTVSPost2010Prop41ColorIndex
 90
       18
102
RTVSPost2010Prop41ColorRGB
 90
        0
102
RTVSPost2010PropOp41
 70
     1
102
RTVSPost2010Prop42
 90
       50
102
RTVSPost2010PropOp42
 70
     1
102
RTVSPost2010Prop43
 90
        3
102
RTVSPost2010PropOp43
 70
     1
102
RTVSPost2010Prop44ColorIndex
 90
        5
102
RTVSPost2010Prop44ColorRGB
 90
      255
102
RTVSPost2010PropOp44
 70
     1
102
RTVSPost2010Prop45
280
     0
102
RTVSPost2010PropOp45
 70
     1
102
RTVSPost2010Prop46
 90
       50
102
RTVSPost2010PropOp46
 70
     1
102
RTVSPost2010Prop47
 90
       50
102
RTVSPost2010PropOp47
 70
     1
102
RTVSPost2010Prop48
 90
       50
102
RTVSPost2010PropOp48
 70
     1
102
RTVSPost2010Prop49
280
     0
102
RTVSPost2010PropOp49
 70
     1
102
RTVSPost2010Prop50
 90
       50
102
RTVSPost2010PropOp50
 70
     1
102
RTVSPost2010Prop51ColorIndex
 90
      256
102
RTVSPost2010Prop51ColorRGB
 90
-16777216
102
RTVSPost2010PropOp51
 70
     0
102
RTVSPost2010Prop52
140
1.0
102
RTVSPost2010PropOp52
 70
     0
102
RTVSPost2010Prop53
 90
        2
102
RTVSPost2010PropOp53
 70
     1
102
RTVSPost2010Prop54
  1
strokes_ogs.tif
102
RTVSPost2010PropOp54
 70
     1
102
RTVSPost2010Prop55
280
     0
102
RTVSPost2010PropOp55
 70
     1
102
RTVSPost2010Prop56
140
1.0
102
RTVSPost2010PropOp56
 70
     1
102
RTVSPost2010Prop57
140
1.0
102
RTVSPost2010PropOp57
 70
     1
102
RTVSPropertyOp0
 70
     1
102
RTVSPropertyOp1
 70
     1
102
RTVSPropertyOp2
 70
     1
102
RTVSPropertyOp3
 70
     1
102
RTVSPropertyOp4
 70
     1
102
RTVSPropertyOp5
 70
     1
102
RTVSPropertyOp6
 70
     1
102
RTVSPropertyOp7
 70
     1
102
RTVSPropertyOp8
 70
     1
102
RTVSPropertyOp9
 70
     1
102
RTVSPropertyOp10
 70
     1
102
RTVSPropertyOp11
 70
     1
102
RTVSPropertyOp12
 70
     1
102
RTVSPropertyOp13
 70
     1
102
RTVSPropertyOp14
 70
     1
102
RTVSPropertyOp15
 70
     1
102
RTVSPropertyOp16
 70
     1
102
RTVSPropertyOp17
 70
     1
102
RTVSPropertyOp18
 70
     1
102
RTVSPropertyOp19
 70
     1
102
RTVSPropertyOp20
 70
     1
102
RTVSPropertyOp21
 70
     1
102
RTVSPropertyOp22
 70
     1
102
RTVSPropertyOp23
 70
     1
102
RTVSPropertyOp24
 70
     1
102
RTVSPropertyOp25
 70
     1
102
RTVSPropertyOp26
 70
     1
102
RTVSPropertyOp27
 70
     1
102
RTVSPropertyOp28
 70
     1
102
RTVSPropertyOp29
 70
     1
102
RTVSPropertyOp30
 70
     1
102
RTVSPropertyOp31
 70
     1
102
RTVSPropertyOp32
 70
     1
102
RTVSPropertyOp33
 70
     1
102
RTVSPropertyOp34
 70
     1
102
RTVSPropertyOp35
 70
     1
102
RTVSPropertyOp36
 70
     1
102
RTVSPropertyOp37
 70
     1
102
RTVSPropertyOp38
 70
     1
102
RTVSPropertyOp39
 70
     1
102
RTVSPropertyOp40
 70
     1
102
RTVSPropertyOp41
 70
     1
102
RTVSPropertyOp42
 70
     1
102
RTVSPropertyOp43
 70
     1
102
RTVSPropertyOp44
 70
     1
102
RTVSPropertyOp45
 70
     1
102
RTVSPropertyOp46
 70
     1
102
RTVSPropertyOp47
 70
     1
102
RTVSPropertyOp48
 70
     1
102
RTVSPropertyOp49
 70
     1
102
RTVSPropertyOp50
 70
     1
102
RTVSPropertyOp51
 70
     0
102
RTVSPropertyOp52
 70
     0
102
RTVSPropertyOp53
 70
     1
102
RTVSPropertyOp54
 70
     1
102
RTVSPropertyOp55
 70
     1
102
RTVSPropertyOp56
 70
     1
102
RTVSPropertyOp57
 70
     1
102
RTVSPropertyOp58
 70
     1
102
RTVSPropertyOp59
 70
     1
102
RTVSPropertyOp60
 70
     1
102
RTVSPropertyOp61
 70
     1
102
RTVSPropertyOp62
 70
     1
  0
ENDSEC
  0
EOF
