0
SECTION
2
HEADER
9
$ACADVER
1
AC1015
9
$DWGCODEPAGE
3
ANSI_1252
9
$HANDSEED
5
1ef
9
$ANGBASE
50
0
9
$ANGDIR
70
0
9
$ATTMODE
70
1
9
$AUNITS
70
0
9
$AUPREC
70
0
9
$CECOLOR
62
256
9
$CELTSCALE
40
1
9
$CELTYPE
6
ByLayer
9
$CELWEIGHT
370
18
9
$CLAYER
8
0
9
$CMLJUST
70
0
9
$CMLSCALE
40
1
9
$CMLSTYLE
2
Standard
9
$DIMSTYLE
2
Standard
9
$TEXTSIZE
40
0.2
9
$TEXTSTYLE
7
Standard
9
$LUNITS
70
2
9
$LUPREC
70
4
9
$EXTNAMES
290
1
9
$INSUNITS
70
4
9
$LTSCALE
40
1
9
$LWDISPLAY
290
1
9
$PDMODE
70
0
9
$PDSIZE
40
0
9
$PLINEGEN
70
0
0
ENDSEC
0
SECTION
2
CLASSES
0
CLASS
1
RASTERVARIABLES
2
AcDbRasterVariables
3
ISM
90
0
280
0
281
0
0
ENDSEC
0
SECTION
2
TABLES
0
TABLE
2
VPORT
5
1e5
100
AcDbSymbolTable
0
VPORT
5
1
100
AcDbSymbolTableRecord
100
AcDbViewportTableRecord
2
*Active
70
0
10
0
20
0
11
1
21
1
12
-1
22
1
13
0
23
0
14
0.5
24
0.5
15
10
25
10
16
0
26
0
36
1
17
0
27
0
37
0
0
ENDTAB
0
TABLE
2
LTYPE
5
1e6
100
AcDbSymbolTable
0
LTYPE
5
14
100
AcDbSymbolTableRecord
100
AcDbLinetypeTableRecord
70
0
2
ByBlock
3

72
65
73
0
40
0
0
LTYPE
5
15
100
AcDbSymbolTableRecord
100
AcDbLinetypeTableRecord
70
0
2
ByLayer
3

72
65
73
0
40
0
0
LTYPE
5
16
100
AcDbSymbolTableRecord
100
AcDbLinetypeTableRecord
70
0
2
CONTINUOUS
3
Solid line
72
65
73
0
40
0
0
LTYPE
5
6A
100
AcDbSymbolTableRecord
100
AcDbLinetypeTableRecord
70
0
2
CENTER
3
____ _ ____ _ ____ _ ____
72
65
73
4
40
47.5
49
22
74
0
49
-8.5
74
0
49
8.5
74
0
49
-8.5
74
0
0
LTYPE
5
6B
100
AcDbSymbolTableRecord
100
AcDbLinetypeTableRecord
70
0
2
DASHED
3
__ __ __ __ __ __ __ __ __
72
65
73
2
40
25.72
49
12.86
74
0
49
-12.86
74
0
0
ENDTAB
0
TABLE
2
LAYER
5
1e7
100
AcDbSymbolTable
0
LAYER
5
10
100
AcDbSymbolTableRecord
100
AcDbLayerTableRecord
2
0
70
0
62
7
6
CONTINUOUS
290
1
370
-3
390
0
0
LAYER
5
6D
100
AcDbSymbolTableRecord
100
AcDbLayerTableRecord
2
81
70
0
62
-3
6
CONTINUOUS
290
1
370
-3
390
0
0
LAYER
5
6F
100
AcDbSymbolTableRecord
100
AcDbLayerTableRecord
2
80
70
0
62
-6
6
CONTINUOUS
290
1
370
-3
390
0
0
LAYER
5
71
100
AcDbSymbolTableRecord
100
AcDbLayerTableRecord
2
2
70
0
62
7
6
CONTINUOUS
290
1
370
-3
390
0
0
LAYER
5
73
100
AcDbSymbolTableRecord
100
AcDbLayerTableRecord
2
4
70
0
62
-2
6
CENTER
290
1
370
-3
390
0
0
LAYER
5
77
100
AcDbSymbolTableRecord
100
AcDbLayerTableRecord
2
1
70
0
62
4
6
CONTINUOUS
290
1
370
-3
390
0
0
LAYER
5
1d2
100
AcDbSymbolTableRecord
100
AcDbLayerTableRecord
2
SK1
70
0
62
4
6
CONTINUOUS
290
1
370
-3
390
0
0
LAYER
5
1d3
100
AcDbSymbolTableRecord
100
AcDbLayerTableRecord
2
SK6
70
0
62
5
6
CONTINUOUS
290
1
370
-3
390
0
0
LAYER
5
1d4
100
AcDbSymbolTableRecord
100
AcDbLayerTableRecord
2
SK2
70
0
62
7
6
CONTINUOUS
290
1
370
-3
390
0
0
ENDTAB
0
TABLE
2
STYLE
5
1e8
100
AcDbSymbolTable
0
STYLE
5
11
100
AcDbSymbolTableRecord
100
AcDbTextStyleTableRecord
2
Standard
3
txt
70
0
71
0
40
0
41
1
42
0
50
0
0
STYLE
5
11A
100
AcDbSymbolTableRecord
100
AcDbTextStyleTableRecord
2
iso_b_vert
3
simplex.shx
70
0
71
0
40
0
41
1
42
0
50
0
0
STYLE
5
11B
100
AcDbSymbolTableRecord
100
AcDbTextStyleTableRecord
2
DWGDirectTextStyle
3
simplex
70
0
71
0
40
0
41
1
42
0
50
0
0
ENDTAB
0
TABLE
2
DIMSTYLE
5
1e9
100
AcDbSymbolTable
100
AcDbDimStyleTable
0
DIMSTYLE
105
27
100
AcDbSymbolTableRecord
100
AcDbDimStyleTableRecord
2
Standard
70
0
3
<>
41
0.18
42
0.0625
44
0.18
140
0.18
147
0.09
73
0
74
0
77
1
271
2
275
0
278
52
280
0
340
11
0
ENDTAB
0
TABLE
2
VIEW
5
1ea
100
AcDbSymbolTable
0
ENDTAB
0
TABLE
2
UCS
5
1eb
100
AcDbSymbolTable
0
ENDTAB
0
TABLE
2
APPID
5
1ec
100
AcDbSymbolTable
0
APPID
5
12
100
AcDbSymbolTableRecord
100
AcDbRegAppTableRecord
2
ACAD
70
0
0
ENDTAB
0
TABLE
2
BLOCK_RECORD
5
1ed
100
AcDbSymbolTable
0
BLOCK_RECORD
5
1F
100
AcDbSymbolTableRecord
100
AcDbBlockTableRecord
2
*Model_Space
340
0
70
0
0
BLOCK_RECORD
5
1B
100
AcDbSymbolTableRecord
100
AcDbBlockTableRecord
2
*Paper_Space
340
0
70
0
0
BLOCK_RECORD
5
23
100
AcDbSymbolTableRecord
100
AcDbBlockTableRecord
2
*Paper_Space0
340
0
70
0
0
BLOCK_RECORD
5
11D
100
AcDbSymbolTableRecord
100
AcDbBlockTableRecord
2
DimnDraft3D1
340
0
70
0
0
BLOCK_RECORD
5
12C
100
AcDbSymbolTableRecord
100
AcDbBlockTableRecord
2
_CLOSED
340
0
70
0
0
BLOCK_RECORD
5
133
100
AcDbSymbolTableRecord
100
AcDbBlockTableRecord
2
DimnDraft3D2
340
0
70
0
0
BLOCK_RECORD
5
141
100
AcDbSymbolTableRecord
100
AcDbBlockTableRecord
2
DimnDraft3D3
340
0
70
0
0
BLOCK_RECORD
5
14F
100
AcDbSymbolTableRecord
100
AcDbBlockTableRecord
2
DimnDraft3D4
340
0
70
0
0
BLOCK_RECORD
5
15D
100
AcDbSymbolTableRecord
100
AcDbBlockTableRecord
2
DimnDraft3D5
340
0
70
0
0
BLOCK_RECORD
5
16B
100
AcDbSymbolTableRecord
100
AcDbBlockTableRecord
2
DimnDraft3D6
340
0
70
0
0
ENDTAB
0
ENDSEC
0
SECTION
2
BLOCKS
0
BLOCK
5
20
100
AcDbEntity
8
0
100
AcDbBlockBegin
2
*Model_Space
70
0
10
0
20
0
30
0
3
*Model_Space
0
ENDBLK
5
21
100
AcDbEntity
8
0
100
AcDbBlockEnd
0
BLOCK
5
1C
100
AcDbEntity
8
0
100
AcDbBlockBegin
2
*Paper_Space
70
0
10
0
20
0
30
0
3
*Paper_Space
0
ENDBLK
5
1D
100
AcDbEntity
8
0
100
AcDbBlockEnd
0
BLOCK
5
24
100
AcDbEntity
8
0
100
AcDbBlockBegin
2
*Paper_Space0
70
0
10
0
20
0
30
0
3
*Paper_Space0
0
ENDBLK
5
25
100
AcDbEntity
8
0
100
AcDbBlockEnd
0
BLOCK
5
129
100
AcDbEntity
8
0
100
AcDbBlockBegin
2
DimnDraft3D1
70
0
10
0
20
0
30
0
3
DimnDraft3D1
0
MTEXT
5
11E
100
AcDbEntity
8
SK2
62
256
6
ByLayer
370
18
48
1
60
0
100
AcDbMText
10
-58.275
20
-3.519079
30
0
210
0
220
0
230
1
1
\W0.6563;16.0
40
4.5
41
0
44
1.084337
50
90
71
7
72
5
7
iso_b_vert
0
LINE
5
120
100
AcDbEntity
8
SK2
62
256
6
ByLayer
370
13
48
1
60
0
100
AcDbLine
10
-48.9
20
8.075
30
0
11
-60.15
21
8.075
31
0
39
0
210
0
220
0
230
1
0
LINE
5
121
100
AcDbEntity
8
SK2
62
256
6
ByLayer
370
13
48
1
60
0
100
AcDbLine
10
-48.9
20
-7.925
30
0
11
-60.15
21
-7.925
31
0
39
0
210
0
220
0
230
1
0
LINE
5
122
100
AcDbEntity
8
SK2
62
256
6
ByLayer
370
13
48
1
60
0
100
AcDbLine
10
-57.15
20
19.325
30
0
11
-57.15
21
-19.175
31
0
39
0
210
0
220
0
230
1
0
LINE
5
123
100
AcDbEntity
8
SK2
62
256
6
ByLayer
370
13
48
1
60
0
100
AcDbLine
10
-57.15
20
8.075
30
0
11
-57.544957
21
11.074999
31
0
39
0
210
0
220
0
230
1
0
LINE
5
124
100
AcDbEntity
8
SK2
62
256
6
ByLayer
370
13
48
1
60
0
100
AcDbLine
10
-57.15
20
8.075
30
0
11
-56.755043
21
11.075001
31
0
39
0
210
0
220
0
230
1
0
LINE
5
125
100
AcDbEntity
8
SK2
62
256
6
ByLayer
370
13
48
1
60
0
100
AcDbLine
10
-57.544957
20
11.074999
30
0
11
-56.755043
21
11.075001
31
0
39
0
210
0
220
0
230
1
0
LINE
5
126
100
AcDbEntity
8
SK2
62
256
6
ByLayer
370
13
48
1
60
0
100
AcDbLine
10
-57.15
20
-7.925
30
0
11
-56.755043
21
-10.924999
31
0
39
0
210
0
220
0
230
1
0
LINE
5
127
100
AcDbEntity
8
SK2
62
256
6
ByLayer
370
13
48
1
60
0
100
AcDbLine
10
-57.15
20
-7.925
30
0
11
-57.544957
21
-10.925001
31
0
39
0
210
0
220
0
230
1
0
LINE
5
128
100
AcDbEntity
8
SK2
62
256
6
ByLayer
370
13
48
1
60
0
100
AcDbLine
10
-56.755043
20
-10.924999
30
0
11
-57.544957
21
-10.925001
31
0
39
0
210
0
220
0
230
1
0
ENDBLK
5
12A
100
AcDbEntity
8
0
100
AcDbBlockEnd
0
BLOCK
5
12D
100
AcDbEntity
8
0
100
AcDbBlockBegin
2
_CLOSED
70
0
10
0
20
0
30
0
3
_CLOSED
0
LINE
5
12F
100
AcDbEntity
8
0
62
256
6
ByLayer
370
-2
48
1
60
0
100
AcDbLine
10
-1
20
0.166667
30
0
11
0
21
0
31
0
39
0
210
0
220
0
230
1
0
LINE
5
130
100
AcDbEntity
8
0
62
256
6
ByLayer
370
-2
48
1
60
0
100
AcDbLine
10
0
20
0
30
0
11
-1
21
-0.166667
31
0
39
0
210
0
220
0
230
1
0
LINE
5
131
100
AcDbEntity
8
0
62
256
6
ByLayer
370
-2
48
1
60
0
100
AcDbLine
10
-1
20
0.166667
30
0
11
-1
21
-0.166667
31
0
39
0
210
0
220
0
230
1
0
LINE
5
132
100
AcDbEntity
8
0
62
256
6
ByLayer
370
-2
48
1
60
0
100
AcDbLine
10
0
20
0
30
0
11
-1
21
0
31
0
39
0
210
0
220
0
230
1
0
ENDBLK
5
12E
100
AcDbEntity
8
0
100
AcDbBlockEnd
0
BLOCK
5
13E
100
AcDbEntity
8
0
100
AcDbBlockBegin
2
DimnDraft3D2
70
0
10
0
20
0
30
0
3
DimnDraft3D2
0
MTEXT
5
134
100
AcDbEntity
8
2
62
256
6
ByLayer
370
18
48
1
60
0
100
AcDbMText
10
35.725
20
19.7
30
0
210
0
220
0
230
1
1
\W0.7121;2.0
40
4.5
41
0
44
1.084337
50
90
71
7
72
5
7
iso_b_vert
0
LINE
5
135
100
AcDbEntity
8
2
62
256
6
ByLayer
370
13
48
1
60
0
100
AcDbLine
10
24.1
20
6.075
30
0
11
39.85
21
6.075
31
0
39
0
210
0
220
0
230
1
0
LINE
5
136
100
AcDbEntity
8
2
62
256
6
ByLayer
370
13
48
1
60
0
100
AcDbLine
10
24.1
20
8.075
30
0
11
39.85
21
8.075
31
0
39
0
210
0
220
0
230
1
0
LINE
5
137
100
AcDbEntity
8
2
62
256
6
ByLayer
370
13
48
1
60
0
100
AcDbLine
10
36.85
20
25.775
30
0
11
36.85
21
-5.175
31
0
39
0
210
0
220
0
230
1
0
LINE
5
138
100
AcDbEntity
8
2
62
256
6
ByLayer
370
13
48
1
60
0
100
AcDbLine
10
36.85
20
6.075
30
0
11
37.244957
21
3.075001
31
0
39
0
210
0
220
0
230
1
0
LINE
5
139
100
AcDbEntity
8
2
62
256
6
ByLayer
370
13
48
1
60
0
100
AcDbLine
10
36.85
20
6.075
30
0
11
36.455043
21
3.074999
31
0
39
0
210
0
220
0
230
1
0
LINE
5
13A
100
AcDbEntity
8
2
62
256
6
ByLayer
370
13
48
1
60
0
100
AcDbLine
10
37.244957
20
3.075001
30
0
11
36.455043
21
3.074999
31
0
39
0
210
0
220
0
230
1
0
LINE
5
13B
100
AcDbEntity
8
2
62
256
6
ByLayer
370
13
48
1
60
0
100
AcDbLine
10
36.85
20
8.075
30
0
11
36.455043
21
11.074999
31
0
39
0
210
0
220
0
230
1
0
LINE
5
13C
100
AcDbEntity
8
2
62
256
6
ByLayer
370
13
48
1
60
0
100
AcDbLine
10
36.85
20
8.075
30
0
11
37.244957
21
11.075001
31
0
39
0
210
0
220
0
230
1
0
LINE
5
13D
100
AcDbEntity
8
2
62
256
6
ByLayer
370
13
48
1
60
0
100
AcDbLine
10
36.455043
20
11.074999
30
0
11
37.244957
21
11.075001
31
0
39
0
210
0
220
0
230
1
0
ENDBLK
5
13F
100
AcDbEntity
8
0
100
AcDbBlockEnd
0
BLOCK
5
14C
100
AcDbEntity
8
0
100
AcDbBlockBegin
2
DimnDraft3D3
70
0
10
0
20
0
30
0
3
DimnDraft3D3
0
MTEXT
5
142
100
AcDbEntity
8
2
62
256
6
ByLayer
370
18
48
1
60
0
100
AcDbMText
10
45.725
20
-3.519079
30
0
210
0
220
0
230
1
1
\W0.6563;16.0
40
4.5
41
0
44
1.084337
50
90
71
7
72
5
7
iso_b_vert
0
LINE
5
143
100
AcDbEntity
8
2
62
256
6
ByLayer
370
13
48
1
60
0
100
AcDbLine
10
24.1
20
8.075
30
0
11
49.85
21
8.075
31
0
39
0
210
0
220
0
230
1
0
LINE
5
144
100
AcDbEntity
8
2
62
256
6
ByLayer
370
13
48
1
60
0
100
AcDbLine
10
1.5
20
-7.925
30
0
11
49.85
21
-7.925
31
0
39
0
210
0
220
0
230
1
0
LINE
5
145
100
AcDbEntity
8
2
62
256
6
ByLayer
370
13
48
1
60
0
100
AcDbLine
10
46.85
20
19.325
30
0
11
46.85
21
-19.175
31
0
39
0
210
0
220
0
230
1
0
LINE
5
146
100
AcDbEntity
8
2
62
256
6
ByLayer
370
13
48
1
60
0
100
AcDbLine
10
46.85
20
8.075
30
0
11
46.455043
21
11.074999
31
0
39
0
210
0
220
0
230
1
0
LINE
5
147
100
AcDbEntity
8
2
62
256
6
ByLayer
370
13
48
1
60
0
100
AcDbLine
10
46.85
20
8.075
30
0
11
47.244957
21
11.075001
31
0
39
0
210
0
220
0
230
1
0
LINE
5
148
100
AcDbEntity
8
2
62
256
6
ByLayer
370
13
48
1
60
0
100
AcDbLine
10
46.455043
20
11.074999
30
0
11
47.244957
21
11.075001
31
0
39
0
210
0
220
0
230
1
0
LINE
5
149
100
AcDbEntity
8
2
62
256
6
ByLayer
370
13
48
1
60
0
100
AcDbLine
10
46.85
20
-7.925
30
0
11
47.244957
21
-10.924999
31
0
39
0
210
0
220
0
230
1
0
LINE
5
14A
100
AcDbEntity
8
2
62
256
6
ByLayer
370
13
48
1
60
0
100
AcDbLine
10
46.85
20
-7.925
30
0
11
46.455043
21
-10.925001
31
0
39
0
210
0
220
0
230
1
0
LINE
5
14B
100
AcDbEntity
8
2
62
256
6
ByLayer
370
13
48
1
60
0
100
AcDbLine
10
47.244957
20
-10.924999
30
0
11
46.455043
21
-10.925001
31
0
39
0
210
0
220
0
230
1
0
ENDBLK
5
14D
100
AcDbEntity
8
0
100
AcDbBlockEnd
0
BLOCK
5
15A
100
AcDbEntity
8
0
100
AcDbBlockBegin
2
DimnDraft3D4
70
0
10
0
20
0
30
0
3
DimnDraft3D4
0
MTEXT
5
150
100
AcDbEntity
8
SK2
62
256
6
ByLayer
370
18
48
1
60
0
100
AcDbMText
10
-16.556579
20
28.95
30
0
210
0
220
0
230
1
1
\W0.7346;70.0
40
4.5
41
0
44
1.084337
50
0
71
7
72
5
7
iso_b_vert
0
LINE
5
151
100
AcDbEntity
8
SK2
62
256
6
ByLayer
370
13
48
1
60
0
100
AcDbLine
10
22.6
20
9.575
30
0
11
22.6
21
30.825
31
0
39
0
210
0
220
0
230
1
0
LINE
5
152
100
AcDbEntity
8
SK2
62
256
6
ByLayer
370
13
48
1
60
0
100
AcDbLine
10
-47.4
20
9.575
30
0
11
-47.4
21
30.825
31
0
39
0
210
0
220
0
230
1
0
LINE
5
153
100
AcDbEntity
8
SK2
62
256
6
ByLayer
370
13
48
1
60
0
100
AcDbLine
10
22.6
20
27.825
30
0
11
-47.4
21
27.825
31
0
39
0
210
0
220
0
230
1
0
LINE
5
154
100
AcDbEntity
8
SK2
62
256
6
ByLayer
370
13
48
1
60
0
100
AcDbLine
10
22.6
20
27.825
30
0
11
19.600001
21
27.430043
31
0
39
0
210
0
220
0
230
1
0
LINE
5
155
100
AcDbEntity
8
SK2
62
256
6
ByLayer
370
13
48
1
60
0
100
AcDbLine
10
22.6
20
27.825
30
0
11
19.599999
21
28.219957
31
0
39
0
210
0
220
0
230
1
0
LINE
5
156
100
AcDbEntity
8
SK2
62
256
6
ByLayer
370
13
48
1
60
0
100
AcDbLine
10
19.600001
20
27.430043
30
0
11
19.599999
21
28.219957
31
0
39
0
210
0
220
0
230
1
0
LINE
5
157
100
AcDbEntity
8
SK2
62
256
6
ByLayer
370
13
48
1
60
0
100
AcDbLine
10
-47.4
20
27.825
30
0
11
-44.400001
21
28.219957
31
0
39
0
210
0
220
0
230
1
0
LINE
5
158
100
AcDbEntity
8
SK2
62
256
6
ByLayer
370
13
48
1
60
0
100
AcDbLine
10
-47.4
20
27.825
30
0
11
-44.399999
21
27.430043
31
0
39
0
210
0
220
0
230
1
0
LINE
5
159
100
AcDbEntity
8
SK2
62
256
6
ByLayer
370
13
48
1
60
0
100
AcDbLine
10
-44.400001
20
28.219957
30
0
11
-44.399999
21
27.430043
31
0
39
0
210
0
220
0
230
1
0
ENDBLK
5
15B
100
AcDbEntity
8
0
100
AcDbBlockEnd
0
BLOCK
5
168
100
AcDbEntity
8
0
100
AcDbBlockBegin
2
DimnDraft3D5
70
0
10
0
20
0
30
0
3
DimnDraft3D5
0
MTEXT
5
15E
100
AcDbEntity
8
2
62
256
6
ByLayer
370
18
48
1
60
0
100
AcDbMText
10
34.225
20
-21.05
30
0
210
0
220
0
230
1
1
\W0.5779;11.0
40
4.5
41
0
44
1.084337
50
0
71
7
72
5
7
iso_b_vert
0
LINE
5
15F
100
AcDbEntity
8
2
62
256
6
ByLayer
370
13
48
1
60
0
100
AcDbLine
10
11.6
20
-9.425
30
0
11
11.6
21
-25.175
31
0
39
0
210
0
220
0
230
1
0
LINE
5
160
100
AcDbEntity
8
2
62
256
6
ByLayer
370
13
48
1
60
0
100
AcDbLine
10
22.6
20
4.575
30
0
11
22.6
21
-25.175
31
0
39
0
210
0
220
0
230
1
0
LINE
5
161
100
AcDbEntity
8
2
62
256
6
ByLayer
370
13
48
1
60
0
100
AcDbLine
10
11.6
20
-22.175
30
0
11
41.413158
21
-22.175
31
0
39
0
210
0
220
0
230
1
0
LINE
5
162
100
AcDbEntity
8
2
62
256
6
ByLayer
370
13
48
1
60
0
100
AcDbLine
10
11.6
20
-22.175
30
0
11
14.599999
21
-21.780043
31
0
39
0
210
0
220
0
230
1
0
LINE
5
163
100
AcDbEntity
8
2
62
256
6
ByLayer
370
13
48
1
60
0
100
AcDbLine
10
11.6
20
-22.175
30
0
11
14.600001
21
-22.569957
31
0
39
0
210
0
220
0
230
1
0
LINE
5
164
100
AcDbEntity
8
2
62
256
6
ByLayer
370
13
48
1
60
0
100
AcDbLine
10
14.599999
20
-21.780043
30
0
11
14.600001
21
-22.569957
31
0
39
0
210
0
220
0
230
1
0
LINE
5
165
100
AcDbEntity
8
2
62
256
6
ByLayer
370
13
48
1
60
0
100
AcDbLine
10
22.6
20
-22.175
30
0
11
19.600001
21
-22.569957
31
0
39
0
210
0
220
0
230
1
0
LINE
5
166
100
AcDbEntity
8
2
62
256
6
ByLayer
370
13
48
1
60
0
100
AcDbLine
10
22.6
20
-22.175
30
0
11
19.599999
21
-21.780043
31
0
39
0
210
0
220
0
230
1
0
LINE
5
167
100
AcDbEntity
8
2
62
256
6
ByLayer
370
13
48
1
60
0
100
AcDbLine
10
19.600001
20
-22.569957
30
0
11
19.599999
21
-21.780043
31
0
39
0
210
0
220
0
230
1
0
ENDBLK
5
169
100
AcDbEntity
8
0
100
AcDbBlockEnd
0
BLOCK
5
176
100
AcDbEntity
8
0
100
AcDbBlockBegin
2
DimnDraft3D6
70
0
10
0
20
0
30
0
3
DimnDraft3D6
0
MTEXT
5
16C
100
AcDbEntity
8
2
62
256
6
ByLayer
370
18
48
1
60
0
100
AcDbMText
10
7.143421
20
18.95
30
0
210
0
220
0
230
1
1
\W0.7346;22.6
40
4.5
41
0
44
1.084337
50
0
71
7
72
5
7
iso_b_vert
0
LINE
5
16D
100
AcDbEntity
8
2
62
256
6
ByLayer
370
13
48
1
60
0
100
AcDbLine
10
22.6
20
8.575
30
0
11
22.6
21
20.825
31
0
39
0
210
0
220
0
230
1
0
LINE
5
16E
100
AcDbEntity
8
2
62
256
6
ByLayer
370
13
48
1
60
0
100
AcDbLine
10
0
20
9.575
30
0
11
0
21
20.825
31
0
39
0
210
0
220
0
230
1
0
LINE
5
16F
100
AcDbEntity
8
2
62
256
6
ByLayer
370
13
48
1
60
0
100
AcDbLine
10
22.6
20
17.825
30
0
11
0
21
17.825
31
0
39
0
210
0
220
0
230
1
0
LINE
5
170
100
AcDbEntity
8
2
62
256
6
ByLayer
370
13
48
1
60
0
100
AcDbLine
10
22.6
20
17.825
30
0
11
19.600001
21
17.430043
31
0
39
0
210
0
220
0
230
1
0
LINE
5
171
100
AcDbEntity
8
2
62
256
6
ByLayer
370
13
48
1
60
0
100
AcDbLine
10
22.6
20
17.825
30
0
11
19.599999
21
18.219957
31
0
39
0
210
0
220
0
230
1
0
LINE
5
172
100
AcDbEntity
8
2
62
256
6
ByLayer
370
13
48
1
60
0
100
AcDbLine
10
19.600001
20
17.430043
30
0
11
19.599999
21
18.219957
31
0
39
0
210
0
220
0
230
1
0
LINE
5
173
100
AcDbEntity
8
2
62
256
6
ByLayer
370
13
48
1
60
0
100
AcDbLine
10
0
20
17.825
30
0
11
2.999999
21
18.219957
31
0
39
0
210
0
220
0
230
1
0
LINE
5
174
100
AcDbEntity
8
2
62
256
6
ByLayer
370
13
48
1
60
0
100
AcDbLine
10
0
20
17.825
30
0
11
3.000001
21
17.430043
31
0
39
0
210
0
220
0
230
1
0
LINE
5
175
100
AcDbEntity
8
2
62
256
6
ByLayer
370
13
48
1
60
0
100
AcDbLine
10
2.999999
20
18.219957
30
0
11
3.000001
21
17.430043
31
0
39
0
210
0
220
0
230
1
0
ENDBLK
5
177
100
AcDbEntity
8
0
100
AcDbBlockEnd
0
ENDSEC
0
SECTION
2
ENTITIES
0
ELLIPSE
5
CF
100
AcDbEntity
8
1
62
256
6
ByLayer
370
18
48
1
60
0
100
AcDbEllipse
10
22.599841
20
16.249737
30
0
11
-0.788391536966596
21
25.3022947323597
31
0
210
0
220
0
230
1
40
0.465312
41
1.98633525100991
42
1.99670750741425
0
ELLIPSE
5
D0
100
AcDbEntity
8
1
62
256
6
ByLayer
370
18
48
1
60
0
100
AcDbEllipse
10
8.100582
20
-0.7125
30
0
11
-3.21560811832045E-15
21
-3
31
0
210
0
220
0
230
1
40
0.927184
41
2.4883376727267
42
-2.79396580483705E-16
0
ELLIPSE
5
D1
100
AcDbEntity
8
1
62
256
6
ByLayer
370
18
48
1
60
0
100
AcDbEllipse
10
8.175503
20
-0.7125
30
0
11
1.96394152839324E-15
21
1.6765
31
0
210
0
220
0
230
1
40
0.927184
41
0.52638932327964
42
1.5707963267949
0
ELLIPSE
5
D2
100
AcDbEntity
8
1
62
256
6
ByLayer
370
18
48
1
60
0
100
AcDbEllipse
10
7.351368
20
-0.7125
30
0
11
1.41335845750459E-15
21
1.2065
31
0
210
0
220
0
230
1
40
0.927184
41
-2.09299982855253
42
-1.04859282503727
0
ELLIPSE
5
D3
100
AcDbEntity
8
1
62
256
6
ByLayer
370
18
48
1
60
0
100
AcDbEllipse
10
8.175503
20
-0.7125
30
0
11
-1.79698900345474E-15
21
-1.6765
31
0
210
0
220
0
230
1
40
0.927184
41
1.5707963267949
42
2.61520333031016
0
ELLIPSE
5
D4
100
AcDbEntity
8
1
62
256
6
ByLayer
370
18
48
1
60
0
100
AcDbEllipse
10
7.950739
20
-0.7125
30
0
11
-3.21560811832045E-15
21
-3
31
0
210
0
220
0
230
1
40
0.927184
41
3.14159247561718
42
-2.79396580483705E-16
0
ELLIPSE
5
D5
100
AcDbEntity
8
1
62
256
6
ByLayer
370
18
48
1
60
0
100
AcDbEllipse
10
8.872202
20
-1.656462
30
0
11
-7.35302389722609E-16
21
-0.686
31
0
210
0
220
0
230
1
40
0.927184
41
-2.87699047217332
42
-2.09299982855253
0
ELLIPSE
5
D6
100
AcDbEntity
8
1
62
256
6
ByLayer
370
18
48
1
60
0
100
AcDbEllipse
10
7.351368
20
-2.59706
30
0
11
-7.35302389722609E-16
21
-0.686
31
0
210
0
220
0
230
1
40
0.927184
41
-3.01997861237289
42
-2.95985749801266
0
ELLIPSE
5
D7
100
AcDbEntity
8
1
62
256
6
ByLayer
370
18
48
1
60
0
100
AcDbEllipse
10
7.089144
20
-0.7125
30
0
11
1.41335845750459E-15
21
1.2065
31
0
210
0
220
0
230
1
40
0.927184
41
-2.98264801439368
42
-0.154821506842097
0
ELLIPSE
5
D8
100
AcDbEntity
8
1
62
256
6
ByLayer
370
18
48
1
60
0
100
AcDbEllipse
10
8.872202
20
0.231462
30
0
11
-7.35302389722609E-16
21
-0.686
31
0
210
0
220
0
230
1
40
0.927184
41
-1.04859282503727
42
-0.264602181416478
0
ELLIPSE
5
D9
100
AcDbEntity
8
1
62
256
6
ByLayer
370
18
48
1
60
0
100
AcDbEllipse
10
8.175503
20
-0.7125
30
0
11
-1.79698900345474E-15
21
-1.6765
31
0
210
0
220
0
230
1
40
0.927184
41
2.61520333031016
42
-2.61520333031015
0
ELLIPSE
5
DA
100
AcDbEntity
8
1
62
256
6
ByLayer
370
18
48
1
60
0
100
AcDbEllipse
10
8.175503
20
-0.7125
30
0
11
-1.79698900345474E-15
21
-1.6765
31
0
210
0
220
0
230
1
40
0.927184
41
-1.5707963267949
42
-0.526389323279641
0
ELLIPSE
5
DB
100
AcDbEntity
8
1
62
256
6
ByLayer
370
18
48
1
60
0
100
AcDbEllipse
10
8.073852
20
-0.7125
30
0
11
1.41335845750459E-15
21
1.2065
31
0
210
0
220
0
230
1
40
0.927184
41
3.0725600201779
42
-3.07256002017789
0
ELLIPSE
5
DC
100
AcDbEntity
8
1
62
256
6
ByLayer
370
18
48
1
60
0
100
AcDbEllipse
10
7.351368
20
1.17206
30
0
11
-7.35302389722609E-16
21
-0.686
31
0
210
0
220
0
230
1
40
0.927184
41
-0.183326672483506
42
-0.121614041216899
0
ELLIPSE
5
DD
100
AcDbEntity
8
1
62
256
6
ByLayer
370
18
48
1
60
0
100
AcDbEllipse
10
8.175503
20
-0.7125
30
0
11
-1.79698900345474E-15
21
-1.6765
31
0
210
0
220
0
230
1
40
0.927184
41
-0.526389323279641
42
0.526389323279632
0
ELLIPSE
5
DE
100
AcDbEntity
8
1
62
256
6
ByLayer
370
18
48
1
60
0
100
AcDbEllipse
10
8.175503
20
-0.7125
30
0
11
-3.00123424376575E-15
21
-2.8
31
0
210
0
220
0
230
1
40
0.927184
41
0
42
6.28318530717959
0
ELLIPSE
5
DF
100
AcDbEntity
8
1
62
256
6
ByLayer
370
18
48
1
60
0
100
AcDbEllipse
10
7.996311
20
0.484576
30
0
11
-3.12985856849857E-16
21
-0.292
31
0
210
0
220
0
230
1
40
0.927184
41
1.30900918493173
42
1.69684708887387
0
ELLIPSE
5
E0
100
AcDbEntity
8
1
62
256
6
ByLayer
370
18
48
1
60
0
100
AcDbEllipse
10
7.996311
20
-1.909576
30
0
11
-3.12985856849857E-16
21
-0.292
31
0
210
0
220
0
230
1
40
0.927184
41
1.44700144809285
42
1.83258346865806
0
ELLIPSE
5
E1
100
AcDbEntity
8
1
62
256
6
ByLayer
370
18
48
1
60
0
100
AcDbEllipse
10
8.073852
20
-0.7125
30
0
11
1.41335845750459E-15
21
1.2065
31
0
210
0
220
0
230
1
40
0.927184
41
-0.0690326334119038
42
0.0690326334118898
0
ELLIPSE
5
E2
100
AcDbEntity
8
1
62
256
6
ByLayer
370
18
48
1
60
0
100
AcDbEllipse
10
8.872202
20
-1.656462
30
0
11
-7.35302389722609E-16
21
-0.686
31
0
210
0
220
0
230
1
40
0.927184
41
-2.09299982855253
42
-1.30900918493172
0
ELLIPSE
5
E3
100
AcDbEntity
8
1
62
256
6
ByLayer
370
18
48
1
60
0
100
AcDbEllipse
10
8.872202
20
0.231462
30
0
11
-7.35302389722609E-16
21
-0.686
31
0
210
0
220
0
230
1
40
0.927184
41
-1.83258346865806
42
-1.04859282503727
0
ELLIPSE
5
E4
100
AcDbEntity
8
1
62
256
6
ByLayer
370
18
48
1
60
0
100
AcDbEllipse
10
8.175503
20
-0.7125
30
0
11
-1.79698900345474E-15
21
-1.6765
31
0
210
0
220
0
230
1
40
0.927184
41
0.526389323279633
42
1.5707963267949
0
ELLIPSE
5
E5
100
AcDbEntity
8
1
62
256
6
ByLayer
370
18
48
1
60
0
100
AcDbEllipse
10
7.351368
20
-0.7125
30
0
11
1.41335845750459E-15
21
1.2065
31
0
210
0
220
0
230
1
40
0.927184
41
-3.07256002017789
42
-2.09299982855253
0
ELLIPSE
5
E6
100
AcDbEntity
8
1
62
256
6
ByLayer
370
18
48
1
60
0
100
AcDbEllipse
10
8.635054
20
-0.7125
30
0
11
-3.12985856849857E-16
21
-0.292
31
0
210
0
220
0
230
1
40
0.927184
41
0.264602181416471
42
2.87699047217332
0
ELLIPSE
5
E7
100
AcDbEntity
8
1
62
256
6
ByLayer
370
18
48
1
60
0
100
AcDbEllipse
10
7.351368
20
-0.7125
30
0
11
1.41335845750459E-15
21
1.2065
31
0
210
0
220
0
230
1
40
0.927184
41
-1.04859282503727
42
-0.0690326334119038
0
ELLIPSE
5
E8
100
AcDbEntity
8
1
62
256
6
ByLayer
370
18
48
1
60
0
100
AcDbEllipse
10
16.368951
20
7.25
30
0
11
-0.525482745492339
21
1.23115703707307E-15
31
0
210
0
220
0
230
1
40
0.951506
41
2.79252680319316
42
-2.79252680319315
0
ELLIPSE
5
E9
100
AcDbEntity
8
1
62
256
6
ByLayer
370
18
48
1
60
0
100
AcDbEllipse
10
16.856291
20
7.876449
30
0
11
-0.157644821058742
21
-7.68133290916381E-10
31
0
210
0
220
0
230
1
40
0.951506
41
0
42
0.34906584866094
0
ELLIPSE
5
EA
100
AcDbEntity
8
1
62
256
6
ByLayer
370
18
48
1
60
0
100
AcDbEllipse
10
22.400274
20
6.45
30
0
11
2.34290668463255E-16
21
0.2
31
0
210
0
220
0
230
1
40
0.99863
41
3.0979594223051
42
-1.5707963267949
0
ELLIPSE
5
EB
100
AcDbEntity
8
1
62
256
6
ByLayer
370
18
48
1
60
0
100
AcDbEllipse
10
2.827135
20
8.05
30
0
11
2.34290668463255E-16
21
0.2
31
0
210
0
220
0
230
1
40
0.99863
41
-0.0436332312846621
42
1.5707963267949
0
ELLIPSE
5
EC
100
AcDbEntity
8
1
62
256
6
ByLayer
370
18
48
1
60
0
100
AcDbEllipse
10
22.400274
20
8.05
30
0
11
-2.14373874554696E-16
21
-0.2
31
0
210
0
220
0
230
1
40
0.99863
41
1.5707963267949
42
-3.0979594223051
0
ELLIPSE
5
ED
100
AcDbEntity
8
1
62
256
6
ByLayer
370
18
48
1
60
0
100
AcDbEllipse
10
16.856291
20
6.623551
30
0
11
-0.157644821058742
21
7.68133749577135E-10
31
0
210
0
220
0
230
1
40
0.951506
41
-0.34906584866094
42
7.92597431549659E-09
0
ELLIPSE
5
EE
100
AcDbEntity
8
1
62
256
6
ByLayer
370
18
48
1
60
0
100
AcDbEllipse
10
11.387319
20
5.7
30
0
11
9.3716267385292E-16
21
0.799999999999914
31
0
210
0
220
0
230
1
40
0.965288
41
0.00456664326339976
42
1.5707963267949
0
ELLIPSE
5
EF
100
AcDbEntity
8
1
62
256
6
ByLayer
370
18
48
1
60
0
100
AcDbEllipse
10
9.364186
20
-0.7125
30
0
11
4.19437608314676
21
5.13645960174214E-16
31
0
210
0
220
0
230
-1
40
0.901606
41
2.47677347073796
42
3.0678600401576
0
ELLIPSE
5
F0
100
AcDbEntity
8
1
62
256
6
ByLayer
370
18
48
1
60
0
100
AcDbEllipse
10
9.364186
20
-0.7125
30
0
11
4.19437608314676
21
5.13645960174214E-16
31
0
210
0
220
0
230
-1
40
0.901606
41
-3.0678600401576
42
-2.47677347073796
0
ELLIPSE
5
F1
100
AcDbEntity
8
1
62
256
6
ByLayer
370
18
48
1
60
0
100
AcDbEllipse
10
8.385786
20
-0.7125
30
0
11
3.42434780800133
21
4.19347808337616E-16
31
0
210
0
220
0
230
-1
40
0.927184
41
-2.31622622467297
42
-2.14800676120711
0
ELLIPSE
5
F2
100
AcDbEntity
8
1
62
256
6
ByLayer
370
18
48
1
60
0
100
AcDbEllipse
10
10.282313
20
-0.7125
30
0
11
-3.7648555862046E-08
21
-3.17499957164764
31
0
210
0
220
0
230
1
40
0.123837
41
1.00911647115284
42
1.05793353168582
0
ELLIPSE
5
F3
100
AcDbEntity
8
1
62
256
6
ByLayer
370
18
48
1
60
0
100
AcDbEllipse
10
10.282313
20
-0.7125
30
0
11
-3.61161476340707E-08
21
3.17499958914806
31
0
210
0
220
0
230
1
40
0.123837
41
-1.0579335296137
42
-1.00911646929443
0
ELLIPSE
5
F4
100
AcDbEntity
8
1
62
256
6
ByLayer
370
18
48
1
60
0
100
AcDbEllipse
10
8.059843
20
-0.7125
30
0
11
3.71936436185417E-15
21
3.175
31
0
210
0
220
0
230
1
40
0.927184
41
-1.05793347977925
42
-0.0108273392785926
0
ELLIPSE
5
F5
100
AcDbEntity
8
1
62
256
6
ByLayer
370
18
48
1
60
0
100
AcDbEllipse
10
8.652733
20
5.7
30
0
11
2.13557373004321
21
2.61523715886707E-16
31
0
210
0
220
0
230
-1
40
0.374607
41
3.14159265358979
42
-1.5707963267949
0
ELLIPSE
5
F6
100
AcDbEntity
8
1
62
256
6
ByLayer
370
18
48
1
60
0
100
AcDbEllipse
10
8.123562
20
-0.7125
30
0
11
3.71936436185417E-15
21
3.175
31
0
210
0
220
0
230
1
40
0.927184
41
-1.00911642444214
42
0.577210434412216
0
ELLIPSE
5
F7
100
AcDbEntity
8
1
62
256
6
ByLayer
370
18
48
1
60
0
100
AcDbEllipse
10
11.528144
20
5.7
30
0
11
-0.566886212733059
21
-0.577894872637554
31
0
210
0
220
0
230
1
40
0.975869
41
-2.37801779950244
42
-0.807221472707507
0
ELLIPSE
5
F8
100
AcDbEntity
8
1
62
256
6
ByLayer
370
18
48
1
60
0
100
AcDbEllipse
10
8.123562
20
-0.7125
30
0
11
3.71936436185417E-15
21
3.175
31
0
210
0
220
0
230
1
40
0.927184
41
2.56438221917758
42
-2.13247622914765
0
ELLIPSE
5
F9
100
AcDbEntity
8
1
62
256
6
ByLayer
370
18
48
1
60
0
100
AcDbEllipse
10
8.385786
20
-0.7125
30
0
11
3.42434780800133
21
4.19347808337616E-16
31
0
210
0
220
0
230
-1
40
0.927184
41
2.14800676120711
42
2.31622622467297
0
ELLIPSE
5
FA
100
AcDbEntity
8
1
62
256
6
ByLayer
370
18
48
1
60
0
100
AcDbEllipse
10
8.059843
20
-0.7125
30
0
11
3.71936436185417E-15
21
3.175
31
0
210
0
220
0
230
1
40
0.927184
41
-3.13076531431121
42
-2.08365917381055
0
POINT
5
6C
100
AcDbEntity
8
81
62
256
6
ByLayer
370
18
48
1
60
0
100
AcDbPoint
10
22.6
20
8.25
30
0
39
0
210
0
220
0
230
1
50
360
0
POINT
5
6E
100
AcDbEntity
8
80
62
256
6
ByLayer
370
18
48
1
60
0
100
AcDbPoint
10
0
20
0
30
0
39
0
210
0
220
0
230
1
50
360
0
POINT
5
70
100
AcDbEntity
8
2
62
256
6
ByLayer
370
18
48
1
60
0
100
AcDbPoint
10
22.6
20
7.25
30
0
39
0
210
0
220
0
230
1
50
360
0
POINT
5
72
100
AcDbEntity
8
4
62
256
6
ByLayer
370
13
48
1
60
0
100
AcDbPoint
10
5.999783
20
-0.7125
30
0
39
0
210
0
220
0
230
1
50
360
0
SPLINE
5
FB
100
AcDbEntity
8
1
62
256
6
ByLayer
370
18
48
1
60
0
100
AcDbSpline
70
4
71
3
72
29
73
25
40
0
40
0
40
0
40
0
40
0.0263637531482761
40
0.074583402546676
40
0.122821701936121
40
0.17107310994379
40
0.2193506200409
40
0.267663770312611
40
0.316018027987247
40
0.364414950026312
40
0.412852896989274
40
0.461328009828812
40
0.509835176229446
40
0.558368796775637
40
0.606923263178573
40
0.655493145813134
40
0.70407314230898
40
0.75265612471171
40
0.80123623140148
40
0.849806938981127
40
0.89836097402518
40
0.946890492578554
40
0.99538758249424
40
1
40
1
40
1
40
1
41
1
10
8.10058154374337
20
-3.71249999999927
30
0
41
1
10
8.1619569795063
20
-3.71249298176875
30
0
41
1
10
8.33501540092843
20
-3.70640099641778
30
0
41
1
10
8.61894861908371
20
-3.66788818385842
30
0
41
1
10
8.94559719987075
20
-3.57986042885312
30
0
41
1
10
9.26009461473609
20
-3.45043205750386
30
0
41
1
10
9.55780385531634
20
-3.28148276325746
30
0
41
1
10
9.83449076952331
20
-3.07542486053831
30
0
41
1
10
10.0861723248326
20
-2.83519761116639
30
0
41
1
10
10.3092159701676
20
-2.56423328454636
30
0
41
1
10
10.5003841500283
20
-2.26641556827605
30
0
41
1
10
10.6568896230123
20
-1.94602702787705
30
0
41
1
10
10.7764401455394
20
-1.6076875448789
30
0
41
1
10
10.8572753161223
20
-1.25628615983078
30
0
41
1
10
10.8981942723119
20
-0.896907774658246
30
0
41
1
10
10.8985719102842
20
-0.534761133380925
30
0
41
1
10
10.8583754649986
20
-0.175097920956205
30
0
41
1
10
10.7781428770982
20
0.176829587886317
30
0
41
1
10
10.6590705049021
20
0.515981957944291
30
0
41
1
10
10.5026497943779
20
0.837094507190045
30
0
41
1
10
10.3119463815072
20
1.13667098985957
30
0
41
1
10
10.086727534615
20
1.40587700537031
30
0
41
1
10
9.91539671546636
20
1.5815830707935
30
0
41
1
10
9.81418599582156
20
1.65677050523556
30
0
41
1
10
9.80533554061572
20
1.66322218394643
30
0
0
SPLINE
5
FC
100
AcDbEntity
8
1
62
256
6
ByLayer
370
18
48
1
60
0
100
AcDbSpline
70
4
71
3
72
12
73
8
40
0
40
0
40
0
40
0
40
0.220674604214195
40
0.220674604214195
40
0.646184423549719
40
0.646184423549719
40
1
40
1
40
1
40
1
41
1
10
22.3803454979673
20
6.25245967251402
30
0
41
1
10
22.349308573936
20
6.2174825139866
30
0
41
1
10
22.3162599365437
20
6.18023824880029
30
0
41
1
10
22.2161340300078
20
6.0674010455362
30
0
41
1
10
22.1448570967917
20
5.98707528290788
30
0
41
1
10
22.0126324099265
20
5.83806425884308
30
0
41
1
10
21.9510804101587
20
5.76869804035476
30
0
41
1
10
21.8901213171594
20
5.70000000000192
30
0
0
SPLINE
5
FD
100
AcDbEntity
8
1
62
256
6
ByLayer
370
18
48
1
60
0
100
AcDbSpline
70
4
71
3
72
16
73
12
40
0
40
0
40
0
40
0
40
0.242437982622622
40
0.242437982622622
40
0.472250210676786
40
0.472250210676786
40
0.694160378477584
40
0.694160378477584
40
0.932121936512375
40
0.932121936512375
40
1
40
1
40
1
40
1
41
1
10
12.5494902426962
20
6.45264579083991
30
0
41
1
10
12.4743955707957
20
6.42576287518412
30
0
41
1
10
12.4036085497868
20
6.38650000338717
30
0
41
1
10
12.2878579630477
20
6.29079786418308
30
0
41
1
10
12.2401576479139
20
6.2340217149526
30
0
41
1
10
12.1711326704509
20
6.11263924615892
30
0
41
1
10
12.1480153592781
20
6.04690365645638
30
0
41
1
10
12.123588119663
20
5.90865749931166
30
0
41
1
10
12.1235636809735
20
5.83436215144127
30
0
41
1
10
12.1376239073694
20
5.74129566626783
30
0
41
1
10
12.1416699002714
20
5.72056464574797
30
0
41
1
10
12.1465641280342
20
5.70000000000178
30
0
0
SPLINE
5
FE
100
AcDbEntity
8
1
62
256
6
ByLayer
370
18
48
1
60
0
100
AcDbSpline
70
4
71
3
72
14
73
10
40
0
40
0
40
0
40
0
40
0.282169922576117
40
0.282169922576117
40
0.566902245317963
40
0.566902245317963
40
0.82452397208026
40
0.82452397208026
40
1
40
1
40
1
40
1
41
1
10
8.58642346338536
20
-2.11483678764935
30
0
41
1
10
8.61487611375466
20
-2.13872880347841
30
0
41
1
10
8.6476280180228
20
-2.15919095398419
30
0
41
1
10
8.71749097771749
20
-2.18892759952047
30
0
41
1
10
8.7557439414534
20
-2.19850316007205
30
0
41
1
10
8.82775789745145
20
-2.2031398176596
30
0
41
1
10
8.8626874004309
20
-2.19950486817277
30
0
41
1
10
8.91658253504738
20
-2.18333834362812
30
0
41
1
10
8.93754795598059
20
-2.17390433355004
30
0
41
1
10
8.9564682503094
20
-2.16204676283618
30
0
0
SPLINE
5
FF
100
AcDbEntity
8
1
62
256
6
ByLayer
370
18
48
1
60
0
100
AcDbSpline
70
4
71
3
72
12
73
8
40
0
40
0
40
0
40
0
40
0.49578557572896
40
0.49578557572896
40
0.900238279923932
40
0.900238279923932
40
1
40
1
40
1
40
1
41
1
10
7.68165710202987
20
0.689836787650819
30
0
41
1
10
7.71421807449738
20
0.639108012957337
30
0
41
1
10
7.75652477541934
20
0.594623351453805
30
0
41
1
10
7.85028738532992
20
0.532660731175866
30
0
41
1
10
7.89981637672622
20
0.511163650636092
30
0
41
1
10
7.96827575553436
20
0.495662025965629
30
0
41
1
10
7.98233602202339
20
0.493106579894345
30
0
41
1
10
7.99668977973073
20
0.49112635089665
30
0
0
SPLINE
5
100
100
AcDbEntity
8
1
62
256
6
ByLayer
370
18
48
1
60
0
100
AcDbSpline
70
4
71
3
72
12
73
8
40
0
40
0
40
0
40
0
40
0.495785575728942
40
0.495785575728942
40
0.900238279923919
40
0.900238279923919
40
1
40
1
40
1
40
1
41
1
10
8.58642346338536
20
-2.11483678764935
30
0
41
1
10
8.52601131146224
20
-2.0641080129559
30
0
41
1
10
8.45734413111217
20
-2.01962335145237
30
0
41
1
10
8.32503572421427
20
-1.9576607311744
30
0
41
1
10
8.26131837841507
20
-1.93616365063463
30
0
41
1
10
8.18248722605895
20
-1.92066202596419
30
0
41
1
10
8.16670519719651
20
-1.91810657989291
30
0
41
1
10
8.15101348062643
20
-1.91612635089521
30
0
0
SPLINE
5
101
100
AcDbEntity
8
1
62
256
6
ByLayer
370
18
48
1
60
0
100
AcDbSpline
70
4
71
3
72
12
73
8
40
0
40
0
40
0
40
0
40
0.422118641229887
40
0.422118641229887
40
0.843213633747406
40
0.843213633747406
40
1
40
1
40
1
40
1
41
1
10
7.99668977973073
20
-1.91612635089521
30
0
41
1
10
7.93693838667775
20
-1.9243695889092
30
0
41
1
10
7.88200929564618
20
-1.94296260794059
30
0
41
1
10
7.78854132989565
20
-1.9950690802805
30
0
41
1
10
7.74851749042699
20
-2.029109359042
30
0
41
1
10
7.70342936596464
20
-2.08308295421318
30
0
41
1
10
7.69206711347394
20
-2.09861837999492
30
0
41
1
10
7.68165710202987
20
-2.11483678764935
30
0
0
SPLINE
5
102
100
AcDbEntity
8
1
62
256
6
ByLayer
370
18
48
1
60
0
100
AcDbSpline
70
4
71
3
72
14
73
10
40
0
40
0
40
0
40
0
40
0.283961749036712
40
0.283961749036712
40
0.570285189259026
40
0.570285189259026
40
0.829451094335683
40
0.829451094335683
40
1
40
1
40
1
40
1
41
1
10
7.22823562078756
20
-1.83400404177513
30
0
41
1
10
7.22670332152296
20
-1.8663881130278
30
0
41
1
10
7.22990721025505
20
-1.90132554195819
30
0
41
1
10
7.24666329515574
20
-1.97100421461329
30
0
41
1
10
7.2606150341864
20
-2.00681482284122
30
0
41
1
10
7.29653238698296
20
-2.06940846986956
30
0
41
1
10
7.31819931186294
20
-2.09764373353255
30
0
41
1
10
7.35872581961911
20
-2.13677613243104
30
0
41
1
10
7.37631585744958
20
-2.15062706135268
30
0
41
1
10
7.39453747454371
20
-2.16204676283618
30
0
0
SPLINE
5
103
100
AcDbEntity
8
1
62
256
6
ByLayer
370
18
48
1
60
0
100
AcDbSpline
70
4
71
3
72
16
73
12
40
0
40
0
40
0
40
0
40
0.0624450082614046
40
0.0624450082614046
40
0.283207995985753
40
0.283207995985753
40
0.506745688833496
40
0.506745688833496
40
0.744607284736919
40
0.744607284736919
40
1
40
1
40
1
40
1
41
1
10
8.9564682503094
20
0.737046762837622
30
0
41
1
10
8.94970723783911
20
0.741283968774837
30
0
41
1
10
8.94270239223391
20
0.745209251946363
30
0
41
1
10
8.91021688764656
20
0.761394086536683
30
0
41
1
10
8.88202834310192
20
0.769915588629345
30
0
41
1
10
8.82411979046475
20
0.777880001582162
30
0
41
1
10
8.79365325364049
20
0.777332321179841
30
0
41
1
10
8.73263237750288
20
0.767681426718838
30
0
41
1
10
8.70143113036909
20
0.757942932604522
30
0
41
1
10
8.64139973561555
20
0.730261369635173
30
0
41
1
10
8.61217725434858
20
0.711462540379131
30
0
41
1
10
8.58642346338536
20
0.689836787650819
30
0
0
SPLINE
5
104
100
AcDbEntity
8
1
62
256
6
ByLayer
370
18
48
1
60
0
100
AcDbSpline
70
4
71
3
72
12
73
8
40
0
40
0
40
0
40
0
40
0.422118641229828
40
0.422118641229828
40
0.843213633747329
40
0.843213633747329
40
1
40
1
40
1
40
1
41
1
10
8.15101348062643
20
0.49112635089665
30
0
41
1
10
8.21633448879524
20
0.499369588910639
30
0
41
1
10
8.28377356075617
20
0.517962607942025
30
0
41
1
10
8.41026035039005
20
0.570069080281939
30
0
41
1
10
8.4710577960287
20
0.604109359043406
30
0
41
1
10
8.54703130374179
20
0.658082954214592
30
0
41
1
10
8.56710920016707
20
0.673618379996356
30
0
41
1
10
8.58642346338536
20
0.689836787650819
30
0
0
SPLINE
5
105
100
AcDbEntity
8
1
62
256
6
ByLayer
370
18
48
1
60
0
100
AcDbSpline
70
4
71
3
72
14
73
10
40
0
40
0
40
0
40
0
40
0.282169922576105
40
0.282169922576105
40
0.566902245317968
40
0.566902245317968
40
0.824523972080265
40
0.824523972080265
40
1
40
1
40
1
40
1
41
1
10
7.68165710202987
20
0.689836787650819
30
0
41
1
10
7.66632167801646
20
0.713728803479881
30
0
41
1
10
7.64607914429453
20
0.73419095398566
30
0
41
1
10
7.59820094687657
20
0.763927599521935
30
0
41
1
10
7.56972889440559
20
0.773503160073489
30
0
41
1
10
7.51205476870109
20
0.778139817661042
30
0
41
1
10
7.48229847947698
20
0.774504868174233
30
0
41
1
10
7.43338165054945
20
0.758338343629589
30
0
41
1
10
7.41345776887252
20
0.748904333551508
30
0
41
1
10
7.39453747454371
20
0.737046762837622
30
0
0
SPLINE
5
106
100
AcDbEntity
8
1
62
256
6
ByLayer
370
18
48
1
60
0
100
AcDbSpline
70
4
71
3
72
18
73
14
40
0
40
0
40
0
40
0
40
0.212491695754831
40
0.212491695754831
40
0.386618276852949
40
0.386618276852949
40
0.56242636090669
40
0.56242636090669
40
0.715388416644358
40
0.715388416644358
40
0.918249208687831
40
0.918249208687831
40
1
40
1
40
1
40
1
41
1
10
9.04114795271983
20
0.409004041776569
30
0
41
1
10
9.01032998587758
20
0.340448913299554
30
0
41
1
10
8.98972008901455
20
0.266685025512288
30
0
41
1
10
8.97800837676255
20
0.130522153373534
30
0
41
1
10
8.98234191894795
20
0.0669487600818002
30
0
41
1
10
9.01384556590995
20
-0.0555944604681144
30
0
41
1
10
9.04198335112523
20
-0.116267535677196
30
0
41
1
10
9.11298751939495
20
-0.216204253595578
30
0
41
1
10
9.15418679266841
20
-0.258468222254066
30
0
41
1
10
9.25972669965876
20
-0.341103294307686
30
0
41
1
10
9.32878950907016
20
-0.3779819019407
30
0
41
1
10
9.42937681797875
20
-0.414549329198678
30
0
41
1
10
9.45912151723647
20
-0.423444508263799
30
0
41
1
10
9.48918259208574
20
-0.430662587869421
30
0
0
SPLINE
5
107
100
AcDbEntity
8
1
62
256
6
ByLayer
370
18
48
1
60
0
100
AcDbSpline
70
4
71
3
72
16
73
12
40
0
40
0
40
0
40
0
40
0.0630415689509273
40
0.0630415689509273
40
0.285914332024964
40
0.285914332024964
40
0.511588305408879
40
0.511588305408879
40
0.751723061839334
40
0.751723061839334
40
1
40
1
40
1
40
1
41
1
10
9.72992659460778
20
-0.712499999999267
30
0
41
1
10
9.72992659460778
20
-0.704066346166371
30
0
41
1
10
9.72952148128797
20
-0.695623031648836
30
0
41
1
10
9.725882567512
20
-0.657746207567754
30
0
41
1
10
9.71791125288465
20
-0.62837839122875
30
0
41
1
10
9.69319743591427
20
-0.574132210155966
30
0
41
1
10
9.6760540645264
20
-0.548615450355442
30
0
41
1
10
9.63419827114947
20
-0.503047083497478
30
0
41
1
10
9.60857255621664
20
-0.482859431746107
30
0
41
1
10
9.55241619777883
20
-0.450548551351631
30
0
41
1
10
9.52113264629551
20
-0.438334237530995
30
0
41
1
10
9.4891825920833
20
-0.430662587868824
30
0
0
SPLINE
5
108
100
AcDbEntity
8
1
62
256
6
ByLayer
370
18
48
1
60
0
100
AcDbSpline
70
4
71
3
72
16
73
12
40
0
40
0
40
0
40
0
40
0.0630415689509309
40
0.0630415689509309
40
0.285914332024978
40
0.285914332024978
40
0.511588305408907
40
0.511588305408907
40
0.75172306183937
40
0.75172306183937
40
1
40
1
40
1
40
1
41
1
10
6.62107913024533
20
-0.712499999999267
30
0
41
1
10
6.62107913024533
20
-0.720933653832191
30
0
41
1
10
6.62135340394363
20
-0.729376968349698
30
0
41
1
10
6.62381625991742
20
-0.767253792430779
30
0
41
1
10
6.62921355126801
20
-0.796621608769811
30
0
41
1
10
6.64587031020068
20
-0.850867789842596
30
0
41
1
10
6.65739661844609
20
-0.876384549643092
30
0
41
1
10
6.68534039593266
20
-0.921952916501056
30
0
41
1
10
6.7023536505755
20
-0.942140568252455
30
0
41
1
10
6.73926691630604
20
-0.974451448646931
30
0
41
1
10
6.75964772682079
20
-0.986665762467567
30
0
41
1
10
6.78020098142406
20
-0.99433741212971
30
0
0
SPLINE
5
109
100
AcDbEntity
8
1
62
256
6
ByLayer
370
18
48
1
60
0
100
AcDbSpline
70
4
71
3
72
16
73
12
40
0
40
0
40
0
40
0
40
0.0569446172824992
40
0.0569446172824992
40
0.279906644834054
40
0.279906644834054
40
0.505321967306648
40
0.505321967306648
40
0.74491504712876
40
0.74491504712876
40
1
40
1
40
1
40
1
41
1
10
8.9564682503094
20
-2.16204676283618
30
0
41
1
10
8.96257955815253
20
-2.15821673442093
30
0
41
1
10
8.96850379021822
20
-2.15412442622039
30
0
41
1
10
8.99638006552365
20
-2.13295865074838
30
0
41
1
10
9.01550030164844
20
-2.11213106376084
30
0
41
1
10
9.04500405312277
20
-2.06586102380283
30
0
41
1
10
9.05568434178176
20
-2.03979536171485
30
0
41
1
10
9.06820786214647
20
-1.98456196334206
30
0
41
1
10
9.06964010290898
20
-1.95462170469244
30
0
41
1
10
9.06298464209667
20
-1.89420391695305
30
0
41
1
10
9.05422795041571
20
-1.86310073485393
30
0
41
1
10
9.04114795271983
20
-1.83400404177513
30
0
0
SPLINE
5
10A
100
AcDbEntity
8
1
62
256
6
ByLayer
370
18
48
1
60
0
100
AcDbSpline
70
4
71
3
72
14
73
10
40
0
40
0
40
0
40
0
40
0.283961457856592
40
0.283961457856592
40
0.570284934646626
40
0.570284934646626
40
0.829450869060466
40
0.829450869060466
40
1
40
1
40
1
40
1
41
1
10
6.78020098142409
20
-0.430662587868824
30
0
41
1
10
6.7567105293719
20
-0.439430567540569
30
0
41
1
10
6.73339756249612
20
-0.454188691790108
30
0
41
1
10
6.69136606156712
20
-0.494684456045604
30
0
41
1
10
6.67206647072564
20
-0.521190506689493
30
0
41
1
10
6.64343590915044
20
-0.579566773783171
30
0
41
1
10
6.63294203538061
20
-0.611604397388902
30
0
41
1
10
6.62310546481507
20
-0.666857989120956
30
0
41
1
10
6.62107913024533
20
-0.689770339203704
30
0
41
1
10
6.62107913024533
20
-0.712499999999267
30
0
0
SPLINE
5
10B
100
AcDbEntity
8
1
62
256
6
ByLayer
370
18
48
1
60
0
100
AcDbSpline
70
4
71
3
72
16
73
12
40
0
40
0
40
0
40
0
40
0.0569446172825016
40
0.0569446172825016
40
0.279906644834076
40
0.279906644834076
40
0.505321967306689
40
0.505321967306689
40
0.744915047128817
40
0.744915047128817
40
1
40
1
40
1
40
1
41
1
10
7.39453747454371
20
0.737046762837622
30
0
41
1
10
7.38842616670058
20
0.733216734422399
30
0
41
1
10
7.38239508018214
20
0.729124426221858
30
0
41
1
10
7.35347774299012
20
0.707958650749816
30
0
41
1
10
7.33186855372333
20
0.687131063762308
30
0
41
1
10
7.29446677501943
20
0.640861023804263
30
0
41
1
10
7.27824961269067
20
0.614795361716318
30
0
41
1
10
7.25197173462101
20
0.559561963343526
30
0
41
1
10
7.24200829581568
20
0.529621704693909
30
0
41
1
10
7.22928775341882
20
0.469203916954513
30
0
41
1
10
7.22685886858557
20
0.438100734855397
30
0
41
1
10
7.22823562078756
20
0.409004041776598
30
0
0
SPLINE
5
10C
100
AcDbEntity
8
1
62
256
6
ByLayer
370
18
48
1
60
0
100
AcDbSpline
70
4
71
3
72
14
73
10
40
0
40
0
40
0
40
0
40
0.283961749036715
40
0.283961749036715
40
0.57028518925903
40
0.57028518925903
40
0.829451094335679
40
0.829451094335679
40
1
40
1
40
1
40
1
41
1
10
9.04114795271983
20
0.409004041776569
30
0
41
1
10
9.05570574374514
20
0.441388113029262
30
0
41
1
10
9.06490393432335
20
0.476325541959653
30
0
41
1
10
9.06988943072417
20
0.546004214614754
30
0
41
1
10
9.06558056610885
20
0.581814822842659
30
0
41
1
10
9.04374470029344
20
0.644408469871024
30
0
41
1
10
9.02712478664654
20
0.672643733534017
30
0
41
1
10
8.99131515494452
20
0.711776132432476
30
0
41
1
10
8.97468986740355
20
0.725627061354146
30
0
41
1
10
8.9564682503094
20
0.737046762837622
30
0
0
SPLINE
5
10D
100
AcDbEntity
8
1
62
256
6
ByLayer
370
18
48
1
60
0
100
AcDbSpline
70
4
71
3
72
18
73
14
40
0
40
0
40
0
40
0
40
0.212491592101872
40
0.212491592101872
40
0.386618191487481
40
0.386618191487481
40
0.562426295049364
40
0.562426295049364
40
0.715388354467613
40
0.715388354467613
40
0.918249128144792
40
0.918249128144792
40
1
40
1
40
1
40
1
41
1
10
9.4891825920833
20
-0.99433741212971
30
0
41
1
10
9.41188052519647
20
-1.0128987069362
30
0
41
1
10
9.33591267855098
20
-1.0428818089099
30
0
41
1
10
9.21141276957192
20
-1.11809652365093
30
0
41
1
10
9.15915545700273
20
-1.1605806434174
30
0
41
1
10
9.07273194896266
20
-1.25904594441178
30
0
41
1
10
9.0377126189255
20
-1.31673628689268
30
0
41
1
10
8.99538071532152
20
-1.42920391071186
30
0
41
1
10
8.98442150492679
20
-1.48469071403673
30
0
41
1
10
8.97827820148635
20
-1.61136233775818
30
0
41
1
10
8.98894774758196
20
-1.68391916155966
30
0
41
1
10
9.01875225534027
20
-1.7800065727447
30
0
41
1
10
9.02916351674665
20
-1.80734444570044
30
0
41
1
10
9.04114795272096
20
-1.83400404177763
30
0
0
SPLINE
5
10E
100
AcDbEntity
8
1
62
256
6
ByLayer
370
18
48
1
60
0
100
AcDbSpline
70
4
71
3
72
14
73
10
40
0
40
0
40
0
40
0
40
0.283961457856582
40
0.283961457856582
40
0.570284934646614
40
0.570284934646614
40
0.829450869060464
40
0.829450869060464
40
1
40
1
40
1
40
1
41
1
10
9.4891825920833
20
-0.99433741212971
30
0
41
1
10
9.52569852257813
20
-0.985569432457964
30
0
41
1
10
9.56141355654043
20
-0.970811308208425
30
0
41
1
10
9.62518663492375
20
-0.930315543952929
30
0
41
1
10
9.65412910492458
20
-0.903809493309041
30
0
41
1
10
9.69684116234455
20
-0.845433226215363
30
0
41
1
10
9.71238205167268
20
-0.813395602609631
30
0
41
1
10
9.72693550716608
20
-0.758142010877577
30
0
41
1
10
9.72992659460778
20
-0.735229660794857
30
0
41
1
10
9.72992659460778
20
-0.712499999999267
30
0
0
SPLINE
5
10F
100
AcDbEntity
8
1
62
256
6
ByLayer
370
18
48
1
60
0
100
AcDbSpline
70
4
71
3
72
18
73
14
40
0
40
0
40
0
40
0
40
0.212491592102411
40
0.212491592102411
40
0.386618191488471
40
0.386618191488471
40
0.562426295050808
40
0.562426295050808
40
0.715388354469455
40
0.715388354469455
40
0.918249128147155
40
0.918249128147155
40
1
40
1
40
1
40
1
41
1
10
6.78020098142409
20
-0.430662587868824
30
0
41
1
10
6.82992888021053
20
-0.412101293062363
30
0
41
1
10
6.87985488400784
20
-0.382118191088665
30
0
41
1
10
6.96633769484427
20
-0.306903476347628
30
0
41
1
10
7.00464851856825
20
-0.264419356581158
30
0
41
1
10
7.07494451377016
20
-0.165954055586781
30
0
41
1
10
7.1078878398022
20
-0.108263713105885
30
0
41
1
10
7.15870327135372
20
0.0042039107133292
30
0
41
1
10
7.17859901944092
20
0.0596907140381688
30
0
41
1
10
7.21319089874626
20
0.186362337759647
30
0
41
1
10
7.22477193241684
20
0.258919161561096
30
0
41
1
10
7.22946564659645
20
0.355006572745253
30
0
41
1
10
7.22949705821287
20
0.38234444570017
30
0
41
1
10
7.22823562078756
20
0.409004041776569
30
0
0
SPLINE
5
110
100
AcDbEntity
8
1
62
256
6
ByLayer
370
18
48
1
60
0
100
AcDbSpline
70
4
71
3
72
18
73
14
40
0
40
0
40
0
40
0
40
0.212491695755301
40
0.212491695755301
40
0.386618276853804
40
0.386618276853804
40
0.562426360907932
40
0.562426360907932
40
0.715388416645935
40
0.715388416645935
40
0.918249208689865
40
0.918249208689865
40
1
40
1
40
1
40
1
41
1
10
7.22823562078756
20
-1.83400404177513
30
0
41
1
10
7.23147940604636
20
-1.76544891329812
30
0
41
1
10
7.22604744775688
20
-1.69168502551085
30
0
41
1
10
7.19974206246064
20
-1.5555221533721
30
0
41
1
10
7.18146203809653
20
-1.49194876008036
30
0
41
1
10
7.13383089135993
20
-1.36940553953045
30
0
41
1
10
7.1036171085243
20
-1.30873246432134
30
0
41
1
10
7.04109647661735
20
-1.20879574640298
30
0
41
1
10
7.00883374448136
20
-1.16653177774447
30
0
41
1
10
6.93174242098129
20
-1.08389670569088
30
0
41
1
10
6.88493019628217
20
-1.04701809805783
30
0
41
1
10
6.8188411046396
20
-1.01045067080017
30
0
41
1
10
6.79953906833012
20
-1.00155549173525
30
0
41
1
10
6.78020098142409
20
-0.99433741212971
30
0
0
SPLINE
5
111
100
AcDbEntity
8
1
62
256
6
ByLayer
370
18
48
1
60
0
100
AcDbSpline
70
4
71
3
72
16
73
12
40
0
40
0
40
0
40
0
40
0.0624450082613994
40
0.0624450082613994
40
0.283207995985773
40
0.283207995985773
40
0.506745688833536
40
0.506745688833536
40
0.744607284736977
40
0.744607284736977
40
1
40
1
40
1
40
1
41
1
10
7.39453747454371
20
-2.16204676283618
30
0
41
1
10
7.401298487014
20
-2.16628396877337
30
0
41
1
10
7.40817249213222
20
-2.17020925194493
30
0
41
1
10
7.43948193420229
20
-2.18639408653525
30
0
41
1
10
7.46509645255171
20
-2.19491558862788
30
0
41
1
10
7.51494794169054
20
-2.20288000158072
30
0
41
1
10
7.53979741261736
20
-2.20233232117838
30
0
41
1
10
7.58690626744604
20
-2.1926814267174
30
0
41
1
10
7.60949505149688
20
-2.18294293260305
30
0
41
1
10
7.6499150168728
20
-2.15526136963374
30
0
41
1
10
7.66777631063619
20
-2.13646254037769
30
0
41
1
10
7.68165710202985
20
-2.11483678764938
30
0
0
SPLINE
5
112
100
AcDbEntity
8
1
62
256
6
ByLayer
370
18
48
1
60
0
100
AcDbSpline
70
4
71
2
72
6
73
3
40
0
40
0
40
0
40
1
40
1
40
1
41
0.50000065183339
10
11.3837922171951
20
6.4999916583223
30
0
41
0.49999934816661
10
11.3748714222268
20
6.50000000000008
30
0
41
0.50000065183339
10
11.3659505342384
20
6.50000000000009
30
0
0
SPLINE
5
113
100
AcDbEntity
8
1
62
256
6
ByLayer
370
18
48
1
60
0
100
AcDbSpline
70
4
71
3
72
8
73
4
40
0
40
0
40
0
40
0
40
1
40
1
40
1
40
1
41
1
10
10.6249108545179
20
-2.27038924183503
30
0
41
1
10
10.6276000981794
20
-2.1770294694054
30
0
41
1
10
10.6300991755429
20
-2.08146481497889
30
0
41
1
10
10.6323801473325
20
-1.9840990061592
30
0
0
SPLINE
5
114
100
AcDbEntity
8
1
62
256
6
ByLayer
370
18
48
1
60
0
100
AcDbSpline
70
4
71
3
72
8
73
4
40
0
40
0
40
0
40
0
40
1
40
1
40
1
40
1
41
1
10
10.6324489609303
20
0.555749680437771
30
0
41
1
10
10.6301466285664
20
0.654492027380911
30
0
41
1
10
10.627623632283
20
0.751212459556683
30
0
41
1
10
10.6249108545179
20
0.845389241836955
30
0
0
SPLINE
5
115
100
AcDbEntity
8
1
62
256
6
ByLayer
370
18
48
1
60
0
100
AcDbSpline
70
4
71
3
72
8
73
4
40
0
40
0
40
0
40
0
40
1
40
1
40
1
40
1
41
1
10
15.9498799513891
20
7.63035643556671
30
0
41
1
10
15.8973379650877
20
7.75555761700309
30
0
41
1
10
15.8443639470526
20
7.88051106247613
30
0
41
1
10
15.790568294867
20
8.00496977363503
30
0
0
SPLINE
5
116
100
AcDbEntity
8
1
62
256
6
ByLayer
370
18
48
1
60
0
100
AcDbSpline
70
4
71
3
72
12
73
8
40
0
40
0
40
0
40
0
40
0.367292260733839
40
0.367292260733839
40
0.734922303957986
40
0.734922303957986
40
1
40
1
40
1
40
1
41
1
10
15.9498799513891
20
6.86964356443346
30
0
41
1
10
15.985961595192
20
6.95562174588986
30
0
41
1
10
16.0100076317367
20
7.05010421876707
30
0
41
1
10
16.0299146820519
20
7.24060593788266
30
0
41
1
10
16.0260230842774
20
7.33924862201994
30
0
41
1
10
15.99597997168
20
7.50113656782455
30
0
41
1
10
15.976098155032
20
7.56788163585759
30
0
41
1
10
15.9498799513942
20
7.63035643556884
30
0
0
SPLINE
5
117
100
AcDbEntity
8
1
62
256
6
ByLayer
370
18
48
1
60
0
100
AcDbSpline
70
4
71
3
72
8
73
4
40
0
40
0
40
0
40
0
40
1
40
1
40
1
40
1
41
1
10
15.7927158449528
20
6.50000000000179
30
0
41
1
10
15.8457731973077
20
6.62281565271925
30
0
41
1
10
15.8980372653284
20
6.7461087306645
30
0
41
1
10
15.9498799513891
20
6.86964356443346
30
0
0
SPLINE
5
118
100
AcDbEntity
8
1
62
256
6
ByLayer
370
18
48
1
60
0
100
AcDbSpline
70
4
71
2
72
6
73
3
40
0
40
0
40
0
40
1
40
1
40
1
41
0.500000651873795
10
11.3837922171952
20
6.499991658324
30
0
41
0.499999348126205
10
11.3856832944379
20
6.50000000000179
30
0
41
0.500000651873795
10
11.3875743914003
20
6.50000000000179
30
0
0
LINE
5
74
100
AcDbEntity
8
80
62
256
6
ByLayer
370
18
48
1
60
0
100
AcDbLine
10
0
20
0
30
0
11
-5
21
0
31
0
39
0
210
0
220
0
230
1
0
LINE
5
75
100
AcDbEntity
8
81
62
256
6
ByLayer
370
18
48
1
60
0
100
AcDbLine
10
22.6
20
8.25
30
0
11
27.593148
21
8.25
31
0
39
0
210
0
220
0
230
1
0
LINE
5
76
100
AcDbEntity
8
1
62
256
6
ByLayer
370
18
48
1
60
0
100
AcDbLine
10
7.950739
20
-3.7125
30
0
11
8.100582
21
-3.7125
31
0
39
0
210
0
220
0
230
1
0
LINE
5
78
100
AcDbEntity
8
1
62
256
6
ByLayer
370
18
48
1
60
0
100
AcDbLine
10
8.100582
20
2.2875
30
0
11
7.950739
21
2.2875
31
0
39
0
210
0
220
0
230
1
0
LINE
5
79
100
AcDbEntity
8
1
62
256
6
ByLayer
370
18
48
1
60
0
100
AcDbLine
10
21.890121
20
5.7
30
0
11
11.2701
21
-6.268266
31
0
39
0
210
0
220
0
230
1
0
LINE
5
7A
100
AcDbEntity
8
1
62
256
6
ByLayer
370
18
48
1
60
0
100
AcDbLine
10
10.940031
20
5.462
30
0
11
11.2701
21
5.462
31
0
39
0
210
0
220
0
230
1
0
LINE
5
7B
100
AcDbEntity
8
1
62
256
6
ByLayer
370
18
48
1
60
0
100
AcDbLine
10
12.146564
20
5.7
30
0
11
21.890121
21
5.7
31
0
39
0
210
0
220
0
230
1
0
LINE
5
7C
100
AcDbEntity
8
1
62
256
6
ByLayer
370
18
48
1
60
0
100
AcDbLine
10
11.2701
20
5.462
30
0
11
12.203904
21
5.462
31
0
39
0
210
0
220
0
230
1
0
LINE
5
7D
100
AcDbEntity
8
1
62
256
6
ByLayer
370
18
48
1
60
0
100
AcDbLine
10
11.2701
20
-6.268266
30
0
11
10.940063
21
-6.640203
31
0
39
0
210
0
220
0
230
1
0
LINE
5
7E
100
AcDbEntity
8
1
62
256
6
ByLayer
370
18
48
1
60
0
100
AcDbLine
10
11.2701
20
5.462
30
0
11
11.2701
21
-6.268266
31
0
39
0
210
0
220
0
230
1
0
LINE
5
7F
100
AcDbEntity
8
1
62
256
6
ByLayer
370
18
48
1
60
0
100
AcDbLine
10
11.247925
20
6.442182
30
0
11
11.271823
21
5.462
31
0
39
0
210
0
220
0
230
1
0
LINE
5
80
100
AcDbEntity
8
1
62
256
6
ByLayer
370
18
48
1
60
0
100
AcDbLine
10
11.24806
20
6.442248
30
0
11
11.271982
21
5.462
31
0
39
0
210
0
220
0
230
1
0
LINE
5
81
100
AcDbEntity
8
1
62
256
6
ByLayer
370
18
48
1
60
0
100
AcDbLine
10
10.615088
20
5.7
30
0
11
10.728758
21
5.7
31
0
39
0
210
0
220
0
230
1
0
LINE
5
82
100
AcDbEntity
8
SK1
62
256
6
ByLayer
370
18
48
1
60
0
100
AcDbLine
10
0
20
-7.925
30
0
11
0
21
8.000397
31
0
39
0
210
0
220
0
230
1
0
LINE
5
84
100
AcDbEntity
8
1
62
256
6
ByLayer
370
18
48
1
60
0
100
AcDbLine
10
10.816171
20
-6.779822
30
0
11
10.816171
21
-1.404706
31
0
39
0
210
0
220
0
230
1
0
LINE
5
85
100
AcDbEntity
8
1
62
256
6
ByLayer
370
18
48
1
60
0
100
AcDbLine
10
10.816171
20
-0.020615
30
0
11
10.816171
21
5.462
31
0
39
0
210
0
220
0
230
1
0
LINE
5
86
100
AcDbEntity
8
1
62
256
6
ByLayer
370
18
48
1
60
0
100
AcDbLine
10
10.940066
20
-6.640199
30
0
11
10.816171
21
-6.779822
31
0
39
0
210
0
220
0
230
1
0
LINE
5
87
100
AcDbEntity
8
1
62
256
6
ByLayer
370
18
48
1
60
0
100
AcDbLine
10
10.816171
20
-6.779822
30
0
11
10.615088
21
-7.006434
31
0
39
0
210
0
220
0
230
1
0
LINE
5
88
100
AcDbEntity
8
1
62
256
6
ByLayer
370
18
48
1
60
0
100
AcDbLine
10
5
20
8.021817
30
0
11
5
21
-7.925
31
0
39
0
210
0
220
0
230
1
0
LINE
5
89
100
AcDbEntity
8
1
62
256
6
ByLayer
370
18
48
1
60
0
100
AcDbLine
10
9.611646
20
6.5
30
0
11
9.611646
21
8.021817
31
0
39
0
210
0
220
0
230
1
0
LINE
5
8A
100
AcDbEntity
8
1
62
256
6
ByLayer
370
18
48
1
60
0
100
AcDbLine
10
5
20
-7.925
30
0
11
6.517159
21
-7.925
31
0
39
0
210
0
220
0
230
1
0
LINE
5
8B
100
AcDbEntity
8
1
62
256
6
ByLayer
370
18
48
1
60
0
100
AcDbLine
10
9.611646
20
8.021817
30
0
11
5
21
8.021817
31
0
39
0
210
0
220
0
230
1
0
LINE
5
8C
100
AcDbEntity
8
SK1
62
256
6
ByLayer
370
18
48
1
60
0
100
AcDbLine
10
-47.4
20
8
30
0
11
-47.4
21
-4.951066
31
0
39
0
210
0
220
0
230
1
0
LINE
5
8D
100
AcDbEntity
8
SK1
62
256
6
ByLayer
370
18
48
1
60
0
100
AcDbLine
10
-0.25
20
8
30
0
11
-47.4
21
8
31
0
39
0
210
0
220
0
230
1
0
LINE
5
8E
100
AcDbEntity
8
SK1
62
256
6
ByLayer
370
18
48
1
60
0
100
AcDbLine
10
-44.4
20
-7.925
30
0
11
-0.25
21
-7.925
31
0
39
0
210
0
220
0
230
1
0
LINE
5
8F
100
AcDbEntity
8
SK1
62
256
6
ByLayer
370
18
48
1
60
0
100
AcDbLine
10
0
20
-7.925
30
0
11
-0.25
21
-7.925
31
0
39
0
210
0
220
0
230
1
0
LINE
5
90
100
AcDbEntity
8
SK1
62
256
6
ByLayer
370
18
48
1
60
0
100
AcDbLine
10
-0.25
20
8
30
0
11
0
21
8.000397
31
0
39
0
210
0
220
0
230
1
0
LINE
5
91
100
AcDbEntity
8
SK1
62
256
6
ByLayer
370
18
48
1
60
0
100
AcDbLine
10
-0.25
20
-7.925
30
0
11
-0.25
21
8
31
0
39
0
210
0
220
0
230
1
0
LINE
5
92
100
AcDbEntity
8
SK1
62
256
6
ByLayer
370
18
48
1
60
0
100
AcDbLine
10
-47.4
20
-4.951066
30
0
11
-44.4
21
-7.925
31
0
39
0
210
0
220
0
230
1
0
LINE
5
93
100
AcDbEntity
8
1
62
256
6
ByLayer
370
18
48
1
60
0
100
AcDbLine
10
0.143063
20
-7.925
30
0
11
0
21
-7.925
31
0
39
0
210
0
220
0
230
1
0
LINE
5
94
100
AcDbEntity
8
1
62
256
6
ByLayer
370
18
48
1
60
0
100
AcDbLine
10
0.143063
20
8.000624
30
0
11
0.143063
21
-7.925
31
0
39
0
210
0
220
0
230
1
0
LINE
5
95
100
AcDbEntity
8
1
62
256
6
ByLayer
370
18
48
1
60
0
100
AcDbLine
10
9.611646
20
6.5
30
0
11
11.365951
21
6.5
31
0
39
0
210
0
220
0
230
1
0
LINE
5
96
100
AcDbEntity
8
1
62
256
6
ByLayer
370
18
48
1
60
0
100
AcDbLine
10
9.611646
20
6.5
30
0
11
8.652733
21
6.5
31
0
39
0
210
0
220
0
230
1
0
LINE
5
97
100
AcDbEntity
8
1
62
256
6
ByLayer
370
18
48
1
60
0
100
AcDbLine
10
0
20
-7.925
30
0
11
0
21
8.000397
31
0
39
0
210
0
220
0
230
1
0
LINE
5
98
100
AcDbEntity
8
1
62
256
6
ByLayer
370
18
48
1
60
0
100
AcDbLine
10
5
20
8.021817
30
0
11
0.143063
21
8.000624
31
0
39
0
210
0
220
0
230
1
0
LINE
5
99
100
AcDbEntity
8
1
62
256
6
ByLayer
370
18
48
1
60
0
100
AcDbLine
10
0
20
8.000397
30
0
11
0.143063
21
8.000624
31
0
39
0
210
0
220
0
230
1
0
LINE
5
9A
100
AcDbEntity
8
1
62
256
6
ByLayer
370
18
48
1
60
0
100
AcDbLine
10
8.151013
20
-1.916126
30
0
11
7.996684
21
-1.916126
31
0
39
0
210
0
220
0
230
1
0
LINE
5
9B
100
AcDbEntity
8
1
62
256
6
ByLayer
370
18
48
1
60
0
100
AcDbLine
10
8.257825
20
0.409004
30
0
11
9.041148
21
0.409004
31
0
39
0
210
0
220
0
230
1
0
LINE
5
9C
100
AcDbEntity
8
1
62
256
6
ByLayer
370
18
48
1
60
0
100
AcDbLine
10
7.340057
20
0.689837
30
0
11
7.681657
21
0.689837
31
0
39
0
210
0
220
0
230
1
0
LINE
5
9D
100
AcDbEntity
8
1
62
256
6
ByLayer
370
18
48
1
60
0
100
AcDbLine
10
7.99669
20
0.491126
30
0
11
7.274207
21
0.491126
31
0
39
0
210
0
220
0
230
1
0
LINE
5
9E
100
AcDbEntity
8
1
62
256
6
ByLayer
370
18
48
1
60
0
100
AcDbLine
10
7.337661
20
-2.114837
30
0
11
7.681657
21
-2.114837
31
0
39
0
210
0
220
0
230
1
0
LINE
5
9F
100
AcDbEntity
8
1
62
256
6
ByLayer
370
18
48
1
60
0
100
AcDbLine
10
8.257825
20
-1.834004
30
0
11
9.041148
21
-1.834004
31
0
39
0
210
0
220
0
230
1
0
LINE
5
A0
100
AcDbEntity
8
1
62
256
6
ByLayer
370
18
48
1
60
0
100
AcDbLine
10
8.705859
20
-0.994337
30
0
11
9.489183
21
-0.994337
31
0
39
0
210
0
220
0
230
1
0
LINE
5
A1
100
AcDbEntity
8
1
62
256
6
ByLayer
370
18
48
1
60
0
100
AcDbLine
10
8.705859
20
-0.430663
30
0
11
9.489183
21
-0.430663
31
0
39
0
210
0
220
0
230
1
0
LINE
5
A2
100
AcDbEntity
8
1
62
256
6
ByLayer
370
18
48
1
60
0
100
AcDbLine
10
7.274207
20
-1.916126
30
0
11
7.99669
21
-1.916126
31
0
39
0
210
0
220
0
230
1
0
LINE
5
A3
100
AcDbEntity
8
1
62
256
6
ByLayer
370
18
48
1
60
0
100
AcDbLine
10
7.996684
20
0.491126
30
0
11
8.151013
21
0.491126
31
0
39
0
210
0
220
0
230
1
0
LINE
5
A4
100
AcDbEntity
8
1
62
256
6
ByLayer
370
18
48
1
60
0
100
AcDbLine
10
0.143063
20
-7.925
30
0
11
5
21
-7.925
31
0
39
0
210
0
220
0
230
1
0
LINE
5
A5
100
AcDbEntity
8
1
62
256
6
ByLayer
370
18
48
1
60
0
100
AcDbLine
10
10.816171
20
5.462
30
0
11
10.940066
21
5.462
31
0
39
0
210
0
220
0
230
1
0
LINE
5
A6
100
AcDbEntity
8
1
62
256
6
ByLayer
370
18
48
1
60
0
100
AcDbLine
10
19.604111
20
8.12794
30
0
11
22.391562
21
8.24981
31
0
39
0
210
0
220
0
230
1
0
LINE
5
A7
100
AcDbEntity
8
1
62
256
6
ByLayer
370
18
48
1
60
0
100
AcDbLine
10
16.862743
20
7.07899
30
0
11
16.708153
21
6.674854
31
0
39
0
210
0
220
0
230
1
0
LINE
5
A8
100
AcDbEntity
8
1
62
256
6
ByLayer
370
18
48
1
60
0
100
AcDbLine
10
11.268369
20
6.45
30
0
11
16.698646
21
6.45
31
0
39
0
210
0
220
0
230
1
0
LINE
5
A9
100
AcDbEntity
8
1
62
256
6
ByLayer
370
18
48
1
60
0
100
AcDbLine
10
19.604111
20
6.37206
30
0
11
22.391562
21
6.25019
31
0
39
0
210
0
220
0
230
1
0
LINE
5
AA
100
AcDbEntity
8
1
62
256
6
ByLayer
370
18
48
1
60
0
100
AcDbLine
10
16.862743
20
7.42101
30
0
11
16.00904
21
7.42101
31
0
39
0
210
0
220
0
230
1
0
LINE
5
AB
100
AcDbEntity
8
1
62
256
6
ByLayer
370
18
48
1
60
0
100
AcDbLine
10
16.698646
20
7.876449
30
0
11
15.845135
21
7.876449
31
0
39
0
210
0
220
0
230
1
0
LINE
5
AC
100
AcDbEntity
8
1
62
256
6
ByLayer
370
18
48
1
60
0
100
AcDbLine
10
8.418418
20
8.05
30
0
11
16.698646
21
8.05
31
0
39
0
210
0
220
0
230
1
0
LINE
5
AD
100
AcDbEntity
8
1
62
256
6
ByLayer
370
18
48
1
60
0
100
AcDbLine
10
16.862743
20
7.07899
30
0
11
16.002998
21
7.07899
31
0
39
0
210
0
220
0
230
1
0
LINE
5
AE
100
AcDbEntity
8
1
62
256
6
ByLayer
370
18
48
1
60
0
100
AcDbLine
10
16.698646
20
6.45
30
0
11
17.806578
21
6.45
31
0
39
0
210
0
220
0
230
1
0
LINE
5
AF
100
AcDbEntity
8
1
62
256
6
ByLayer
370
18
48
1
60
0
100
AcDbLine
10
16.698646
20
6.623551
30
0
11
15.845135
21
6.623551
31
0
39
0
210
0
220
0
230
1
0
LINE
5
B0
100
AcDbEntity
8
1
62
256
6
ByLayer
370
18
48
1
60
0
100
AcDbLine
10
8.418418
20
8.05
30
0
11
7.420831
21
8.05
31
0
39
0
210
0
220
0
230
1
0
LINE
5
B1
100
AcDbEntity
8
1
62
256
6
ByLayer
370
18
48
1
60
0
100
AcDbLine
10
16.862743
20
7.42101
30
0
11
16.708153
21
7.825146
31
0
39
0
210
0
220
0
230
1
0
LINE
5
B2
100
AcDbEntity
8
1
62
256
6
ByLayer
370
18
48
1
60
0
100
AcDbLine
10
8.418418
20
8.021814
30
0
11
8.418418
21
8.05
31
0
39
0
210
0
220
0
230
1
0
LINE
5
B3
100
AcDbEntity
8
1
62
256
6
ByLayer
370
18
48
1
60
0
100
AcDbLine
10
19.390267
20
6.45
30
0
11
19.604111
21
6.37206
31
0
39
0
210
0
220
0
230
1
0
LINE
5
B4
100
AcDbEntity
8
1
62
256
6
ByLayer
370
18
48
1
60
0
100
AcDbLine
10
22.6
20
8.05
30
0
11
22.6
21
6.45
31
0
39
0
210
0
220
0
230
1
0
LINE
5
B5
100
AcDbEntity
8
1
62
256
6
ByLayer
370
18
48
1
60
0
100
AcDbLine
10
19.390267
20
8.05
30
0
11
19.604111
21
8.12794
31
0
39
0
210
0
220
0
230
1
0
LINE
5
B6
100
AcDbEntity
8
1
62
256
6
ByLayer
370
18
48
1
60
0
100
AcDbLine
10
5.623298
20
8.12794
30
0
11
2.835847
21
8.24981
31
0
39
0
210
0
220
0
230
1
0
LINE
5
B7
100
AcDbEntity
8
1
62
256
6
ByLayer
370
18
48
1
60
0
100
AcDbLine
10
5.837143
20
8.05
30
0
11
5.623298
21
8.12794
31
0
39
0
210
0
220
0
230
1
0
LINE
5
B8
100
AcDbEntity
8
1
62
256
6
ByLayer
370
18
48
1
60
0
100
AcDbLine
10
2.627409
20
8.05
30
0
11
2.627409
21
8.01145
31
0
39
0
210
0
220
0
230
1
0
LINE
5
B9
100
AcDbEntity
8
1
62
256
6
ByLayer
370
18
48
1
60
0
100
AcDbLine
10
16.708153
20
7.825146
30
0
11
15.866913
21
7.825146
31
0
39
0
210
0
220
0
230
1
0
LINE
5
BA
100
AcDbEntity
8
1
62
256
6
ByLayer
370
18
48
1
60
0
100
AcDbLine
10
17.806578
20
6.45
30
0
11
17.806578
21
8.05
31
0
39
0
210
0
220
0
230
1
0
LINE
5
BB
100
AcDbEntity
8
1
62
256
6
ByLayer
370
18
48
1
60
0
100
AcDbLine
10
7.420831
20
8.0218
30
0
11
7.420831
21
8.05
31
0
39
0
210
0
220
0
230
1
0
LINE
5
BC
100
AcDbEntity
8
1
62
256
6
ByLayer
370
18
48
1
60
0
100
AcDbLine
10
16.708153
20
6.674854
30
0
11
15.867043
21
6.674854
31
0
39
0
210
0
220
0
230
1
0
LINE
5
BD
100
AcDbEntity
8
1
62
256
6
ByLayer
370
18
48
1
60
0
100
AcDbLine
10
16.698646
20
6.623551
30
0
11
16.698646
21
6.45
31
0
39
0
210
0
220
0
230
1
0
LINE
5
BE
100
AcDbEntity
8
1
62
256
6
ByLayer
370
18
48
1
60
0
100
AcDbLine
10
16.698646
20
7.876449
30
0
11
16.698646
21
8.05
31
0
39
0
210
0
220
0
230
1
0
LINE
5
BF
100
AcDbEntity
8
1
62
256
6
ByLayer
370
18
48
1
60
0
100
AcDbLine
10
19.390267
20
6.45
30
0
11
17.806578
21
6.45
31
0
39
0
210
0
220
0
230
1
0
LINE
5
C0
100
AcDbEntity
8
1
62
256
6
ByLayer
370
18
48
1
60
0
100
AcDbLine
10
19.390267
20
8.05
30
0
11
17.806578
21
8.05
31
0
39
0
210
0
220
0
230
1
0
LINE
5
C1
100
AcDbEntity
8
1
62
256
6
ByLayer
370
18
48
1
60
0
100
AcDbLine
10
16.698646
20
8.05
30
0
11
17.806578
21
8.05
31
0
39
0
210
0
220
0
230
1
0
LINE
5
C2
100
AcDbEntity
8
1
62
256
6
ByLayer
370
18
48
1
60
0
100
AcDbLine
10
5.837143
20
8.05
30
0
11
7.420831
21
8.05
31
0
39
0
210
0
220
0
230
1
0
LINE
5
C3
100
AcDbEntity
8
1
62
256
6
ByLayer
370
18
48
1
60
0
100
AcDbLine
10
9.8
20
-7.925
30
0
11
10.615088
21
-7.006434
31
0
39
0
210
0
220
0
230
1
0
LINE
5
C4
100
AcDbEntity
8
1
62
256
6
ByLayer
370
18
48
1
60
0
100
AcDbLine
10
9.8
20
-7.925
30
0
11
6.517159
21
-7.925
31
0
39
0
210
0
220
0
230
1
0
LINE
5
C5
100
AcDbEntity
8
1
62
256
6
ByLayer
370
18
48
1
60
0
100
AcDbLine
10
10.615088
20
5.7
30
0
11
10.615088
21
0.978533
31
0
39
0
210
0
220
0
230
1
0
LINE
5
C6
100
AcDbEntity
8
1
62
256
6
ByLayer
370
18
48
1
60
0
100
AcDbLine
10
6.517159
20
5.7
30
0
11
6.517159
21
1.948112
31
0
39
0
210
0
220
0
230
1
0
LINE
5
C7
100
AcDbEntity
8
1
62
256
6
ByLayer
370
18
48
1
60
0
100
AcDbLine
10
10.615088
20
-2.403533
30
0
11
10.615088
21
-7.006434
31
0
39
0
210
0
220
0
230
1
0
LINE
5
C8
100
AcDbEntity
8
1
62
256
6
ByLayer
370
18
48
1
60
0
100
AcDbLine
10
10.722949
20
5.462
30
0
11
10.728758
21
5.7
31
0
39
0
210
0
220
0
230
1
0
LINE
5
C9
100
AcDbEntity
8
1
62
256
6
ByLayer
370
18
48
1
60
0
100
AcDbLine
10
10.940066
20
-6.640199
30
0
11
10.940066
21
5.462
31
0
39
0
210
0
220
0
230
1
0
LINE
5
CA
100
AcDbEntity
8
1
62
256
6
ByLayer
370
18
48
1
60
0
100
AcDbLine
10
11.387574
20
6.5
30
0
11
15.792716
21
6.5
31
0
39
0
210
0
220
0
230
1
0
LINE
5
CB
100
AcDbEntity
8
1
62
256
6
ByLayer
370
18
48
1
60
0
100
AcDbLine
10
9.611646
20
8.021817
30
0
11
15.790568
21
8.00497
31
0
39
0
210
0
220
0
230
1
0
LINE
5
CC
100
AcDbEntity
8
1
62
256
6
ByLayer
370
18
48
1
60
0
100
AcDbLine
10
10.722949
20
5.462
30
0
11
10.816171
21
5.462
31
0
39
0
210
0
220
0
230
1
0
LINE
5
CD
100
AcDbEntity
8
1
62
256
6
ByLayer
370
18
48
1
60
0
100
AcDbLine
10
6.517159
20
-3.373112
30
0
11
6.517159
21
-7.925
31
0
39
0
210
0
220
0
230
1
0
LINE
5
CE
100
AcDbEntity
8
1
62
256
6
ByLayer
370
18
48
1
60
0
100
AcDbLine
10
6.517159
20
5.7
30
0
11
10.615088
21
5.7
31
0
39
0
210
0
220
0
230
1
0
MTEXT
5
119
100
AcDbEntity
8
SK6
62
256
6
ByLayer
370
18
48
1
60
0
100
AcDbMText
10
-39.028426
20
-18.7125
30
0
210
0
220
0
230
1
1
\W0.7003;QS-RF123E11-1616B
40
3.5
41
0
44
1.084337
50
0
71
7
72
5
7
iso_b_vert
0
DIMENSION
5
12B
100
AcDbEntity
8
SK2
62
256
6
ByLayer
370
13
48
1
60
0
100
AcDbDimension
2
DimnDraft3D1
10
-57.15
20
-7.925
30
0
11
-57.15
21
-4.644079
31
0
70
32
71
5
72
1
41
1
210
0
220
0
230
1
3
Standard
100
AcDbAlignedDimension
13
-48.9
23
8.075
33
0
14
-48.9
24
-7.925
34
0
50
90
100
AcDbRotatedDimension
1001
ACAD
1000
DSTYLE
1002
{
1070
    74
1070
     0
1070
   279
1070
     0
1070
   172
1070
     1
1070
   173
1070
     1
1070
   340
1005
11A
1070
   271
1070
     3
1070
   272
1070
     3
1070
    77
1070
     1
1070
    73
1070
     0
1070
   171
1070
     4
1070
   274
1070
     4
1070
   177
1070
     2
1070
   176
1070
     2
1070
   178
1070
     7
1070
    78
1070
     8
1070
    41
1041
3.0
1070
   147
1041
2.25
1070
    42
1041
1.5
1070
    44
1041
3.0
1070
   140
1041
4.5
1070
   343
1005
12C
1070
   344
1005
12C
1002
}
0
DIMENSION
5
140
100
AcDbEntity
8
2
62
256
6
ByLayer
370
13
48
1
60
0
100
AcDbDimension
2
DimnDraft3D2
10
36.85
20
8.075
30
0
11
36.85
21
18.575
31
0
70
32
71
5
72
1
41
1
210
0
220
0
230
1
3
Standard
100
AcDbAlignedDimension
13
24.1
23
6.075
33
0
14
24.1
24
8.075
34
0
50
90
100
AcDbRotatedDimension
1001
ACAD
1000
DSTYLE
1002
{
1070
    74
1070
     0
1070
   279
1070
     0
1070
   172
1070
     1
1070
   173
1070
     1
1070
   340
1005
11A
1070
   271
1070
     3
1070
   272
1070
     3
1070
    77
1070
     1
1070
    73
1070
     0
1070
   171
1070
     4
1070
   274
1070
     4
1070
   177
1070
     2
1070
   176
1070
     2
1070
   178
1070
     7
1070
    78
1070
     8
1070
    41
1041
3.0
1070
   147
1041
2.25
1070
    42
1041
1.5
1070
    44
1041
3.0
1070
   140
1041
4.5
1070
   343
1005
12C
1070
   344
1005
12C
1002
}
0
DIMENSION
5
14E
100
AcDbEntity
8
2
62
256
6
ByLayer
370
13
48
1
60
0
100
AcDbDimension
2
DimnDraft3D3
10
46.85
20
-7.925
30
0
11
46.85
21
-4.644079
31
0
70
32
71
5
72
1
41
1
210
0
220
0
230
1
3
Standard
100
AcDbAlignedDimension
13
24.1
23
8.075
33
0
14
1.5
24
-7.925
34
0
50
90
100
AcDbRotatedDimension
1001
ACAD
1000
DSTYLE
1002
{
1070
    74
1070
     0
1070
   279
1070
     0
1070
   172
1070
     1
1070
   173
1070
     1
1070
   340
1005
11A
1070
   271
1070
     3
1070
   272
1070
     3
1070
    77
1070
     1
1070
    73
1070
     0
1070
   171
1070
     4
1070
   274
1070
     4
1070
   177
1070
     2
1070
   176
1070
     2
1070
   178
1070
     7
1070
    78
1070
     8
1070
    41
1041
3.0
1070
   147
1041
2.25
1070
    42
1041
1.5
1070
    44
1041
3.0
1070
   140
1041
4.5
1070
   343
1005
12C
1070
   344
1005
12C
1002
}
0
DIMENSION
5
15C
100
AcDbEntity
8
SK2
62
256
6
ByLayer
370
13
48
1
60
0
100
AcDbDimension
2
DimnDraft3D4
10
-47.4
20
27.825
30
0
11
-17.681579
21
27.825
31
0
70
32
71
5
72
1
41
1
210
0
220
0
230
1
3
Standard
100
AcDbAlignedDimension
13
22.6
23
9.575
33
0
14
-47.4
24
9.575
34
0
50
0
100
AcDbRotatedDimension
1001
ACAD
1000
DSTYLE
1002
{
1070
   279
1070
     0
1070
   172
1070
     1
1070
   173
1070
     1
1070
   340
1005
11A
1070
   271
1070
     3
1070
   272
1070
     3
1070
    77
1070
     1
1070
    73
1070
     0
1070
   171
1070
     4
1070
   274
1070
     4
1070
   177
1070
     2
1070
   176
1070
     2
1070
   178
1070
     7
1070
    78
1070
     8
1070
    41
1041
3.0
1070
   147
1041
2.25
1070
    42
1041
1.5
1070
    44
1041
3.0
1070
   140
1041
4.5
1070
   343
1005
12C
1070
   344
1005
12C
1002
}
0
DIMENSION
5
16A
100
AcDbEntity
8
2
62
256
6
ByLayer
370
13
48
1
60
0
100
AcDbDimension
2
DimnDraft3D5
10
22.6
20
-22.175
30
0
11
33.1
21
-22.175
31
0
70
32
71
5
72
1
41
1
210
0
220
0
230
1
3
Standard
100
AcDbAlignedDimension
13
11.6
23
-9.425
33
0
14
22.6
24
4.575
34
0
50
0
100
AcDbRotatedDimension
1001
ACAD
1000
DSTYLE
1002
{
1070
   279
1070
     0
1070
   172
1070
     1
1070
   173
1070
     1
1070
   340
1005
11A
1070
   271
1070
     3
1070
   272
1070
     3
1070
    77
1070
     1
1070
    73
1070
     0
1070
   171
1070
     4
1070
   274
1070
     4
1070
   177
1070
     2
1070
   176
1070
     2
1070
   178
1070
     7
1070
    78
1070
     8
1070
    41
1041
3.0
1070
   147
1041
2.25
1070
    42
1041
1.5
1070
    44
1041
3.0
1070
   140
1041
4.5
1070
   343
1005
12C
1070
   344
1005
12C
1002
}
0
DIMENSION
5
178
100
AcDbEntity
8
2
62
256
6
ByLayer
370
13
48
1
60
0
100
AcDbDimension
2
DimnDraft3D6
10
0
20
17.825
30
0
11
6.018421
21
17.825
31
0
70
32
71
5
72
1
41
1
210
0
220
0
230
1
3
Standard
100
AcDbAlignedDimension
13
22.6
23
8.575
33
0
14
0
24
9.575
34
0
50
0
100
AcDbRotatedDimension
1001
ACAD
1000
DSTYLE
1002
{
1070
   279
1070
     0
1070
   172
1070
     1
1070
   173
1070
     1
1070
   340
1005
11A
1070
   271
1070
     3
1070
   272
1070
     3
1070
    77
1070
     1
1070
    73
1070
     0
1070
   171
1070
     4
1070
   274
1070
     4
1070
   177
1070
     2
1070
   176
1070
     2
1070
   178
1070
     7
1070
    78
1070
     8
1070
    41
1041
3.0
1070
   147
1041
2.25
1070
    42
1041
1.5
1070
    44
1041
3.0
1070
   140
1041
4.5
1070
   343
1005
12C
1070
   344
1005
12C
1002
}
0
ENDSEC
0
SECTION
2
OBJECTS
0
DICTIONARY
5
1e2
330
0
100
AcDbDictionary
280
0
281
1
3
ACAD_GROUP
350
1e3
3
ACAD_MLINESTYLE
350
1e4
0
DICTIONARY
5
1e3
330
0
100
AcDbDictionary
280
0
281
1
0
DICTIONARY
5
1e4
330
0
100
AcDbDictionary
280
0
281
1
3
Standard
350
18
0
MLINESTYLE
5
18
330
1e4
100
AcDbMlineStyle
2
Standard
70
0
3

62
256
51
90
52
90
71
2
49
-0.5
62
256
6
ByLayer
49
0.5
62
256
6
ByLayer
0
RASTERVARIABLES
5
1d1
330

100
AcDbRasterVariables
90
0
70
1
71
1
72
1
0
ENDSEC
0
EOF
