0
SECTION
2
HEADER
9
$ACADVER
1
AC1015
9
$DWGCODEPAGE
3
ANSI_1252
9
$HANDSEED
5
2fc
9
$ANGBASE
50
0
9
$ANGDIR
70
0
9
$ATTMODE
70
1
9
$AUNITS
70
0
9
$AUPREC
70
0
9
$CECOLOR
62
256
9
$CELTSCALE
40
1
9
$CELTYPE
6
ByLayer
9
$CELWEIGHT
370
18
9
$CLAYER
8
0
9
$CMLJUST
70
0
9
$CMLSCALE
40
1
9
$CMLSTYLE
2
Standard
9
$DIMSTYLE
2
Standard
9
$TEXTSIZE
40
0.2
9
$TEXTSTYLE
7
Standard
9
$LUNITS
70
2
9
$LUPREC
70
4
9
$EXTNAMES
290
1
9
$INSUNITS
70
4
9
$LTSCALE
40
1
9
$LWDISPLAY
290
1
9
$PDMODE
70
0
9
$PDSIZE
40
0
9
$PLINEGEN
70
0
0
ENDSEC
0
SECTION
2
CLASSES
0
CLASS
1
RASTERVARIABLES
2
AcDbRasterVariables
3
ISM
90
0
280
0
281
0
0
ENDSEC
0
SECTION
2
TABLES
0
TABLE
2
VPORT
5
2f2
100
AcDbSymbolTable
0
VPORT
5
1
100
AcDbSymbolTableRecord
100
AcDbViewportTableRecord
2
*Active
70
0
10
0
20
0
11
1
21
1
12
-1
22
1
13
0
23
0
14
0.5
24
0.5
15
10
25
10
16
0
26
0
36
1
17
0
27
0
37
0
0
ENDTAB
0
TABLE
2
LTYPE
5
2f3
100
AcDbSymbolTable
0
LTYPE
5
14
100
AcDbSymbolTableRecord
100
AcDbLinetypeTableRecord
70
0
2
ByBlock
3

72
65
73
0
40
0
0
LTYPE
5
15
100
AcDbSymbolTableRecord
100
AcDbLinetypeTableRecord
70
0
2
ByLayer
3

72
65
73
0
40
0
0
LTYPE
5
16
100
AcDbSymbolTableRecord
100
AcDbLinetypeTableRecord
70
0
2
CONTINUOUS
3
Solid line
72
65
73
0
40
0
0
LTYPE
5
6A
100
AcDbSymbolTableRecord
100
AcDbLinetypeTableRecord
70
0
2
CENTER
3
____ _ ____ _ ____ _ ____
72
65
73
4
40
47.5
49
22
74
0
49
-8.5
74
0
49
8.5
74
0
49
-8.5
74
0
0
LTYPE
5
6B
100
AcDbSymbolTableRecord
100
AcDbLinetypeTableRecord
70
0
2
DASHED
3
__ __ __ __ __ __ __ __ __
72
65
73
2
40
25.72
49
12.86
74
0
49
-12.86
74
0
0
ENDTAB
0
TABLE
2
LAYER
5
2f4
100
AcDbSymbolTable
0
LAYER
5
10
100
AcDbSymbolTableRecord
100
AcDbLayerTableRecord
2
0
70
0
62
7
6
CONTINUOUS
290
1
370
-3
390
0
0
LAYER
5
6D
100
AcDbSymbolTableRecord
100
AcDbLayerTableRecord
2
81
70
0
62
-3
6
CONTINUOUS
290
1
370
-3
390
0
0
LAYER
5
6F
100
AcDbSymbolTableRecord
100
AcDbLayerTableRecord
2
80
70
0
62
-6
6
CONTINUOUS
290
1
370
-3
390
0
0
LAYER
5
73
100
AcDbSymbolTableRecord
100
AcDbLayerTableRecord
2
1
70
0
62
4
6
CONTINUOUS
290
1
370
-3
390
0
0
LAYER
5
22C
100
AcDbSymbolTableRecord
100
AcDbLayerTableRecord
2
2
70
0
62
7
6
CONTINUOUS
290
1
370
-3
390
0
0
LAYER
5
2df
100
AcDbSymbolTableRecord
100
AcDbLayerTableRecord
2
SK1
70
0
62
4
6
CONTINUOUS
290
1
370
-3
390
0
0
LAYER
5
2e0
100
AcDbSymbolTableRecord
100
AcDbLayerTableRecord
2
SK2
70
0
62
7
6
CONTINUOUS
290
1
370
-3
390
0
0
LAYER
5
2e1
100
AcDbSymbolTableRecord
100
AcDbLayerTableRecord
2
SK6
70
0
62
5
6
CONTINUOUS
290
1
370
-3
390
0
0
ENDTAB
0
TABLE
2
STYLE
5
2f5
100
AcDbSymbolTable
0
STYLE
5
11
100
AcDbSymbolTableRecord
100
AcDbTextStyleTableRecord
2
Standard
3
txt
70
0
71
0
40
0
41
1
42
0
50
0
0
STYLE
5
226
100
AcDbSymbolTableRecord
100
AcDbTextStyleTableRecord
2
iso_b_vert
3
simplex.shx
70
0
71
0
40
0
41
1
42
0
50
0
0
STYLE
5
227
100
AcDbSymbolTableRecord
100
AcDbTextStyleTableRecord
2
DWGDirectTextStyle
3
simplex
70
0
71
0
40
0
41
1
42
0
50
0
0
ENDTAB
0
TABLE
2
DIMSTYLE
5
2f6
100
AcDbSymbolTable
100
AcDbDimStyleTable
0
DIMSTYLE
105
27
100
AcDbSymbolTableRecord
100
AcDbDimStyleTableRecord
2
Standard
70
0
3
<>
41
0.18
42
0.0625
44
0.18
140
0.18
147
0.09
73
0
74
0
77
1
271
2
275
0
278
52
280
0
340
11
0
ENDTAB
0
TABLE
2
VIEW
5
2f7
100
AcDbSymbolTable
0
ENDTAB
0
TABLE
2
UCS
5
2f8
100
AcDbSymbolTable
0
ENDTAB
0
TABLE
2
APPID
5
2f9
100
AcDbSymbolTable
0
APPID
5
12
100
AcDbSymbolTableRecord
100
AcDbRegAppTableRecord
2
ACAD
70
0
0
ENDTAB
0
TABLE
2
BLOCK_RECORD
5
2fa
100
AcDbSymbolTable
0
BLOCK_RECORD
5
1F
100
AcDbSymbolTableRecord
100
AcDbBlockTableRecord
2
*Model_Space
340
0
70
0
0
BLOCK_RECORD
5
1B
100
AcDbSymbolTableRecord
100
AcDbBlockTableRecord
2
*Paper_Space
340
0
70
0
0
BLOCK_RECORD
5
23
100
AcDbSymbolTableRecord
100
AcDbBlockTableRecord
2
*Paper_Space0
340
0
70
0
0
BLOCK_RECORD
5
22A
100
AcDbSymbolTableRecord
100
AcDbBlockTableRecord
2
DimnDraft3D1
340
0
70
0
0
BLOCK_RECORD
5
239
100
AcDbSymbolTableRecord
100
AcDbBlockTableRecord
2
_CLOSED
340
0
70
0
0
BLOCK_RECORD
5
240
100
AcDbSymbolTableRecord
100
AcDbBlockTableRecord
2
DimnDraft3D2
340
0
70
0
0
BLOCK_RECORD
5
24E
100
AcDbSymbolTableRecord
100
AcDbBlockTableRecord
2
DimnDraft3D3
340
0
70
0
0
BLOCK_RECORD
5
25C
100
AcDbSymbolTableRecord
100
AcDbBlockTableRecord
2
DimnDraft3D4
340
0
70
0
0
BLOCK_RECORD
5
26A
100
AcDbSymbolTableRecord
100
AcDbBlockTableRecord
2
DimnDraft3D5
340
0
70
0
0
BLOCK_RECORD
5
278
100
AcDbSymbolTableRecord
100
AcDbBlockTableRecord
2
DimnDraft3D6
340
0
70
0
0
ENDTAB
0
ENDSEC
0
SECTION
2
BLOCKS
0
BLOCK
5
20
100
AcDbEntity
8
0
100
AcDbBlockBegin
2
*Model_Space
70
0
10
0
20
0
30
0
3
*Model_Space
0
ENDBLK
5
21
100
AcDbEntity
8
0
100
AcDbBlockEnd
0
BLOCK
5
1C
100
AcDbEntity
8
0
100
AcDbBlockBegin
2
*Paper_Space
70
0
10
0
20
0
30
0
3
*Paper_Space
0
ENDBLK
5
1D
100
AcDbEntity
8
0
100
AcDbBlockEnd
0
BLOCK
5
24
100
AcDbEntity
8
0
100
AcDbBlockBegin
2
*Paper_Space0
70
0
10
0
20
0
30
0
3
*Paper_Space0
0
ENDBLK
5
25
100
AcDbEntity
8
0
100
AcDbBlockEnd
0
BLOCK
5
236
100
AcDbEntity
8
0
100
AcDbBlockBegin
2
DimnDraft3D1
70
0
10
0
20
0
30
0
3
DimnDraft3D1
0
MTEXT
5
22B
100
AcDbEntity
8
2
62
256
6
ByLayer
370
18
48
1
60
0
100
AcDbMText
10
51.825
20
-2.982895
30
0
210
0
220
0
230
1
1
\W0.7346;20.5
40
3.5
41
0
44
1.084337
50
90
71
7
72
5
7
iso_b_vert
0
LINE
5
22D
100
AcDbEntity
8
2
62
256
6
ByLayer
370
13
48
1
60
0
100
AcDbLine
10
3.6
20
-10
30
0
11
54.7
21
-10
31
0
39
0
210
0
220
0
230
1
0
LINE
5
22E
100
AcDbEntity
8
2
62
256
6
ByLayer
370
13
48
1
60
0
100
AcDbLine
10
29.6
20
10.5
30
0
11
54.7
21
10.5
31
0
39
0
210
0
220
0
230
1
0
LINE
5
22F
100
AcDbEntity
8
2
62
256
6
ByLayer
370
13
48
1
60
0
100
AcDbLine
10
52.7
20
-10
30
0
11
52.7
21
10.5
31
0
39
0
210
0
220
0
230
1
0
LINE
5
230
100
AcDbEntity
8
2
62
256
6
ByLayer
370
13
48
1
60
0
100
AcDbLine
10
52.7
20
-10
30
0
11
52.282003
21
-6.825002
31
0
39
0
210
0
220
0
230
1
0
LINE
5
231
100
AcDbEntity
8
2
62
256
6
ByLayer
370
13
48
1
60
0
100
AcDbLine
10
52.7
20
-10
30
0
11
53.117997
21
-6.824998
31
0
39
0
210
0
220
0
230
1
0
LINE
5
232
100
AcDbEntity
8
2
62
256
6
ByLayer
370
13
48
1
60
0
100
AcDbLine
10
52.282003
20
-6.825002
30
0
11
53.117997
21
-6.824998
31
0
39
0
210
0
220
0
230
1
0
LINE
5
233
100
AcDbEntity
8
2
62
256
6
ByLayer
370
13
48
1
60
0
100
AcDbLine
10
52.7
20
10.5
30
0
11
53.117997
21
7.325002
31
0
39
0
210
0
220
0
230
1
0
LINE
5
234
100
AcDbEntity
8
2
62
256
6
ByLayer
370
13
48
1
60
0
100
AcDbLine
10
52.7
20
10.5
30
0
11
52.282003
21
7.324998
31
0
39
0
210
0
220
0
230
1
0
LINE
5
235
100
AcDbEntity
8
2
62
256
6
ByLayer
370
13
48
1
60
0
100
AcDbLine
10
53.117997
20
7.325002
30
0
11
52.282003
21
7.324998
31
0
39
0
210
0
220
0
230
1
0
ENDBLK
5
237
100
AcDbEntity
8
0
100
AcDbBlockEnd
0
BLOCK
5
23A
100
AcDbEntity
8
0
100
AcDbBlockBegin
2
_CLOSED
70
0
10
0
20
0
30
0
3
_CLOSED
0
LINE
5
23C
100
AcDbEntity
8
0
62
256
6
ByLayer
370
-2
48
1
60
0
100
AcDbLine
10
-1
20
0.166667
30
0
11
0
21
0
31
0
39
0
210
0
220
0
230
1
0
LINE
5
23D
100
AcDbEntity
8
0
62
256
6
ByLayer
370
-2
48
1
60
0
100
AcDbLine
10
0
20
0
30
0
11
-1
21
-0.166667
31
0
39
0
210
0
220
0
230
1
0
LINE
5
23E
100
AcDbEntity
8
0
62
256
6
ByLayer
370
-2
48
1
60
0
100
AcDbLine
10
-1
20
0.166667
30
0
11
-1
21
-0.166667
31
0
39
0
210
0
220
0
230
1
0
LINE
5
23F
100
AcDbEntity
8
0
62
256
6
ByLayer
370
-2
48
1
60
0
100
AcDbLine
10
0
20
0
30
0
11
-1
21
0
31
0
39
0
210
0
220
0
230
1
0
ENDBLK
5
23B
100
AcDbEntity
8
0
100
AcDbBlockEnd
0
BLOCK
5
24B
100
AcDbEntity
8
0
100
AcDbBlockBegin
2
DimnDraft3D2
70
0
10
0
20
0
30
0
3
DimnDraft3D2
0
MTEXT
5
241
100
AcDbEntity
8
SK2
62
256
6
ByLayer
370
18
48
1
60
0
100
AcDbMText
10
-67.384868
20
-22.22505
30
0
210
0
220
0
230
1
1
\W0.5404;3
40
3.5
41
0
44
1.084337
50
0
71
7
72
5
7
iso_b_vert
0
LINE
5
242
100
AcDbEntity
8
SK2
62
256
6
ByLayer
370
13
48
1
60
0
100
AcDbLine
10
-69
20
-12
30
0
11
-69
21
-25.10005
31
0
39
0
210
0
220
0
230
1
0
LINE
5
243
100
AcDbEntity
8
SK2
62
256
6
ByLayer
370
13
48
1
60
0
100
AcDbLine
10
-66
20
-12
30
0
11
-66
21
-25.10005
31
0
39
0
210
0
220
0
230
1
0
LINE
5
244
100
AcDbEntity
8
SK2
62
256
6
ByLayer
370
13
48
1
60
0
100
AcDbLine
10
-77.75
20
-23.10005
30
0
11
-57.25
21
-23.10005
31
0
39
0
210
0
220
0
230
1
0
LINE
5
245
100
AcDbEntity
8
SK2
62
256
6
ByLayer
370
13
48
1
60
0
100
AcDbLine
10
-69
20
-23.10005
30
0
11
-72.174998
21
-23.518047
31
0
39
0
210
0
220
0
230
1
0
LINE
5
246
100
AcDbEntity
8
SK2
62
256
6
ByLayer
370
13
48
1
60
0
100
AcDbLine
10
-69
20
-23.10005
30
0
11
-72.175002
21
-22.682053
31
0
39
0
210
0
220
0
230
1
0
LINE
5
247
100
AcDbEntity
8
SK2
62
256
6
ByLayer
370
13
48
1
60
0
100
AcDbLine
10
-72.174998
20
-23.518047
30
0
11
-72.175002
21
-22.682053
31
0
39
0
210
0
220
0
230
1
0
LINE
5
248
100
AcDbEntity
8
SK2
62
256
6
ByLayer
370
13
48
1
60
0
100
AcDbLine
10
-66
20
-23.10005
30
0
11
-62.825002
21
-22.682053
31
0
39
0
210
0
220
0
230
1
0
LINE
5
249
100
AcDbEntity
8
SK2
62
256
6
ByLayer
370
13
48
1
60
0
100
AcDbLine
10
-66
20
-23.10005
30
0
11
-62.824998
21
-23.518047
31
0
39
0
210
0
220
0
230
1
0
LINE
5
24A
100
AcDbEntity
8
SK2
62
256
6
ByLayer
370
13
48
1
60
0
100
AcDbLine
10
-62.825002
20
-22.682053
30
0
11
-62.824998
21
-23.518047
31
0
39
0
210
0
220
0
230
1
0
ENDBLK
5
24C
100
AcDbEntity
8
0
100
AcDbBlockEnd
0
BLOCK
5
259
100
AcDbEntity
8
0
100
AcDbBlockBegin
2
DimnDraft3D3
70
0
10
0
20
0
30
0
3
DimnDraft3D3
0
MTEXT
5
24F
100
AcDbEntity
8
SK2
62
256
6
ByLayer
370
18
48
1
60
0
100
AcDbMText
10
-23.932895
20
33.983569
30
0
210
0
220
0
230
1
1
\W0.7346;96.6
40
3.5
41
0
44
1.084337
50
0
71
7
72
5
7
iso_b_vert
0
LINE
5
250
100
AcDbEntity
8
SK2
62
256
6
ByLayer
370
13
48
1
60
0
100
AcDbLine
10
-69
20
-8
30
0
11
-69
21
35.108569
31
0
39
0
210
0
220
0
230
1
0
LINE
5
251
100
AcDbEntity
8
SK2
62
256
6
ByLayer
370
13
48
1
60
0
100
AcDbLine
10
27.6
20
12.5
30
0
11
27.6
21
35.108569
31
0
39
0
210
0
220
0
230
1
0
LINE
5
252
100
AcDbEntity
8
SK2
62
256
6
ByLayer
370
13
48
1
60
0
100
AcDbLine
10
-69
20
33.108569
30
0
11
27.6
21
33.108569
31
0
39
0
210
0
220
0
230
1
0
LINE
5
253
100
AcDbEntity
8
SK2
62
256
6
ByLayer
370
13
48
1
60
0
100
AcDbLine
10
-69
20
33.108569
30
0
11
-65.825002
21
33.526566
31
0
39
0
210
0
220
0
230
1
0
LINE
5
254
100
AcDbEntity
8
SK2
62
256
6
ByLayer
370
13
48
1
60
0
100
AcDbLine
10
-69
20
33.108569
30
0
11
-65.824998
21
32.690573
31
0
39
0
210
0
220
0
230
1
0
LINE
5
255
100
AcDbEntity
8
SK2
62
256
6
ByLayer
370
13
48
1
60
0
100
AcDbLine
10
-65.825002
20
33.526566
30
0
11
-65.824998
21
32.690573
31
0
39
0
210
0
220
0
230
1
0
LINE
5
256
100
AcDbEntity
8
SK2
62
256
6
ByLayer
370
13
48
1
60
0
100
AcDbLine
10
27.6
20
33.108569
30
0
11
24.425002
21
32.690573
31
0
39
0
210
0
220
0
230
1
0
LINE
5
257
100
AcDbEntity
8
SK2
62
256
6
ByLayer
370
13
48
1
60
0
100
AcDbLine
10
27.6
20
33.108569
30
0
11
24.424998
21
33.526566
31
0
39
0
210
0
220
0
230
1
0
LINE
5
258
100
AcDbEntity
8
SK2
62
256
6
ByLayer
370
13
48
1
60
0
100
AcDbLine
10
24.425002
20
32.690573
30
0
11
24.424998
21
33.526566
31
0
39
0
210
0
220
0
230
1
0
ENDBLK
5
25A
100
AcDbEntity
8
0
100
AcDbBlockEnd
0
BLOCK
5
267
100
AcDbEntity
8
0
100
AcDbBlockBegin
2
DimnDraft3D4
70
0
10
0
20
0
30
0
3
DimnDraft3D4
0
MTEXT
5
25D
100
AcDbEntity
8
2
62
256
6
ByLayer
370
18
48
1
60
0
100
AcDbMText
10
7.567105
20
27.983569
30
0
210
0
220
0
230
1
1
\W0.7346;33.6
40
3.5
41
0
44
1.084337
50
0
71
7
72
5
7
iso_b_vert
0
LINE
5
25E
100
AcDbEntity
8
2
62
256
6
ByLayer
370
13
48
1
60
0
100
AcDbLine
10
-6
20
12
30
0
11
-6
21
29.108569
31
0
39
0
210
0
220
0
230
1
0
LINE
5
25F
100
AcDbEntity
8
2
62
256
6
ByLayer
370
13
48
1
60
0
100
AcDbLine
10
27.6
20
12.5
30
0
11
27.6
21
29.108569
31
0
39
0
210
0
220
0
230
1
0
LINE
5
260
100
AcDbEntity
8
2
62
256
6
ByLayer
370
13
48
1
60
0
100
AcDbLine
10
-6
20
27.108569
30
0
11
27.6
21
27.108569
31
0
39
0
210
0
220
0
230
1
0
LINE
5
261
100
AcDbEntity
8
2
62
256
6
ByLayer
370
13
48
1
60
0
100
AcDbLine
10
-6
20
27.108569
30
0
11
-2.825002
21
27.526566
31
0
39
0
210
0
220
0
230
1
0
LINE
5
262
100
AcDbEntity
8
2
62
256
6
ByLayer
370
13
48
1
60
0
100
AcDbLine
10
-6
20
27.108569
30
0
11
-2.824998
21
26.690573
31
0
39
0
210
0
220
0
230
1
0
LINE
5
263
100
AcDbEntity
8
2
62
256
6
ByLayer
370
13
48
1
60
0
100
AcDbLine
10
-2.825002
20
27.526566
30
0
11
-2.824998
21
26.690573
31
0
39
0
210
0
220
0
230
1
0
LINE
5
264
100
AcDbEntity
8
2
62
256
6
ByLayer
370
13
48
1
60
0
100
AcDbLine
10
27.6
20
27.108569
30
0
11
24.425002
21
26.690573
31
0
39
0
210
0
220
0
230
1
0
LINE
5
265
100
AcDbEntity
8
2
62
256
6
ByLayer
370
13
48
1
60
0
100
AcDbLine
10
27.6
20
27.108569
30
0
11
24.424998
21
27.526566
31
0
39
0
210
0
220
0
230
1
0
LINE
5
266
100
AcDbEntity
8
2
62
256
6
ByLayer
370
13
48
1
60
0
100
AcDbLine
10
24.425002
20
26.690573
30
0
11
24.424998
21
27.526566
31
0
39
0
210
0
220
0
230
1
0
ENDBLK
5
268
100
AcDbEntity
8
0
100
AcDbBlockEnd
0
BLOCK
5
275
100
AcDbEntity
8
0
100
AcDbBlockBegin
2
DimnDraft3D5
70
0
10
0
20
0
30
0
3
DimnDraft3D5
0
MTEXT
5
26B
100
AcDbEntity
8
2
62
256
6
ByLayer
370
18
48
1
60
0
100
AcDbMText
10
13.384211
20
-22.22505
30
0
210
0
220
0
230
1
1
\W0.6740;26
40
3.5
41
0
44
1.084337
50
0
71
7
72
5
7
iso_b_vert
0
LINE
5
26C
100
AcDbEntity
8
2
62
256
6
ByLayer
370
13
48
1
60
0
100
AcDbLine
10
27.6
20
8.5
30
0
11
27.6
21
-25.10005
31
0
39
0
210
0
220
0
230
1
0
LINE
5
26D
100
AcDbEntity
8
2
62
256
6
ByLayer
370
13
48
1
60
0
100
AcDbLine
10
1.6
20
-12
30
0
11
1.6
21
-25.10005
31
0
39
0
210
0
220
0
230
1
0
LINE
5
26E
100
AcDbEntity
8
2
62
256
6
ByLayer
370
13
48
1
60
0
100
AcDbLine
10
27.6
20
-23.10005
30
0
11
1.6
21
-23.10005
31
0
39
0
210
0
220
0
230
1
0
LINE
5
26F
100
AcDbEntity
8
2
62
256
6
ByLayer
370
13
48
1
60
0
100
AcDbLine
10
27.6
20
-23.10005
30
0
11
24.425002
21
-23.518047
31
0
39
0
210
0
220
0
230
1
0
LINE
5
270
100
AcDbEntity
8
2
62
256
6
ByLayer
370
13
48
1
60
0
100
AcDbLine
10
27.6
20
-23.10005
30
0
11
24.424998
21
-22.682053
31
0
39
0
210
0
220
0
230
1
0
LINE
5
271
100
AcDbEntity
8
2
62
256
6
ByLayer
370
13
48
1
60
0
100
AcDbLine
10
24.425002
20
-23.518047
30
0
11
24.424998
21
-22.682053
31
0
39
0
210
0
220
0
230
1
0
LINE
5
272
100
AcDbEntity
8
2
62
256
6
ByLayer
370
13
48
1
60
0
100
AcDbLine
10
1.6
20
-23.10005
30
0
11
4.774998
21
-22.682053
31
0
39
0
210
0
220
0
230
1
0
LINE
5
273
100
AcDbEntity
8
2
62
256
6
ByLayer
370
13
48
1
60
0
100
AcDbLine
10
1.6
20
-23.10005
30
0
11
4.775002
21
-23.518047
31
0
39
0
210
0
220
0
230
1
0
LINE
5
274
100
AcDbEntity
8
2
62
256
6
ByLayer
370
13
48
1
60
0
100
AcDbLine
10
4.774998
20
-22.682053
30
0
11
4.775002
21
-23.518047
31
0
39
0
210
0
220
0
230
1
0
ENDBLK
5
276
100
AcDbEntity
8
0
100
AcDbBlockEnd
0
BLOCK
5
283
100
AcDbEntity
8
0
100
AcDbBlockBegin
2
DimnDraft3D6
70
0
10
0
20
0
30
0
3
DimnDraft3D6
0
MTEXT
5
279
100
AcDbEntity
8
2
62
256
6
ByLayer
370
18
48
1
60
0
100
AcDbMText
10
44.825
20
-3.445789
30
0
210
0
220
0
230
1
1
\W0.5404;3
40
3.5
41
0
44
1.084337
50
90
71
7
72
5
7
iso_b_vert
0
LINE
5
27A
100
AcDbEntity
8
2
62
256
6
ByLayer
370
13
48
1
60
0
100
AcDbLine
10
29.6
20
10.5
30
0
11
47.7
21
10.5
31
0
39
0
210
0
220
0
230
1
0
LINE
5
27B
100
AcDbEntity
8
2
62
256
6
ByLayer
370
13
48
1
60
0
100
AcDbLine
10
29.6
20
7.5
30
0
11
47.7
21
7.5
31
0
39
0
210
0
220
0
230
1
0
LINE
5
27C
100
AcDbEntity
8
2
62
256
6
ByLayer
370
13
48
1
60
0
100
AcDbLine
10
45.7
20
-4.320789
30
0
11
45.7
21
19.25
31
0
39
0
210
0
220
0
230
1
0
LINE
5
27D
100
AcDbEntity
8
2
62
256
6
ByLayer
370
13
48
1
60
0
100
AcDbLine
10
45.7
20
10.5
30
0
11
45.282003
21
13.674998
31
0
39
0
210
0
220
0
230
1
0
LINE
5
27E
100
AcDbEntity
8
2
62
256
6
ByLayer
370
13
48
1
60
0
100
AcDbLine
10
45.7
20
10.5
30
0
11
46.117997
21
13.675002
31
0
39
0
210
0
220
0
230
1
0
LINE
5
27F
100
AcDbEntity
8
2
62
256
6
ByLayer
370
13
48
1
60
0
100
AcDbLine
10
45.282003
20
13.674998
30
0
11
46.117997
21
13.675002
31
0
39
0
210
0
220
0
230
1
0
LINE
5
280
100
AcDbEntity
8
2
62
256
6
ByLayer
370
13
48
1
60
0
100
AcDbLine
10
45.7
20
7.5
30
0
11
46.117997
21
4.325002
31
0
39
0
210
0
220
0
230
1
0
LINE
5
281
100
AcDbEntity
8
2
62
256
6
ByLayer
370
13
48
1
60
0
100
AcDbLine
10
45.7
20
7.5
30
0
11
45.282003
21
4.324998
31
0
39
0
210
0
220
0
230
1
0
LINE
5
282
100
AcDbEntity
8
2
62
256
6
ByLayer
370
13
48
1
60
0
100
AcDbLine
10
46.117997
20
4.325002
30
0
11
45.282003
21
4.324998
31
0
39
0
210
0
220
0
230
1
0
ENDBLK
5
284
100
AcDbEntity
8
0
100
AcDbBlockEnd
0
ENDSEC
0
SECTION
2
ENTITIES
0
ARC
5
138
100
AcDbEntity
8
SK1
62
256
6
ByLayer
370
18
48
1
60
0
100
AcDbCircle
39
0
10
7.227723
20
11.525
30
0
40
1.59999999999254
210
0
220
0
230
-1
100
AcDbArc
50
237.538255
51
270
0
ARC
5
139
100
AcDbEntity
8
1
62
256
6
ByLayer
370
18
48
1
60
0
100
AcDbCircle
39
0
10
1.6
20
6.225
30
0
40
1.6
210
0
220
0
230
1
100
AcDbArc
50
90
51
180
0
ARC
5
13A
100
AcDbEntity
8
1
62
256
6
ByLayer
370
18
48
1
60
0
100
AcDbCircle
39
0
10
17.8
20
10.05
30
0
40
0.2
210
0
220
0
230
1
100
AcDbArc
50
120
51
141.318614
0
ARC
5
13B
100
AcDbEntity
8
1
62
256
6
ByLayer
370
18
48
1
60
0
100
AcDbCircle
39
0
10
17.8
20
7.95
30
0
40
0.2
210
0
220
0
230
1
100
AcDbArc
50
218.681386
51
240
0
ARC
5
13C
100
AcDbEntity
8
1
62
256
6
ByLayer
370
18
48
1
60
0
100
AcDbCircle
39
0
10
1.6
20
6.225
30
0
40
1.6
210
0
220
0
230
1
100
AcDbArc
50
90
51
180
0
ARC
5
13D
100
AcDbEntity
8
1
62
256
6
ByLayer
370
18
48
1
60
0
100
AcDbCircle
39
0
10
7.227723
20
11.525
30
0
40
1.59999999999254
210
0
220
0
230
-1
100
AcDbArc
50
237.538255
51
270
0
ELLIPSE
5
13E
100
AcDbEntity
8
1
62
256
6
ByLayer
370
18
48
1
60
0
100
AcDbEllipse
10
22.382033
20
9
30
0
11
1.28358760011039
21
1.297243759291E-15
31
0
210
0
220
0
230
-1
40
0.46744
41
1.05457302640886
42
-1.05457302640888
0
ELLIPSE
5
13F
100
AcDbEntity
8
1
62
256
6
ByLayer
370
18
48
1
60
0
100
AcDbEllipse
10
23.041428
20
9
30
0
11
9.64885723403373E-17
21
0.599999999999937
31
0
210
0
220
0
230
-1
40
0.087172
41
-2.62536935320391
42
-0.516223300385886
0
ELLIPSE
5
140
100
AcDbEntity
8
1
62
256
6
ByLayer
370
13
48
1
60
0
100
AcDbEllipse
10
19.908132
20
7.730414
30
0
11
0.97958205267095
21
0.301726209273304
31
0
210
0
220
0
230
-1
40
0.270086
41
-2.24185105463482
42
-2.0527307452698
0
ELLIPSE
5
141
100
AcDbEntity
8
1
62
256
6
ByLayer
370
13
48
1
60
0
100
AcDbEllipse
10
19.908132
20
10.269586
30
0
11
0.998914191599499
21
-0.226032306466171
31
0
210
0
220
0
230
-1
40
0.206112
41
1.99506909475649
42
2.24548541564898
0
ELLIPSE
5
142
100
AcDbEntity
8
1
62
256
6
ByLayer
370
13
48
1
60
0
100
AcDbEllipse
10
19.908132
20
7.730414
30
0
11
0.998914191365276
21
0.226032306448625
31
0
210
0
220
0
230
-1
40
0.206112
41
-2.24548541559845
42
-1.99506909465919
0
ELLIPSE
5
143
100
AcDbEntity
8
1
62
256
6
ByLayer
370
13
48
1
60
0
100
AcDbEllipse
10
26.97413
20
9
30
0
11
-7.38495814331257
21
9.04366666501288E-16
31
0
210
0
220
0
230
1
40
0.121869
41
1.16456723893879
42
1.18682389135614
0
ELLIPSE
5
144
100
AcDbEntity
8
1
62
256
6
ByLayer
370
13
48
1
60
0
100
AcDbEllipse
10
26.97413
20
9
30
0
11
-7.38495814331257
21
9.04366666501288E-16
31
0
210
0
220
0
230
1
40
0.121869
41
-1.18682389135615
42
-1.16456723893881
0
ELLIPSE
5
145
100
AcDbEntity
8
1
62
256
6
ByLayer
370
13
48
1
60
0
100
AcDbEllipse
10
26.058781
20
7.818834
30
0
11
0.0322705528359686
21
0.237820544570188
31
0
210
0
220
0
230
1
40
0.009402
41
0.684082575265415
42
1.50161815253483
0
ELLIPSE
5
146
100
AcDbEntity
8
1
62
256
6
ByLayer
370
13
48
1
60
0
100
AcDbEllipse
10
24.828622
20
7.940299
30
0
11
-0.0129780832447762
21
0.239648845929397
31
0
210
0
220
0
230
1
40
0.707925
41
-1.55967335367816
42
-0.878821726711984
0
ELLIPSE
5
147
100
AcDbEntity
8
1
62
256
6
ByLayer
370
13
48
1
60
0
100
AcDbEllipse
10
24.828622
20
10.059701
30
0
11
-0.0129780832447759
21
-0.239648845929397
31
0
210
0
220
0
230
1
40
0.707925
41
0.878821726711969
42
1.55967335367816
0
ELLIPSE
5
148
100
AcDbEntity
8
1
62
256
6
ByLayer
370
13
48
1
60
0
100
AcDbEllipse
10
26.058781
20
10.181166
30
0
11
0.0322705528359684
21
-0.237820544570188
31
0
210
0
220
0
230
1
40
0.009402
41
-1.50161815253484
42
-0.68408257526795
0
ELLIPSE
5
149
100
AcDbEntity
8
1
62
256
6
ByLayer
370
13
48
1
60
0
100
AcDbEllipse
10
26.974131
20
9
30
0
11
7.34839775604842
21
2.13200123910056E-08
31
0
210
0
220
0
230
-1
40
0.08165
41
1.95476878095718
42
2.00162050834128
0
ELLIPSE
5
14A
100
AcDbEntity
8
1
62
256
6
ByLayer
370
13
48
1
60
0
100
AcDbEllipse
10
24.586644
20
9
30
0
11
1.63150680971298
21
1.64886450052877E-15
31
0
210
0
220
0
230
-1
40
0.367758
41
-2.17407423402213
42
-2.00162049189463
0
ELLIPSE
5
14B
100
AcDbEntity
8
1
62
256
6
ByLayer
370
13
48
1
60
0
100
AcDbEllipse
10
26.974131
20
9
30
0
11
7.3483976959839
21
-1.85207203519599E-08
31
0
210
0
220
0
230
-1
40
0.08165
41
-2.00162050672176
42
-1.95476877899024
0
ELLIPSE
5
14C
100
AcDbEntity
8
1
62
256
6
ByLayer
370
13
48
1
60
0
100
AcDbEllipse
10
24.586644
20
9
30
0
11
1.63150680969583
21
1.64886450051143E-15
31
0
210
0
220
0
230
-1
40
0.367758
41
2.00162049191401
42
2.17407423404378
0
ELLIPSE
5
14D
100
AcDbEntity
8
1
62
256
6
ByLayer
370
13
48
1
60
0
100
AcDbEllipse
10
24.723829
20
7.938617
30
0
11
0.1082392992065
21
-0.214206101937563
31
0
210
0
220
0
230
1
40
0.678671
41
1.29279293091362
42
1.8487997631195
0
ELLIPSE
5
14E
100
AcDbEntity
8
1
62
256
6
ByLayer
370
13
48
1
60
0
100
AcDbEllipse
10
24.723829
20
10.061383
30
0
11
0.1082392992065
21
0.214206101937563
31
0
210
0
220
0
230
1
40
0.678671
41
-1.8487997631195
42
-1.29279293091364
0
ELLIPSE
5
14F
100
AcDbEntity
8
1
62
256
6
ByLayer
370
13
48
1
60
0
100
AcDbEllipse
10
24.459452
20
8.178164
30
0
11
0.219354463278089
21
0.119931728245622
31
0
210
0
220
0
230
1
40
0.441633
41
0.600579851753408
42
1.30662817391549
0
ELLIPSE
5
150
100
AcDbEntity
8
1
62
256
6
ByLayer
370
13
48
1
60
0
100
AcDbEllipse
10
24.459452
20
9.821836
30
0
11
-0.219354463278086
21
0.119931728245626
31
0
210
0
220
0
230
1
40
0.441633
41
1.8349644796743
42
2.54101280183635
0
ELLIPSE
5
151
100
AcDbEntity
8
1
62
256
6
ByLayer
370
13
48
1
60
0
100
AcDbEllipse
10
23.895115
20
8.273103
30
0
11
-0.0433548151255266
21
-0.195244359727577
31
0
210
0
220
0
230
1
40
0.334809
41
-2.68611088405478
42
-1.49658713340604
0
ELLIPSE
5
152
100
AcDbEntity
8
1
62
256
6
ByLayer
370
13
48
1
60
0
100
AcDbEllipse
10
23.895115
20
9.726897
30
0
11
-0.0433548151255279
21
0.195244359727577
31
0
210
0
220
0
230
1
40
0.334809
41
1.49658713340597
42
2.68611088405475
0
ELLIPSE
5
153
100
AcDbEntity
8
1
62
256
6
ByLayer
370
13
48
1
60
0
100
AcDbEllipse
10
24.51824
20
9
30
0
11
1.65588067689161
21
-5.93679175995962E-10
31
0
210
0
220
0
230
-1
40
0.483127
41
2.00162049140478
42
2.17407423366282
0
ELLIPSE
5
154
100
AcDbEntity
8
1
62
256
6
ByLayer
370
13
48
1
60
0
100
AcDbEllipse
10
24.51824
20
9
30
0
11
1.65588067671212
21
6.72671082126622E-10
31
0
210
0
220
0
230
-1
40
0.483127
41
-2.17407423361064
42
-2.00162049133577
0
ELLIPSE
5
155
100
AcDbEntity
8
1
62
256
6
ByLayer
370
13
48
1
60
0
100
AcDbEllipse
10
24.725564
20
10.061022
30
0
11
0.00742724597932567
21
-0.239885047506431
31
0
210
0
220
0
230
1
40
0.70617
41
0.846393084122536
42
1.4995182195746
0
ELLIPSE
5
156
100
AcDbEntity
8
1
62
256
6
ByLayer
370
13
48
1
60
0
100
AcDbEllipse
10
24.725564
20
7.938978
30
0
11
0.00742724597932589
21
0.239885047506431
31
0
210
0
220
0
230
1
40
0.70617
41
-1.49951821957463
42
-0.846393084122536
0
ELLIPSE
5
157
100
AcDbEntity
8
1
62
256
6
ByLayer
370
13
48
1
60
0
100
AcDbEllipse
10
23.647188
20
8.341216
30
0
11
-0.0631638165780187
21
-0.189763885592856
31
0
210
0
220
0
230
1
40
0.326425
41
-2.50339446299671
42
-1.46256868006916
0
ELLIPSE
5
158
100
AcDbEntity
8
1
62
256
6
ByLayer
370
13
48
1
60
0
100
AcDbEllipse
10
23.647188
20
9.658784
30
0
11
-0.0631638165785347
21
0.189763885592684
31
0
210
0
220
0
230
1
40
0.326425
41
1.46256868006825
42
2.5033944629922
0
ELLIPSE
5
159
100
AcDbEntity
8
1
62
256
6
ByLayer
370
13
48
1
60
0
100
AcDbEllipse
10
24.450683
20
8.165535
30
0
11
0.195064510201759
21
-0.227925068519783
31
0
210
0
220
0
230
1
40
0.863833
41
1.64869430110507
42
2.3114138975382
0
ELLIPSE
5
15A
100
AcDbEntity
8
1
62
256
6
ByLayer
370
13
48
1
60
0
100
AcDbEllipse
10
24.450683
20
9.834465
30
0
11
-0.195064510201764
21
-0.227925068519779
31
0
210
0
220
0
230
1
40
0.863833
41
0.830178756051627
42
1.49289835248472
0
ELLIPSE
5
15B
100
AcDbEntity
8
1
62
256
6
ByLayer
370
13
48
1
60
0
100
AcDbEllipse
10
23.550966
20
8.302033
30
0
11
0.182866340278506
21
-0.0809932194269721
31
0
210
0
220
0
230
1
40
0.14582
41
-2.77286095187722
42
-1.88885149068665
0
ELLIPSE
5
15C
100
AcDbEntity
8
1
62
256
6
ByLayer
370
13
48
1
60
0
100
AcDbEllipse
10
23.550966
20
9.697967
30
0
11
0.182866340278443
21
0.0809932194271139
31
0
210
0
220
0
230
1
40
0.14582
41
1.8888514906866
42
2.7728609518752
0
ELLIPSE
5
15D
100
AcDbEntity
8
1
62
256
6
ByLayer
370
13
48
1
60
0
100
AcDbEllipse
10
24.502412
20
9.706933
30
0
11
-0.299757884748935
21
0.0120503332254432
31
0
210
0
220
0
230
1
40
0.786325
41
1.67791435062301
42
2.25220990045423
0
ELLIPSE
5
15E
100
AcDbEntity
8
1
62
256
6
ByLayer
370
13
48
1
60
0
100
AcDbEllipse
10
24.502412
20
8.293067
30
0
11
0.299757884748933
21
0.0120503332254948
31
0
210
0
220
0
230
1
40
0.786325
41
0.88938275313546
42
1.46367830296669
0
ELLIPSE
5
15F
100
AcDbEntity
8
1
62
256
6
ByLayer
370
13
48
1
60
0
100
AcDbEllipse
10
23.292326
20
10.125902
30
0
11
0.0570319130279923
21
-0.138734858259803
31
0
210
0
220
0
230
1
40
0.776494
41
-1.87977830526729
42
-1.56980601158796
0
ELLIPSE
5
160
100
AcDbEntity
8
1
62
256
6
ByLayer
370
13
48
1
60
0
100
AcDbEllipse
10
23.292326
20
7.874098
30
0
11
-0.0570319130268966
21
-0.138734858260253
31
0
210
0
220
0
230
1
40
0.776494
41
-1.57178664200835
42
-1.26181434832864
0
ELLIPSE
5
161
100
AcDbEntity
8
1
62
256
6
ByLayer
370
13
48
1
60
0
100
AcDbEllipse
10
23.68147
20
8.520757
30
0
11
-0.105329348464612
21
0.280901634655301
31
0
210
0
220
0
230
1
40
0.319781
41
-1.0901232760812
42
-0.203695114400018
0
ELLIPSE
5
162
100
AcDbEntity
8
1
62
256
6
ByLayer
370
13
48
1
60
0
100
AcDbEllipse
10
23.68147
20
9.479243
30
0
11
-0.105329348464631
21
-0.280901634655294
31
0
210
0
220
0
230
1
40
0.319781
41
0.203695114400055
42
1.09012327608124
0
ELLIPSE
5
163
100
AcDbEntity
8
1
62
256
6
ByLayer
370
13
48
1
60
0
100
AcDbEllipse
10
24.609329
20
8.711428
30
0
11
-0.263738087060282
21
0.142976296755033
31
0
210
0
220
0
230
1
40
0.337339
41
-2.12742665195262
42
-1.51944467242794
0
ELLIPSE
5
164
100
AcDbEntity
8
1
62
256
6
ByLayer
370
13
48
1
60
0
100
AcDbEllipse
10
24.609329
20
9.288572
30
0
11
-0.26373808706239
21
-0.142976296751144
31
0
210
0
220
0
230
1
40
0.337339
41
1.51944467242556
42
2.12742665190395
0
ELLIPSE
5
165
100
AcDbEntity
8
1
62
256
6
ByLayer
370
13
48
1
60
0
100
AcDbEllipse
10
23.289927
20
10.125438
30
0
11
4.24912383924225E-17
21
0.15
31
0
210
0
220
0
230
1
40
0.795546
41
1.5707963267949
42
1.90677220780382
0
ELLIPSE
5
166
100
AcDbEntity
8
1
62
256
6
ByLayer
370
13
48
1
60
0
100
AcDbEllipse
10
23.289927
20
7.874562
30
0
11
4.24912383924225E-17
21
0.15
31
0
210
0
220
0
230
1
40
0.795546
41
1.23482044578598
42
1.5707963267949
0
ELLIPSE
5
167
100
AcDbEntity
8
1
62
256
6
ByLayer
370
13
48
1
60
0
100
AcDbEllipse
10
23.033293
20
7.874562
30
0
11
-2.75536429610035E-17
21
-0.15
31
0
210
0
220
0
230
1
40
0.34202
41
-1.75278811305915
42
-1.5707963267949
0
ELLIPSE
5
168
100
AcDbEntity
8
1
62
256
6
ByLayer
370
13
48
1
60
0
100
AcDbEllipse
10
23.033293
20
10.125438
30
0
11
4.24912383924225E-17
21
0.15
31
0
210
0
220
0
230
1
40
0.34202
41
1.5707963267949
42
1.75278811305913
0
ELLIPSE
5
169
100
AcDbEntity
8
1
62
256
6
ByLayer
370
13
48
1
60
0
100
AcDbEllipse
10
23.539982
20
9.433451
30
0
11
-0.0205626710087509
21
-0.198940133107892
31
0
210
0
220
0
230
1
40
0.702979
41
-1.10867675839078
42
-0.33705954463874
0
ELLIPSE
5
16A
100
AcDbEntity
8
1
62
256
6
ByLayer
370
13
48
1
60
0
100
AcDbEllipse
10
23.539982
20
8.566549
30
0
11
-0.0205626710087514
21
0.198940133107892
31
0
210
0
220
0
230
1
40
0.702979
41
0.337059544638758
42
1.10867675839078
0
ELLIPSE
5
16B
100
AcDbEntity
8
1
62
256
6
ByLayer
370
13
48
1
60
0
100
AcDbEllipse
10
23.672352
20
9.482663
30
0
11
0.1054031629799
21
0.280873945452106
31
0
210
0
220
0
230
1
40
0.321796
41
-2.93702761420035
42
-2.05551827773616
0
ELLIPSE
5
16C
100
AcDbEntity
8
1
62
256
6
ByLayer
370
13
48
1
60
0
100
AcDbEllipse
10
23.672352
20
8.517337
30
0
11
-0.105403162979924
21
0.280873945452097
31
0
210
0
220
0
230
1
40
0.321796
41
-1.08607437585367
42
-0.204565039389421
0
ELLIPSE
5
16D
100
AcDbEntity
8
1
62
256
6
ByLayer
370
13
48
1
60
0
100
AcDbEllipse
10
26.747654
20
10.191357
30
0
11
-0.00560126668057245
21
-0.239934628204378
31
0
210
0
220
0
230
1
40
0.172043
41
-1.49800588930574
42
-0.73209745514101
0
ELLIPSE
5
16E
100
AcDbEntity
8
1
62
256
6
ByLayer
370
13
48
1
60
0
100
AcDbEllipse
10
26.747654
20
7.808643
30
0
11
-0.00560126668057228
21
0.239934628204378
31
0
210
0
220
0
230
1
40
0.172043
41
0.73209745514101
42
1.49800588930574
0
ELLIPSE
5
16F
100
AcDbEntity
8
1
62
256
6
ByLayer
370
13
48
1
60
0
100
AcDbEllipse
10
23.531197
20
8.566064
30
0
11
5.665498452323E-17
21
0.2
31
0
210
0
220
0
230
1
40
0.803713
41
0.416381924289186
42
1.234820445786
0
ELLIPSE
5
170
100
AcDbEntity
8
1
62
256
6
ByLayer
370
13
48
1
60
0
100
AcDbEllipse
10
23.531197
20
9.433936
30
0
11
5.665498452323E-17
21
0.2
31
0
210
0
220
0
230
1
40
0.803713
41
1.90677220780381
42
2.72521072930061
0
ELLIPSE
5
171
100
AcDbEntity
8
1
62
256
6
ByLayer
370
13
48
1
60
0
100
AcDbEllipse
10
23.133999
20
9.433936
30
0
11
5.665498452323E-17
21
0.2
31
0
210
0
220
0
230
1
40
0.34202
41
1.90677220780381
42
2.72521072930059
0
ELLIPSE
5
172
100
AcDbEntity
8
1
62
256
6
ByLayer
370
13
48
1
60
0
100
AcDbEllipse
10
23.133999
20
8.566064
30
0
11
-3.67381906146713E-17
21
-0.2
31
0
210
0
220
0
230
1
40
0.34202
41
-2.72521072930059
42
-1.90677220780381
0
ELLIPSE
5
173
100
AcDbEntity
8
1
62
256
6
ByLayer
370
13
48
1
60
0
100
AcDbEllipse
10
27.352853
20
8.078833
30
0
11
-0.0533981556875965
21
0.0845496124719871
31
0
210
0
220
0
230
1
40
0.139768
41
-1.57717485146097
42
-0.740023965275087
0
ELLIPSE
5
174
100
AcDbEntity
8
1
62
256
6
ByLayer
370
13
48
1
60
0
100
AcDbEllipse
10
27.513527
20
8.22831
30
0
11
-0.0833341889559589
21
0.0552757899179428
31
0
210
0
220
0
230
1
40
0.125151
41
-1.63388084261208
42
-1.00888984397368
0
ELLIPSE
5
175
100
AcDbEntity
8
1
62
256
6
ByLayer
370
13
48
1
60
0
100
AcDbEllipse
10
27.352853
20
9.921167
30
0
11
-0.0533981556875966
21
-0.0845496124719871
31
0
210
0
220
0
230
1
40
0.139768
41
0.740023965275063
42
1.57717485146101
0
ELLIPSE
5
176
100
AcDbEntity
8
1
62
256
6
ByLayer
370
13
48
1
60
0
100
AcDbEllipse
10
27.513527
20
9.77169
30
0
11
-0.0833341889559589
21
-0.0552757899179427
31
0
210
0
220
0
230
1
40
0.125151
41
1.0088898439739
42
1.63388084261208
0
ELLIPSE
5
177
100
AcDbEntity
8
1
62
256
6
ByLayer
370
13
48
1
60
0
100
AcDbEllipse
10
26.858678
20
8.410924
30
0
11
0.0148293336171642
21
0.399725019062444
31
0
210
0
220
0
230
1
40
0.406503
41
-2.33595515067487
42
-1.55571667185631
0
ELLIPSE
5
178
100
AcDbEntity
8
1
62
256
6
ByLayer
370
13
48
1
60
0
100
AcDbEllipse
10
26.858678
20
9.589076
30
0
11
0.014829333617164
21
-0.399725019062444
31
0
210
0
220
0
230
1
40
0.406503
41
1.55571667185631
42
2.33595515067486
0
ELLIPSE
5
179
100
AcDbEntity
8
1
62
256
6
ByLayer
370
13
48
1
60
0
100
AcDbEllipse
10
27.220403
20
7.996743
30
0
11
-0.0518341759381039
21
0.0855173561612945
31
0
210
0
220
0
230
1
40
0.13986
41
-1.57460332353073
42
-0.736311954700634
0
ELLIPSE
5
17A
100
AcDbEntity
8
1
62
256
6
ByLayer
370
13
48
1
60
0
100
AcDbEllipse
10
27.123358
20
7.91937
30
0
11
-0.0777628762498878
21
0.0628723713354654
31
0
210
0
220
0
230
1
40
0.13045
41
-1.62182792903084
42
-1.15581636427962
0
ELLIPSE
5
17B
100
AcDbEntity
8
1
62
256
6
ByLayer
370
13
48
1
60
0
100
AcDbEllipse
10
27.220403
20
10.003257
30
0
11
-0.0518341759381039
21
-0.0855173561612945
31
0
210
0
220
0
230
1
40
0.13986
41
0.736311954700468
42
1.57460332353076
0
ELLIPSE
5
17C
100
AcDbEntity
8
1
62
256
6
ByLayer
370
13
48
1
60
0
100
AcDbEllipse
10
27.123358
20
10.08063
30
0
11
-0.0777628762498878
21
-0.0628723713354653
31
0
210
0
220
0
230
1
40
0.13045
41
1.15581636427952
42
1.62182792903084
0
ELLIPSE
5
17D
100
AcDbEntity
8
1
62
256
6
ByLayer
370
13
48
1
60
0
100
AcDbEllipse
10
26.358781
20
10.195151
30
0
11
-0.0082466205512047
21
-0.239858277425409
31
0
210
0
220
0
230
1
40
0.002403
41
0.709373157674997
42
1.50102444918868
0
ELLIPSE
5
17E
100
AcDbEntity
8
1
62
256
6
ByLayer
370
13
48
1
60
0
100
AcDbEllipse
10
26.358781
20
7.804849
30
0
11
-0.00824662055120453
21
0.239858277425409
31
0
210
0
220
0
230
1
40
0.002403
41
-1.50102444918824
42
-0.709373157669197
0
ELLIPSE
5
17F
100
AcDbEntity
8
1
62
256
6
ByLayer
370
13
48
1
60
0
100
AcDbEllipse
10
23.382996
20
11.080141
30
0
11
5.665498452323E-16
21
2
31
0
210
0
220
0
230
1
40
0.34202
41
2.7252107293006
42
2.79252680319093
0
ELLIPSE
5
180
100
AcDbEntity
8
1
62
256
6
ByLayer
370
13
48
1
60
0
100
AcDbEllipse
10
23.382996
20
6.919859
30
0
11
-3.67381906146713E-16
21
-2
31
0
210
0
220
0
230
1
40
0.34202
41
-2.79252680319093
42
-2.7252107293006
0
ELLIPSE
5
181
100
AcDbEntity
8
1
62
256
6
ByLayer
370
13
48
1
60
0
100
AcDbEllipse
10
27.535862
20
9.73707
30
0
11
-0.0846493904271157
21
-0.0532398412874957
31
0
210
0
220
0
230
1
40
0.065231
41
1.04577954889694
42
1.67414184501549
0
ELLIPSE
5
182
100
AcDbEntity
8
1
62
256
6
ByLayer
370
13
48
1
60
0
100
AcDbEllipse
10
27.535862
20
8.26293
30
0
11
-0.0846493904271157
21
0.0532398412874958
31
0
210
0
220
0
230
1
40
0.065231
41
-1.67414184501559
42
-1.04577954889697
0
ELLIPSE
5
183
100
AcDbEntity
8
1
62
256
6
ByLayer
370
13
48
1
60
0
100
AcDbEllipse
10
23.127689
20
9
30
0
11
5.94877337493915E-17
21
0.21
31
0
210
0
220
0
230
1
40
0.34202
41
-2.79252680319096
42
-0.349065850398837
0
ELLIPSE
5
184
100
AcDbEntity
8
1
62
256
6
ByLayer
370
13
48
1
60
0
100
AcDbEllipse
10
19.908132
20
10.269586
30
0
11
0.97958205251939
21
-0.301726209257467
31
0
210
0
220
0
230
-1
40
0.270086
41
2.05273074521561
42
2.24185105460402
0
ELLIPSE
5
185
100
AcDbEntity
8
1
62
256
6
ByLayer
370
18
48
1
60
0
100
AcDbEllipse
10
22.382033
20
9
30
0
11
1.28358760011039
21
1.297243759291E-15
31
0
210
0
220
0
230
-1
40
0.46744
41
1.05457302640886
42
-1.05457302640888
0
ELLIPSE
5
186
100
AcDbEntity
8
1
62
256
6
ByLayer
370
18
48
1
60
0
100
AcDbEllipse
10
23.041428
20
9
30
0
11
9.64885723403373E-17
21
0.599999999999937
31
0
210
0
220
0
230
-1
40
0.087172
41
-2.62536935320391
42
-0.516223300385886
0
ELLIPSE
5
187
100
AcDbEntity
8
1
62
256
6
ByLayer
370
18
48
1
60
0
100
AcDbEllipse
10
27.106337
20
7.526697
30
0
11
0.239997044625076
21
-0.0169489929729554
31
0
210
0
220
0
230
-1
40
0.070266
41
1.44395567104767
42
1.73995037652801
0
ELLIPSE
5
188
100
AcDbEntity
8
1
62
256
6
ByLayer
370
18
48
1
60
0
100
AcDbEllipse
10
27.648748
20
8.26293
30
0
11
1.1330996904646E-16
21
0.4
31
0
210
0
220
0
230
1
40
0.121869
41
1.5707963267949
42
1.64009079051254
0
ELLIPSE
5
189
100
AcDbEntity
8
1
62
256
6
ByLayer
370
18
48
1
60
0
100
AcDbEllipse
10
27.648748
20
9.73707
30
0
11
1.1330996904646E-16
21
0.4
31
0
210
0
220
0
230
1
40
0.121869
41
1.50150186307726
42
1.5707963267949
0
ELLIPSE
5
18A
100
AcDbEntity
8
1
62
256
6
ByLayer
370
18
48
1
60
0
100
AcDbEllipse
10
24.142652
20
10.45
30
0
11
0.201946432116473
21
0
31
0
210
0
220
0
230
1
40
0.990362
41
-1.5707963267949
42
-1.04299365512072
0
ELLIPSE
5
18B
100
AcDbEntity
8
1
62
256
6
ByLayer
370
18
48
1
60
0
100
AcDbEllipse
10
24.736306
20
7.658691
30
0
11
0.251841922006163
21
-0.0177818623404472
31
0
210
0
220
0
230
-1
40
0.06924
41
0.77440019884636
42
1.56101782170134
0
ELLIPSE
5
18C
100
AcDbEntity
8
1
62
256
6
ByLayer
370
18
48
1
60
0
100
AcDbEllipse
10
24.153398
20
7.55
30
0
11
-0.201490790302156
21
2.46746902040712E-17
31
0
210
0
220
0
230
1
40
0.992601
41
-2.09761674342106
42
-1.5707963267949
0
ELLIPSE
5
18D
100
AcDbEntity
8
1
62
256
6
ByLayer
370
18
48
1
60
0
100
AcDbEllipse
10
24.736306
20
10.341309
30
0
11
0.251841921997124
21
0.0177818623394042
31
0
210
0
220
0
230
-1
40
0.06924
41
-1.56101782172615
42
-0.77440019884554
0
ELLIPSE
5
18E
100
AcDbEntity
8
1
62
256
6
ByLayer
370
18
48
1
60
0
100
AcDbEllipse
10
27.106337
20
10.473303
30
0
11
0.239997044283656
21
0.0169489929512303
31
0
210
0
220
0
230
-1
40
0.070266
41
-1.73995037662821
42
-1.44395567072456
0
ELLIPSE
5
18F
100
AcDbEntity
8
1
62
256
6
ByLayer
370
18
48
1
60
0
100
AcDbEllipse
10
24.39757
20
10.134169
30
0
11
0.058624730201206
21
-0.191752852286547
31
0
210
-1.59644179966719E-15
220
4.38574520942052E-19
230
1
40
0.997435
41
2.91526219766618
42
-2.91526219766618
0
ELLIPSE
5
190
100
AcDbEntity
8
1
62
256
6
ByLayer
370
18
48
1
60
0
100
AcDbEllipse
10
24.409275
20
7.865013
30
0
11
0.00297293931671267
21
0.200467814146891
31
0
210
-1.59612295829283E-15
220
-1.26268957575375E-19
230
1
40
0.997557
41
2.63386280411414
42
3.08674247812915
0
POINT
5
6C
100
AcDbEntity
8
81
62
256
6
ByLayer
370
18
48
1
60
0
100
AcDbPoint
10
27.6
20
10.5
30
0
39
0
210
0
220
0
230
1
50
360
0
POINT
5
6E
100
AcDbEntity
8
80
62
256
6
ByLayer
370
18
48
1
60
0
100
AcDbPoint
10
0
20
0
30
0
39
0
210
0
220
0
230
1
50
360
0
SPLINE
5
191
100
AcDbEntity
8
1
62
256
6
ByLayer
370
18
48
1
60
0
100
AcDbSpline
70
4
71
3
72
18
73
14
40
0
40
0
40
0
40
0
40
0.18119409626534
40
0.18119409626534
40
0.361862303964485
40
0.361862303964485
40
0.551167347000521
40
0.551167347000521
40
0.763225975030246
40
0.763225975030246
40
0.99680303595418
40
0.99680303595418
40
1
40
1
40
1
40
1
41
1
10
12.9644268988194
20
6.22499999999954
30
0
41
1
10
12.9644268988194
20
6.38748344262044
30
0
41
1
10
12.9900637222604
20
6.55221398891308
30
0
41
1
10
13.0861803895995
20
6.85777255290301
30
0
41
1
10
13.157629535314
20
7.00272818221904
30
0
41
1
10
13.3369721637076
20
7.26407459148916
30
0
41
1
10
13.4484874238902
20
7.38211610420692
30
0
41
1
10
13.7070567671757
20
7.5870890304933
30
0
41
1
10
13.8598756178939
20
7.6713128220847
30
0
41
1
10
14.1914588745767
20
7.79186442500327
30
0
41
1
10
14.375392326659
20
7.8241369369226
30
0
41
1
10
14.5594590652904
20
7.82499421590583
30
0
41
1
10
14.5619429550446
20
7.82499999999953
30
0
41
1
10
14.5644268988194
20
7.82499999999953
30
0
0
SPLINE
5
192
100
AcDbEntity
8
1
62
256
6
ByLayer
370
13
48
1
60
0
100
AcDbSpline
70
4
71
3
72
10
73
6
40
0
40
0
40
0
40
0
40
0.664993946719532
40
0.664993946719532
40
1
40
1
40
1
40
1
41
1
10
24.631795236158
20
8.35126368904264
30
0
41
1
10
24.6544008183665
20
8.37209027076179
30
0
41
1
10
24.671972629713
20
8.39793460222609
30
0
41
1
10
24.6836688596485
20
8.44621065245681
30
0
41
1
10
24.6849134160383
20
8.46439108444736
30
0
41
1
10
24.6838678419133
20
8.48372671565284
30
0
0
SPLINE
5
193
100
AcDbEntity
8
1
62
256
6
ByLayer
370
13
48
1
60
0
100
AcDbSpline
70
4
71
3
72
12
73
8
40
0
40
0
40
0
40
0
40
0.274450233641753
40
0.274450233641753
40
0.728710906931613
40
0.728710906931613
40
1
40
1
40
1
40
1
41
1
10
25.7146869282979
20
8.18061578016457
30
0
41
1
10
25.6122143236957
20
8.21109506557363
30
0
41
1
10
25.5094974627491
20
8.2414423862553
30
0
41
1
10
25.2439453836002
20
8.31957758597784
30
0
41
1
10
25.0820473482734
20
8.36687077176342
30
0
41
1
10
24.8460793802261
20
8.43594806822495
30
0
41
1
10
24.7617198878049
20
8.46051590479536
30
0
41
1
10
24.6838678419133
20
8.48372671565284
30
0
0
SPLINE
5
194
100
AcDbEntity
8
1
62
256
6
ByLayer
370
13
48
1
60
0
100
AcDbSpline
70
4
71
3
72
16
73
12
40
0
40
0
40
0
40
0
40
0.0442199247554627
40
0.0442199247554627
40
0.048439955548864
40
0.048439955548864
40
0.216895358525141
40
0.216895358525141
40
0.889245809546153
40
0.889245809546153
40
1
40
1
40
1
40
1
41
1
10
26.4219297662852
20
8.10870448775091
30
0
41
1
10
26.4113300785451
20
8.10833475472174
30
0
41
1
10
26.400729128945
20
8.10800343229522
30
0
41
1
10
26.3891179461187
20
8.10759664249321
30
0
41
1
10
26.3881063966876
20
8.10756107529014
30
0
41
1
10
26.3467182945273
20
8.10610091658847
30
0
41
1
10
26.3063476610928
20
8.10420472300399
30
0
41
1
10
26.1067119730518
20
8.09746128696466
30
0
41
1
10
25.9453726295508
20
8.11840747459465
30
0
41
1
10
25.7656324617667
20
8.16588812760088
30
0
41
1
10
25.7400997197492
20
8.17305704066834
30
0
41
1
10
25.7146869282979
20
8.18061578016457
30
0
0
SPLINE
5
195
100
AcDbEntity
8
1
62
256
6
ByLayer
370
13
48
1
60
0
100
AcDbSpline
70
4
71
3
72
12
73
8
40
0
40
0
40
0
40
0
40
0.609383607480292
40
0.609383607480292
40
0.614539779329414
40
0.614539779329414
40
1
40
1
40
1
40
1
41
1
10
26.9656057053218
20
8.12970626448654
30
0
41
1
10
26.8600213620049
20
8.12535325233651
30
0
41
1
10
26.7496097970342
20
8.12102379935828
30
0
41
1
10
26.6373081383667
20
8.11675228722768
30
0
41
1
10
26.6363601843113
20
8.11671623209094
30
0
41
1
10
26.5647049543389
20
8.11399093307571
30
0
41
1
10
26.4932165299023
20
8.11119107713913
30
0
41
1
10
26.4219297662852
20
8.10870448775091
30
0
0
SPLINE
5
196
100
AcDbEntity
8
1
62
256
6
ByLayer
370
13
48
1
60
0
100
AcDbSpline
70
4
71
3
72
12
73
8
40
0
40
0
40
0
40
0
40
0.178891096392299
40
0.178891096392299
40
0.986291642516443
40
0.986291642516443
40
1
40
1
40
1
40
1
41
1
10
27.3213895076229
20
8.14630122296211
30
0
41
1
10
27.300311526968
20
8.14546488191499
30
0
41
1
10
27.2792221384666
20
8.14462186156504
30
0
41
1
10
27.1629014296376
20
8.1399331694935
30
0
41
1
10
27.0679540502601
20
8.13428950719961
30
0
41
1
10
26.9689156735317
20
8.1298457310653
30
0
41
1
10
26.9672607449415
20
8.12977449815972
30
0
41
1
10
26.9656057053218
20
8.12970626448654
30
0
0
SPLINE
5
197
100
AcDbEntity
8
1
62
256
6
ByLayer
370
13
48
1
60
0
100
AcDbSpline
70
4
71
3
72
8
73
4
40
0
40
0
40
0
40
0
40
1
40
1
40
1
40
1
41
1
10
27.1900286630425
20
8.06497603366424
30
0
41
1
10
27.234090020669
20
8.09163900157108
30
0
41
1
10
27.2778395366007
20
8.11881582011864
30
0
41
1
10
27.3213895076229
20
8.14630122296211
30
0
0
SPLINE
5
198
100
AcDbEntity
8
1
62
256
6
ByLayer
370
13
48
1
60
0
100
AcDbSpline
70
4
71
3
72
8
73
4
40
0
40
0
40
0
40
0
40
1
40
1
40
1
40
1
41
1
10
26.7158957172694
20
7.9864557878378
30
0
41
1
10
26.8755545267195
20
7.98697220005579
30
0
41
1
10
27.0354150796997
20
8.0211649492278
30
0
41
1
10
27.1900286630425
20
8.06497603366421
30
0
0
SPLINE
5
199
100
AcDbEntity
8
1
62
256
6
ByLayer
370
13
48
1
60
0
100
AcDbSpline
70
4
71
3
72
8
73
4
40
0
40
0
40
0
40
0
40
1
40
1
40
1
40
1
41
1
10
26.3528986418119
20
7.98685946813066
30
0
41
1
10
26.4744062234275
20
7.99090962369351
30
0
41
1
10
26.5966210532666
20
7.98606999707383
30
0
41
1
10
26.7158957172707
20
7.98645578783595
30
0
0
SPLINE
5
19A
100
AcDbEntity
8
1
62
256
6
ByLayer
370
13
48
1
60
0
100
AcDbSpline
70
4
71
3
72
8
73
4
40
0
40
0
40
0
40
0
40
1
40
1
40
1
40
1
41
1
10
26.0823771357602
20
8.00333672307795
30
0
41
1
10
26.1716495580756
20
7.98963514174534
30
0
41
1
10
26.2625883571386
20
7.9838491975201
30
0
41
1
10
26.3528986418104
20
7.98685946813023
30
0
0
SPLINE
5
19B
100
AcDbEntity
8
1
62
256
6
ByLayer
370
13
48
1
60
0
100
AcDbSpline
70
4
71
3
72
14
73
10
40
0
40
0
40
0
40
0
40
0.102691686735347
40
0.102691686735347
40
0.53816841361549
40
0.53816841361549
40
0.926474667639871
40
0.926474667639871
40
1
40
1
40
1
40
1
41
1
10
24.9509720530679
20
8.10028381155018
30
0
41
1
10
24.9808939994081
20
8.10352669466889
30
0
41
1
10
25.0122711139629
20
8.10573166133503
30
0
41
1
10
25.1807977171794
20
8.11241438821165
30
0
41
1
10
25.342161843352
20
8.1020997608297
30
0
41
1
10
25.6640413220708
20
8.06753394534579
30
0
41
1
10
25.8272620626367
20
8.04405495529042
30
0
41
1
10
26.0201021624028
20
8.01295801199515
30
0
41
1
10
26.0512578164012
20
8.00811293362722
30
0
41
1
10
26.0823771357602
20
8.00333672307804
30
0
0
SPLINE
5
19C
100
AcDbEntity
8
1
62
256
6
ByLayer
370
13
48
1
60
0
100
AcDbSpline
70
4
71
3
72
8
73
4
40
0
40
0
40
0
40
0
40
1
40
1
40
1
40
1
41
1
10
24.8573483090605
20
8.09401927453249
30
0
41
1
10
24.8886707932502
20
8.09468562269367
30
0
41
1
10
24.9198681643654
20
8.09691283178663
30
0
41
1
10
24.9509720530679
20
8.10028381155018
30
0
0
SPLINE
5
19D
100
AcDbEntity
8
1
62
256
6
ByLayer
370
13
48
1
60
0
100
AcDbSpline
70
4
71
3
72
10
73
6
40
0
40
0
40
0
40
0
40
0.436659189793396
40
0.436659189793396
40
1
40
1
40
1
40
1
41
1
10
24.6305156049706
20
8.30627117086246
30
0
41
1
10
24.6626760675877
20
8.27448677798296
30
0
41
1
10
24.6951835994715
20
8.24304868670529
30
0
41
1
10
24.7705662077347
20
8.17203303953559
30
0
41
1
10
24.8138220700955
20
8.13282546514276
30
0
41
1
10
24.8573483090635
20
8.09401927453175
30
0
0
SPLINE
5
19E
100
AcDbEntity
8
1
62
256
6
ByLayer
370
13
48
1
60
0
100
AcDbSpline
70
4
71
3
72
10
73
6
40
0
40
0
40
0
40
0
40
0.73561768390405
40
0.73561768390405
40
1
40
1
40
1
40
1
41
1
10
24.6305156049706
20
8.30627117086246
30
0
41
1
10
24.6246851208416
20
8.31203347597724
30
0
41
1
10
24.6191348692197
20
8.3183460122238
30
0
41
1
10
24.6131625911601
20
8.32712298892912
30
0
41
1
10
24.6117118978095
20
8.32950475361378
30
0
41
1
10
24.6104895579181
20
8.33185405410802
30
0
0
SPLINE
5
19F
100
AcDbEntity
8
1
62
256
6
ByLayer
370
13
48
1
60
0
100
AcDbSpline
70
4
71
3
72
8
73
4
40
0
40
0
40
0
40
0
40
1
40
1
40
1
40
1
41
1
10
24.6104895579211
20
8.3318540541114
30
0
41
1
10
24.6176603296031
20
8.33831664745676
30
0
41
1
10
24.624764632594
20
8.34478637568211
30
0
41
1
10
24.631795236158
20
8.35126368904264
30
0
0
SPLINE
5
1A0
100
AcDbEntity
8
1
62
256
6
ByLayer
370
13
48
1
60
0
100
AcDbSpline
70
4
71
3
72
12
73
8
40
0
40
0
40
0
40
0
40
0.233793069268613
40
0.233793069268613
40
0.849542984529965
40
0.849542984529965
40
1
40
1
40
1
40
1
41
1
10
24.610489557929
20
9.66814594589636
30
0
41
1
10
24.6115678802707
20
9.67021844899392
30
0
41
1
10
24.6128235703368
20
9.672315815139
30
0
41
1
10
24.6177801949082
20
9.67978917212352
30
0
41
1
10
24.6222297367629
20
9.68512944474583
30
0
41
1
10
24.6281198492318
20
9.69132558330969
30
0
41
1
10
24.6293089587678
20
9.69253629290318
30
0
41
1
10
24.6305156049706
20
9.69372882913726
30
0
0
SPLINE
5
1A1
100
AcDbEntity
8
1
62
256
6
ByLayer
370
13
48
1
60
0
100
AcDbSpline
70
4
71
3
72
10
73
6
40
0
40
0
40
0
40
0
40
0.436659189793399
40
0.436659189793399
40
1
40
1
40
1
40
1
41
1
10
24.6305156049706
20
9.69372882913726
30
0
41
1
10
24.6626760675877
20
9.72551322201676
30
0
41
1
10
24.6951835994715
20
9.75695131329442
30
0
41
1
10
24.7705662077347
20
9.82796696046412
30
0
41
1
10
24.8138220700955
20
9.86717453485696
30
0
41
1
10
24.8573483090635
20
9.90598072546797
30
0
0
SPLINE
5
1A2
100
AcDbEntity
8
1
62
256
6
ByLayer
370
13
48
1
60
0
100
AcDbSpline
70
4
71
3
72
8
73
4
40
0
40
0
40
0
40
0
40
1
40
1
40
1
40
1
41
1
10
24.8573483090605
20
9.90598072546723
30
0
41
1
10
24.8886707932502
20
9.90531437730607
30
0
41
1
10
24.9198681643654
20
9.90308716821312
30
0
41
1
10
24.9509720530679
20
9.89971618844953
30
0
0
SPLINE
5
1A3
100
AcDbEntity
8
1
62
256
6
ByLayer
370
13
48
1
60
0
100
AcDbSpline
70
4
71
3
72
14
73
10
40
0
40
0
40
0
40
0
40
0.102691686735347
40
0.102691686735347
40
0.53816841361549
40
0.53816841361549
40
0.926474667639871
40
0.926474667639871
40
1
40
1
40
1
40
1
41
1
10
24.9509720530679
20
9.89971618844953
30
0
41
1
10
24.9808939994081
20
9.89647330533083
30
0
41
1
10
25.0122711139629
20
9.89426833866469
30
0
41
1
10
25.1807977171794
20
9.88758561178807
30
0
41
1
10
25.342161843352
20
9.89790023917001
30
0
41
1
10
25.6640413220708
20
9.93246605465393
30
0
41
1
10
25.8272620626367
20
9.95594504470932
30
0
41
1
10
26.0201021624028
20
9.98704198800456
30
0
41
1
10
26.0512578164012
20
9.9918870663725
30
0
41
1
10
26.0823771357602
20
9.99666327692168
30
0
0
SPLINE
5
1A4
100
AcDbEntity
8
1
62
256
6
ByLayer
370
13
48
1
60
0
100
AcDbSpline
70
4
71
3
72
8
73
4
40
0
40
0
40
0
40
0
40
1
40
1
40
1
40
1
41
1
10
26.0823771357602
20
9.99666327692179
30
0
41
1
10
26.1716495580756
20
10.0103648582544
30
0
41
1
10
26.2625883571386
20
10.0161508024796
30
0
41
1
10
26.3528986418104
20
10.0131405318695
30
0
0
SPLINE
5
1A5
100
AcDbEntity
8
1
62
256
6
ByLayer
370
13
48
1
60
0
100
AcDbSpline
70
4
71
3
72
8
73
4
40
0
40
0
40
0
40
0
40
1
40
1
40
1
40
1
41
1
10
26.3528986418119
20
10.0131405318691
30
0
41
1
10
26.4744062234275
20
10.0090903763062
30
0
41
1
10
26.5966210532666
20
10.0139300029259
30
0
41
1
10
26.7158957172707
20
10.0135442121638
30
0
0
SPLINE
5
1A6
100
AcDbEntity
8
1
62
256
6
ByLayer
370
13
48
1
60
0
100
AcDbSpline
70
4
71
3
72
8
73
4
40
0
40
0
40
0
40
0
40
1
40
1
40
1
40
1
41
1
10
26.7158957172694
20
10.0135442121619
30
0
41
1
10
26.8755545267195
20
10.013027799944
30
0
41
1
10
27.0354150796997
20
9.97883505077192
30
0
41
1
10
27.1900286630425
20
9.93502396633551
30
0
0
SPLINE
5
1A7
100
AcDbEntity
8
1
62
256
6
ByLayer
370
13
48
1
60
0
100
AcDbSpline
70
4
71
3
72
8
73
4
40
0
40
0
40
0
40
0
40
1
40
1
40
1
40
1
41
1
10
27.1900286630425
20
9.93502396633548
30
0
41
1
10
27.234090020669
20
9.90836099842866
30
0
41
1
10
27.2778395366007
20
9.88118417988107
30
0
41
1
10
27.3213895076229
20
9.85369877703761
30
0
0
SPLINE
5
1A8
100
AcDbEntity
8
1
62
256
6
ByLayer
370
13
48
1
60
0
100
AcDbSpline
70
4
71
3
72
12
73
8
40
0
40
0
40
0
40
0
40
0.178891096392299
40
0.178891096392299
40
0.986291642516443
40
0.986291642516443
40
1
40
1
40
1
40
1
41
1
10
27.3213895076229
20
9.85369877703761
30
0
41
1
10
27.300311526968
20
9.85453511808473
30
0
41
1
10
27.2792221384666
20
9.85537813843467
30
0
41
1
10
27.1629014296376
20
9.86006683050621
30
0
41
1
10
27.0679540502601
20
9.8657104928001
30
0
41
1
10
26.9689156735317
20
9.87015426893441
30
0
41
1
10
26.9672607449415
20
9.87022550184
30
0
41
1
10
26.9656057053218
20
9.87029373551317
30
0
0
SPLINE
5
1A9
100
AcDbEntity
8
1
62
256
6
ByLayer
370
13
48
1
60
0
100
AcDbSpline
70
4
71
3
72
12
73
8
40
0
40
0
40
0
40
0
40
0.609383607480292
40
0.609383607480292
40
0.614539779329414
40
0.614539779329414
40
1
40
1
40
1
40
1
41
1
10
26.9656057053218
20
9.87029373551317
30
0
41
1
10
26.8600213620049
20
9.87464674766321
30
0
41
1
10
26.7496097970342
20
9.87897620064143
30
0
41
1
10
26.6373081383667
20
9.88324771277203
30
0
41
1
10
26.6363601843113
20
9.88328376790881
30
0
41
1
10
26.5647049543389
20
9.886009066924
30
0
41
1
10
26.4932165299023
20
9.88880892286059
30
0
41
1
10
26.4219297662852
20
9.8912955122488
30
0
0
SPLINE
5
1AA
100
AcDbEntity
8
1
62
256
6
ByLayer
370
13
48
1
60
0
100
AcDbSpline
70
4
71
3
72
16
73
12
40
0
40
0
40
0
40
0
40
0.0442199247554627
40
0.0442199247554627
40
0.048439955548864
40
0.048439955548864
40
0.216895358525141
40
0.216895358525141
40
0.889245809546153
40
0.889245809546153
40
1
40
1
40
1
40
1
41
1
10
26.4219297662852
20
9.8912955122488
30
0
41
1
10
26.4113300785451
20
9.89166524527801
30
0
41
1
10
26.400729128945
20
9.8919965677045
30
0
41
1
10
26.3891179461187
20
9.89240335750651
30
0
41
1
10
26.3881063966876
20
9.89243892470958
30
0
41
1
10
26.3467182945273
20
9.89389908341127
30
0
41
1
10
26.3063476610928
20
9.89579527699576
30
0
41
1
10
26.1067119730518
20
9.90253871303506
30
0
41
1
10
25.9453726295508
20
9.8815925254051
30
0
41
1
10
25.7656324617667
20
9.83411187239884
30
0
41
1
10
25.7400997197492
20
9.82694295933138
30
0
41
1
10
25.7146869282979
20
9.81938421983514
30
0
0
SPLINE
5
1AB
100
AcDbEntity
8
1
62
256
6
ByLayer
370
13
48
1
60
0
100
AcDbSpline
70
4
71
3
72
12
73
8
40
0
40
0
40
0
40
0
40
0.274450233641753
40
0.274450233641753
40
0.728710906931611
40
0.728710906931611
40
1
40
1
40
1
40
1
41
1
10
25.7146869282979
20
9.81938421983514
30
0
41
1
10
25.6122143236957
20
9.78890493442609
30
0
41
1
10
25.5094974627491
20
9.75855761374442
30
0
41
1
10
25.2439453836002
20
9.68042241402188
30
0
41
1
10
25.0820473482734
20
9.63312922823633
30
0
41
1
10
24.8460793802261
20
9.56405193177477
30
0
41
1
10
24.7617198878049
20
9.53948409520436
30
0
41
1
10
24.6838678419132
20
9.51627328434688
30
0
0
SPLINE
5
1AC
100
AcDbEntity
8
1
62
256
6
ByLayer
370
13
48
1
60
0
100
AcDbSpline
70
4
71
3
72
10
73
6
40
0
40
0
40
0
40
0
40
0.659159716151023
40
0.659159716151023
40
1
40
1
40
1
40
1
41
1
10
24.6838678419132
20
9.51627328434691
30
0
41
1
10
24.6859020371367
20
9.55389132375385
30
0
41
1
10
24.6777349617729
20
9.58625916382556
30
0
41
1
10
24.6536893544429
20
9.62577930634453
30
0
41
1
10
24.6434984870353
20
9.63795407546638
30
0
41
1
10
24.631795236158
20
9.6487363109571
30
0
0
SPLINE
5
1AD
100
AcDbEntity
8
1
62
256
6
ByLayer
370
13
48
1
60
0
100
AcDbSpline
70
4
71
3
72
8
73
4
40
0
40
0
40
0
40
0
40
1
40
1
40
1
40
1
41
1
10
24.631795236158
20
9.64873631095708
30
0
41
1
10
24.624764632594
20
9.65521362431764
30
0
41
1
10
24.6176603296031
20
9.66168335254295
30
0
41
1
10
24.6104895579211
20
9.66814594588834
30
0
0
SPLINE
5
1AE
100
AcDbEntity
8
1
62
256
6
ByLayer
370
13
48
1
60
0
100
AcDbSpline
70
4
71
3
72
8
73
4
40
0
40
0
40
0
40
0
40
1
40
1
40
1
40
1
41
1
10
24.7169741247548
20
7.9351553007838
30
0
41
1
10
24.6355486668608
20
8.00455068038386
30
0
41
1
10
24.5571073551695
20
8.07747945800548
30
0
41
1
10
24.4804455603129
20
8.15210380465206
30
0
0
SPLINE
5
1AF
100
AcDbEntity
8
1
62
256
6
ByLayer
370
13
48
1
60
0
100
AcDbSpline
70
4
71
3
72
8
73
4
40
0
40
0
40
0
40
0
40
1
40
1
40
1
40
1
41
1
10
24.7169741247548
20
10.0648446992159
30
0
41
1
10
24.6355486668608
20
9.99544931961586
30
0
41
1
10
24.5571073551695
20
9.92252054199423
30
0
41
1
10
24.4804455603129
20
9.84789619534766
30
0
0
SPLINE
5
1B0
100
AcDbEntity
8
1
62
256
6
ByLayer
370
13
48
1
60
0
100
AcDbSpline
70
4
71
3
72
12
73
8
40
0
40
0
40
0
40
0
40
0.46817896742225
40
0.46817896742225
40
0.899165978787896
40
0.899165978787896
40
1
40
1
40
1
40
1
41
1
10
26.0587805434613
20
7.83557581464871
30
0
41
1
10
25.877506035505
20
7.86409951175327
30
0
41
1
10
25.6936117660435
20
7.89888172979587
30
0
41
1
10
25.3658158689768
20
7.94253463727077
30
0
41
1
10
25.2153724323278
20
7.95660168013714
30
0
41
1
10
25.0560286247614
20
7.95534747787207
30
0
41
1
10
25.0264524991725
20
7.95424790399048
30
0
41
1
10
24.9981203716815
20
7.9521519715685
30
0
0
SPLINE
5
1B1
100
AcDbEntity
8
1
62
256
6
ByLayer
370
13
48
1
60
0
100
AcDbSpline
70
4
71
3
72
12
73
8
40
0
40
0
40
0
40
0
40
0.46817896742225
40
0.46817896742225
40
0.899165978787896
40
0.899165978787896
40
1
40
1
40
1
40
1
41
1
10
26.0587805434613
20
10.164424185351
30
0
41
1
10
25.877506035505
20
10.1359004882465
30
0
41
1
10
25.6936117660435
20
10.1011182702038
30
0
41
1
10
25.3658158689768
20
10.0574653627289
30
0
41
1
10
25.2153724323278
20
10.0433983198626
30
0
41
1
10
25.0560286247614
20
10.0446525221277
30
0
41
1
10
25.0264524991725
20
10.0457520960092
30
0
41
1
10
24.9981203716815
20
10.0478480284312
30
0
0
SPLINE
5
1B2
100
AcDbEntity
8
1
62
256
6
ByLayer
370
13
48
1
60
0
100
AcDbSpline
70
4
71
3
72
10
73
6
40
0
40
0
40
0
40
0
40
0.132191617121101
40
0.132191617121101
40
1
40
1
40
1
40
1
41
1
10
24.8573483090604
20
8.09401927453249
30
0
41
1
10
24.8564468305523
20
8.09305405934199
30
0
41
1
10
24.85552642843
20
8.09206336303691
30
0
41
1
10
24.848454107713
20
8.08441233951265
30
0
41
1
10
24.8414978788606
20
8.07667080629312
30
0
41
1
10
24.8339180002564
20
8.0680413910047
30
0
0
SPLINE
5
1B3
100
AcDbEntity
8
1
62
256
6
ByLayer
370
13
48
1
60
0
100
AcDbSpline
70
4
71
3
72
14
73
10
40
0
40
0
40
0
40
0
40
0.447953066725052
40
0.447953066725052
40
0.912809598186729
40
0.912809598186729
40
0.983423615312508
40
0.983423615312508
40
1
40
1
40
1
40
1
41
1
10
24.8339180002564
20
8.06804139100413
30
0
41
1
10
24.8203040290404
20
8.0525423813539
30
0
41
1
10
24.8040154112901
20
8.03400924865807
30
0
41
1
10
24.7683740707567
20
7.99349492029768
30
0
41
1
10
24.7483538761323
20
7.97075682721541
30
0
41
1
10
24.7253006224607
20
7.94460030707725
30
0
41
1
10
24.7222095971505
20
7.94109370495636
30
0
41
1
10
24.7184037038145
20
7.93677675969045
30
0
41
1
10
24.7176888999301
20
7.93596602775025
30
0
41
1
10
24.7169741247486
20
7.93515530078489
30
0
0
SPLINE
5
1B4
100
AcDbEntity
8
1
62
256
6
ByLayer
370
13
48
1
60
0
100
AcDbSpline
70
4
71
3
72
14
73
10
40
0
40
0
40
0
40
0
40
0.447953066725053
40
0.447953066725053
40
0.912809598186729
40
0.912809598186729
40
0.983423615312508
40
0.983423615312508
40
1
40
1
40
1
40
1
41
1
10
24.8339180002564
20
9.93195860899559
30
0
41
1
10
24.8203040290404
20
9.94745761864581
30
0
41
1
10
24.8040154112901
20
9.96599075134168
30
0
41
1
10
24.7683740707567
20
10.006505079702
30
0
41
1
10
24.7483538761323
20
10.0292431727843
30
0
41
1
10
24.7253006224607
20
10.0553996929225
30
0
41
1
10
24.7222095971505
20
10.0589062950434
30
0
41
1
10
24.7184037038145
20
10.0632232403093
30
0
41
1
10
24.7176888999301
20
10.0640339722495
30
0
41
1
10
24.7169741247486
20
10.0648446992148
30
0
0
SPLINE
5
1B5
100
AcDbEntity
8
1
62
256
6
ByLayer
370
13
48
1
60
0
100
AcDbSpline
70
4
71
3
72
10
73
6
40
0
40
0
40
0
40
0
40
0.132191617121101
40
0.132191617121101
40
1
40
1
40
1
40
1
41
1
10
24.8573483090604
20
9.90598072546723
30
0
41
1
10
24.8564468305523
20
9.90694594065772
30
0
41
1
10
24.85552642843
20
9.9079366369628
30
0
41
1
10
24.848454107713
20
9.91558766048709
30
0
41
1
10
24.8414978788606
20
9.92332919370662
30
0
41
1
10
24.8339180002564
20
9.93195860899502
30
0
0
SPLINE
5
1B6
100
AcDbEntity
8
1
62
256
6
ByLayer
370
13
48
1
60
0
100
AcDbSpline
70
4
71
3
72
12
73
8
40
0
40
0
40
0
40
0
40
0.559278359968975
40
0.559278359968975
40
0.982064699130975
40
0.982064699130975
40
1
40
1
40
1
40
1
41
1
10
24.4655988415542
20
8.30299237657752
30
0
41
1
10
24.4639058993619
20
8.33519193784534
30
0
41
1
10
24.4615176185074
20
8.36436691248176
30
0
41
1
10
24.4565061637906
20
8.40536495386462
30
0
41
1
10
24.4540306406306
20
8.42010754028402
30
0
41
1
10
24.4512781291035
20
8.43148078708811
30
0
41
1
10
24.4511665651818
20
8.43193389479342
30
0
41
1
10
24.4510546870629
20
8.43238048614606
30
0
0
SPLINE
5
1B7
100
AcDbEntity
8
1
62
256
6
ByLayer
370
13
48
1
60
0
100
AcDbSpline
70
4
71
3
72
10
73
6
40
0
40
0
40
0
40
0
40
0.709641074204652
40
0.709641074204652
40
1
40
1
40
1
40
1
41
1
10
24.4804455603129
20
8.15210380465206
30
0
41
1
10
24.4753414889782
20
8.18896801140781
30
0
41
1
10
24.4711861437205
20
8.22660582344631
30
0
41
1
10
24.467241250285
20
8.27560709751469
30
0
41
1
10
24.4663022439905
20
8.28961374501299
30
0
41
1
10
24.4655988415525
20
8.30299237657761
30
0
0
SPLINE
5
1B8
100
AcDbEntity
8
1
62
256
6
ByLayer
370
13
48
1
60
0
100
AcDbSpline
70
4
71
3
72
12
73
8
40
0
40
0
40
0
40
0
40
0.135507654329451
40
0.135507654329451
40
0.742115377580087
40
0.742115377580087
40
1
40
1
40
1
40
1
41
1
10
24.4804455603129
20
9.84789619534766
30
0
41
1
10
24.4794577311546
20
9.84076158927701
30
0
41
1
10
24.4785068164279
20
9.83361732701769
30
0
41
1
10
24.4735694178172
20
9.79496495455945
30
0
41
1
10
24.4702919601627
20
9.76329435093933
30
0
41
1
10
24.4670296012879
20
9.72120051061225
30
0
41
1
10
24.4662219824782
20
9.7088596904494
30
0
41
1
10
24.4655988415537
20
9.69700762342217
30
0
0
SPLINE
5
1B9
100
AcDbEntity
8
1
62
256
6
ByLayer
370
13
48
1
60
0
100
AcDbSpline
70
4
71
3
72
14
73
10
40
0
40
0
40
0
40
0
40
0.0177509856471946
40
0.0177509856471946
40
0.340726860481444
40
0.340726860481444
40
0.792711195890233
40
0.792711195890233
40
1
40
1
40
1
40
1
41
1
10
24.4510546870629
20
9.56761951385366
30
0
41
1
10
24.4511665651505
20
9.56806610520607
30
0
41
1
10
24.4512781289784
20
9.56851921291079
30
0
41
1
10
24.4534062656342
20
9.57731256995538
30
0
41
1
10
24.4553239640451
20
9.58784737597591
30
0
41
1
10
24.4595178404373
20
9.61745896176004
30
0
41
1
10
24.4616827821099
20
9.63862937813704
30
0
41
1
10
24.4642384176628
20
9.67334687772768
30
0
41
1
10
24.4649648606851
20
9.68494938190102
30
0
41
1
10
24.4655988415542
20
9.69700762342219
30
0
0
SPLINE
5
1BA
100
AcDbEntity
8
1
62
256
6
ByLayer
370
13
48
1
60
0
100
AcDbSpline
70
4
71
3
72
14
73
10
40
0
40
0
40
0
40
0
40
0.447954004797037
40
0.447954004797037
40
0.912810038934036
40
0.912810038934036
40
0.983423779130199
40
0.983423779130199
40
1
40
1
40
1
40
1
41
1
10
24.8933275812136
20
10.0495304559491
30
0
41
1
10
24.8727755286919
20
10.0513153960274
30
0
41
1
10
24.8481939779358
20
10.0534502100752
30
0
41
1
10
24.7944355442364
20
10.0581186183362
30
0
41
1
10
24.7642532997474
20
10.0607395039344
30
0
41
1
10
24.7295181484128
20
10.0637555302519
30
0
41
1
10
24.7248611889836
20
10.0641598862849
30
0
41
1
10
24.7191276857055
20
10.0646577116979
30
0
41
1
10
24.7180508939064
20
10.064751206329
30
0
41
1
10
24.7169741247543
20
10.064844699216
30
0
0
SPLINE
5
1BB
100
AcDbEntity
8
1
62
256
6
ByLayer
370
13
48
1
60
0
100
AcDbSpline
70
4
71
3
72
18
73
14
40
0
40
0
40
0
40
0
40
0.10212592206704
40
0.10212592206704
40
0.219798180864097
40
0.219798180864097
40
0.395678331134856
40
0.395678331134856
40
0.733655817510089
40
0.733655817510089
40
0.802063348489368
40
0.802063348489368
40
1
40
1
40
1
40
1
41
1
10
24.0559779585026
20
8.17324432254875
30
0
41
1
10
24.0564416368178
20
8.18652395278005
30
0
41
1
10
24.05608929913
20
8.19988304742853
30
0
41
1
10
24.0536446728814
20
8.22811536927784
30
0
41
1
10
24.0512850832915
20
8.24304789355713
30
0
41
1
10
24.0431564052165
20
8.27879844137527
30
0
41
1
10
24.036209646695
20
8.29922665474535
30
0
41
1
10
24.0118798067115
20
8.35346644067815
30
0
41
1
10
23.990286699554
20
8.38384818013478
30
0
41
1
10
23.9616240935598
20
8.41280606666712
30
0
41
1
10
23.9566229893451
20
8.41750541354401
30
0
41
1
10
23.9368310070576
20
8.43483588450312
30
0
41
1
10
23.9212866355732
20
8.44578085370651
30
0
41
1
10
23.9052940680713
20
8.45482687762095
30
0
0
SPLINE
5
1BC
100
AcDbEntity
8
1
62
256
6
ByLayer
370
13
48
1
60
0
100
AcDbSpline
70
4
71
3
72
14
73
10
40
0
40
0
40
0
40
0
40
0.447954004797037
40
0.447954004797037
40
0.912810038934036
40
0.912810038934036
40
0.983423779130199
40
0.983423779130199
40
1
40
1
40
1
40
1
41
1
10
24.8933275812136
20
7.95046954405063
30
0
41
1
10
24.8727755286919
20
7.94868460397231
30
0
41
1
10
24.8481939779358
20
7.94654978992449
30
0
41
1
10
24.7944355442364
20
7.94188138166354
30
0
41
1
10
24.7642532997474
20
7.93926049606537
30
0
41
1
10
24.7295181484128
20
7.93624446974783
30
0
41
1
10
24.7248611889836
20
7.93584011371485
30
0
41
1
10
24.7191276857055
20
7.93534228830183
30
0
41
1
10
24.7180508939064
20
7.9352487936707
30
0
41
1
10
24.7169741247543
20
7.93515530078375
30
0
0
SPLINE
5
1BD
100
AcDbEntity
8
1
62
256
6
ByLayer
370
13
48
1
60
0
100
AcDbSpline
70
4
71
3
72
12
73
8
40
0
40
0
40
0
40
0
40
0.356479833160399
40
0.356479833160399
40
0.824168720346733
40
0.824168720346733
40
1
40
1
40
1
40
1
41
1
10
24.4643787537961
20
9.55631031273992
30
0
41
1
10
24.4767763033464
20
9.54979731354828
30
0
41
1
10
24.4880463981537
20
9.54220123620925
30
0
41
1
10
24.5095864832786
20
9.52168489116761
30
0
41
1
10
24.5185295226104
20
9.50750510644292
30
0
41
1
10
24.52407326674
20
9.48479955992471
30
0
41
1
10
24.5249217874923
20
9.47818401764999
30
0
41
1
10
24.5250392603487
20
9.47128895230455
30
0
0
SPLINE
5
1BE
100
AcDbEntity
8
1
62
256
6
ByLayer
370
13
48
1
60
0
100
AcDbSpline
70
4
71
3
72
12
73
8
40
0
40
0
40
0
40
0
40
0.443558069836982
40
0.443558069836982
40
0.507222026557664
40
0.507222026557664
40
1
40
1
40
1
40
1
41
1
10
24.5250392603488
20
9.47128895230452
30
0
41
1
10
24.525625933741
20
9.43685417733937
30
0
41
1
10
24.533457578199
20
9.39592581494517
30
0
41
1
10
24.5513800260717
20
9.34738406941315
30
0
41
1
10
24.5538277204397
20
9.34115934494767
30
0
41
1
10
24.576282853545
20
9.28739653816945
30
0
41
1
10
24.606340828125
20
9.23749912660313
30
0
41
1
10
24.6439598709927
20
9.19238148421468
30
0
0
SPLINE
5
1BF
100
AcDbEntity
8
1
62
256
6
ByLayer
370
13
48
1
60
0
100
AcDbSpline
70
4
71
3
72
18
73
14
40
0
40
0
40
0
40
0
40
0.262962488711577
40
0.262962488711577
40
0.43136352889061
40
0.43136352889061
40
0.488169625072958
40
0.488169625072958
40
0.652801403480982
40
0.652801403480982
40
0.712254155913291
40
0.712254155913291
40
1
40
1
40
1
40
1
41
1
10
24.6439598709927
20
9.19238148421468
30
0
41
1
10
24.6671201854564
20
9.16460462691376
30
0
41
1
10
24.6885389915202
20
9.13384334491732
30
0
41
1
10
24.713950371308
20
9.07791051613646
30
0
41
1
10
24.7214580237961
20
9.05420757216061
30
0
41
1
10
24.7259784141927
20
9.02171216665926
30
0
41
1
10
24.7266641796623
20
9.01334369966253
30
0
41
1
10
24.7274106952605
20
8.98107849423536
30
0
41
1
10
24.72374714007
20
8.95677065758082
30
0
41
1
10
24.7143596854291
20
8.92583421176809
30
0
41
1
10
24.7114227244078
20
8.91769561843552
30
0
41
1
10
24.6925277493289
20
8.87188615751225
30
0
41
1
10
24.6692256559174
20
8.83792052673479
30
0
41
1
10
24.6439598709999
20
8.80761851579362
30
0
0
SPLINE
5
1C0
100
AcDbEntity
8
1
62
256
6
ByLayer
370
13
48
1
60
0
100
AcDbSpline
70
4
71
3
72
12
73
8
40
0
40
0
40
0
40
0
40
0.0695374380305743
40
0.0695374380305743
40
0.564718845075643
40
0.564718845075643
40
1
40
1
40
1
40
1
41
1
10
24.6439598709999
20
8.80761851579362
30
0
41
1
10
24.6385610813286
20
8.80114358599366
30
0
41
1
10
24.6333230650436
20
8.79458903646957
30
0
41
1
10
24.5927993674552
20
8.74167369184121
30
0
41
1
10
24.5653523725795
20
8.69121114591235
30
0
41
1
10
24.5331669750443
20
8.60258823281507
30
0
41
1
10
24.5256153955242
20
8.56252728237772
30
0
41
1
10
24.5250392603488
20
8.5287110476952
30
0
0
SPLINE
5
1C1
100
AcDbEntity
8
1
62
256
6
ByLayer
370
13
48
1
60
0
100
AcDbSpline
70
4
71
3
72
10
73
6
40
0
40
0
40
0
40
0
40
0.323499890762715
40
0.323499890762715
40
1
40
1
40
1
40
1
41
1
10
24.5250392603488
20
8.5287110476952
30
0
41
1
10
24.5248229895014
20
8.51601703760298
30
0
41
1
10
24.5221009308092
20
8.50425347333302
30
0
41
1
10
24.5072698303883
20
8.47231392548153
30
0
41
1
10
24.4876680100065
20
8.45592459757464
30
0
41
1
10
24.4643787537961
20
8.44368968725979
30
0
0
SPLINE
5
1C2
100
AcDbEntity
8
1
62
256
6
ByLayer
370
13
48
1
60
0
100
AcDbSpline
70
4
71
3
72
12
73
8
40
0
40
0
40
0
40
0
40
0.833271550695841
40
0.833271550695841
40
0.924873187913958
40
0.924873187913958
40
1
40
1
40
1
40
1
41
1
10
23.6610166945646
20
8.50591179685159
30
0
41
1
10
23.6544754484441
20
8.54042910020351
30
0
41
1
10
23.6449923927374
20
8.58310332066986
30
0
41
1
10
23.6401810689221
20
8.63643306581096
30
0
41
1
10
23.6397613475273
20
8.64185269444121
30
0
41
1
10
23.6391308505303
20
8.65183683382043
30
0
41
1
10
23.6388959908554
20
8.65638110810707
30
0
41
1
10
23.6387159227923
20
8.66096703675683
30
0
0
SPLINE
5
1C3
100
AcDbEntity
8
1
62
256
6
ByLayer
370
13
48
1
60
0
100
AcDbSpline
70
4
71
3
72
8
73
4
40
0
40
0
40
0
40
0
40
1
40
1
40
1
40
1
41
1
10
23.6387159227923
20
8.66096703675683
30
0
41
1
10
23.659987312203
20
8.66710575847026
30
0
41
1
10
23.6815114137464
20
8.6728477880504
30
0
41
1
10
23.7032105368038
20
8.67822437464216
30
0
0
SPLINE
5
1C4
100
AcDbEntity
8
1
62
256
6
ByLayer
370
13
48
1
60
0
100
AcDbSpline
70
4
71
3
72
8
73
4
40
0
40
0
40
0
40
0
40
1
40
1
40
1
40
1
41
1
10
23.7032105368034
20
8.6782243746438
30
0
41
1
10
23.7062783445423
20
8.67898451291813
30
0
41
1
10
23.7093468504695
20
8.6797445572482
30
0
41
1
10
23.7124160421628
20
8.68050450893267
30
0
0
SPLINE
5
1C5
100
AcDbEntity
8
1
62
256
6
ByLayer
370
13
48
1
60
0
100
AcDbSpline
70
4
71
3
72
26
73
22
40
0
40
0
40
0
40
0
40
0.0783346115779722
40
0.0783346115779722
40
0.229067417424992
40
0.229067417424992
40
0.361148737487712
40
0.361148737487712
40
0.451044286208709
40
0.451044286208709
40
0.480076288213215
40
0.480076288213215
40
0.580804987892491
40
0.580804987892491
40
0.598553408472289
40
0.598553408472289
40
0.721865021031447
40
0.721865021031447
40
0.852573440596253
40
0.852573440596253
40
1
40
1
40
1
40
1
41
1
10
23.7124160421628
20
8.68050450893267
30
0
41
1
10
23.7363716105936
20
8.68643606238379
30
0
41
1
10
23.7598327503349
20
8.6938413293569
30
0
41
1
10
23.8253859658397
20
8.72009917039188
30
0
41
1
10
23.865911644628
20
8.74369895017611
30
0
41
1
10
23.9301656555828
20
8.80065156739161
30
0
41
1
10
23.9562012292316
20
8.83337075031335
30
0
41
1
10
23.9871009177856
20
8.89577305328527
30
0
41
1
10
23.9963228169935
20
8.92378188418493
30
0
41
1
10
24.0026526489824
20
8.9618523884055
30
0
41
1
10
24.0037565534504
20
8.97135293321534
30
0
41
1
10
24.0065356221221
20
9.01335125758987
30
0
41
1
10
24.0029896944569
20
9.04690054975103
30
0
41
1
10
23.9928135335292
20
9.08343937633538
30
0
41
1
10
23.9911033398724
20
9.0889415381169
30
0
41
1
10
23.97655782445
20
9.13132088180708
30
0
41
1
10
23.9563208175636
20
9.16540000538913
30
0
41
1
10
23.9056247831178
20
9.22430192194821
30
0
41
1
10
23.873851925294
20
9.24958528585071
30
0
41
1
10
23.8004676930902
20
9.29205587545394
30
0
41
1
10
23.7571805456306
20
9.30841151091437
30
0
41
1
10
23.7124160421628
20
9.31949549106707
30
0
0
SPLINE
5
1C6
100
AcDbEntity
8
1
62
256
6
ByLayer
370
13
48
1
60
0
100
AcDbSpline
70
4
71
3
72
8
73
4
40
0
40
0
40
0
40
0
40
1
40
1
40
1
40
1
41
1
10
23.7124160421628
20
9.31949549106707
30
0
41
1
10
23.7093468504694
20
9.32025544275152
30
0
41
1
10
23.7062783445423
20
9.32101548708158
30
0
41
1
10
23.7032105368034
20
9.32177562535591
30
0
0
SPLINE
5
1C7
100
AcDbEntity
8
1
62
256
6
ByLayer
370
13
48
1
60
0
100
AcDbSpline
70
4
71
3
72
10
73
6
40
0
40
0
40
0
40
0
40
0.0748872813144652
40
0.0748872813144652
40
1
40
1
40
1
40
1
41
1
10
23.6387159227923
20
9.33903296324289
30
0
41
1
10
23.6388959908554
20
9.34361889189267
30
0
41
1
10
23.6391308505303
20
9.34816316617929
30
0
41
1
10
23.6428644178648
20
9.40728550431254
30
0
41
1
10
23.6537561749332
20
9.45577538721179
30
0
41
1
10
23.6610166945643
20
9.49408820314667
30
0
0
SPLINE
5
1C8
100
AcDbEntity
8
1
62
256
6
ByLayer
370
13
48
1
60
0
100
AcDbSpline
70
4
71
3
72
8
73
4
40
0
40
0
40
0
40
0
40
1
40
1
40
1
40
1
41
1
10
23.7032105368034
20
9.32177562535591
30
0
41
1
10
23.6815114137461
20
9.32715221194766
30
0
41
1
10
23.6599873122032
20
9.33289424153125
30
0
41
1
10
23.6387159227925
20
9.33903296324468
30
0
0
SPLINE
5
1C9
100
AcDbEntity
8
1
62
256
6
ByLayer
370
13
48
1
60
0
100
AcDbSpline
70
4
71
3
72
20
73
16
40
0
40
0
40
0
40
0
40
0.114266316237489
40
0.114266316237489
40
0.331231960429442
40
0.331231960429442
40
0.599155656755157
40
0.599155656755157
40
0.722874848940947
40
0.722874848940947
40
0.871512516236653
40
0.871512516236653
40
0.967654963824484
40
0.967654963824484
40
1
40
1
40
1
40
1
41
1
10
23.905294068073
20
9.54517312237832
30
0
41
1
10
23.9145383163395
20
9.55040203205024
30
0
41
1
10
23.9236231348747
20
9.55625908242087
30
0
41
1
10
23.9492280670811
20
9.57503178484828
30
0
41
1
10
23.965276744252
20
9.58968369446362
30
0
41
1
10
23.9980286906964
20
9.62757288160469
30
0
41
1
10
24.0143711478299
20
9.65246817223778
30
0
41
1
10
24.0331414661541
20
9.69376963784532
30
0
41
1
10
24.0383907764823
20
9.7077143366653
30
0
41
1
10
24.047858461063
20
9.7396537849834
30
0
41
1
10
24.0517121178798
20
9.75811768537375
30
0
41
1
10
24.0553663096761
20
9.78917941882415
30
0
41
1
10
24.0561297476896
20
9.80165464286816
30
0
41
1
10
24.0561906263781
20
9.81833249666911
30
0
41
1
10
24.0561249332387
20
9.82254635801112
30
0
41
1
10
24.0559779585028
20
9.82675567745099
30
0
0
SPLINE
5
1CA
100
AcDbEntity
8
1
62
256
6
ByLayer
370
13
48
1
60
0
100
AcDbSpline
70
4
71
3
72
16
73
12
40
0
40
0
40
0
40
0
40
0.249954056036558
40
0.249954056036558
40
0.699484194384015
40
0.699484194384015
40
0.851133931227642
40
0.851133931227642
40
0.935108677236773
40
0.935108677236773
40
1
40
1
40
1
40
1
41
1
10
23.8267110292775
20
8.27310250349527
30
0
41
1
10
23.8427048966235
20
8.26955099930458
30
0
41
1
10
23.8585947536486
20
8.26536809473075
30
0
41
1
10
23.9021970348683
20
8.25143251340018
30
0
41
1
10
23.9302297071818
20
8.24022859239523
30
0
41
1
10
23.9625570510524
20
8.21678068051276
30
0
41
1
10
23.9704121947257
20
8.20993493754852
30
0
41
1
10
23.9801629147231
20
8.19717885077804
30
0
41
1
10
23.9831940821263
20
8.19209224683877
30
0
41
1
10
23.9866841498694
20
8.18237019329649
30
0
41
1
10
23.9875739298376
20
8.1777799550583
30
0
41
1
10
23.9875739298376
20
8.17324432254875
30
0
0
SPLINE
5
1CB
100
AcDbEntity
8
1
62
256
6
ByLayer
370
13
48
1
60
0
100
AcDbSpline
70
4
71
3
72
20
73
16
40
0
40
0
40
0
40
0
40
0.0199906994069362
40
0.0199906994069362
40
0.0825919577440876
40
0.0825919577440876
40
0.195169299288357
40
0.195169299288357
40
0.306011529795777
40
0.306011529795777
40
0.591177675589546
40
0.591177675589546
40
0.85412822131223
40
0.85412822131223
40
1
40
1
40
1
40
1
41
1
10
23.9875739298377
20
9.82675567745099
30
0
41
1
10
23.9875739298377
20
9.82534415264965
30
0
41
1
10
23.9874914943694
20
9.82393012675445
30
0
41
1
10
23.9868329759386
20
9.81819712977179
30
0
41
1
10
23.9855574593884
20
9.81392815080957
30
0
41
1
10
23.9806296077618
20
9.80296214111218
30
0
41
1
10
23.9758782533065
20
9.79671364043722
30
0
41
1
10
23.9654630806492
20
9.78585489583119
30
0
41
1
10
23.959676381482
20
9.78108259017651
30
0
41
1
10
23.9382455610535
20
9.76571692617821
30
0
41
1
10
23.921132565686
20
9.75733871328703
30
0
41
1
10
23.8877211729544
20
9.74375243518523
30
0
41
1
10
23.8712362948113
20
9.73838064935282
30
0
41
1
10
23.8453568251732
20
9.73126419529535
30
0
41
1
10
23.8360536989462
20
9.72897207482683
30
0
41
1
10
23.8267110292774
20
9.72689749650439
30
0
0
SPLINE
5
1CC
100
AcDbEntity
8
1
62
256
6
ByLayer
370
13
48
1
60
0
100
AcDbSpline
70
4
71
3
72
14
73
10
40
0
40
0
40
0
40
0
40
0.0177534078899156
40
0.0177534078899156
40
0.340744812432132
40
0.340744812432132
40
0.785966596962005
40
0.785966596962005
40
1
40
1
40
1
40
1
41
1
10
24.4510546870629
20
9.56761951385366
30
0
41
1
10
24.4520935591131
20
9.56788068185816
30
0
41
1
10
24.4531321595047
20
9.56814834363075
30
0
41
1
10
24.4729966272014
20
9.57339484424728
30
0
41
1
10
24.4917885884792
20
9.5805600597549
30
0
41
1
10
24.5347600859258
20
9.6021773103042
30
0
41
1
10
24.5587945413718
20
9.61861489801984
30
0
41
1
10
24.5910000960523
20
9.64732618629793
30
0
41
1
10
24.6010527060188
20
9.65744172078976
30
0
41
1
10
24.610489557929
20
9.66814594589636
30
0
0
SPLINE
5
1CD
100
AcDbEntity
8
1
62
256
6
ByLayer
370
13
48
1
60
0
100
AcDbSpline
70
4
71
3
72
12
73
8
40
0
40
0
40
0
40
0
40
0.559301985460886
40
0.559301985460886
40
0.982067221682947
40
0.982067221682947
40
1
40
1
40
1
40
1
41
1
10
24.610489557929
20
8.33185405410336
30
0
41
1
10
24.5860762799805
20
8.35954604558916
30
0
41
1
10
24.5571861880885
20
8.3834538917281
30
0
41
1
10
24.5034740589433
20
8.41474871140645
30
0
41
1
10
24.4788250511787
20
8.42506578251403
30
0
41
1
10
24.4531321595028
20
8.4318516563678
30
0
41
1
10
24.4520935591125
20
8.43211931814119
30
0
41
1
10
24.4510546870628
20
8.43238048614606
30
0
0
SPLINE
5
1CE
100
AcDbEntity
8
1
62
256
6
ByLayer
370
13
48
1
60
0
100
AcDbSpline
70
4
71
3
72
8
73
4
40
0
40
0
40
0
40
0
40
1
40
1
40
1
40
1
41
1
10
23.2639115680549
20
7.86608276247856
30
0
41
1
10
23.3472851478713
20
8.00486553262138
30
0
41
1
10
23.416569163954
20
8.15303407505621
30
0
41
1
10
23.4825621452742
20
8.30203290561852
30
0
0
SPLINE
5
1CF
100
AcDbEntity
8
1
62
256
6
ByLayer
370
13
48
1
60
0
100
AcDbSpline
70
4
71
3
72
16
73
12
40
0
40
0
40
0
40
0
40
0.0745951303882249
40
0.0745951303882249
40
0.27553513169183
40
0.27553513169183
40
0.501427420118119
40
0.501427420118119
40
0.725494997757322
40
0.725494997757322
40
1
40
1
40
1
40
1
41
1
10
23.4825621452742
20
8.30203290561852
30
0
41
1
10
23.4837736749443
20
8.30476829505562
30
0
41
1
10
23.4851163296951
20
8.30744279212485
30
0
41
1
10
23.4905147865576
20
8.31692326417752
30
0
41
1
10
23.4954617830551
20
8.32328945752215
30
0
41
1
10
23.5076198241713
20
8.33443686704493
30
0
41
1
10
23.5152342937161
20
8.33907583280558
30
0
41
1
10
23.531205119136
20
8.34496898107543
30
0
41
1
10
23.5397662566659
20
8.34635990086201
30
0
41
1
10
23.5585207140202
20
8.34643579907754
30
0
41
1
10
23.5689309570329
20
8.34449545414128
30
0
41
1
10
23.5787842780359
20
8.34121572913662
30
0
0
SPLINE
5
1D0
100
AcDbEntity
8
1
62
256
6
ByLayer
370
13
48
1
60
0
100
AcDbSpline
70
4
71
3
72
8
73
4
40
0
40
0
40
0
40
0
40
1
40
1
40
1
40
1
41
1
10
24.9981203716815
20
10.0478480284312
30
0
41
1
10
24.9638409048777
20
10.049704418651
30
0
41
1
10
24.9294607622628
20
10.0502344847972
30
0
41
1
10
24.8950622867788
20
10.049169449934
30
0
0
SPLINE
5
1D1
100
AcDbEntity
8
1
62
256
6
ByLayer
370
13
48
1
60
0
100
AcDbSpline
70
4
71
3
72
16
73
12
40
0
40
0
40
0
40
0
40
0.108772443208259
40
0.108772443208259
40
0.369799377627614
40
0.369799377627614
40
0.571154122074464
40
0.571154122074464
40
0.786314444449857
40
0.786314444449857
40
1
40
1
40
1
40
1
41
1
10
23.5787842780347
20
9.6587842708623
30
0
41
1
10
23.5748425309941
20
9.65747224151434
30
0
41
1
10
23.5708295616293
20
9.65637728646894
30
0
41
1
10
23.5571495011344
20
9.65354385897336
30
0
41
1
10
23.5470910912766
20
9.65298391507892
30
0
41
1
10
23.5298590002818
20
9.65549340490864
30
0
41
1
10
23.5223925092281
20
9.65781400530324
30
0
41
1
10
23.5083165495634
20
9.66513500485101
30
0
41
1
10
23.5016145563071
20
9.67041982163082
30
0
41
1
10
23.4905405846474
20
9.68289768608236
30
0
41
1
10
23.4859929686992
20
9.69022098763449
30
0
41
1
10
23.482562145276
20
9.69796709438228
30
0
0
SPLINE
5
1D2
100
AcDbEntity
8
1
62
256
6
ByLayer
370
13
48
1
60
0
100
AcDbSpline
70
4
71
3
72
8
73
4
40
0
40
0
40
0
40
0
40
1
40
1
40
1
40
1
41
1
10
23.4825621452735
20
9.69796709437978
30
0
41
1
10
23.4165691639542
20
9.84696592493995
30
0
41
1
10
23.3472851478721
20
9.99513446737251
30
0
41
1
10
23.2639115680571
20
10.1339172375136
30
0
0
SPLINE
5
1D3
100
AcDbEntity
8
1
62
256
6
ByLayer
370
13
48
1
60
0
100
AcDbSpline
70
4
71
3
72
8
73
4
40
0
40
0
40
0
40
0
40
1
40
1
40
1
40
1
41
1
10
24.9981203716815
20
7.9521519715685
30
0
41
1
10
24.9638409048777
20
7.95029558134871
30
0
41
1
10
24.9294607622628
20
7.94976551520256
30
0
41
1
10
24.8950622867788
20
7.95083055006569
30
0
0
SPLINE
5
1D4
100
AcDbEntity
8
1
62
256
6
ByLayer
370
13
48
1
60
0
100
AcDbSpline
70
4
71
3
72
10
73
6
40
0
40
0
40
0
40
0
40
0.140418403423082
40
0.140418403423082
40
1
40
1
40
1
40
1
41
1
10
24.8950622867786
20
10.049169449934
30
0
41
1
10
24.8949786281127
20
10.0491668597205
30
0
41
1
10
24.8948949964084
20
10.0491666556348
30
0
41
1
10
24.8943060068436
20
10.0491831719814
30
0
41
1
10
24.8937967459171
20
10.0492933847364
30
0
41
1
10
24.8933275812036
20
10.0495304557446
30
0
0
SPLINE
5
1D5
100
AcDbEntity
8
1
62
256
6
ByLayer
370
13
48
1
60
0
100
AcDbSpline
70
4
71
3
72
10
73
6
40
0
40
0
40
0
40
0
40
0.140418403423082
40
0.140418403423082
40
1
40
1
40
1
40
1
41
1
10
24.8950622867786
20
7.95083055006569
30
0
41
1
10
24.8949786281127
20
7.9508331402792
30
0
41
1
10
24.8948949964084
20
7.95083334436487
30
0
41
1
10
24.8943060068436
20
7.9508168280183
30
0
41
1
10
24.8937967459171
20
7.95070661526327
30
0
41
1
10
24.8933275812036
20
7.95046954425513
30
0
0
SPLINE
5
1D6
100
AcDbEntity
8
1
62
256
6
ByLayer
370
13
48
1
60
0
100
AcDbSpline
70
4
71
3
72
8
73
4
40
0
40
0
40
0
40
0
40
1
40
1
40
1
40
1
41
1
10
24.4643787537961
20
8.44368968725979
30
0
41
1
10
24.459967111299
20
8.43991408289793
30
0
41
1
10
24.4555251065503
20
8.43614444226233
30
0
41
1
10
24.4510546870629
20
8.43238048614606
30
0
0
SPLINE
5
1D7
100
AcDbEntity
8
1
62
256
6
ByLayer
370
13
48
1
60
0
100
AcDbSpline
70
4
71
3
72
12
73
8
40
0
40
0
40
0
40
0
40
0.152393412053729
40
0.152393412053729
40
0.680490075193607
40
0.680490075193607
40
1
40
1
40
1
40
1
41
1
10
24.7896201413597
20
8.7114277736826
30
0
41
1
10
24.8346105972903
20
8.70247369544353
30
0
41
1
10
24.8812734171518
20
8.69298342993528
30
0
41
1
10
25.0939294786755
20
8.64891755517834
30
0
41
1
10
25.2774173301442
20
8.60883190953629
30
0
41
1
10
25.5783768705611
20
8.53989933500455
30
0
41
1
10
25.6952214954586
20
8.51239446652329
30
0
41
1
10
25.8112677608008
20
8.48415892548908
30
0
0
SPLINE
5
1D8
100
AcDbEntity
8
1
62
256
6
ByLayer
370
13
48
1
60
0
100
AcDbSpline
70
4
71
3
72
12
73
8
40
0
40
0
40
0
40
0
40
0.473871515909109
40
0.473871515909109
40
0.928528687587425
40
0.928528687587425
40
1
40
1
40
1
40
1
41
1
10
24.78962014135
20
9.2885722263193
30
0
41
1
10
24.7605769079865
20
9.32702147943829
30
0
41
1
10
24.7380765039721
20
9.36792913623606
30
0
41
1
10
24.7054858788088
20
9.44147161648652
30
0
41
1
10
24.6944900899473
20
9.47518665138139
30
0
41
1
10
24.6859581625813
20
9.50774055232012
30
0
41
1
10
24.6848846310211
20
9.51208327815138
30
0
41
1
10
24.6838678419132
20
9.51627328434688
30
0
0
SPLINE
5
1D9
100
AcDbEntity
8
1
62
256
6
ByLayer
370
13
48
1
60
0
100
AcDbSpline
70
4
71
3
72
8
73
4
40
0
40
0
40
0
40
0
40
1
40
1
40
1
40
1
41
1
10
24.4510546870629
20
9.56761951385366
30
0
41
1
10
24.4555251065502
20
9.56385555773738
30
0
41
1
10
24.459967111299
20
9.56008591710179
30
0
41
1
10
24.4643787537961
20
9.55631031273992
30
0
0
SPLINE
5
1DA
100
AcDbEntity
8
1
62
256
6
ByLayer
370
13
48
1
60
0
100
AcDbSpline
70
4
71
3
72
12
73
8
40
0
40
0
40
0
40
0
40
0.453713856043948
40
0.453713856043948
40
0.935255270278036
40
0.935255270278036
40
1
40
1
40
1
40
1
41
1
10
24.6838678419132
20
8.48372671565284
30
0
41
1
10
24.6902549278145
20
8.51004675516836
30
0
41
1
10
24.6997841086873
20
8.54231446144155
30
0
41
1
10
24.7293410835708
20
8.61454000139449
30
0
41
1
10
24.7503116579038
20
8.65581873176237
30
0
41
1
10
24.7817069341032
20
8.70074191099917
30
0
41
1
10
24.7855997151618
20
8.70610528144223
30
0
41
1
10
24.7896201413555
20
8.71142777368772
30
0
0
SPLINE
5
1DB
100
AcDbEntity
8
1
62
256
6
ByLayer
370
13
48
1
60
0
100
AcDbSpline
70
4
71
3
72
12
73
8
40
0
40
0
40
0
40
0
40
0.152393412067187
40
0.152393412067187
40
0.68049007519868
40
0.68049007519868
40
1
40
1
40
1
40
1
41
1
10
24.7896201413457
20
9.28857222631433
30
0
41
1
10
24.8346105972806
20
9.29752630455422
30
0
41
1
10
24.8812734171468
20
9.30701657006341
30
0
41
1
10
25.0939294786755
20
9.35108244482137
30
0
41
1
10
25.2774173301442
20
9.39116809046342
30
0
41
1
10
25.5783768705611
20
9.46010066499517
30
0
41
1
10
25.6952214954586
20
9.48760553347643
30
0
41
1
10
25.8112677608008
20
9.51584107451063
30
0
0
SPLINE
5
1DC
100
AcDbEntity
8
1
62
256
6
ByLayer
370
13
48
1
60
0
100
AcDbSpline
70
4
71
3
72
16
73
12
40
0
40
0
40
0
40
0
40
0.257384746008501
40
0.257384746008501
40
0.483485531381172
40
0.483485531381172
40
0.71945910330869
40
0.71945910330869
40
0.925748185145375
40
0.925748185145375
40
1
40
1
40
1
40
1
41
1
10
23.6610166945646
20
8.50591179685159
30
0
41
1
10
23.6316687367362
20
8.50841384675456
30
0
41
1
10
23.6016686457385
20
8.50696832648509
30
0
41
1
10
23.5476222628196
20
8.49697441883453
30
0
41
1
10
23.5228412392242
20
8.48922306379933
30
0
41
1
10
23.4759336807442
20
8.46782198514461
30
0
41
1
10
23.4535298246701
20
8.45372310018089
30
0
41
1
10
23.4168300974004
20
8.4226862580081
30
0
41
1
10
23.4015959942175
20
8.40609479086913
30
0
41
1
10
23.3843415664157
20
8.38158497277456
30
0
41
1
10
23.3800684610182
20
8.37486152190303
30
0
41
1
10
23.3761342837701
20
8.36797103467106
30
0
0
SPLINE
5
1DD
100
AcDbEntity
8
1
62
256
6
ByLayer
370
13
48
1
60
0
100
AcDbSpline
70
4
71
3
72
16
73
12
40
0
40
0
40
0
40
0
40
0.215940694014332
40
0.215940694014332
40
0.440749342864023
40
0.440749342864023
40
0.6480631149087
40
0.6480631149087
40
0.900502256755734
40
0.900502256755734
40
1
40
1
40
1
40
1
41
1
10
23.3761342837701
20
9.63202896532721
30
0
41
1
10
23.3874887091378
20
9.61214233641132
30
0
41
1
10
23.4017703058924
20
9.59356384018611
30
0
41
1
10
23.4355311178214
20
9.56008060710306
30
0
41
1
10
23.4554935542142
20
9.545064238511
30
0
41
1
10
23.4971485157203
20
9.52152491294396
30
0
41
1
10
23.5188925805652
20
9.51241035227878
30
0
41
1
10
23.5687388690063
20
9.49785354847646
30
0
41
1
10
23.5977360562636
20
9.49347787945629
30
0
41
1
10
23.6380565109324
20
9.49272929660231
30
0
41
1
10
23.6495709364867
20
9.49311239903605
30
0
41
1
10
23.6610166945643
20
9.4940882031467
30
0
0
SPLINE
5
1DE
100
AcDbEntity
8
1
62
256
6
ByLayer
370
13
48
1
60
0
100
AcDbSpline
70
4
71
3
72
14
73
10
40
0
40
0
40
0
40
0
40
0.0140696667047013
40
0.0140696667047013
40
0.158297294424887
40
0.158297294424887
40
0.557403345933072
40
0.557403345933072
40
1
40
1
40
1
40
1
41
1
10
23.6387159227632
20
9.33903296324092
30
0
41
1
10
23.6375460584103
20
9.33886979319914
30
0
41
1
10
23.636375468005
20
9.33871066299631
30
0
41
1
10
23.6230171191251
20
9.33693432371817
30
0
41
1
10
23.6107456069811
20
9.33570307290788
30
0
41
1
10
23.5650925286651
20
9.3325609740109
30
0
41
1
10
23.5314247709742
20
9.33318543412491
30
0
41
1
10
23.4656728605842
20
9.34029644574898
30
0
41
1
10
23.4330791217041
20
9.34752898905492
30
0
41
1
10
23.4056329534176
20
9.35769355657337
30
0
0
SPLINE
5
1DF
100
AcDbEntity
8
1
62
256
6
ByLayer
370
13
48
1
60
0
100
AcDbSpline
70
4
71
3
72
8
73
4
40
0
40
0
40
0
40
0
40
1
40
1
40
1
40
1
41
1
10
23.4056329534175
20
9.3576935565948
30
0
41
1
10
23.3963391835321
20
9.36113546333004
30
0
41
1
10
23.387572294916
20
9.364595173949
30
0
41
1
10
23.3794417210372
20
9.36799788028114
30
0
0
SPLINE
5
1E0
100
AcDbEntity
8
1
62
256
6
ByLayer
370
13
48
1
60
0
100
AcDbSpline
70
4
71
3
72
10
73
6
40
0
40
0
40
0
40
0
40
0.782589980152529
40
0.782589980152529
40
1
40
1
40
1
40
1
41
1
10
23.3761342837701
20
9.63202896532724
30
0
41
1
10
23.3750264075113
20
9.57211319591292
30
0
41
1
10
23.3733409185197
20
9.50277161163424
30
0
41
1
10
23.3768419616687
20
9.4097017149472
30
0
41
1
10
23.3779402791545
20
9.38897509721937
30
0
41
1
10
23.3794417210386
20
9.36799788028321
30
0
0
SPLINE
5
1E1
100
AcDbEntity
8
1
62
256
6
ByLayer
370
13
48
1
60
0
100
AcDbSpline
70
4
71
3
72
10
73
6
40
0
40
0
40
0
40
0
40
0.217410019846355
40
0.217410019846355
40
1
40
1
40
1
40
1
41
1
10
23.3794417210372
20
8.63200211971775
30
0
41
1
10
23.3779402791531
20
8.61102490278159
30
0
41
1
10
23.3768419616687
20
8.59029828505254
30
0
41
1
10
23.3733409185196
20
8.4972283883649
30
0
41
1
10
23.3750264075114
20
8.42788680408566
30
0
41
1
10
23.3761342837702
20
8.36797103467106
30
0
0
SPLINE
5
1E2
100
AcDbEntity
8
1
62
256
6
ByLayer
370
13
48
1
60
0
100
AcDbSpline
70
4
71
3
72
8
73
4
40
0
40
0
40
0
40
0
40
1
40
1
40
1
40
1
41
1
10
23.3794417210372
20
8.63200211971775
30
0
41
1
10
23.3875722949159
20
8.63540482604989
30
0
41
1
10
23.3963391835321
20
8.63886453666959
30
0
41
1
10
23.4056329534175
20
8.64230644340486
30
0
0
SPLINE
5
1E3
100
AcDbEntity
8
1
62
256
6
ByLayer
370
13
48
1
60
0
100
AcDbSpline
70
4
71
3
72
14
73
10
40
0
40
0
40
0
40
0
40
0.362290872375782
40
0.362290872375782
40
0.75921727113372
40
0.75921727113372
40
0.985981513552925
40
0.985981513552925
40
1
40
1
40
1
40
1
41
1
10
23.4056329534176
20
8.64230644342635
30
0
41
1
10
23.4281812464505
20
8.65065710442084
30
0
41
1
10
23.4541207849953
20
8.65702637587015
30
0
41
1
10
23.5118571823039
20
8.66551698660834
30
0
41
1
10
23.5447419197084
20
8.66729339913419
30
0
41
1
10
23.5968158183066
20
8.66556436170623
30
0
41
1
10
23.6161285437686
20
8.66398169125625
30
0
41
1
10
23.6363754679909
20
8.66128933699099
30
0
41
1
10
23.6375460583943
20
8.66113020680001
30
0
41
1
10
23.6387159227444
20
8.66096703676268
30
0
0
SPLINE
5
1E4
100
AcDbEntity
8
1
62
256
6
ByLayer
370
13
48
1
60
0
100
AcDbSpline
70
4
71
3
72
12
73
8
40
0
40
0
40
0
40
0
40
0.027753964396557
40
0.027753964396557
40
0.667826589987148
40
0.667826589987148
40
1
40
1
40
1
40
1
41
1
10
23.2639115680571
20
10.1339172375136
30
0
41
1
10
23.26302249383
20
10.1334053128848
30
0
41
1
10
23.2621362973346
20
10.1328934632912
30
0
41
1
10
23.241139438886
20
10.1207199071669
30
0
41
1
10
23.2223677783529
20
10.1088525752803
30
0
41
1
10
23.1985834198732
20
10.0922216916315
30
0
41
1
10
23.1911418620728
20
10.0866795266789
30
0
41
1
10
23.1846560826642
20
10.0814799390644
30
0
0
SPLINE
5
1E5
100
AcDbEntity
8
1
62
256
6
ByLayer
370
13
48
1
60
0
100
AcDbSpline
70
4
71
3
72
10
73
6
40
0
40
0
40
0
40
0
40
0.820434354426583
40
0.820434354426583
40
1
40
1
40
1
40
1
41
1
10
23.1772670677278
20
10.0759843313458
30
0
41
1
10
23.2373176229179
20
9.9572675818093
30
0
41
1
10
23.2907218307757
20
9.83518374948423
30
0
41
1
10
23.3537878651403
20
9.68581229063255
30
0
41
1
10
23.365006782063
20
9.65893827749809
30
0
41
1
10
23.3761342837706
20
9.63202896532755
30
0
0
SPLINE
5
1E6
100
AcDbEntity
8
1
62
256
6
ByLayer
370
13
48
1
60
0
100
AcDbSpline
70
4
71
3
72
8
73
4
40
0
40
0
40
0
40
0
40
1
40
1
40
1
40
1
41
1
10
23.1846560826642
20
10.0814799390644
30
0
41
1
10
23.1821308679729
20
10.0794554984843
30
0
41
1
10
23.1796628452492
20
10.0776198014659
30
0
41
1
10
23.1772670677278
20
10.0759843313458
30
0
0
SPLINE
5
1E7
100
AcDbEntity
8
1
62
256
6
ByLayer
370
13
48
1
60
0
100
AcDbSpline
70
4
71
3
72
12
73
8
40
0
40
0
40
0
40
0
40
0.0278313206712517
40
0.0278313206712517
40
0.611473023609022
40
0.611473023609022
40
1
40
1
40
1
40
1
41
1
10
23.2639115680655
20
7.86608276249632
30
0
41
1
10
23.2630224938382
20
7.86659468712219
30
0
41
1
10
23.2621362973421
20
7.86710653671187
30
0
41
1
10
23.2428803330612
20
7.87827075737746
30
0
41
1
10
23.2256423082254
20
7.88908124701447
30
0
41
1
10
23.2010972420243
20
7.90591770975647
30
0
41
1
10
23.1922210960019
20
7.91245526175308
30
0
41
1
10
23.1846560826641
20
7.91852006093544
30
0
0
SPLINE
5
1E8
100
AcDbEntity
8
1
62
256
6
ByLayer
370
13
48
1
60
0
100
AcDbSpline
70
4
71
3
72
8
73
4
40
0
40
0
40
0
40
0
40
1
40
1
40
1
40
1
41
1
10
23.1846560826641
20
7.91852006093544
30
0
41
1
10
23.1821308679729
20
7.92054450151548
30
0
41
1
10
23.1796628452491
20
7.92238019853389
30
0
41
1
10
23.1772670677279
20
7.92401566865396
30
0
0
SPLINE
5
1E9
100
AcDbEntity
8
1
62
256
6
ByLayer
370
13
48
1
60
0
100
AcDbSpline
70
4
71
3
72
10
73
6
40
0
40
0
40
0
40
0
40
0.819881036339605
40
0.819881036339605
40
1
40
1
40
1
40
1
41
1
10
23.3761342837701
20
8.36797103467106
30
0
41
1
10
23.3253430321445
20
8.24514403527417
30
0
41
1
10
23.2729973133249
20
8.1228064698025
30
0
41
1
10
23.2032770273131
20
7.97635779033516
30
0
41
1
10
23.1904566776893
20
7.95009082511677
30
0
41
1
10
23.1772670677279
20
7.92401566865394
30
0
0
SPLINE
5
1EA
100
AcDbEntity
8
1
62
256
6
ByLayer
370
13
48
1
60
0
100
AcDbSpline
70
4
71
3
72
12
73
8
40
0
40
0
40
0
40
0
40
0.0277499781510944
40
0.0277499781510944
40
0.667808133384293
40
0.667808133384293
40
1
40
1
40
1
40
1
41
1
10
23.263911568057
20
10.1339172375136
30
0
41
1
10
23.2629034320478
20
10.1338388200698
30
0
41
1
10
23.2618982158727
20
10.1337604048591
30
0
41
1
10
23.2380665525594
20
10.1318956322482
30
0
41
1
10
23.2165180885701
20
10.1300806513404
30
0
41
1
10
23.1888224267559
20
10.1275408471301
30
0
41
1
10
23.180073554872
20
10.1266951287323
30
0
41
1
10
23.1723583203581
20
10.1259022231316
30
0
0
SPLINE
5
1EB
100
AcDbEntity
8
1
62
256
6
ByLayer
370
13
48
1
60
0
100
AcDbSpline
70
4
71
3
72
12
73
8
40
0
40
0
40
0
40
0
40
0.0278272716373759
40
0.0278272716373759
40
0.611453167879501
40
0.611453167879501
40
1
40
1
40
1
40
1
41
1
10
23.2639115680572
20
7.86608276248609
30
0
41
1
10
23.2629034319402
20
7.86616117835055
30
0
41
1
10
23.2618982154426
20
7.86623958882356
30
0
41
1
10
23.2400426145076
20
7.86794977374657
30
0
41
1
10
23.2202762805606
20
7.86960334048453
30
0
41
1
10
23.1917749645618
20
7.87217521682871
30
0
41
1
10
23.1813573467759
20
7.87317293415148
30
0
41
1
10
23.1723583203581
20
7.87409777686813
30
0
0
SPLINE
5
1EC
100
AcDbEntity
8
1
62
256
6
ByLayer
370
13
48
1
60
0
100
AcDbSpline
70
4
71
3
72
26
73
22
40
0
40
0
40
0
40
0
40
0.102035501666901
40
0.102035501666901
40
0.129284389714829
40
0.129284389714829
40
0.254161410871578
40
0.254161410871578
40
0.386333886983898
40
0.386333886983898
40
0.523125606178389
40
0.523125606178389
40
0.658908540792033
40
0.658908540792033
40
0.795133361230144
40
0.795133361230144
40
0.895568684120736
40
0.895568684120736
40
0.931575554525879
40
0.931575554525879
40
1
40
1
40
1
40
1
41
1
10
23.5964890019636
20
9.1973354503649
30
0
41
1
10
23.6131393767336
20
9.19201587653026
30
0
41
1
10
23.6291034127914
20
9.18434490672897
30
0
41
1
10
23.6463800184523
20
9.17212796267583
30
0
41
1
10
23.6499282214101
20
9.16936895217447
30
0
41
1
10
23.6686371526018
20
9.15342996234139
30
0
41
1
10
23.6810099307052
20
9.13740170941273
30
0
41
1
10
23.7005417637306
20
9.10112607901581
30
0
41
1
10
23.7077186636935
20
9.08011388959144
30
0
41
1
10
23.7168173796711
20
9.03573504728021
30
0
41
1
10
23.718667366816
20
9.01167446566228
30
0
41
1
10
23.7168386014335
20
8.9648707988772
30
0
41
1
10
23.7131780830524
20
8.94147813922538
30
0
41
1
10
23.700271409133
20
8.89834075541009
30
0
41
1
10
23.6908281262292
20
8.87797150247914
30
0
41
1
10
23.6687311855361
20
8.84749670337473
30
0
41
1
10
23.6572851116735
20
8.83580320343322
30
0
41
1
10
23.6391386222023
20
8.82268536266329
30
0
41
1
10
23.6340445533439
20
8.81944337218894
30
0
41
1
10
23.6187059419969
20
8.81089439745742
30
0
41
1
10
23.6077600338149
20
8.80626549477589
30
0
41
1
10
23.5964890019636
20
8.80266454963481
30
0
0
SPLINE
5
1ED
100
AcDbEntity
8
1
62
256
6
ByLayer
370
13
48
1
60
0
100
AcDbSpline
70
4
71
3
72
14
73
10
40
0
40
0
40
0
40
0
40
0.27475847941734
40
0.27475847941734
40
0.512436463803127
40
0.512436463803127
40
0.749993769781322
40
0.749993769781322
40
1
40
1
40
1
40
1
41
1
10
24.7896201413547
20
8.71142777368829
30
0
41
1
10
24.8118015893239
20
8.75956485727627
30
0
41
1
10
24.8306589366167
20
8.81108955464052
30
0
41
1
10
24.8534625769751
20
8.91089598182162
30
0
41
1
10
24.8590594822314
20
8.95944490994282
30
0
41
1
10
24.8578279543455
20
9.05547477404568
30
0
41
1
10
24.8510126304754
20
9.10375256401517
30
0
41
1
10
24.8272786525577
20
9.19807540403801
30
0
41
1
10
24.8098376614738
20
9.24469716201267
30
0
41
1
10
24.7896201413508
20
9.28857222631987
30
0
0
SPLINE
5
1EE
100
AcDbEntity
8
1
62
256
6
ByLayer
370
13
48
1
60
0
100
AcDbSpline
70
4
71
3
72
8
73
4
40
0
40
0
40
0
40
0
40
1
40
1
40
1
40
1
41
1
10
23.1705951003268
20
7.87456207186454
30
0
41
1
10
23.1711929686635
20
7.87456207186454
30
0
41
1
10
23.171796795249
20
7.87441187301846
30
0
41
1
10
23.1723583203562
20
7.87409777688273
30
0
0
SPLINE
5
1EF
100
AcDbEntity
8
1
62
256
6
ByLayer
370
13
48
1
60
0
100
AcDbSpline
70
4
71
3
72
8
73
4
40
0
40
0
40
0
40
0
40
1
40
1
40
1
40
1
41
1
10
23.1723583203562
20
10.1259022231303
30
0
41
1
10
23.1717967952486
20
10.1255881269939
30
0
41
1
10
23.1711929686639
20
10.1254379281352
30
0
41
1
10
23.1705951003268
20
10.1254379281352
30
0
0
SPLINE
5
1F0
100
AcDbEntity
8
1
62
256
6
ByLayer
370
13
48
1
60
0
100
AcDbSpline
70
4
71
3
72
10
73
6
40
0
40
0
40
0
40
0
40
0.84896187346875
40
0.84896187346875
40
1
40
1
40
1
40
1
41
1
10
27.5256851850748
20
9.76476574711026
30
0
41
1
10
27.4912977154035
20
9.81660855025351
30
0
41
1
10
27.4438747427161
20
9.86006419801862
30
0
41
1
10
27.3838155264513
20
9.90206977213816
30
0
41
1
10
27.3744787017949
20
9.90826370777768
30
0
41
1
10
27.3650107000386
20
9.91424331923957
30
0
0
SPLINE
5
1F1
100
AcDbEntity
8
1
62
256
6
ByLayer
370
13
48
1
60
0
100
AcDbSpline
70
4
71
3
72
8
73
4
40
0
40
0
40
0
40
0
40
1
40
1
40
1
40
1
41
1
10
27.3650107000386
20
9.91424331923957
30
0
41
1
10
27.3210937227594
20
9.94197952667469
30
0
41
1
10
27.2769798114245
20
9.96940917463348
30
0
41
1
10
27.232560747957
20
9.99633266308228
30
0
0
SPLINE
5
1F2
100
AcDbEntity
8
1
62
256
6
ByLayer
370
13
48
1
60
0
100
AcDbSpline
70
4
71
3
72
10
73
6
40
0
40
0
40
0
40
0
40
0.657586553479613
40
0.657586553479613
40
1
40
1
40
1
40
1
41
1
10
27.232560747957
20
9.99633266308228
30
0
41
1
10
27.2092305437702
20
10.0104736744835
30
0
41
1
10
27.1864384919004
20
10.0257970940433
30
0
41
1
10
27.1548281900599
20
10.052705894589
30
0
41
1
10
27.1444660370969
20
10.0626353341105
30
0
41
1
10
27.1355155637421
20
10.0737056108805
30
0
0
SPLINE
5
1F3
100
AcDbEntity
8
1
62
256
6
ByLayer
370
13
48
1
60
0
100
AcDbSpline
70
4
71
3
72
10
73
6
40
0
40
0
40
0
40
0
40
0.657586553479614
40
0.657586553479614
40
1
40
1
40
1
40
1
41
1
10
27.232560747957
20
8.00366733691746
30
0
41
1
10
27.2092305437702
20
7.98952632551618
30
0
41
1
10
27.1864384919004
20
7.97420290595645
30
0
41
1
10
27.1548281900599
20
7.94729410541066
30
0
41
1
10
27.1444660370969
20
7.93736466588919
30
0
41
1
10
27.1355155637421
20
7.92629438911919
30
0
0
SPLINE
5
1F4
100
AcDbEntity
8
1
62
256
6
ByLayer
370
13
48
1
60
0
100
AcDbSpline
70
4
71
3
72
8
73
4
40
0
40
0
40
0
40
0
40
1
40
1
40
1
40
1
41
1
10
27.3650107000386
20
8.08575668076017
30
0
41
1
10
27.3210937227594
20
8.05802047332506
30
0
41
1
10
27.2769798114245
20
8.03059082536623
30
0
41
1
10
27.232560747957
20
8.00366733691746
30
0
0
SPLINE
5
1F5
100
AcDbEntity
8
1
62
256
6
ByLayer
370
13
48
1
60
0
100
AcDbSpline
70
4
71
3
72
10
73
6
40
0
40
0
40
0
40
0
40
0.84896187346875
40
0.84896187346875
40
1
40
1
40
1
40
1
41
1
10
27.5256851850748
20
8.23523425288946
30
0
41
1
10
27.4912977154035
20
8.18339144974621
30
0
41
1
10
27.4438747427161
20
8.1399358019811
30
0
41
1
10
27.3838155264513
20
8.09793022786158
30
0
41
1
10
27.3744787017949
20
8.09173629222204
30
0
41
1
10
27.3650107000386
20
8.08575668076014
30
0
0
SPLINE
5
1F6
100
AcDbEntity
8
1
62
256
6
ByLayer
370
13
48
1
60
0
100
AcDbSpline
70
4
71
3
72
14
73
10
40
0
40
0
40
0
40
0
40
0.0140322366304758
40
0.0140322366304758
40
0.158091565624719
40
0.158091565624719
40
0.557043656612004
40
0.557043656612004
40
1
40
1
40
1
40
1
41
1
10
23.6387159228241
20
9.33903296325116
30
0
41
1
10
23.6379360645915
20
9.33827223035888
30
0
41
1
10
23.6371559091054
20
9.33751494622899
30
0
41
1
10
23.6282316685991
20
9.32891643488637
30
0
41
1
10
23.6199670064645
20
9.32149615401198
30
0
41
1
10
23.5889415558847
20
9.29563260203881
30
0
41
1
10
23.5655368582111
20
9.28019469298019
30
0
41
1
10
23.5187541033905
20
9.25751085531789
30
0
41
1
10
23.4949133424734
20
9.25099009296602
30
0
41
1
10
23.4743263124385
20
9.25048586454744
30
0
0
SPLINE
5
1F7
100
AcDbEntity
8
1
62
256
6
ByLayer
370
13
48
1
60
0
100
AcDbSpline
70
4
71
3
72
14
73
10
40
0
40
0
40
0
40
0
40
0.362636115875106
40
0.362636115875106
40
0.759502173372961
40
0.759502173372961
40
0.986017775516147
40
0.986017775516147
40
1
40
1
40
1
40
1
41
1
10
23.4743263124385
20
8.7495141354523
30
0
41
1
10
23.4912406290799
20
8.74909986107087
30
0
41
1
10
23.5102969105352
20
8.74466667124116
30
0
41
1
10
23.5517568775429
20
8.72758788943003
30
0
41
1
10
23.5748386743136
20
8.71398740525501
30
0
41
1
10
23.6105592323138
20
8.68677364149394
30
0
41
1
10
23.623626747303
20
8.67552040967973
30
0
41
1
10
23.6371559091054
20
8.66248505377067
30
0
41
1
10
23.6379360645915
20
8.66172776964081
30
0
41
1
10
23.6387159228241
20
8.66096703674856
30
0
0
SPLINE
5
1F8
100
AcDbEntity
8
1
62
256
6
ByLayer
370
13
48
1
60
0
100
AcDbSpline
70
4
71
3
72
8
73
4
40
0
40
0
40
0
40
0
40
1
40
1
40
1
40
1
41
1
10
23.4743263124398
20
9.25048586454497
30
0
41
1
10
23.5107270135585
20
9.23247132063295
30
0
41
1
10
23.5486103280918
20
9.21588011588872
30
0
41
1
10
23.5875073723823
20
9.20075565179815
30
0
0
SPLINE
5
1F9
100
AcDbEntity
8
1
62
256
6
ByLayer
370
13
48
1
60
0
100
AcDbSpline
70
4
71
3
72
8
73
4
40
0
40
0
40
0
40
0
40
1
40
1
40
1
40
1
41
1
10
23.5875073723823
20
8.79924434820157
30
0
41
1
10
23.5486103280918
20
8.78411988411099
30
0
41
1
10
23.5107270135585
20
8.76752867936676
30
0
41
1
10
23.4743263124398
20
8.74951413545475
30
0
0
SPLINE
5
1FA
100
AcDbEntity
8
1
62
256
6
ByLayer
370
13
48
1
60
0
100
AcDbSpline
70
4
71
3
72
16
73
12
40
0
40
0
40
0
40
0
40
0.0355702320992689
40
0.0355702320992689
40
0.09050817101665
40
0.09050817101665
40
0.198049233530909
40
0.198049233530909
40
0.436780146594192
40
0.436780146594192
40
1
40
1
40
1
40
1
41
1
10
27.0647600217563
20
10.1263220355864
30
0
41
1
10
27.0651586810189
20
10.1253552596237
30
0
41
1
10
27.0655584542086
20
10.1243889211319
30
0
41
1
10
27.0665771815566
20
10.1219268549542
30
0
41
1
10
27.0671970808021
20
10.1204315089404
30
0
41
1
10
27.0690334070428
20
10.1160112009544
30
0
41
1
10
27.0702528942054
20
10.1130877962549
30
0
41
1
10
27.0741930527675
20
10.1036898385927
30
0
41
1
10
27.0769343827305
20
10.0972280597342
30
0
41
1
10
27.0861946238308
20
10.0756594360557
30
0
41
1
10
27.0928248586496
20
10.0606523814508
30
0
41
1
10
27.0995116901683
20
10.0459979598173
30
0
0
SPLINE
5
1FB
100
AcDbEntity
8
1
62
256
6
ByLayer
370
13
48
1
60
0
100
AcDbSpline
70
4
71
3
72
10
73
6
40
0
40
0
40
0
40
0
40
0.638823417468865
40
0.638823417468865
40
1
40
1
40
1
40
1
41
1
10
27.1900286630425
20
9.93502396633551
30
0
41
1
10
27.166841990865
20
9.95471065792546
30
0
41
1
10
27.1449724664755
20
9.97650228769862
30
0
41
1
10
27.1161775948407
20
10.0150198729895
30
0
41
1
10
27.1068123576004
20
10.0299982956348
30
0
41
1
10
27.0995116901682
20
10.0459979598173
30
0
0
SPLINE
5
1FC
100
AcDbEntity
8
1
62
256
6
ByLayer
370
13
48
1
60
0
100
AcDbSpline
70
4
71
3
72
8
73
4
40
0
40
0
40
0
40
0
40
1
40
1
40
1
40
1
41
1
10
27.0647600217523
20
10.1263220355883
30
0
41
1
10
26.9478492133728
20
10.1570735908759
30
0
41
1
10
26.8265101800572
20
10.1720572868026
30
0
41
1
10
26.7060768987952
20
10.1748687981323
30
0
0
SPLINE
5
1FD
100
AcDbEntity
8
1
62
256
6
ByLayer
370
13
48
1
60
0
100
AcDbSpline
70
4
71
3
72
10
73
6
40
0
40
0
40
0
40
0
40
0.638823417468865
40
0.638823417468865
40
1
40
1
40
1
40
1
41
1
10
27.1900286630425
20
8.06497603366421
30
0
41
1
10
27.166841990865
20
8.04528934207426
30
0
41
1
10
27.1449724664755
20
8.02349771230112
30
0
41
1
10
27.1161775948407
20
7.98498012701018
30
0
41
1
10
27.1068123576004
20
7.97000170436488
30
0
41
1
10
27.0995116901682
20
7.95400204018244
30
0
0
SPLINE
5
1FE
100
AcDbEntity
8
1
62
256
6
ByLayer
370
13
48
1
60
0
100
AcDbSpline
70
4
71
3
72
16
73
12
40
0
40
0
40
0
40
0
40
0.0355702320992689
40
0.0355702320992689
40
0.09050817101665
40
0.09050817101665
40
0.198049233530909
40
0.198049233530909
40
0.436780146594192
40
0.436780146594192
40
1
40
1
40
1
40
1
41
1
10
27.0647600217563
20
7.87367796441336
30
0
41
1
10
27.0651586810189
20
7.874644740376
30
0
41
1
10
27.0655584542086
20
7.87561107886782
30
0
41
1
10
27.0665771815566
20
7.87807314504556
30
0
41
1
10
27.0671970808021
20
7.87956849105933
30
0
41
1
10
27.0690334070428
20
7.88398879904537
30
0
41
1
10
27.0702528942054
20
7.88691220374486
30
0
41
1
10
27.0741930527675
20
7.89631016140697
30
0
41
1
10
27.0769343827305
20
7.9027719402655
30
0
41
1
10
27.0861946238308
20
7.92434056394401
30
0
41
1
10
27.0928248586496
20
7.93934761854891
30
0
41
1
10
27.0995116901683
20
7.95400204018239
30
0
0
SPLINE
5
1FF
100
AcDbEntity
8
1
62
256
6
ByLayer
370
13
48
1
60
0
100
AcDbSpline
70
4
71
3
72
8
73
4
40
0
40
0
40
0
40
0
40
1
40
1
40
1
40
1
41
1
10
27.0647600217523
20
7.87367796441146
30
0
41
1
10
26.9478492133728
20
7.84292640912383
30
0
41
1
10
26.8265101800572
20
7.82794271319707
30
0
41
1
10
26.7060768987952
20
7.82513120186743
30
0
0
SPLINE
5
200
100
AcDbEntity
8
1
62
256
6
ByLayer
370
13
48
1
60
0
100
AcDbSpline
70
4
71
3
72
8
73
4
40
0
40
0
40
0
40
0
40
1
40
1
40
1
40
1
41
1
10
23.5875073723823
20
9.20075565179815
30
0
41
1
10
23.5904997762071
20
9.19961556796429
30
0
41
1
10
23.5934936621595
20
9.19847550036889
30
0
41
1
10
23.5964890019636
20
9.1973354503649
30
0
0
SPLINE
5
201
100
AcDbEntity
8
1
62
256
6
ByLayer
370
13
48
1
60
0
100
AcDbSpline
70
4
71
3
72
8
73
4
40
0
40
0
40
0
40
0
40
1
40
1
40
1
40
1
41
1
10
23.5964890019636
20
8.80266454963481
30
0
41
1
10
23.5934936621595
20
8.80152449963086
30
0
41
1
10
23.5904997762071
20
8.80038443203543
30
0
41
1
10
23.5875073723823
20
8.79924434820157
30
0
0
SPLINE
5
202
100
AcDbEntity
8
1
62
256
6
ByLayer
370
13
48
1
60
0
100
AcDbSpline
70
4
71
3
72
8
73
4
40
0
40
0
40
0
40
0
40
1
40
1
40
1
40
1
41
1
10
23.4743263124385
20
8.7495141354523
30
0
41
1
10
23.471342816915
20
8.74915164009789
30
0
41
1
10
23.4686096513475
20
8.74897564444694
30
0
41
1
10
23.4661840397669
20
8.74897564444694
30
0
0
SPLINE
5
203
100
AcDbEntity
8
1
62
256
6
ByLayer
370
13
48
1
60
0
100
AcDbSpline
70
4
71
3
72
8
73
4
40
0
40
0
40
0
40
0
40
1
40
1
40
1
40
1
41
1
10
23.4661840397672
20
9.25102435555266
30
0
41
1
10
23.4686096513478
20
9.25102435555263
30
0
41
1
10
23.4713428169147
20
9.25084835990177
30
0
41
1
10
23.4743263124382
20
9.25048586454736
30
0
0
SPLINE
5
204
100
AcDbEntity
8
1
62
256
6
ByLayer
370
13
48
1
60
0
100
AcDbSpline
70
4
71
3
72
16
73
12
40
0
40
0
40
0
40
0
40
0.0355303527441481
40
0.0355303527441481
40
0.0917680599187357
40
0.0917680599187357
40
0.200182520092063
40
0.200182520092063
40
0.439533504711995
40
0.439533504711995
40
1
40
1
40
1
40
1
41
1
10
27.0647600217524
20
10.1263220355883
30
0
41
1
10
27.0655855998636
20
10.1256883080063
30
0
41
1
10
27.0664120929672
20
10.1250550739893
30
0
41
1
10
27.0685507889318
20
10.1234171544558
30
0
41
1
10
27.0698640688781
20
10.1224128406858
30
0
41
1
10
27.0737129338246
20
10.1194739771003
30
0
41
1
10
27.0762525536656
20
10.117540518408
30
0
41
1
10
27.0844114693383
20
10.1113492612903
30
0
41
1
10
27.0900517136001
20
10.1071009405137
30
0
41
1
10
27.1089188273347
20
10.0930044717438
30
0
41
1
10
27.1222466489563
20
10.0832317389364
30
0
41
1
10
27.1355155637421
20
10.0737056108806
30
0
0
SPLINE
5
205
100
AcDbEntity
8
1
62
256
6
ByLayer
370
13
48
1
60
0
100
AcDbSpline
70
4
71
3
72
16
73
12
40
0
40
0
40
0
40
0
40
0.0355303527441481
40
0.0355303527441481
40
0.0917680599187357
40
0.0917680599187357
40
0.200182520092063
40
0.200182520092063
40
0.439533504711995
40
0.439533504711995
40
1
40
1
40
1
40
1
41
1
10
27.0647600217524
20
7.87367796441143
30
0
41
1
10
27.0655855998636
20
7.8743116919934
30
0
41
1
10
27.0664120929672
20
7.87494492601039
30
0
41
1
10
27.0685507889318
20
7.87658284554391
30
0
41
1
10
27.0698640688781
20
7.87758715931397
30
0
41
1
10
27.0737129338246
20
7.88052602289946
30
0
41
1
10
27.0762525536656
20
7.88245948159172
30
0
41
1
10
27.0844114693383
20
7.8886507387094
30
0
41
1
10
27.0900517136001
20
7.89289905948601
30
0
41
1
10
27.1089188273347
20
7.90699552825589
30
0
41
1
10
27.1222466489563
20
7.91676826106334
30
0
41
1
10
27.1355155637421
20
7.92629438911919
30
0
0
SPLINE
5
206
100
AcDbEntity
8
1
62
256
6
ByLayer
370
13
48
1
60
0
100
AcDbSpline
70
4
71
3
72
8
73
4
40
0
40
0
40
0
40
0
40
1
40
1
40
1
40
1
41
1
10
26.7060768987952
20
7.82513120186743
30
0
41
1
10
26.5916360304015
20
7.82230782863658
30
0
41
1
10
26.4749005955277
20
7.8260610367291
30
0
41
1
10
26.3587805434613
20
7.82159077261753
30
0
0
SPLINE
5
207
100
AcDbEntity
8
1
62
256
6
ByLayer
370
13
48
1
60
0
100
AcDbSpline
70
4
71
3
72
8
73
4
40
0
40
0
40
0
40
0
40
1
40
1
40
1
40
1
41
1
10
26.7060768987952
20
10.1748687981323
30
0
41
1
10
26.5916360304015
20
10.1776921713631
30
0
41
1
10
26.4749005955277
20
10.1739389632706
30
0
41
1
10
26.3587805434613
20
10.1784092273822
30
0
0
SPLINE
5
208
100
AcDbEntity
8
1
62
256
6
ByLayer
370
13
48
1
60
0
100
AcDbSpline
70
4
71
3
72
10
73
6
40
0
40
0
40
0
40
0
40
0.155061591761428
40
0.155061591761428
40
1
40
1
40
1
40
1
41
1
10
27.3213895076229
20
8.14630122296211
30
0
41
1
10
27.3304066184319
20
8.15110706801781
30
0
41
1
10
27.3393274149503
20
8.15609803032967
30
0
41
1
10
27.3954797246053
20
8.18921922372724
30
0
41
1
10
27.4409287471059
20
8.22348206069927
30
0
41
1
10
27.4749811562302
20
8.26658708906029
30
0
0
SPLINE
5
209
100
AcDbEntity
8
1
62
256
6
ByLayer
370
13
48
1
60
0
100
AcDbSpline
70
4
71
3
72
10
73
6
40
0
40
0
40
0
40
0
40
0.155061591761428
40
0.155061591761428
40
1
40
1
40
1
40
1
41
1
10
27.3213895076229
20
9.85369877703761
30
0
41
1
10
27.3304066184319
20
9.84889293198191
30
0
41
1
10
27.3393274149503
20
9.84390196967004
30
0
41
1
10
27.3954797246053
20
9.81078077627248
30
0
41
1
10
27.4409287471059
20
9.77651793930045
30
0
41
1
10
27.4749811562302
20
9.73341291093942
30
0
0
SPLINE
5
20A
100
AcDbEntity
8
1
62
256
6
ByLayer
370
13
48
1
60
0
100
AcDbSpline
70
4
71
3
72
10
73
6
40
0
40
0
40
0
40
0
40
0.596085739020476
40
0.596085739020476
40
1
40
1
40
1
40
1
41
1
10
27.4964383490932
20
8.29439320953807
30
0
41
1
10
27.5128939358857
20
8.31616867781511
30
0
41
1
10
27.5267245821228
20
8.34059709940905
30
0
41
1
10
27.54081187438
20
8.38426948004394
30
0
41
1
10
27.5440383812061
20
8.40301901474058
30
0
41
1
10
27.5441651422482
20
8.42161038133955
30
0
0
SPLINE
5
20B
100
AcDbEntity
8
1
62
256
6
ByLayer
370
13
48
1
60
0
100
AcDbSpline
70
4
71
3
72
8
73
4
40
0
40
0
40
0
40
0
40
1
40
1
40
1
40
1
41
1
10
27.4749811562302
20
8.26658708906029
30
0
41
1
10
27.4822263780105
20
8.27575840757655
30
0
41
1
10
27.4893737130963
20
8.28504466676191
30
0
41
1
10
27.4964383490932
20
8.29439320953807
30
0
0
SPLINE
5
20C
100
AcDbEntity
8
1
62
256
6
ByLayer
370
13
48
1
60
0
100
AcDbSpline
70
4
71
3
72
8
73
4
40
0
40
0
40
0
40
0
40
1
40
1
40
1
40
1
41
1
10
27.4749811562302
20
9.73341291093942
30
0
41
1
10
27.4822263780105
20
9.72424159242317
30
0
41
1
10
27.4893737130963
20
9.71495533323781
30
0
41
1
10
27.4964383490932
20
9.70560679046164
30
0
0
SPLINE
5
20D
100
AcDbEntity
8
1
62
256
6
ByLayer
370
13
48
1
60
0
100
AcDbSpline
70
4
71
3
72
10
73
6
40
0
40
0
40
0
40
0
40
0.596085739020476
40
0.596085739020476
40
1
40
1
40
1
40
1
41
1
10
27.4964383490932
20
9.70560679046164
30
0
41
1
10
27.5128939358857
20
9.6838313221846
30
0
41
1
10
27.5267245821228
20
9.65940290059066
30
0
41
1
10
27.54081187438
20
9.6157305199558
30
0
41
1
10
27.5440383812061
20
9.59698098525914
30
0
41
1
10
27.5441651422482
20
9.5783896186602
30
0
0
SPLINE
5
20E
100
AcDbEntity
8
1
62
256
6
ByLayer
370
13
48
1
60
0
100
AcDbSpline
70
4
71
3
72
12
73
8
40
0
40
0
40
0
40
0
40
0.0075770979405842
40
0.0075770979405842
40
0.524912447401083
40
0.524912447401083
40
1
40
1
40
1
40
1
41
1
10
27.0213727254145
20
8.41092437757686
30
0
41
1
10
27.0226938848631
20
8.41087536409685
30
0
41
1
10
27.0240151186688
20
8.41082869522603
30
0
41
1
10
27.115463818229
20
8.4077622069789
30
0
41
1
10
27.2056735270381
20
8.41252626039264
30
0
41
1
10
27.3786115881781
20
8.41658258911036
30
0
41
1
10
27.4613940232688
20
8.41890245012829
30
0
41
1
10
27.5441651422334
20
8.42161038134427
30
0
0
SPLINE
5
20F
100
AcDbEntity
8
1
62
256
6
ByLayer
370
13
48
1
60
0
100
AcDbSpline
70
4
71
3
72
12
73
8
40
0
40
0
40
0
40
0
40
0.0075770979405842
40
0.0075770979405842
40
0.524912447401083
40
0.524912447401083
40
1
40
1
40
1
40
1
41
1
10
27.0213727254145
20
9.58907562242288
30
0
41
1
10
27.0226938848631
20
9.58912463590286
30
0
41
1
10
27.0240151186688
20
9.58917130477369
30
0
41
1
10
27.115463818229
20
9.59223779302084
30
0
41
1
10
27.2056735270381
20
9.58747373960708
30
0
41
1
10
27.3786115881781
20
9.58341741088935
30
0
41
1
10
27.4613940232688
20
9.58109754987143
30
0
41
1
10
27.5441651422334
20
9.57838961865545
30
0
0
SPLINE
5
210
100
AcDbEntity
8
1
62
256
6
ByLayer
370
13
48
1
60
0
100
AcDbSpline
70
4
71
3
72
8
73
4
40
0
40
0
40
0
40
0
40
1
40
1
40
1
40
1
41
1
10
26.3587805434613
20
7.82159077261753
30
0
41
1
10
26.2587308196865
20
7.81815094090908
30
0
41
1
10
26.1579761895169
20
7.82211567249439
30
0
41
1
10
26.0587805434613
20
7.83557581464871
30
0
0
SPLINE
5
211
100
AcDbEntity
8
1
62
256
6
ByLayer
370
13
48
1
60
0
100
AcDbSpline
70
4
71
3
72
8
73
4
40
0
40
0
40
0
40
0
40
1
40
1
40
1
40
1
41
1
10
26.3587805434613
20
10.1784092273822
30
0
41
1
10
26.2587308196865
20
10.1818490590907
30
0
41
1
10
26.1579761895169
20
10.1778843275053
30
0
41
1
10
26.0587805434613
20
10.164424185351
30
0
0
SPLINE
5
212
100
AcDbEntity
8
1
62
256
6
ByLayer
370
13
48
1
60
0
100
AcDbSpline
70
4
71
3
72
16
73
12
40
0
40
0
40
0
40
0
40
0.113631665737173
40
0.113631665737173
40
0.758132216188134
40
0.758132216188134
40
0.942823120099093
40
0.942823120099093
40
0.947778003019258
40
0.947778003019258
40
1
40
1
40
1
40
1
41
1
10
25.8112677608008
20
9.51584107451063
30
0
41
1
10
25.8332807942053
20
9.52284514337157
30
0
41
1
10
25.8554088133189
20
9.52949779114297
30
0
41
1
10
26.0026697940168
20
9.57118556927949
30
0
41
1
10
26.1333481685156
20
9.59392795874894
30
0
41
1
10
26.3009734748333
20
9.59244342598359
30
0
41
1
10
26.3386296238166
20
9.59063719054635
30
0
41
1
10
26.37730048355
20
9.58925903577895
30
0
41
1
10
26.3783108496888
20
9.58922301844552
30
0
41
1
10
26.3899699703881
20
9.58880737523879
30
0
41
1
10
26.4006188219401
20
9.58843046187278
30
0
41
1
10
26.4112677608008
20
9.58805604147082
30
0
0
SPLINE
5
213
100
AcDbEntity
8
1
62
256
6
ByLayer
370
13
48
1
60
0
100
AcDbSpline
70
4
71
3
72
16
73
12
40
0
40
0
40
0
40
0
40
0.113631665737173
40
0.113631665737173
40
0.758132216188134
40
0.758132216188134
40
0.942823120099093
40
0.942823120099093
40
0.947778003019258
40
0.947778003019258
40
1
40
1
40
1
40
1
41
1
10
25.8112677608008
20
8.48415892548908
30
0
41
1
10
25.8332807942053
20
8.47715485662818
30
0
41
1
10
25.8554088133189
20
8.47050220885674
30
0
41
1
10
26.0026697940168
20
8.42881443072025
30
0
41
1
10
26.1333481685156
20
8.40607204125078
30
0
41
1
10
26.3009734748333
20
8.40755657401613
30
0
41
1
10
26.3386296238166
20
8.40936280945337
30
0
41
1
10
26.37730048355
20
8.41074096422076
30
0
41
1
10
26.3783108496888
20
8.41077698155422
30
0
41
1
10
26.3899699703881
20
8.41119262476096
30
0
41
1
10
26.4006188219401
20
8.41156953812694
30
0
41
1
10
26.4112677608008
20
8.41194395852889
30
0
0
SPLINE
5
214
100
AcDbEntity
8
1
62
256
6
ByLayer
370
13
48
1
60
0
100
AcDbSpline
70
4
71
3
72
10
73
6
40
0
40
0
40
0
40
0
40
0.411878619131049
40
0.411878619131049
40
1
40
1
40
1
40
1
41
1
10
27.5970257408783
20
8.42161038134412
30
0
41
1
10
27.5970257408783
20
8.39850187544022
30
0
41
1
10
27.5938567437525
20
8.37521985751115
30
0
41
1
10
27.579558948791
20
8.32115244635551
30
0
41
1
10
27.5654981180154
20
8.29067373094406
30
0
41
1
10
27.5480487400853
20
8.26292986151483
30
0
0
SPLINE
5
215
100
AcDbEntity
8
1
62
256
6
ByLayer
370
13
48
1
60
0
100
AcDbSpline
70
4
71
3
72
10
73
6
40
0
40
0
40
0
40
0
40
0.411878619131049
40
0.411878619131049
40
1
40
1
40
1
40
1
41
1
10
27.5970257408783
20
9.57838961865562
30
0
41
1
10
27.5970257408783
20
9.6014981245595
30
0
41
1
10
27.5938567437525
20
9.62478014248856
30
0
41
1
10
27.579558948791
20
9.6788475536442
30
0
41
1
10
27.5654981180154
20
9.70932626905565
30
0
41
1
10
27.5480487400853
20
9.73707013848488
30
0
0
SPLINE
5
216
100
AcDbEntity
8
1
62
256
6
ByLayer
370
13
48
1
60
0
100
AcDbSpline
70
4
71
3
72
8
73
4
40
0
40
0
40
0
40
0
40
1
40
1
40
1
40
1
41
1
10
27.5480487400851
20
8.26292986151492
30
0
41
1
10
27.5406964490065
20
8.25357796349275
30
0
41
1
10
27.5332455329699
20
8.24432948551006
30
0
41
1
10
27.5256851850748
20
8.23523425288946
30
0
0
SPLINE
5
217
100
AcDbEntity
8
1
62
256
6
ByLayer
370
13
48
1
60
0
100
AcDbSpline
70
4
71
3
72
8
73
4
40
0
40
0
40
0
40
0
40
1
40
1
40
1
40
1
41
1
10
27.5480487400851
20
9.73707013848482
30
0
41
1
10
27.5406964490065
20
9.74642203650697
30
0
41
1
10
27.5332455329699
20
9.75567051448968
30
0
41
1
10
27.5256851850748
20
9.76476574711026
30
0
0
SPLINE
5
218
100
AcDbEntity
8
1
62
256
6
ByLayer
370
13
48
1
60
0
100
AcDbSpline
70
4
71
3
72
12
73
8
40
0
40
0
40
0
40
0
40
0.390105015408732
40
0.390105015408732
40
0.395238792462735
40
0.395238792462735
40
1
40
1
40
1
40
1
41
1
10
26.4112677608008
20
8.41194395852889
30
0
41
1
10
26.4930131894969
20
8.41405170355637
30
0
41
1
10
26.5750694911571
20
8.41446245578157
30
0
41
1
10
26.6568134956409
20
8.41474795757424
30
0
41
1
10
26.6578786372164
20
8.41475156428331
30
0
41
1
10
26.7833815366521
20
8.41516313616151
30
0
41
1
10
26.9061458913861
20
8.41405921742953
30
0
41
1
10
27.0213727254145
20
8.41092437757686
30
0
0
SPLINE
5
219
100
AcDbEntity
8
1
62
256
6
ByLayer
370
13
48
1
60
0
100
AcDbSpline
70
4
71
3
72
12
73
8
40
0
40
0
40
0
40
0
40
0.390105015408732
40
0.390105015408732
40
0.395238792462735
40
0.395238792462735
40
1
40
1
40
1
40
1
41
1
10
26.4112677608008
20
9.58805604147082
30
0
41
1
10
26.4930131894969
20
9.58594829644335
30
0
41
1
10
26.5750694911571
20
9.58553754421817
30
0
41
1
10
26.6568134956409
20
9.58525204242551
30
0
41
1
10
26.6578786372164
20
9.58524843571641
30
0
41
1
10
26.7833815366521
20
9.58483686383823
30
0
41
1
10
26.9061458913861
20
9.58594078257019
30
0
41
1
10
27.0213727254145
20
9.58907562242285
30
0
0
SPLINE
5
21A
100
AcDbEntity
8
1
62
256
6
ByLayer
370
18
48
1
60
0
100
AcDbSpline
70
4
71
3
72
18
73
14
40
0
40
0
40
0
40
0
40
0.18119409626534
40
0.18119409626534
40
0.361862303964485
40
0.361862303964485
40
0.551167347000521
40
0.551167347000521
40
0.763225975030246
40
0.763225975030246
40
0.99680303595418
40
0.99680303595418
40
1
40
1
40
1
40
1
41
1
10
12.9644268988194
20
6.22499999999954
30
0
41
1
10
12.9644268988194
20
6.38748344262044
30
0
41
1
10
12.9900637222604
20
6.55221398891308
30
0
41
1
10
13.0861803895995
20
6.85777255290301
30
0
41
1
10
13.157629535314
20
7.00272818221904
30
0
41
1
10
13.3369721637076
20
7.26407459148916
30
0
41
1
10
13.4484874238902
20
7.38211610420692
30
0
41
1
10
13.7070567671757
20
7.5870890304933
30
0
41
1
10
13.8598756178939
20
7.6713128220847
30
0
41
1
10
14.1914588745767
20
7.79186442500327
30
0
41
1
10
14.375392326659
20
7.8241369369226
30
0
41
1
10
14.5594590652904
20
7.82499421590583
30
0
41
1
10
14.5619429550446
20
7.82499999999953
30
0
41
1
10
14.5644268988194
20
7.82499999999953
30
0
0
SPLINE
5
21B
100
AcDbEntity
8
1
62
256
6
ByLayer
370
18
48
1
60
0
100
AcDbSpline
70
4
71
3
72
16
73
12
40
0
40
0
40
0
40
0
40
0.210601603648632
40
0.210601603648632
40
0.421213120937357
40
0.421213120937357
40
0.631488126460197
40
0.631488126460197
40
0.839116239420829
40
0.839116239420829
40
1
40
1
40
1
40
1
41
1
10
27.6046912194302
20
10.3055562538528
30
0
41
1
10
27.604885104101
20
10.3284783623566
30
0
41
1
10
27.6011366843306
20
10.3517152848396
30
0
41
1
10
27.5864049129778
20
10.3949753647059
30
0
41
1
10
27.5752157349576
20
10.4155997347468
30
0
41
1
10
27.5470242400575
20
10.451345212223
30
0
41
1
10
27.52963219728
20
10.4669744061745
30
0
41
1
10
27.4913444393929
20
10.4908763407794
30
0
41
1
10
27.469954321154
20
10.4995700363137
30
0
41
1
10
27.4309045828753
20
10.5079407305388
30
0
41
1
10
27.4131262908525
20
10.5092818527198
30
0
41
1
10
27.3956316353028
20
10.5082037976605
30
0
0
SPLINE
5
21C
100
AcDbEntity
8
1
62
256
6
ByLayer
370
18
48
1
60
0
100
AcDbSpline
70
4
71
3
72
10
73
6
40
0
40
0
40
0
40
0
40
0.584711417492912
40
0.584711417492912
40
1
40
1
40
1
40
1
41
1
10
19.235193928482
20
7.74999999999986
30
0
41
1
10
19.2376165600087
20
7.74999999999986
30
0
41
1
10
19.2400566535847
20
7.74999999999986
30
0
41
1
10
19.2442589248979
20
7.74999999999986
30
0
41
1
10
19.2460127381758
20
7.74999999999986
30
0
41
1
10
19.2477750315742
20
7.74999999999986
30
0
0
SPLINE
5
21D
100
AcDbEntity
8
1
62
256
6
ByLayer
370
18
48
1
60
0
100
AcDbSpline
70
4
71
3
72
16
73
12
40
0
40
0
40
0
40
0
40
0.202092460849674
40
0.202092460849674
40
0.404032245588857
40
0.404032245588857
40
0.608298678109005
40
0.608298678109005
40
0.816163444624768
40
0.816163444624768
40
1
40
1
40
1
40
1
41
1
10
27.3956316353028
20
7.4917962023392
30
0
41
1
10
27.4174897444444
20
7.4904492626936
30
0
41
1
10
27.4398491383955
20
7.49291408466232
30
0
41
1
10
27.4818390291393
20
7.5049642526354
30
0
41
1
10
27.5020457535965
20
7.51470396616958
30
0
41
1
10
27.5378824730739
20
7.54007241790833
30
0
41
1
10
27.5539463831898
20
7.55610774732892
30
0
41
1
10
27.5798894042432
20
7.59240351253319
30
0
41
1
10
27.5900129368112
20
7.61322860356088
30
0
41
1
10
27.6020260177163
20
7.65408429659729
30
0
41
1
10
27.604861008975
20
7.67437029551911
30
0
41
1
10
27.6046912194302
20
7.6944437461469
30
0
0
SPLINE
5
21E
100
AcDbEntity
8
1
62
256
6
ByLayer
370
18
48
1
60
0
100
AcDbSpline
70
4
71
3
72
10
73
6
40
0
40
0
40
0
40
0
40
0.629562107774395
40
0.629562107774395
40
1
40
1
40
1
40
1
41
1
10
17.8
20
7.74999999999986
30
0
41
1
10
17.7782969300919
20
7.74999999999986
30
0
41
1
10
17.756172793229
20
7.75364106319321
30
0
41
1
10
17.7231987911384
20
7.76487821310485
30
0
41
1
10
17.7112516429096
20
7.77029878018004
30
0
41
1
10
17.7
20
7.77679491924272
30
0
0
SPLINE
5
21F
100
AcDbEntity
8
1
62
256
6
ByLayer
370
18
48
1
60
0
100
AcDbSpline
70
4
71
3
72
10
73
6
40
0
40
0
40
0
40
0
40
0.62956174027551
40
0.62956174027551
40
1
40
1
40
1
40
1
41
1
10
17.7
20
10.2232050807567
30
0
41
1
10
17.718944038489
20
10.2341424264779
30
0
41
1
10
17.7400004695306
20
10.2420308411125
30
0
41
1
10
17.7741148019193
20
10.2487405286442
30
0
41
1
10
17.7871096425299
20
10.2499999999999
30
0
41
1
10
17.8
20
10.2499999999999
30
0
0
SPLINE
5
220
100
AcDbEntity
8
1
62
256
6
ByLayer
370
18
48
1
60
0
100
AcDbSpline
70
4
71
3
72
10
73
6
40
0
40
0
40
0
40
0
40
0.76746257010027
40
0.76746257010027
40
1
40
1
40
1
40
1
41
1
10
19.2477750315742
20
10.2499999999999
30
0
41
1
10
19.2445183560328
20
10.2499999999999
30
0
41
1
10
19.2412905642183
20
10.2499999999999
30
0
41
1
10
19.2371236958271
20
10.2499999999999
30
0
41
1
10
19.2361574346188
20
10.2499999999999
30
0
41
1
10
19.235193928482
20
10.2499999999999
30
0
0
SPLINE
5
221
100
AcDbEntity
8
1
62
256
6
ByLayer
370
18
48
1
60
0
100
AcDbSpline
70
4
71
3
72
14
73
10
40
0
40
0
40
0
40
0
40
0.209562190252725
40
0.209562190252725
40
0.419048660097219
40
0.419048660097219
40
0.628042586344193
40
0.628042586344193
40
1
40
1
40
1
40
1
41
1
10
26.0587805434613
20
10.4097853116083
30
0
41
1
10
25.9766126081607
20
10.4040112672193
30
0
41
1
10
25.8940966332411
20
10.3986916757137
30
0
41
1
10
25.7317767669576
20
10.389185094795
30
0
41
1
10
25.651417699214
20
10.384965276982
30
0
41
1
10
25.49577107806
20
10.3777765091766
30
0
41
1
10
25.4199400027967
20
10.3747800931391
30
0
41
1
10
25.2197346270461
20
10.3683061296879
30
0
41
1
10
25.1007351939601
20
10.3661821282839
30
0
41
1
10
24.9981203716826
20
10.3661997365007
30
0
0
SPLINE
5
222
100
AcDbEntity
8
1
62
256
6
ByLayer
370
18
48
1
60
0
100
AcDbSpline
70
4
71
3
72
8
73
4
40
0
40
0
40
0
40
0
40
1
40
1
40
1
40
1
41
1
10
26.7060768987952
20
10.4574120129638
30
0
41
1
10
26.591741836253
20
10.4479573909196
30
0
41
1
10
26.4750917668498
20
10.4390400260501
30
0
41
1
10
26.3587805434613
20
10.4308666897684
30
0
0
SPLINE
5
223
100
AcDbEntity
8
1
62
256
6
ByLayer
370
18
48
1
60
0
100
AcDbSpline
70
4
71
3
72
14
73
10
40
0
40
0
40
0
40
0
40
0.208995027535852
40
0.208995027535852
40
0.417850725206471
40
0.417850725206471
40
0.626704295977397
40
0.626704295977397
40
1
40
1
40
1
40
1
41
1
10
24.9981203716815
20
7.6338002634981
30
0
41
1
10
25.0562077150717
20
7.63381023101067
30
0
41
1
10
25.1193237323135
20
7.63314404640263
30
0
41
1
10
25.2529850333383
20
7.63048554733058
30
0
41
1
10
25.3239830856552
20
7.6284850037926
30
0
41
1
10
25.4714347232616
20
7.62322301235287
30
0
41
1
10
25.5483929364638
20
7.61994357877288
30
0
41
1
10
25.7664550970089
20
7.60923721197759
30
0
41
1
10
25.9134966889726
20
7.60042396798201
30
0
41
1
10
26.0587805434602
20
7.59021468839197
30
0
0
SPLINE
5
224
100
AcDbEntity
8
1
62
256
6
ByLayer
370
18
48
1
60
0
100
AcDbSpline
70
4
71
3
72
8
73
4
40
0
40
0
40
0
40
0
40
1
40
1
40
1
40
1
41
1
10
26.3587805434613
20
7.56913331023131
30
0
41
1
10
26.4750917668498
20
7.56095997394959
30
0
41
1
10
26.591741836253
20
7.55204260908016
30
0
41
1
10
26.7060768987952
20
7.54258798703589
30
0
0
LINE
5
70
100
AcDbEntity
8
80
62
256
6
ByLayer
370
18
48
1
60
0
100
AcDbLine
10
0
20
0
30
0
11
-5
21
0
31
0
39
0
210
0
220
0
230
1
0
LINE
5
71
100
AcDbEntity
8
81
62
256
6
ByLayer
370
18
48
1
60
0
100
AcDbLine
10
27.6
20
10.5
30
0
11
32.6
21
10.5
31
0
39
0
210
0
220
0
230
1
0
LINE
5
72
100
AcDbEntity
8
1
62
256
6
ByLayer
370
13
48
1
60
0
100
AcDbLine
10
0
20
6.225
30
0
11
12.964427
21
6.225
31
0
39
0
210
0
220
0
230
1
0
LINE
5
74
100
AcDbEntity
8
1
62
256
6
ByLayer
370
13
48
1
60
0
100
AcDbLine
10
13.890738
20
10.175
30
0
11
13.890738
21
7.825
31
0
39
0
210
0
220
0
230
1
0
LINE
5
75
100
AcDbEntity
8
1
62
256
6
ByLayer
370
13
48
1
60
0
100
AcDbLine
10
18.890738
20
7.825
30
0
11
18.890738
21
10.175
31
0
39
0
210
0
220
0
230
1
0
LINE
5
76
100
AcDbEntity
8
SK1
62
256
6
ByLayer
370
13
48
1
60
0
100
AcDbLine
10
-5.682242
20
-10
30
0
11
-5.682242
21
10.175
31
0
39
0
210
0
220
0
230
1
0
LINE
5
78
100
AcDbEntity
8
SK1
62
256
6
ByLayer
370
13
48
1
60
0
100
AcDbLine
10
-7.227723
20
9.925
30
0
11
-7.227723
21
-10
31
0
39
0
210
0
220
0
230
1
0
LINE
5
79
100
AcDbEntity
8
SK1
62
256
6
ByLayer
370
18
48
1
60
0
100
AcDbLine
10
-0.1
20
10.175
30
0
11
-0.1
21
-10
31
0
39
0
210
0
220
0
230
1
0
LINE
5
7A
100
AcDbEntity
8
SK1
62
256
6
ByLayer
370
18
48
1
60
0
100
AcDbLine
10
-4.888118
20
10.175
30
0
11
-5.682242
21
10.175
31
0
39
0
210
0
220
0
230
1
0
LINE
5
7B
100
AcDbEntity
8
SK1
62
256
6
ByLayer
370
18
48
1
60
0
100
AcDbLine
10
-5.682242
20
-10
30
0
11
-4.888118
21
-10
31
0
39
0
210
0
220
0
230
1
0
LINE
5
7C
100
AcDbEntity
8
SK1
62
256
6
ByLayer
370
18
48
1
60
0
100
AcDbLine
10
-66
20
-10
30
0
11
-69
21
-7
31
0
39
0
210
0
220
0
230
1
0
LINE
5
7D
100
AcDbEntity
8
SK1
62
256
6
ByLayer
370
18
48
1
60
0
100
AcDbLine
10
-66
20
9.925
30
0
11
-69
21
6.925
31
0
39
0
210
0
220
0
230
1
0
LINE
5
7E
100
AcDbEntity
8
SK1
62
256
6
ByLayer
370
18
48
1
60
0
100
AcDbLine
10
-66
20
9.925
30
0
11
-7.227723
21
9.925
31
0
39
0
210
0
220
0
230
1
0
LINE
5
7F
100
AcDbEntity
8
SK1
62
256
6
ByLayer
370
18
48
1
60
0
100
AcDbLine
10
-69
20
6.925
30
0
11
-69
21
-7
31
0
39
0
210
0
220
0
230
1
0
LINE
5
80
100
AcDbEntity
8
SK1
62
256
6
ByLayer
370
18
48
1
60
0
100
AcDbLine
10
-7.227723
20
-10
30
0
11
-5.682242
21
-10
31
0
39
0
210
0
220
0
230
1
0
LINE
5
81
100
AcDbEntity
8
SK1
62
256
6
ByLayer
370
18
48
1
60
0
100
AcDbLine
10
-66
20
-10
30
0
11
-7.227723
21
-10
31
0
39
0
210
0
220
0
230
1
0
LINE
5
82
100
AcDbEntity
8
SK1
62
256
6
ByLayer
370
18
48
1
60
0
100
AcDbLine
10
-4.888118
20
-10
30
0
11
-4.888118
21
10.175
31
0
39
0
210
0
220
0
230
1
0
LINE
5
83
100
AcDbEntity
8
SK1
62
256
6
ByLayer
370
18
48
1
60
0
100
AcDbLine
10
-0.1
20
10.175
30
0
11
-4.888118
21
10.175
31
0
39
0
210
0
220
0
230
1
0
LINE
5
84
100
AcDbEntity
8
SK1
62
256
6
ByLayer
370
18
48
1
60
0
100
AcDbLine
10
-5.682242
20
10.175
30
0
11
-6.368945
21
10.175
31
0
39
0
210
0
220
0
230
1
0
LINE
5
85
100
AcDbEntity
8
SK1
62
256
6
ByLayer
370
18
48
1
60
0
100
AcDbLine
10
-0.1
20
-10
30
0
11
-4.888118
21
-10
31
0
39
0
210
0
220
0
230
1
0
LINE
5
86
100
AcDbEntity
8
1
62
256
6
ByLayer
370
18
48
1
60
0
100
AcDbLine
10
-0.1
20
10.175
30
0
11
-0.1
21
-10
31
0
39
0
210
0
220
0
230
1
0
LINE
5
87
100
AcDbEntity
8
1
62
256
6
ByLayer
370
18
48
1
60
0
100
AcDbLine
10
0
20
-10
30
0
11
0
21
6.225
31
0
39
0
210
0
220
0
230
1
0
LINE
5
88
100
AcDbEntity
8
1
62
256
6
ByLayer
370
18
48
1
60
0
100
AcDbLine
10
22.95928
20
7.825
30
0
11
18.890738
21
7.825
31
0
39
0
210
0
220
0
230
1
0
LINE
5
89
100
AcDbEntity
8
1
62
256
6
ByLayer
370
18
48
1
60
0
100
AcDbLine
10
18.890738
20
7.825
30
0
11
13.890738
21
7.825
31
0
39
0
210
0
220
0
230
1
0
LINE
5
8A
100
AcDbEntity
8
1
62
256
6
ByLayer
370
18
48
1
60
0
100
AcDbLine
10
13.890738
20
10.175
30
0
11
-0.1
21
10.175
31
0
39
0
210
0
220
0
230
1
0
LINE
5
8B
100
AcDbEntity
8
1
62
256
6
ByLayer
370
18
48
1
60
0
100
AcDbLine
10
12.964427
20
-1.982485
30
0
11
1
21
-10
31
0
39
0
210
0
220
0
230
1
0
LINE
5
8C
100
AcDbEntity
8
1
62
256
6
ByLayer
370
18
48
1
60
0
100
AcDbLine
10
23.015611
20
8.008431
30
0
11
22.95928
21
7.825
31
0
39
0
210
0
220
0
230
1
0
LINE
5
8D
100
AcDbEntity
8
1
62
256
6
ByLayer
370
18
48
1
60
0
100
AcDbLine
10
22.95928
20
10.175
30
0
11
23.015611
21
9.991569
31
0
39
0
210
0
220
0
230
1
0
LINE
5
8E
100
AcDbEntity
8
1
62
256
6
ByLayer
370
18
48
1
60
0
100
AcDbLine
10
0
20
-10
30
0
11
1
21
-10
31
0
39
0
210
0
220
0
230
1
0
LINE
5
8F
100
AcDbEntity
8
1
62
256
6
ByLayer
370
18
48
1
60
0
100
AcDbLine
10
18.890738
20
10.175
30
0
11
13.890738
21
10.175
31
0
39
0
210
0
220
0
230
1
0
LINE
5
90
100
AcDbEntity
8
1
62
256
6
ByLayer
370
18
48
1
60
0
100
AcDbLine
10
23.015611
20
8.008431
30
0
11
23.015611
21
8.478186
31
0
39
0
210
0
220
0
230
1
0
LINE
5
91
100
AcDbEntity
8
1
62
256
6
ByLayer
370
18
48
1
60
0
100
AcDbLine
10
12.964427
20
-1.982485
30
0
11
12.964427
21
6.225
31
0
39
0
210
0
220
0
230
1
0
LINE
5
92
100
AcDbEntity
8
1
62
256
6
ByLayer
370
18
48
1
60
0
100
AcDbLine
10
23.015611
20
9.521814
30
0
11
23.015611
21
9.991569
31
0
39
0
210
0
220
0
230
1
0
LINE
5
93
100
AcDbEntity
8
1
62
256
6
ByLayer
370
18
48
1
60
0
100
AcDbLine
10
22.95928
20
10.175
30
0
11
18.890738
21
10.175
31
0
39
0
210
0
220
0
230
1
0
LINE
5
94
100
AcDbEntity
8
1
62
256
6
ByLayer
370
18
48
1
60
0
100
AcDbLine
10
13.890738
20
7.825
30
0
11
1.6
21
7.825
31
0
39
0
210
0
220
0
230
1
0
LINE
5
95
100
AcDbEntity
8
1
62
256
6
ByLayer
370
18
48
1
60
0
100
AcDbLine
10
0
20
-10
30
0
11
-0.1
21
-10
31
0
39
0
210
0
220
0
230
1
0
LINE
5
96
100
AcDbEntity
8
1
62
256
6
ByLayer
370
13
48
1
60
0
100
AcDbLine
10
19.189581
20
7.75
30
0
11
19.145758
21
7.825002
31
0
39
0
210
0
220
0
230
1
0
LINE
5
97
100
AcDbEntity
8
1
62
256
6
ByLayer
370
13
48
1
60
0
100
AcDbLine
10
-5.682242
20
-10
30
0
11
-5.682242
21
10.175
31
0
39
0
210
0
220
0
230
1
0
LINE
5
98
100
AcDbEntity
8
1
62
256
6
ByLayer
370
13
48
1
60
0
100
AcDbLine
10
13.890738
20
10.175
30
0
11
13.890738
21
7.825
31
0
39
0
210
0
220
0
230
1
0
LINE
5
99
100
AcDbEntity
8
1
62
256
6
ByLayer
370
13
48
1
60
0
100
AcDbLine
10
18.265685
20
7.825003
30
0
11
18.265685
21
7.75
31
0
39
0
210
0
220
0
230
1
0
LINE
5
9A
100
AcDbEntity
8
1
62
256
6
ByLayer
370
13
48
1
60
0
100
AcDbLine
10
-7.227723
20
9.925
30
0
11
-7.227723
21
-10
31
0
39
0
210
0
220
0
230
1
0
LINE
5
9B
100
AcDbEntity
8
1
62
256
6
ByLayer
370
13
48
1
60
0
100
AcDbLine
10
18.265685
20
10.174997
30
0
11
18.265685
21
10.25
31
0
39
0
210
0
220
0
230
1
0
LINE
5
9C
100
AcDbEntity
8
1
62
256
6
ByLayer
370
13
48
1
60
0
100
AcDbLine
10
0
20
6.225
30
0
11
12.964427
21
6.225
31
0
39
0
210
0
220
0
230
1
0
LINE
5
9D
100
AcDbEntity
8
1
62
256
6
ByLayer
370
13
48
1
60
0
100
AcDbLine
10
17.7
20
10.223205
30
0
11
17.7
21
10.174965
31
0
39
0
210
0
220
0
230
1
0
LINE
5
9E
100
AcDbEntity
8
1
62
256
6
ByLayer
370
13
48
1
60
0
100
AcDbLine
10
17.7
20
7.825035
30
0
11
17.7
21
7.776795
31
0
39
0
210
0
220
0
230
1
0
LINE
5
9F
100
AcDbEntity
8
1
62
256
6
ByLayer
370
13
48
1
60
0
100
AcDbLine
10
18.890738
20
7.825
30
0
11
18.890738
21
10.175
31
0
39
0
210
0
220
0
230
1
0
LINE
5
A0
100
AcDbEntity
8
1
62
256
6
ByLayer
370
13
48
1
60
0
100
AcDbLine
10
24.055978
20
7.75
30
0
11
24.055978
21
8.173244
31
0
39
0
210
0
220
0
230
1
0
LINE
5
A1
100
AcDbEntity
8
1
62
256
6
ByLayer
370
13
48
1
60
0
100
AcDbLine
10
24.207676
20
8.165535
30
0
11
24.480446
21
8.152104
31
0
39
0
210
0
220
0
230
1
0
LINE
5
A2
100
AcDbEntity
8
1
62
256
6
ByLayer
370
13
48
1
60
0
100
AcDbLine
10
24.737538
20
7.641081
30
0
11
24.716974
21
7.935155
31
0
39
0
210
0
220
0
230
1
0
LINE
5
A3
100
AcDbEntity
8
1
62
256
6
ByLayer
370
13
48
1
60
0
100
AcDbLine
10
24.737538
20
10.358919
30
0
11
24.716974
21
10.064845
31
0
39
0
210
0
220
0
230
1
0
LINE
5
A4
100
AcDbEntity
8
1
62
256
6
ByLayer
370
13
48
1
60
0
100
AcDbLine
10
24.480446
20
9.847896
30
0
11
24.207676
21
9.834465
31
0
39
0
210
0
220
0
230
1
0
LINE
5
A5
100
AcDbEntity
8
1
62
256
6
ByLayer
370
13
48
1
60
0
100
AcDbLine
10
24.055978
20
9.826756
30
0
11
24.055978
21
10.25
31
0
39
0
210
0
220
0
230
1
0
LINE
5
A6
100
AcDbEntity
8
1
62
256
6
ByLayer
370
13
48
1
60
0
100
AcDbLine
10
24.99812
20
7.952152
30
0
11
24.99812
21
7.6338
31
0
39
0
210
0
220
0
230
1
0
LINE
5
A7
100
AcDbEntity
8
1
62
256
6
ByLayer
370
13
48
1
60
0
100
AcDbLine
10
24.480446
20
8.152104
30
0
11
24.630516
21
8.306271
31
0
39
0
210
0
220
0
230
1
0
LINE
5
A8
100
AcDbEntity
8
1
62
256
6
ByLayer
370
13
48
1
60
0
100
AcDbLine
10
26.058781
20
7.835576
30
0
11
26.058781
21
7.590215
31
0
39
0
210
0
220
0
230
1
0
LINE
5
A9
100
AcDbEntity
8
1
62
256
6
ByLayer
370
13
48
1
60
0
100
AcDbLine
10
26.058781
20
10.164424
30
0
11
26.058781
21
10.409785
31
0
39
0
210
0
220
0
230
1
0
LINE
5
AA
100
AcDbEntity
8
1
62
256
6
ByLayer
370
13
48
1
60
0
100
AcDbLine
10
24.99812
20
10.047848
30
0
11
24.99812
21
10.3662
31
0
39
0
210
0
220
0
230
1
0
LINE
5
AB
100
AcDbEntity
8
1
62
256
6
ByLayer
370
13
48
1
60
0
100
AcDbLine
10
24.630516
20
9.693729
30
0
11
24.480446
21
9.847896
31
0
39
0
210
0
220
0
230
1
0
LINE
5
AC
100
AcDbEntity
8
1
62
256
6
ByLayer
370
13
48
1
60
0
100
AcDbLine
10
24.207676
20
8.165535
30
0
11
24.221372
21
8.44369
31
0
39
0
210
0
220
0
230
1
0
LINE
5
AD
100
AcDbEntity
8
1
62
256
6
ByLayer
370
13
48
1
60
0
100
AcDbLine
10
24.451055
20
8.43238
30
0
11
24.221372
21
8.44369
31
0
39
0
210
0
220
0
230
1
0
LINE
5
AE
100
AcDbEntity
8
1
62
256
6
ByLayer
370
13
48
1
60
0
100
AcDbLine
10
24.221372
20
9.55631
30
0
11
24.451055
21
9.56762
31
0
39
0
210
0
220
0
230
1
0
LINE
5
AF
100
AcDbEntity
8
1
62
256
6
ByLayer
370
13
48
1
60
0
100
AcDbLine
10
24.221372
20
9.55631
30
0
11
24.207676
21
9.834465
31
0
39
0
210
0
220
0
230
1
0
LINE
5
B0
100
AcDbEntity
8
1
62
256
6
ByLayer
370
13
48
1
60
0
100
AcDbLine
10
24.893328
20
10.04953
30
0
11
24.915472
21
10.366214
31
0
39
0
210
0
220
0
230
1
0
LINE
5
B1
100
AcDbEntity
8
1
62
256
6
ByLayer
370
13
48
1
60
0
100
AcDbLine
10
24.893328
20
7.95047
30
0
11
24.915472
21
7.633786
31
0
39
0
210
0
220
0
230
1
0
LINE
5
B2
100
AcDbEntity
8
1
62
256
6
ByLayer
370
13
48
1
60
0
100
AcDbLine
10
24.464379
20
9.55631
30
0
11
24.221372
21
9.55631
31
0
39
0
210
0
220
0
230
1
0
LINE
5
B3
100
AcDbEntity
8
1
62
256
6
ByLayer
370
13
48
1
60
0
100
AcDbLine
10
24.464379
20
8.44369
30
0
11
24.221372
21
8.44369
31
0
39
0
210
0
220
0
230
1
0
LINE
5
B4
100
AcDbEntity
8
1
62
256
6
ByLayer
370
13
48
1
60
0
100
AcDbLine
10
23.987574
20
8.173244
30
0
11
24.055978
21
8.173244
31
0
39
0
210
0
220
0
230
1
0
LINE
5
B5
100
AcDbEntity
8
1
62
256
6
ByLayer
370
13
48
1
60
0
100
AcDbLine
10
23.987574
20
9.826756
30
0
11
24.055978
21
9.826756
31
0
39
0
210
0
220
0
230
1
0
LINE
5
B6
100
AcDbEntity
8
1
62
256
6
ByLayer
370
13
48
1
60
0
100
AcDbLine
10
23.987574
20
10.25
30
0
11
23.987574
21
9.826756
31
0
39
0
210
0
220
0
230
1
0
LINE
5
B7
100
AcDbEntity
8
1
62
256
6
ByLayer
370
13
48
1
60
0
100
AcDbLine
10
23.987574
20
8.173244
30
0
11
23.987574
21
7.75
31
0
39
0
210
0
220
0
230
1
0
LINE
5
B8
100
AcDbEntity
8
1
62
256
6
ByLayer
370
13
48
1
60
0
100
AcDbLine
10
23.263912
20
7.75
30
0
11
23.263912
21
7.866083
31
0
39
0
210
0
220
0
230
1
0
LINE
5
B9
100
AcDbEntity
8
1
62
256
6
ByLayer
370
13
48
1
60
0
100
AcDbLine
10
23.263912
20
10.133917
30
0
11
23.263912
21
10.25
31
0
39
0
210
0
220
0
230
1
0
LINE
5
BA
100
AcDbEntity
8
1
62
256
6
ByLayer
370
13
48
1
60
0
100
AcDbLine
10
25.714687
20
8.180616
30
0
11
25.811268
21
8.484159
31
0
39
0
210
0
220
0
230
1
0
LINE
5
BB
100
AcDbEntity
8
1
62
256
6
ByLayer
370
13
48
1
60
0
100
AcDbLine
10
25.714687
20
9.819384
30
0
11
25.811268
21
9.515841
31
0
39
0
210
0
220
0
230
1
0
LINE
5
BC
100
AcDbEntity
8
1
62
256
6
ByLayer
370
13
48
1
60
0
100
AcDbLine
10
23.06942
20
9.367998
30
0
11
23.379442
21
9.367998
31
0
39
0
210
0
220
0
230
1
0
LINE
5
BD
100
AcDbEntity
8
1
62
256
6
ByLayer
370
13
48
1
60
0
100
AcDbLine
10
23.015611
20
9.81851
30
0
11
23.06942
21
9.367998
31
0
39
0
210
0
220
0
230
1
0
LINE
5
BE
100
AcDbEntity
8
1
62
256
6
ByLayer
370
13
48
1
60
0
100
AcDbLine
10
23.177267
20
10.075984
30
0
11
22.984859
21
10.075984
31
0
39
0
210
0
220
0
230
1
0
LINE
5
BF
100
AcDbEntity
8
1
62
256
6
ByLayer
370
13
48
1
60
0
100
AcDbLine
10
23.177267
20
7.924016
30
0
11
22.984859
21
7.924016
31
0
39
0
210
0
220
0
230
1
0
LINE
5
C0
100
AcDbEntity
8
1
62
256
6
ByLayer
370
13
48
1
60
0
100
AcDbLine
10
23.015611
20
8.18149
30
0
11
23.06942
21
8.632002
31
0
39
0
210
0
220
0
230
1
0
LINE
5
C1
100
AcDbEntity
8
1
62
256
6
ByLayer
370
13
48
1
60
0
100
AcDbLine
10
23.06942
20
8.632002
30
0
11
23.379442
21
8.632002
31
0
39
0
210
0
220
0
230
1
0
LINE
5
C2
100
AcDbEntity
8
1
62
256
6
ByLayer
370
13
48
1
60
0
100
AcDbLine
10
23.172358
20
10.25
30
0
11
23.172358
21
10.125902
31
0
39
0
210
0
220
0
230
1
0
LINE
5
C3
100
AcDbEntity
8
1
62
256
6
ByLayer
370
13
48
1
60
0
100
AcDbLine
10
23.172358
20
7.874098
30
0
11
23.172358
21
7.75
31
0
39
0
210
0
220
0
230
1
0
LINE
5
C4
100
AcDbEntity
8
1
62
256
6
ByLayer
370
13
48
1
60
0
100
AcDbLine
10
25.811268
20
9.515841
30
0
11
25.811268
21
8.484159
31
0
39
0
210
0
220
0
230
1
0
LINE
5
C5
100
AcDbEntity
8
1
62
256
6
ByLayer
370
13
48
1
60
0
100
AcDbLine
10
22.98199
20
10.25
30
0
11
22.98199
21
10.125438
31
0
39
0
210
0
220
0
230
1
0
LINE
5
C6
100
AcDbEntity
8
1
62
256
6
ByLayer
370
13
48
1
60
0
100
AcDbLine
10
22.98199
20
10.125438
30
0
11
23.170595
21
10.125438
31
0
39
0
210
0
220
0
230
1
0
LINE
5
C7
100
AcDbEntity
8
1
62
256
6
ByLayer
370
13
48
1
60
0
100
AcDbLine
10
22.98199
20
7.75
30
0
11
22.98199
21
7.874562
31
0
39
0
210
0
220
0
230
1
0
LINE
5
C8
100
AcDbEntity
8
1
62
256
6
ByLayer
370
13
48
1
60
0
100
AcDbLine
10
22.98199
20
7.874562
30
0
11
23.170595
21
7.874562
31
0
39
0
210
0
220
0
230
1
0
LINE
5
C9
100
AcDbEntity
8
1
62
256
6
ByLayer
370
13
48
1
60
0
100
AcDbLine
10
27.600117
20
9.764766
30
0
11
27.525685
21
9.764766
31
0
39
0
210
0
220
0
230
1
0
LINE
5
CA
100
AcDbEntity
8
1
62
256
6
ByLayer
370
13
48
1
60
0
100
AcDbLine
10
27.135516
20
10.073706
30
0
11
27.135516
21
10.492175
31
0
39
0
210
0
220
0
230
1
0
LINE
5
CB
100
AcDbEntity
8
1
62
256
6
ByLayer
370
13
48
1
60
0
100
AcDbLine
10
27.135516
20
7.926294
30
0
11
27.135516
21
7.507825
31
0
39
0
210
0
220
0
230
1
0
LINE
5
CC
100
AcDbEntity
8
1
62
256
6
ByLayer
370
13
48
1
60
0
100
AcDbLine
10
27.600117
20
8.235234
30
0
11
27.525685
21
8.235234
31
0
39
0
210
0
220
0
230
1
0
LINE
5
CD
100
AcDbEntity
8
1
62
256
6
ByLayer
370
13
48
1
60
0
100
AcDbLine
10
26.706077
20
7.825131
30
0
11
26.706077
21
7.542588
31
0
39
0
210
0
220
0
230
1
0
LINE
5
CE
100
AcDbEntity
8
1
62
256
6
ByLayer
370
13
48
1
60
0
100
AcDbLine
10
27.06476
20
10.487072
30
0
11
27.06476
21
10.126322
31
0
39
0
210
0
220
0
230
1
0
LINE
5
CF
100
AcDbEntity
8
1
62
256
6
ByLayer
370
13
48
1
60
0
100
AcDbLine
10
27.06476
20
7.512928
30
0
11
27.06476
21
7.873678
31
0
39
0
210
0
220
0
230
1
0
LINE
5
D0
100
AcDbEntity
8
1
62
256
6
ByLayer
370
13
48
1
60
0
100
AcDbLine
10
26.706077
20
10.174869
30
0
11
26.706077
21
10.457412
31
0
39
0
210
0
220
0
230
1
0
LINE
5
D1
100
AcDbEntity
8
1
62
256
6
ByLayer
370
13
48
1
60
0
100
AcDbLine
10
23.106333
20
9.251024
30
0
11
23.466184
21
9.251024
31
0
39
0
210
0
220
0
230
1
0
LINE
5
D2
100
AcDbEntity
8
1
62
256
6
ByLayer
370
13
48
1
60
0
100
AcDbLine
10
23.106333
20
8.748976
30
0
11
23.466184
21
8.748976
31
0
39
0
210
0
220
0
230
1
0
LINE
5
D3
100
AcDbEntity
8
1
62
256
6
ByLayer
370
13
48
1
60
0
100
AcDbLine
10
26.358781
20
7.821591
30
0
11
26.358781
21
7.569133
31
0
39
0
210
0
220
0
230
1
0
LINE
5
D4
100
AcDbEntity
8
1
62
256
6
ByLayer
370
13
48
1
60
0
100
AcDbLine
10
26.358781
20
10.178409
30
0
11
26.358781
21
10.430867
31
0
39
0
210
0
220
0
230
1
0
LINE
5
D5
100
AcDbEntity
8
1
62
256
6
ByLayer
370
13
48
1
60
0
100
AcDbLine
10
22.974468
20
10.125438
30
0
11
22.98199
21
10.125438
31
0
39
0
210
0
220
0
230
1
0
LINE
5
D6
100
AcDbEntity
8
1
62
256
6
ByLayer
370
13
48
1
60
0
100
AcDbLine
10
19.566112
20
10.175001
30
0
11
19.566112
21
10.25
31
0
39
0
210
0
220
0
230
1
0
LINE
5
D7
100
AcDbEntity
8
1
62
256
6
ByLayer
370
13
48
1
60
0
100
AcDbLine
10
19.566112
20
7.824999
30
0
11
19.566112
21
7.75
31
0
39
0
210
0
220
0
230
1
0
LINE
5
D8
100
AcDbEntity
8
1
62
256
6
ByLayer
370
13
48
1
60
0
100
AcDbLine
10
22.974468
20
7.874562
30
0
11
22.98199
21
7.874562
31
0
39
0
210
0
220
0
230
1
0
LINE
5
D9
100
AcDbEntity
8
1
62
256
6
ByLayer
370
13
48
1
60
0
100
AcDbLine
10
23.000093
20
9.367998
30
0
11
23.06942
21
9.367998
31
0
39
0
210
0
220
0
230
1
0
LINE
5
DA
100
AcDbEntity
8
1
62
256
6
ByLayer
370
13
48
1
60
0
100
AcDbLine
10
23.000093
20
8.632002
30
0
11
23.06942
21
8.632002
31
0
39
0
210
0
220
0
230
1
0
LINE
5
DB
100
AcDbEntity
8
1
62
256
6
ByLayer
370
13
48
1
60
0
100
AcDbLine
10
23.14904
20
9.200756
30
0
11
23.587507
21
9.200756
31
0
39
0
210
0
220
0
230
1
0
LINE
5
DC
100
AcDbEntity
8
1
62
256
6
ByLayer
370
13
48
1
60
0
100
AcDbLine
10
26.42193
20
9.891296
30
0
11
26.411268
21
9.588056
31
0
39
0
210
0
220
0
230
1
0
LINE
5
DD
100
AcDbEntity
8
1
62
256
6
ByLayer
370
13
48
1
60
0
100
AcDbLine
10
26.42193
20
8.108704
30
0
11
26.411268
21
8.411944
31
0
39
0
210
0
220
0
230
1
0
LINE
5
DE
100
AcDbEntity
8
1
62
256
6
ByLayer
370
13
48
1
60
0
100
AcDbLine
10
23.14904
20
8.799244
30
0
11
23.587507
21
8.799244
31
0
39
0
210
0
220
0
230
1
0
LINE
5
DF
100
AcDbEntity
8
1
62
256
6
ByLayer
370
13
48
1
60
0
100
AcDbLine
10
27.544165
20
8.42161
30
0
11
27.597026
21
8.42161
31
0
39
0
210
0
220
0
230
1
0
LINE
5
E0
100
AcDbEntity
8
1
62
256
6
ByLayer
370
13
48
1
60
0
100
AcDbLine
10
27.544165
20
9.57839
30
0
11
27.597026
21
9.57839
31
0
39
0
210
0
220
0
230
1
0
LINE
5
E1
100
AcDbEntity
8
1
62
256
6
ByLayer
370
13
48
1
60
0
100
AcDbLine
10
27.548049
20
8.26293
30
0
11
27.6
21
8.26293
31
0
39
0
210
0
220
0
230
1
0
LINE
5
E2
100
AcDbEntity
8
1
62
256
6
ByLayer
370
13
48
1
60
0
100
AcDbLine
10
27.597026
20
8.42161
30
0
11
27.597026
21
9.57839
31
0
39
0
210
0
220
0
230
1
0
LINE
5
E3
100
AcDbEntity
8
1
62
256
6
ByLayer
370
13
48
1
60
0
100
AcDbLine
10
27.548049
20
9.73707
30
0
11
27.6
21
9.73707
31
0
39
0
210
0
220
0
230
1
0
LINE
5
E4
100
AcDbEntity
8
1
62
256
6
ByLayer
370
13
48
1
60
0
100
AcDbLine
10
23.152254
20
8.802665
30
0
11
23.596489
21
8.802665
31
0
39
0
210
0
220
0
230
1
0
LINE
5
E5
100
AcDbEntity
8
1
62
256
6
ByLayer
370
13
48
1
60
0
100
AcDbLine
10
23.152254
20
9.197335
30
0
11
23.596489
21
9.197335
31
0
39
0
210
0
220
0
230
1
0
LINE
5
E6
100
AcDbEntity
8
1
62
256
6
ByLayer
370
13
48
1
60
0
100
AcDbLine
10
27.544165
20
9.57839
30
0
11
27.544165
21
8.42161
31
0
39
0
210
0
220
0
230
1
0
LINE
5
E7
100
AcDbEntity
8
1
62
256
6
ByLayer
370
13
48
1
60
0
100
AcDbLine
10
23.14904
20
9.200756
30
0
11
23.152254
21
9.197335
31
0
39
0
210
0
220
0
230
1
0
LINE
5
E8
100
AcDbEntity
8
1
62
256
6
ByLayer
370
13
48
1
60
0
100
AcDbLine
10
27.021373
20
9.589076
30
0
11
27.021373
21
8.410924
31
0
39
0
210
0
220
0
230
1
0
LINE
5
E9
100
AcDbEntity
8
1
62
256
6
ByLayer
370
13
48
1
60
0
100
AcDbLine
10
23.14904
20
8.799244
30
0
11
23.152254
21
8.802665
31
0
39
0
210
0
220
0
230
1
0
LINE
5
EA
100
AcDbEntity
8
1
62
256
6
ByLayer
370
13
48
1
60
0
100
AcDbLine
10
26.411268
20
9.588056
30
0
11
26.411268
21
8.411944
31
0
39
0
210
0
220
0
230
1
0
LINE
5
EB
100
AcDbEntity
8
1
62
256
6
ByLayer
370
13
48
1
60
0
100
AcDbLine
10
22.993871
20
8.748976
30
0
11
23.106333
21
8.748976
31
0
39
0
210
0
220
0
230
1
0
LINE
5
EC
100
AcDbEntity
8
1
62
256
6
ByLayer
370
13
48
1
60
0
100
AcDbLine
10
22.993871
20
9.251024
30
0
11
23.106333
21
9.251024
31
0
39
0
210
0
220
0
230
1
0
LINE
5
ED
100
AcDbEntity
8
1
62
256
6
ByLayer
370
13
48
1
60
0
100
AcDbLine
10
22.992089
20
9.200756
30
0
11
23.14904
21
9.200756
31
0
39
0
210
0
220
0
230
1
0
LINE
5
EE
100
AcDbEntity
8
1
62
256
6
ByLayer
370
13
48
1
60
0
100
AcDbLine
10
22.992089
20
8.799244
30
0
11
23.14904
21
8.799244
31
0
39
0
210
0
220
0
230
1
0
LINE
5
EF
100
AcDbEntity
8
1
62
256
6
ByLayer
370
13
48
1
60
0
100
AcDbLine
10
19.189581
20
10.25
30
0
11
19.145758
21
10.174998
31
0
39
0
210
0
220
0
230
1
0
LINE
5
F0
100
AcDbEntity
8
1
62
256
6
ByLayer
370
13
48
1
60
0
100
AcDbLine
10
22.991978
20
9.197335
30
0
11
23.152254
21
9.197335
31
0
39
0
210
0
220
0
230
1
0
LINE
5
F1
100
AcDbEntity
8
1
62
256
6
ByLayer
370
13
48
1
60
0
100
AcDbLine
10
22.991978
20
8.802665
30
0
11
23.152254
21
8.802665
31
0
39
0
210
0
220
0
230
1
0
LINE
5
F2
100
AcDbEntity
8
1
62
256
6
ByLayer
370
18
48
1
60
0
100
AcDbLine
10
13.890738
20
7.825
30
0
11
1.6
21
7.825
31
0
39
0
210
0
220
0
230
1
0
LINE
5
F3
100
AcDbEntity
8
1
62
256
6
ByLayer
370
18
48
1
60
0
100
AcDbLine
10
13.890738
20
10.175
30
0
11
-4.888118
21
10.175
31
0
39
0
210
0
220
0
230
1
0
LINE
5
F4
100
AcDbEntity
8
1
62
256
6
ByLayer
370
18
48
1
60
0
100
AcDbLine
10
22.95928
20
7.825
30
0
11
18.890738
21
7.825
31
0
39
0
210
0
220
0
230
1
0
LINE
5
F5
100
AcDbEntity
8
1
62
256
6
ByLayer
370
18
48
1
60
0
100
AcDbLine
10
22.95928
20
10.175
30
0
11
18.890738
21
10.175
31
0
39
0
210
0
220
0
230
1
0
LINE
5
F6
100
AcDbEntity
8
1
62
256
6
ByLayer
370
18
48
1
60
0
100
AcDbLine
10
18.890738
20
7.825
30
0
11
13.890738
21
7.825
31
0
39
0
210
0
220
0
230
1
0
LINE
5
F7
100
AcDbEntity
8
1
62
256
6
ByLayer
370
18
48
1
60
0
100
AcDbLine
10
18.890738
20
10.175
30
0
11
13.890738
21
10.175
31
0
39
0
210
0
220
0
230
1
0
LINE
5
F8
100
AcDbEntity
8
1
62
256
6
ByLayer
370
18
48
1
60
0
100
AcDbLine
10
0
20
-10
30
0
11
0
21
6.225
31
0
39
0
210
0
220
0
230
1
0
LINE
5
F9
100
AcDbEntity
8
1
62
256
6
ByLayer
370
18
48
1
60
0
100
AcDbLine
10
23.015611
20
8.008431
30
0
11
22.95928
21
7.825
31
0
39
0
210
0
220
0
230
1
0
LINE
5
FA
100
AcDbEntity
8
1
62
256
6
ByLayer
370
18
48
1
60
0
100
AcDbLine
10
23.015611
20
8.008431
30
0
11
23.015611
21
8.478186
31
0
39
0
210
0
220
0
230
1
0
LINE
5
FB
100
AcDbEntity
8
1
62
256
6
ByLayer
370
18
48
1
60
0
100
AcDbLine
10
22.95928
20
10.175
30
0
11
23.015611
21
9.991569
31
0
39
0
210
0
220
0
230
1
0
LINE
5
FC
100
AcDbEntity
8
1
62
256
6
ByLayer
370
18
48
1
60
0
100
AcDbLine
10
-4.888118
20
10.175
30
0
11
-5.682242
21
10.175
31
0
39
0
210
0
220
0
230
1
0
LINE
5
FD
100
AcDbEntity
8
1
62
256
6
ByLayer
370
18
48
1
60
0
100
AcDbLine
10
-4.888118
20
-10
30
0
11
-4.888118
21
10.175
31
0
39
0
210
0
220
0
230
1
0
LINE
5
FE
100
AcDbEntity
8
1
62
256
6
ByLayer
370
18
48
1
60
0
100
AcDbLine
10
-69
20
6.925
30
0
11
-69
21
-7
31
0
39
0
210
0
220
0
230
1
0
LINE
5
FF
100
AcDbEntity
8
1
62
256
6
ByLayer
370
18
48
1
60
0
100
AcDbLine
10
-5.682242
20
10.175
30
0
11
-6.368945
21
10.175
31
0
39
0
210
0
220
0
230
1
0
LINE
5
100
100
AcDbEntity
8
1
62
256
6
ByLayer
370
18
48
1
60
0
100
AcDbLine
10
-66
20
9.925
30
0
11
-7.227723
21
9.925
31
0
39
0
210
0
220
0
230
1
0
LINE
5
101
100
AcDbEntity
8
1
62
256
6
ByLayer
370
18
48
1
60
0
100
AcDbLine
10
0
20
-10
30
0
11
1
21
-10
31
0
39
0
210
0
220
0
230
1
0
LINE
5
102
100
AcDbEntity
8
1
62
256
6
ByLayer
370
18
48
1
60
0
100
AcDbLine
10
-5.682242
20
-10
30
0
11
-4.888118
21
-10
31
0
39
0
210
0
220
0
230
1
0
LINE
5
103
100
AcDbEntity
8
1
62
256
6
ByLayer
370
18
48
1
60
0
100
AcDbLine
10
-7.227723
20
-10
30
0
11
-5.682242
21
-10
31
0
39
0
210
0
220
0
230
1
0
LINE
5
104
100
AcDbEntity
8
1
62
256
6
ByLayer
370
18
48
1
60
0
100
AcDbLine
10
0
20
-10
30
0
11
-4.888118
21
-10
31
0
39
0
210
0
220
0
230
1
0
LINE
5
105
100
AcDbEntity
8
1
62
256
6
ByLayer
370
18
48
1
60
0
100
AcDbLine
10
-66
20
-10
30
0
11
-7.227723
21
-10
31
0
39
0
210
0
220
0
230
1
0
LINE
5
106
100
AcDbEntity
8
1
62
256
6
ByLayer
370
18
48
1
60
0
100
AcDbLine
10
12.964427
20
-1.982485
30
0
11
12.964427
21
6.225
31
0
39
0
210
0
220
0
230
1
0
LINE
5
107
100
AcDbEntity
8
1
62
256
6
ByLayer
370
18
48
1
60
0
100
AcDbLine
10
23.015611
20
9.521814
30
0
11
23.015611
21
9.991569
31
0
39
0
210
0
220
0
230
1
0
LINE
5
108
100
AcDbEntity
8
1
62
256
6
ByLayer
370
18
48
1
60
0
100
AcDbLine
10
-66
20
-10
30
0
11
-69
21
-7
31
0
39
0
210
0
220
0
230
1
0
LINE
5
109
100
AcDbEntity
8
1
62
256
6
ByLayer
370
18
48
1
60
0
100
AcDbLine
10
-66
20
9.925
30
0
11
-69
21
6.925
31
0
39
0
210
0
220
0
230
1
0
LINE
5
10A
100
AcDbEntity
8
1
62
256
6
ByLayer
370
18
48
1
60
0
100
AcDbLine
10
12.964427
20
-1.982485
30
0
11
1
21
-10
31
0
39
0
210
0
220
0
230
1
0
LINE
5
10B
100
AcDbEntity
8
1
62
256
6
ByLayer
370
18
48
1
60
0
100
AcDbLine
10
27.600117
20
9.764766
30
0
11
27.604691
21
10.305556
31
0
39
0
210
0
220
0
230
1
0
LINE
5
10C
100
AcDbEntity
8
1
62
256
6
ByLayer
370
18
48
1
60
0
100
AcDbLine
10
27.6
20
8.26293
30
0
11
27.6
21
9.73707
31
0
39
0
210
0
220
0
230
1
0
LINE
5
10D
100
AcDbEntity
8
1
62
256
6
ByLayer
370
18
48
1
60
0
100
AcDbLine
10
24.29752
20
10.307909
30
0
11
24.24436
21
10.277217
31
0
39
0
210
0
220
0
230
1
0
LINE
5
10E
100
AcDbEntity
8
1
62
256
6
ByLayer
370
18
48
1
60
0
100
AcDbLine
10
17.8
20
7.75
30
0
11
18.265685
21
7.75
31
0
39
0
210
0
220
0
230
1
0
LINE
5
10F
100
AcDbEntity
8
1
62
256
6
ByLayer
370
18
48
1
60
0
100
AcDbLine
10
19.189581
20
10.25
30
0
11
18.265685
21
10.25
31
0
39
0
210
0
220
0
230
1
0
LINE
5
110
100
AcDbEntity
8
1
62
256
6
ByLayer
370
18
48
1
60
0
100
AcDbLine
10
23.263912
20
7.75
30
0
11
23.987574
21
7.75
31
0
39
0
210
0
220
0
230
1
0
LINE
5
111
100
AcDbEntity
8
1
62
256
6
ByLayer
370
18
48
1
60
0
100
AcDbLine
10
18.265685
20
7.75
30
0
11
19.189581
21
7.75
31
0
39
0
210
0
220
0
230
1
0
LINE
5
112
100
AcDbEntity
8
1
62
256
6
ByLayer
370
18
48
1
60
0
100
AcDbLine
10
24.99812
20
10.3662
30
0
11
24.915472
21
10.366214
31
0
39
0
210
0
220
0
230
1
0
LINE
5
113
100
AcDbEntity
8
1
62
256
6
ByLayer
370
18
48
1
60
0
100
AcDbLine
10
24.395343
20
7.665009
30
0
11
24.737538
21
7.641081
31
0
39
0
210
0
220
0
230
1
0
LINE
5
114
100
AcDbEntity
8
1
62
256
6
ByLayer
370
18
48
1
60
0
100
AcDbLine
10
19.566112
20
10.25
30
0
11
19.247775
21
10.25
31
0
39
0
210
0
220
0
230
1
0
LINE
5
115
100
AcDbEntity
8
1
62
256
6
ByLayer
370
18
48
1
60
0
100
AcDbLine
10
27.135516
20
7.507825
30
0
11
27.395632
21
7.491796
31
0
39
0
210
0
220
0
230
1
0
LINE
5
116
100
AcDbEntity
8
1
62
256
6
ByLayer
370
18
48
1
60
0
100
AcDbLine
10
19.566112
20
7.75
30
0
11
22.98199
21
7.75
31
0
39
0
210
0
220
0
230
1
0
LINE
5
117
100
AcDbEntity
8
1
62
256
6
ByLayer
370
18
48
1
60
0
100
AcDbLine
10
23.987574
20
10.25
30
0
11
23.263912
21
10.25
31
0
39
0
210
0
220
0
230
1
0
LINE
5
118
100
AcDbEntity
8
1
62
256
6
ByLayer
370
18
48
1
60
0
100
AcDbLine
10
27.06476
20
10.487072
30
0
11
26.706077
21
10.457412
31
0
39
0
210
0
220
0
230
1
0
LINE
5
119
100
AcDbEntity
8
1
62
256
6
ByLayer
370
18
48
1
60
0
100
AcDbLine
10
22.98199
20
10.25
30
0
11
19.566112
21
10.25
31
0
39
0
210
0
220
0
230
1
0
LINE
5
11A
100
AcDbEntity
8
1
62
256
6
ByLayer
370
18
48
1
60
0
100
AcDbLine
10
24.153398
20
7.75
30
0
11
24.055978
21
7.75
31
0
39
0
210
0
220
0
230
1
0
LINE
5
11B
100
AcDbEntity
8
1
62
256
6
ByLayer
370
18
48
1
60
0
100
AcDbLine
10
19.247775
20
7.75
30
0
11
19.566112
21
7.75
31
0
39
0
210
0
220
0
230
1
0
LINE
5
11C
100
AcDbEntity
8
1
62
256
6
ByLayer
370
18
48
1
60
0
100
AcDbLine
10
24.055978
20
10.25
30
0
11
23.987574
21
10.25
31
0
39
0
210
0
220
0
230
1
0
LINE
5
11D
100
AcDbEntity
8
1
62
256
6
ByLayer
370
18
48
1
60
0
100
AcDbLine
10
27.395632
20
10.508204
30
0
11
27.135516
21
10.492175
31
0
39
0
210
0
220
0
230
1
0
LINE
5
11E
100
AcDbEntity
8
1
62
256
6
ByLayer
370
18
48
1
60
0
100
AcDbLine
10
26.058781
20
7.590215
30
0
11
26.358781
21
7.569133
31
0
39
0
210
0
220
0
230
1
0
LINE
5
11F
100
AcDbEntity
8
1
62
256
6
ByLayer
370
18
48
1
60
0
100
AcDbLine
10
24.254705
20
7.722882
30
0
11
24.309449
21
7.691276
31
0
39
0
210
0
220
0
230
1
0
LINE
5
120
100
AcDbEntity
8
1
62
256
6
ByLayer
370
18
48
1
60
0
100
AcDbLine
10
23.987574
20
7.75
30
0
11
24.055978
21
7.75
31
0
39
0
210
0
220
0
230
1
0
LINE
5
121
100
AcDbEntity
8
1
62
256
6
ByLayer
370
18
48
1
60
0
100
AcDbLine
10
26.706077
20
7.542588
30
0
11
27.06476
21
7.512928
31
0
39
0
210
0
220
0
230
1
0
LINE
5
122
100
AcDbEntity
8
1
62
256
6
ByLayer
370
18
48
1
60
0
100
AcDbLine
10
24.915472
20
7.633786
30
0
11
24.99812
21
7.6338
31
0
39
0
210
0
220
0
230
1
0
LINE
5
123
100
AcDbEntity
8
1
62
256
6
ByLayer
370
18
48
1
60
0
100
AcDbLine
10
23.172358
20
10.25
30
0
11
22.98199
21
10.25
31
0
39
0
210
0
220
0
230
1
0
LINE
5
124
100
AcDbEntity
8
1
62
256
6
ByLayer
370
18
48
1
60
0
100
AcDbLine
10
19.189581
20
7.75
30
0
11
19.235194
21
7.75
31
0
39
0
210
0
220
0
230
1
0
LINE
5
125
100
AcDbEntity
8
1
62
256
6
ByLayer
370
18
48
1
60
0
100
AcDbLine
10
26.358781
20
10.430867
30
0
11
26.058781
21
10.409785
31
0
39
0
210
0
220
0
230
1
0
LINE
5
126
100
AcDbEntity
8
1
62
256
6
ByLayer
370
18
48
1
60
0
100
AcDbLine
10
24.737538
20
10.358919
30
0
11
24.38336
21
10.334153
31
0
39
0
210
0
220
0
230
1
0
LINE
5
127
100
AcDbEntity
8
1
62
256
6
ByLayer
370
18
48
1
60
0
100
AcDbLine
10
23.263912
20
10.25
30
0
11
23.172358
21
10.25
31
0
39
0
210
0
220
0
230
1
0
LINE
5
128
100
AcDbEntity
8
1
62
256
6
ByLayer
370
18
48
1
60
0
100
AcDbLine
10
23.172358
20
7.75
30
0
11
23.263912
21
7.75
31
0
39
0
210
0
220
0
230
1
0
LINE
5
129
100
AcDbEntity
8
1
62
256
6
ByLayer
370
18
48
1
60
0
100
AcDbLine
10
19.235194
20
10.25
30
0
11
19.189581
21
10.25
31
0
39
0
210
0
220
0
230
1
0
LINE
5
12A
100
AcDbEntity
8
1
62
256
6
ByLayer
370
18
48
1
60
0
100
AcDbLine
10
27.604691
20
7.694444
30
0
11
27.600117
21
8.235234
31
0
39
0
210
0
220
0
230
1
0
LINE
5
12B
100
AcDbEntity
8
1
62
256
6
ByLayer
370
18
48
1
60
0
100
AcDbLine
10
24.055978
20
10.25
30
0
11
24.142652
21
10.25
31
0
39
0
210
0
220
0
230
1
0
LINE
5
12C
100
AcDbEntity
8
1
62
256
6
ByLayer
370
18
48
1
60
0
100
AcDbLine
10
22.98199
20
7.75
30
0
11
23.172358
21
7.75
31
0
39
0
210
0
220
0
230
1
0
LINE
5
12D
100
AcDbEntity
8
1
62
256
6
ByLayer
370
18
48
1
60
0
100
AcDbLine
10
18.265685
20
10.25
30
0
11
17.8
21
10.25
31
0
39
0
210
0
220
0
230
1
0
LINE
5
12E
100
AcDbEntity
8
SK2
62
256
6
ByLayer
370
13
48
1
60
0
100
AcDbLine
10
-78.60005
20
10
30
0
11
-78.60005
21
-10
31
0
39
0
210
0
220
0
230
1
0
LINE
5
130
100
AcDbEntity
8
SK2
62
256
6
ByLayer
370
13
48
1
60
0
100
AcDbLine
10
-2
20
-10
30
0
11
-80.60005
21
-10
31
0
39
0
210
0
220
0
230
1
0
LINE
5
131
100
AcDbEntity
8
SK2
62
256
6
ByLayer
370
13
48
1
60
0
100
AcDbLine
10
-2
20
10
30
0
11
-80.60005
21
10
31
0
39
0
210
0
220
0
230
1
0
LINE
5
132
100
AcDbEntity
8
SK2
62
256
6
ByLayer
370
18
48
1
60
0
100
AcDbLine
10
-78.60005
20
-10
30
0
11
-79.018047
21
-6.825002
31
0
39
0
210
0
220
0
230
1
0
LINE
5
133
100
AcDbEntity
8
SK2
62
256
6
ByLayer
370
18
48
1
60
0
100
AcDbLine
10
-78.60005
20
-10
30
0
11
-78.182053
21
-6.824998
31
0
39
0
210
0
220
0
230
1
0
LINE
5
134
100
AcDbEntity
8
SK2
62
256
6
ByLayer
370
18
48
1
60
0
100
AcDbLine
10
-79.018047
20
-6.825002
30
0
11
-78.182053
21
-6.824998
31
0
39
0
210
0
220
0
230
1
0
LINE
5
135
100
AcDbEntity
8
SK2
62
256
6
ByLayer
370
18
48
1
60
0
100
AcDbLine
10
-78.60005
20
10
30
0
11
-78.182053
21
6.825002
31
0
39
0
210
0
220
0
230
1
0
LINE
5
136
100
AcDbEntity
8
SK2
62
256
6
ByLayer
370
18
48
1
60
0
100
AcDbLine
10
-78.60005
20
10
30
0
11
-79.018047
21
6.824998
31
0
39
0
210
0
220
0
230
1
0
LINE
5
137
100
AcDbEntity
8
SK2
62
256
6
ByLayer
370
18
48
1
60
0
100
AcDbLine
10
-78.182053
20
6.825002
30
0
11
-79.018047
21
6.824998
31
0
39
0
210
0
220
0
230
1
0
MTEXT
5
225
100
AcDbEntity
8
SK6
62
256
6
ByLayer
370
18
48
1
60
0
100
AcDbMText
10
-52.325025
20
-50.62074
30
0
210
0
220
0
230
1
1
\W0.7871;QS-QD-RFG26C2020D
40
3.5
41
0
44
1.084337
50
0
71
7
72
5
7
iso_b_vert
0
MTEXT
5
229
100
AcDbEntity
8
SK2
62
256
6
ByLayer
370
18
48
1
60
0
100
AcDbMText
10
-79.47505
20
-1.169737
30
0
210
0
220
0
230
1
1
\W0.6740;20
40
3.5
41
0
44
1.084337
50
89.9999999999999
71
7
72
5
7
iso_b_vert
0
DIMENSION
5
238
100
AcDbEntity
8
2
62
256
6
ByLayer
370
13
48
1
60
0
100
AcDbDimension
2
DimnDraft3D1
10
52.7
20
10.5
30
0
11
52.7
21
-3.857895
31
0
70
32
71
5
72
1
41
1
210
0
220
0
230
1
3
Standard
100
AcDbAlignedDimension
13
3.6
23
-10
33
0
14
29.6
24
10.5
34
0
50
90
100
AcDbRotatedDimension
1001
ACAD
1000
DSTYLE
1002
{
1070
    74
1070
     0
1070
   279
1070
     0
1070
   172
1070
     1
1070
   173
1070
     1
1070
   340
1005
226
1070
   271
1070
     1
1070
    77
1070
     1
1070
    73
1070
     0
1070
   171
1070
     3
1070
   274
1070
     4
1070
   177
1070
     2
1070
   176
1070
     2
1070
   178
1070
     7
1070
    78
1070
     8
1070
    41
1041
3.175
1070
   147
1041
1.75
1070
    42
1041
2.0
1070
    44
1041
2.0
1070
   140
1041
3.5
1070
   343
1005
239
1070
   344
1005
239
1002
}
0
DIMENSION
5
24D
100
AcDbEntity
8
SK2
62
256
6
ByLayer
370
13
48
1
60
0
100
AcDbDimension
2
DimnDraft3D2
10
-66
20
-23.10005
30
0
11
-68.259868
21
-23.10005
31
0
70
32
71
5
72
1
41
1
210
0
220
0
230
1
3
Standard
100
AcDbAlignedDimension
13
-69
23
-12
33
0
14
-66
24
-12
34
0
50
0
100
AcDbRotatedDimension
1001
ACAD
1000
DSTYLE
1002
{
1070
   279
1070
     0
1070
   172
1070
     1
1070
   173
1070
     1
1070
   340
1005
226
1070
    77
1070
     1
1070
    73
1070
     0
1070
   171
1070
     3
1070
   274
1070
     4
1070
   177
1070
     2
1070
   176
1070
     2
1070
   178
1070
     7
1070
    78
1070
     8
1070
    41
1041
3.175
1070
   147
1041
1.75
1070
    42
1041
2.0
1070
    44
1041
2.0
1070
   140
1041
3.5
1070
   343
1005
239
1070
   344
1005
239
1002
}
0
DIMENSION
5
25B
100
AcDbEntity
8
SK2
62
256
6
ByLayer
370
13
48
1
60
0
100
AcDbDimension
2
DimnDraft3D3
10
27.6
20
33.108569
30
0
11
-24.807895
21
33.108569
31
0
70
32
71
5
72
1
41
1
210
0
220
0
230
1
3
Standard
100
AcDbAlignedDimension
13
-69
23
-8
33
0
14
27.6
24
12.5
34
0
50
0
100
AcDbRotatedDimension
1001
ACAD
1000
DSTYLE
1002
{
1070
   279
1070
     0
1070
   172
1070
     1
1070
   173
1070
     1
1070
   340
1005
226
1070
   271
1070
     1
1070
    77
1070
     1
1070
    73
1070
     0
1070
   171
1070
     3
1070
   274
1070
     4
1070
   177
1070
     2
1070
   176
1070
     2
1070
   178
1070
     7
1070
    78
1070
     8
1070
    41
1041
3.175
1070
   147
1041
1.75
1070
    42
1041
2.0
1070
    44
1041
2.0
1070
   140
1041
3.5
1070
   343
1005
239
1070
   344
1005
239
1002
}
0
DIMENSION
5
269
100
AcDbEntity
8
2
62
256
6
ByLayer
370
13
48
1
60
0
100
AcDbDimension
2
DimnDraft3D4
10
27.6
20
27.108569
30
0
11
6.692105
21
27.108569
31
0
70
32
71
5
72
1
41
1
210
0
220
0
230
1
3
Standard
100
AcDbAlignedDimension
13
-6
23
12
33
0
14
27.6
24
12.5
34
0
50
0
100
AcDbRotatedDimension
1001
ACAD
1000
DSTYLE
1002
{
1070
   279
1070
     0
1070
   172
1070
     1
1070
   173
1070
     1
1070
   340
1005
226
1070
   271
1070
     1
1070
    77
1070
     1
1070
    73
1070
     0
1070
   171
1070
     3
1070
   274
1070
     4
1070
   177
1070
     2
1070
   176
1070
     2
1070
   178
1070
     7
1070
    78
1070
     8
1070
    41
1041
3.175
1070
   147
1041
1.75
1070
    42
1041
2.0
1070
    44
1041
2.0
1070
   140
1041
3.5
1070
   343
1005
239
1070
   344
1005
239
1002
}
0
DIMENSION
5
277
100
AcDbEntity
8
2
62
256
6
ByLayer
370
13
48
1
60
0
100
AcDbDimension
2
DimnDraft3D5
10
1.6
20
-23.10005
30
0
11
12.509211
21
-23.10005
31
0
70
32
71
5
72
1
41
1
210
0
220
0
230
1
3
Standard
100
AcDbAlignedDimension
13
27.6
23
8.5
33
0
14
1.6
24
-12
34
0
50
0
100
AcDbRotatedDimension
1001
ACAD
1000
DSTYLE
1002
{
1070
   279
1070
     0
1070
   172
1070
     1
1070
   173
1070
     1
1070
   340
1005
226
1070
   271
1070
     1
1070
    77
1070
     1
1070
    73
1070
     0
1070
   171
1070
     3
1070
   274
1070
     4
1070
   177
1070
     2
1070
   176
1070
     2
1070
   178
1070
     7
1070
    78
1070
     8
1070
    41
1041
3.175
1070
   147
1041
1.75
1070
    42
1041
2.0
1070
    44
1041
2.0
1070
   140
1041
3.5
1070
   343
1005
239
1070
   344
1005
239
1002
}
0
DIMENSION
5
285
100
AcDbEntity
8
2
62
256
6
ByLayer
370
13
48
1
60
0
100
AcDbDimension
2
DimnDraft3D6
10
45.7
20
7.5
30
0
11
45.7
21
-4.320789
31
0
70
32
71
5
72
1
41
1
210
0
220
0
230
1
3
Standard
100
AcDbAlignedDimension
13
29.6
23
10.5
33
0
14
29.6
24
7.5
34
0
50
90
100
AcDbRotatedDimension
1001
ACAD
1000
DSTYLE
1002
{
1070
    74
1070
     0
1070
   279
1070
     0
1070
   172
1070
     1
1070
   173
1070
     1
1070
   340
1005
226
1070
   271
1070
     1
1070
    77
1070
     1
1070
    73
1070
     0
1070
   171
1070
     3
1070
   274
1070
     4
1070
   177
1070
     2
1070
   176
1070
     2
1070
   178
1070
     7
1070
    78
1070
     8
1070
    41
1041
3.175
1070
   147
1041
1.75
1070
    42
1041
2.0
1070
    44
1041
2.0
1070
   140
1041
3.5
1070
   343
1005
239
1070
   344
1005
239
1002
}
0
ENDSEC
0
SECTION
2
OBJECTS
0
DICTIONARY
5
2ef
330
0
100
AcDbDictionary
280
0
281
1
3
ACAD_GROUP
350
2f0
3
ACAD_MLINESTYLE
350
2f1
0
DICTIONARY
5
2f0
330
0
100
AcDbDictionary
280
0
281
1
0
DICTIONARY
5
2f1
330
0
100
AcDbDictionary
280
0
281
1
3
Standard
350
18
0
MLINESTYLE
5
18
330
2f1
100
AcDbMlineStyle
2
Standard
70
0
3

62
256
51
90
52
90
71
2
49
-0.5
62
256
6
ByLayer
49
0.5
62
256
6
ByLayer
0
RASTERVARIABLES
5
2de
330

100
AcDbRasterVariables
90
0
70
1
71
1
72
1
0
ENDSEC
0
EOF
