0
SECTION
2
HEADER
9
$ACADVER
1
AC1015
9
$DWGCODEPAGE
3
ANSI_1252
9
$HANDSEED
5
2e4
9
$ANGBASE
50
0
9
$ANGDIR
70
0
9
$ATTMODE
70
1
9
$AUNITS
70
0
9
$AUPREC
70
0
9
$CECOLOR
62
256
9
$CELTSCALE
40
1
9
$CELTYPE
6
ByLayer
9
$CELWEIGHT
370
18
9
$CLAYER
8
0
9
$CMLJUST
70
0
9
$CMLSCALE
40
1
9
$CMLSTYLE
2
Standard
9
$DIMSTYLE
2
Standard
9
$TEXTSIZE
40
0.2
9
$TEXTSTYLE
7
Standard
9
$LUNITS
70
2
9
$LUPREC
70
4
9
$EXTNAMES
290
1
9
$INSUNITS
70
4
9
$LTSCALE
40
1
9
$LWDISPLAY
290
1
9
$PDMODE
70
0
9
$PDSIZE
40
0
9
$PLINEGEN
70
0
0
ENDSEC
0
SECTION
2
CLASSES
0
CLASS
1
RASTERVARIABLES
2
AcDbRasterVariables
3
ISM
90
0
280
0
281
0
0
ENDSEC
0
SECTION
2
TABLES
0
TABLE
2
VPORT
5
2da
100
AcDbSymbolTable
0
VPORT
5
1
100
AcDbSymbolTableRecord
100
AcDbViewportTableRecord
2
*Active
70
0
10
0
20
0
11
1
21
1
12
-1
22
1
13
0
23
0
14
0.5
24
0.5
15
10
25
10
16
0
26
0
36
1
17
0
27
0
37
0
0
ENDTAB
0
TABLE
2
LTYPE
5
2db
100
AcDbSymbolTable
0
LTYPE
5
14
100
AcDbSymbolTableRecord
100
AcDbLinetypeTableRecord
70
0
2
ByBlock
3

72
65
73
0
40
0
0
LTYPE
5
15
100
AcDbSymbolTableRecord
100
AcDbLinetypeTableRecord
70
0
2
ByLayer
3

72
65
73
0
40
0
0
LTYPE
5
16
100
AcDbSymbolTableRecord
100
AcDbLinetypeTableRecord
70
0
2
CONTINUOUS
3
Solid line
72
65
73
0
40
0
0
LTYPE
5
6A
100
AcDbSymbolTableRecord
100
AcDbLinetypeTableRecord
70
0
2
CENTER
3
____ _ ____ _ ____ _ ____
72
65
73
4
40
47.5
49
22
74
0
49
-8.5
74
0
49
8.5
74
0
49
-8.5
74
0
0
LTYPE
5
6B
100
AcDbSymbolTableRecord
100
AcDbLinetypeTableRecord
70
0
2
DASHED
3
__ __ __ __ __ __ __ __ __
72
65
73
2
40
25.72
49
12.86
74
0
49
-12.86
74
0
0
ENDTAB
0
TABLE
2
LAYER
5
2dc
100
AcDbSymbolTable
0
LAYER
5
10
100
AcDbSymbolTableRecord
100
AcDbLayerTableRecord
2
0
70
0
62
7
6
CONTINUOUS
290
1
370
-3
390
0
0
LAYER
5
6D
100
AcDbSymbolTableRecord
100
AcDbLayerTableRecord
2
81
70
0
62
-3
6
CONTINUOUS
290
1
370
-3
390
0
0
LAYER
5
6F
100
AcDbSymbolTableRecord
100
AcDbLayerTableRecord
2
80
70
0
62
-6
6
CONTINUOUS
290
1
370
-3
390
0
0
LAYER
5
73
100
AcDbSymbolTableRecord
100
AcDbLayerTableRecord
2
1
70
0
62
4
6
CONTINUOUS
290
1
370
-3
390
0
0
LAYER
5
214
100
AcDbSymbolTableRecord
100
AcDbLayerTableRecord
2
2
70
0
62
7
6
CONTINUOUS
290
1
370
-3
390
0
0
LAYER
5
2c7
100
AcDbSymbolTableRecord
100
AcDbLayerTableRecord
2
SK1
70
0
62
4
6
CONTINUOUS
290
1
370
-3
390
0
0
LAYER
5
2c8
100
AcDbSymbolTableRecord
100
AcDbLayerTableRecord
2
SK2
70
0
62
7
6
CONTINUOUS
290
1
370
-3
390
0
0
LAYER
5
2c9
100
AcDbSymbolTableRecord
100
AcDbLayerTableRecord
2
SK6
70
0
62
5
6
CONTINUOUS
290
1
370
-3
390
0
0
ENDTAB
0
TABLE
2
STYLE
5
2dd
100
AcDbSymbolTable
0
STYLE
5
11
100
AcDbSymbolTableRecord
100
AcDbTextStyleTableRecord
2
Standard
3
txt
70
0
71
0
40
0
41
1
42
0
50
0
0
STYLE
5
20E
100
AcDbSymbolTableRecord
100
AcDbTextStyleTableRecord
2
iso_b_vert
3
simplex.shx
70
0
71
0
40
0
41
1
42
0
50
0
0
STYLE
5
20F
100
AcDbSymbolTableRecord
100
AcDbTextStyleTableRecord
2
DWGDirectTextStyle
3
simplex
70
0
71
0
40
0
41
1
42
0
50
0
0
ENDTAB
0
TABLE
2
DIMSTYLE
5
2de
100
AcDbSymbolTable
100
AcDbDimStyleTable
0
DIMSTYLE
105
27
100
AcDbSymbolTableRecord
100
AcDbDimStyleTableRecord
2
Standard
70
0
3
<>
41
0.18
42
0.0625
44
0.18
140
0.18
147
0.09
73
0
74
0
77
1
271
2
275
0
278
52
280
0
340
11
0
ENDTAB
0
TABLE
2
VIEW
5
2df
100
AcDbSymbolTable
0
ENDTAB
0
TABLE
2
UCS
5
2e0
100
AcDbSymbolTable
0
ENDTAB
0
TABLE
2
APPID
5
2e1
100
AcDbSymbolTable
0
APPID
5
12
100
AcDbSymbolTableRecord
100
AcDbRegAppTableRecord
2
ACAD
70
0
0
ENDTAB
0
TABLE
2
BLOCK_RECORD
5
2e2
100
AcDbSymbolTable
0
BLOCK_RECORD
5
1F
100
AcDbSymbolTableRecord
100
AcDbBlockTableRecord
2
*Model_Space
340
0
70
0
0
BLOCK_RECORD
5
1B
100
AcDbSymbolTableRecord
100
AcDbBlockTableRecord
2
*Paper_Space
340
0
70
0
0
BLOCK_RECORD
5
23
100
AcDbSymbolTableRecord
100
AcDbBlockTableRecord
2
*Paper_Space0
340
0
70
0
0
BLOCK_RECORD
5
212
100
AcDbSymbolTableRecord
100
AcDbBlockTableRecord
2
DimnDraft3D1
340
0
70
0
0
BLOCK_RECORD
5
221
100
AcDbSymbolTableRecord
100
AcDbBlockTableRecord
2
_CLOSED
340
0
70
0
0
BLOCK_RECORD
5
228
100
AcDbSymbolTableRecord
100
AcDbBlockTableRecord
2
DimnDraft3D2
340
0
70
0
0
BLOCK_RECORD
5
236
100
AcDbSymbolTableRecord
100
AcDbBlockTableRecord
2
DimnDraft3D3
340
0
70
0
0
BLOCK_RECORD
5
244
100
AcDbSymbolTableRecord
100
AcDbBlockTableRecord
2
DimnDraft3D4
340
0
70
0
0
BLOCK_RECORD
5
252
100
AcDbSymbolTableRecord
100
AcDbBlockTableRecord
2
DimnDraft3D5
340
0
70
0
0
BLOCK_RECORD
5
260
100
AcDbSymbolTableRecord
100
AcDbBlockTableRecord
2
DimnDraft3D6
340
0
70
0
0
ENDTAB
0
ENDSEC
0
SECTION
2
BLOCKS
0
BLOCK
5
20
100
AcDbEntity
8
0
100
AcDbBlockBegin
2
*Model_Space
70
0
10
0
20
0
30
0
3
*Model_Space
0
ENDBLK
5
21
100
AcDbEntity
8
0
100
AcDbBlockEnd
0
BLOCK
5
1C
100
AcDbEntity
8
0
100
AcDbBlockBegin
2
*Paper_Space
70
0
10
0
20
0
30
0
3
*Paper_Space
0
ENDBLK
5
1D
100
AcDbEntity
8
0
100
AcDbBlockEnd
0
BLOCK
5
24
100
AcDbEntity
8
0
100
AcDbBlockBegin
2
*Paper_Space0
70
0
10
0
20
0
30
0
3
*Paper_Space0
0
ENDBLK
5
25
100
AcDbEntity
8
0
100
AcDbBlockEnd
0
BLOCK
5
21E
100
AcDbEntity
8
0
100
AcDbBlockBegin
2
DimnDraft3D1
70
0
10
0
20
0
30
0
3
DimnDraft3D1
0
MTEXT
5
213
100
AcDbEntity
8
2
62
256
6
ByLayer
370
18
48
1
60
0
100
AcDbMText
10
51.825
20
-2.982895
30
0
210
0
220
0
230
1
1
\W0.7346;20.5
40
3.5
41
0
44
1.084337
50
90
71
7
72
5
7
iso_b_vert
0
LINE
5
215
100
AcDbEntity
8
2
62
256
6
ByLayer
370
13
48
1
60
0
100
AcDbLine
10
3.6
20
-10
30
0
11
54.7
21
-10
31
0
39
0
210
0
220
0
230
1
0
LINE
5
216
100
AcDbEntity
8
2
62
256
6
ByLayer
370
13
48
1
60
0
100
AcDbLine
10
29.6
20
10.5
30
0
11
54.7
21
10.5
31
0
39
0
210
0
220
0
230
1
0
LINE
5
217
100
AcDbEntity
8
2
62
256
6
ByLayer
370
13
48
1
60
0
100
AcDbLine
10
52.7
20
-10
30
0
11
52.7
21
10.5
31
0
39
0
210
0
220
0
230
1
0
LINE
5
218
100
AcDbEntity
8
2
62
256
6
ByLayer
370
13
48
1
60
0
100
AcDbLine
10
52.7
20
-10
30
0
11
52.282003
21
-6.825002
31
0
39
0
210
0
220
0
230
1
0
LINE
5
219
100
AcDbEntity
8
2
62
256
6
ByLayer
370
13
48
1
60
0
100
AcDbLine
10
52.7
20
-10
30
0
11
53.117997
21
-6.824998
31
0
39
0
210
0
220
0
230
1
0
LINE
5
21A
100
AcDbEntity
8
2
62
256
6
ByLayer
370
13
48
1
60
0
100
AcDbLine
10
52.282003
20
-6.825002
30
0
11
53.117997
21
-6.824998
31
0
39
0
210
0
220
0
230
1
0
LINE
5
21B
100
AcDbEntity
8
2
62
256
6
ByLayer
370
13
48
1
60
0
100
AcDbLine
10
52.7
20
10.5
30
0
11
53.117997
21
7.325002
31
0
39
0
210
0
220
0
230
1
0
LINE
5
21C
100
AcDbEntity
8
2
62
256
6
ByLayer
370
13
48
1
60
0
100
AcDbLine
10
52.7
20
10.5
30
0
11
52.282003
21
7.324998
31
0
39
0
210
0
220
0
230
1
0
LINE
5
21D
100
AcDbEntity
8
2
62
256
6
ByLayer
370
13
48
1
60
0
100
AcDbLine
10
53.117997
20
7.325002
30
0
11
52.282003
21
7.324998
31
0
39
0
210
0
220
0
230
1
0
ENDBLK
5
21F
100
AcDbEntity
8
0
100
AcDbBlockEnd
0
BLOCK
5
222
100
AcDbEntity
8
0
100
AcDbBlockBegin
2
_CLOSED
70
0
10
0
20
0
30
0
3
_CLOSED
0
LINE
5
224
100
AcDbEntity
8
0
62
256
6
ByLayer
370
-2
48
1
60
0
100
AcDbLine
10
-1
20
0.166667
30
0
11
0
21
0
31
0
39
0
210
0
220
0
230
1
0
LINE
5
225
100
AcDbEntity
8
0
62
256
6
ByLayer
370
-2
48
1
60
0
100
AcDbLine
10
0
20
0
30
0
11
-1
21
-0.166667
31
0
39
0
210
0
220
0
230
1
0
LINE
5
226
100
AcDbEntity
8
0
62
256
6
ByLayer
370
-2
48
1
60
0
100
AcDbLine
10
-1
20
0.166667
30
0
11
-1
21
-0.166667
31
0
39
0
210
0
220
0
230
1
0
LINE
5
227
100
AcDbEntity
8
0
62
256
6
ByLayer
370
-2
48
1
60
0
100
AcDbLine
10
0
20
0
30
0
11
-1
21
0
31
0
39
0
210
0
220
0
230
1
0
ENDBLK
5
223
100
AcDbEntity
8
0
100
AcDbBlockEnd
0
BLOCK
5
233
100
AcDbEntity
8
0
100
AcDbBlockBegin
2
DimnDraft3D2
70
0
10
0
20
0
30
0
3
DimnDraft3D2
0
MTEXT
5
229
100
AcDbEntity
8
SK2
62
256
6
ByLayer
370
18
48
1
60
0
100
AcDbMText
10
-67.384868
20
-22.22505
30
0
210
0
220
0
230
1
1
\W0.5404;3
40
3.5
41
0
44
1.084337
50
0
71
7
72
5
7
iso_b_vert
0
LINE
5
22A
100
AcDbEntity
8
SK2
62
256
6
ByLayer
370
13
48
1
60
0
100
AcDbLine
10
-69
20
-12
30
0
11
-69
21
-25.10005
31
0
39
0
210
0
220
0
230
1
0
LINE
5
22B
100
AcDbEntity
8
SK2
62
256
6
ByLayer
370
13
48
1
60
0
100
AcDbLine
10
-66
20
-12
30
0
11
-66
21
-25.10005
31
0
39
0
210
0
220
0
230
1
0
LINE
5
22C
100
AcDbEntity
8
SK2
62
256
6
ByLayer
370
13
48
1
60
0
100
AcDbLine
10
-77.75
20
-23.10005
30
0
11
-57.25
21
-23.10005
31
0
39
0
210
0
220
0
230
1
0
LINE
5
22D
100
AcDbEntity
8
SK2
62
256
6
ByLayer
370
13
48
1
60
0
100
AcDbLine
10
-69
20
-23.10005
30
0
11
-72.174998
21
-23.518047
31
0
39
0
210
0
220
0
230
1
0
LINE
5
22E
100
AcDbEntity
8
SK2
62
256
6
ByLayer
370
13
48
1
60
0
100
AcDbLine
10
-69
20
-23.10005
30
0
11
-72.175002
21
-22.682053
31
0
39
0
210
0
220
0
230
1
0
LINE
5
22F
100
AcDbEntity
8
SK2
62
256
6
ByLayer
370
13
48
1
60
0
100
AcDbLine
10
-72.174998
20
-23.518047
30
0
11
-72.175002
21
-22.682053
31
0
39
0
210
0
220
0
230
1
0
LINE
5
230
100
AcDbEntity
8
SK2
62
256
6
ByLayer
370
13
48
1
60
0
100
AcDbLine
10
-66
20
-23.10005
30
0
11
-62.825002
21
-22.682053
31
0
39
0
210
0
220
0
230
1
0
LINE
5
231
100
AcDbEntity
8
SK2
62
256
6
ByLayer
370
13
48
1
60
0
100
AcDbLine
10
-66
20
-23.10005
30
0
11
-62.824998
21
-23.518047
31
0
39
0
210
0
220
0
230
1
0
LINE
5
232
100
AcDbEntity
8
SK2
62
256
6
ByLayer
370
13
48
1
60
0
100
AcDbLine
10
-62.825002
20
-22.682053
30
0
11
-62.824998
21
-23.518047
31
0
39
0
210
0
220
0
230
1
0
ENDBLK
5
234
100
AcDbEntity
8
0
100
AcDbBlockEnd
0
BLOCK
5
241
100
AcDbEntity
8
0
100
AcDbBlockBegin
2
DimnDraft3D3
70
0
10
0
20
0
30
0
3
DimnDraft3D3
0
MTEXT
5
237
100
AcDbEntity
8
SK2
62
256
6
ByLayer
370
18
48
1
60
0
100
AcDbMText
10
-23.932895
20
33.975889
30
0
210
0
220
0
230
1
1
\W0.7346;96.6
40
3.5
41
0
44
1.084337
50
0
71
7
72
5
7
iso_b_vert
0
LINE
5
238
100
AcDbEntity
8
SK2
62
256
6
ByLayer
370
13
48
1
60
0
100
AcDbLine
10
-69
20
-8
30
0
11
-69
21
35.100889
31
0
39
0
210
0
220
0
230
1
0
LINE
5
239
100
AcDbEntity
8
SK2
62
256
6
ByLayer
370
13
48
1
60
0
100
AcDbLine
10
27.6
20
12.5
30
0
11
27.6
21
35.100889
31
0
39
0
210
0
220
0
230
1
0
LINE
5
23A
100
AcDbEntity
8
SK2
62
256
6
ByLayer
370
13
48
1
60
0
100
AcDbLine
10
-69
20
33.100889
30
0
11
27.6
21
33.100889
31
0
39
0
210
0
220
0
230
1
0
LINE
5
23B
100
AcDbEntity
8
SK2
62
256
6
ByLayer
370
13
48
1
60
0
100
AcDbLine
10
-69
20
33.100889
30
0
11
-65.825002
21
33.518886
31
0
39
0
210
0
220
0
230
1
0
LINE
5
23C
100
AcDbEntity
8
SK2
62
256
6
ByLayer
370
13
48
1
60
0
100
AcDbLine
10
-69
20
33.100889
30
0
11
-65.824998
21
32.682892
31
0
39
0
210
0
220
0
230
1
0
LINE
5
23D
100
AcDbEntity
8
SK2
62
256
6
ByLayer
370
13
48
1
60
0
100
AcDbLine
10
-65.825002
20
33.518886
30
0
11
-65.824998
21
32.682892
31
0
39
0
210
0
220
0
230
1
0
LINE
5
23E
100
AcDbEntity
8
SK2
62
256
6
ByLayer
370
13
48
1
60
0
100
AcDbLine
10
27.6
20
33.100889
30
0
11
24.425002
21
32.682892
31
0
39
0
210
0
220
0
230
1
0
LINE
5
23F
100
AcDbEntity
8
SK2
62
256
6
ByLayer
370
13
48
1
60
0
100
AcDbLine
10
27.6
20
33.100889
30
0
11
24.424998
21
33.518886
31
0
39
0
210
0
220
0
230
1
0
LINE
5
240
100
AcDbEntity
8
SK2
62
256
6
ByLayer
370
13
48
1
60
0
100
AcDbLine
10
24.425002
20
32.682892
30
0
11
24.424998
21
33.518886
31
0
39
0
210
0
220
0
230
1
0
ENDBLK
5
242
100
AcDbEntity
8
0
100
AcDbBlockEnd
0
BLOCK
5
24F
100
AcDbEntity
8
0
100
AcDbBlockBegin
2
DimnDraft3D4
70
0
10
0
20
0
30
0
3
DimnDraft3D4
0
MTEXT
5
245
100
AcDbEntity
8
2
62
256
6
ByLayer
370
18
48
1
60
0
100
AcDbMText
10
7.567105
20
27.975889
30
0
210
0
220
0
230
1
1
\W0.7346;33.6
40
3.5
41
0
44
1.084337
50
0
71
7
72
5
7
iso_b_vert
0
LINE
5
246
100
AcDbEntity
8
2
62
256
6
ByLayer
370
13
48
1
60
0
100
AcDbLine
10
-6
20
12
30
0
11
-6
21
29.100889
31
0
39
0
210
0
220
0
230
1
0
LINE
5
247
100
AcDbEntity
8
2
62
256
6
ByLayer
370
13
48
1
60
0
100
AcDbLine
10
27.6
20
12.5
30
0
11
27.6
21
29.100889
31
0
39
0
210
0
220
0
230
1
0
LINE
5
248
100
AcDbEntity
8
2
62
256
6
ByLayer
370
13
48
1
60
0
100
AcDbLine
10
-6
20
27.100889
30
0
11
27.6
21
27.100889
31
0
39
0
210
0
220
0
230
1
0
LINE
5
249
100
AcDbEntity
8
2
62
256
6
ByLayer
370
13
48
1
60
0
100
AcDbLine
10
-6
20
27.100889
30
0
11
-2.825002
21
27.518886
31
0
39
0
210
0
220
0
230
1
0
LINE
5
24A
100
AcDbEntity
8
2
62
256
6
ByLayer
370
13
48
1
60
0
100
AcDbLine
10
-6
20
27.100889
30
0
11
-2.824998
21
26.682892
31
0
39
0
210
0
220
0
230
1
0
LINE
5
24B
100
AcDbEntity
8
2
62
256
6
ByLayer
370
13
48
1
60
0
100
AcDbLine
10
-2.825002
20
27.518886
30
0
11
-2.824998
21
26.682892
31
0
39
0
210
0
220
0
230
1
0
LINE
5
24C
100
AcDbEntity
8
2
62
256
6
ByLayer
370
13
48
1
60
0
100
AcDbLine
10
27.6
20
27.100889
30
0
11
24.425002
21
26.682892
31
0
39
0
210
0
220
0
230
1
0
LINE
5
24D
100
AcDbEntity
8
2
62
256
6
ByLayer
370
13
48
1
60
0
100
AcDbLine
10
27.6
20
27.100889
30
0
11
24.424998
21
27.518886
31
0
39
0
210
0
220
0
230
1
0
LINE
5
24E
100
AcDbEntity
8
2
62
256
6
ByLayer
370
13
48
1
60
0
100
AcDbLine
10
24.425002
20
26.682892
30
0
11
24.424998
21
27.518886
31
0
39
0
210
0
220
0
230
1
0
ENDBLK
5
250
100
AcDbEntity
8
0
100
AcDbBlockEnd
0
BLOCK
5
25D
100
AcDbEntity
8
0
100
AcDbBlockBegin
2
DimnDraft3D5
70
0
10
0
20
0
30
0
3
DimnDraft3D5
0
MTEXT
5
253
100
AcDbEntity
8
2
62
256
6
ByLayer
370
18
48
1
60
0
100
AcDbMText
10
13.384211
20
-22.22505
30
0
210
0
220
0
230
1
1
\W0.6740;26
40
3.5
41
0
44
1.084337
50
0
71
7
72
5
7
iso_b_vert
0
LINE
5
254
100
AcDbEntity
8
2
62
256
6
ByLayer
370
13
48
1
60
0
100
AcDbLine
10
27.6
20
8.5
30
0
11
27.6
21
-25.10005
31
0
39
0
210
0
220
0
230
1
0
LINE
5
255
100
AcDbEntity
8
2
62
256
6
ByLayer
370
13
48
1
60
0
100
AcDbLine
10
1.6
20
-12
30
0
11
1.6
21
-25.10005
31
0
39
0
210
0
220
0
230
1
0
LINE
5
256
100
AcDbEntity
8
2
62
256
6
ByLayer
370
13
48
1
60
0
100
AcDbLine
10
27.6
20
-23.10005
30
0
11
1.6
21
-23.10005
31
0
39
0
210
0
220
0
230
1
0
LINE
5
257
100
AcDbEntity
8
2
62
256
6
ByLayer
370
13
48
1
60
0
100
AcDbLine
10
27.6
20
-23.10005
30
0
11
24.425002
21
-23.518047
31
0
39
0
210
0
220
0
230
1
0
LINE
5
258
100
AcDbEntity
8
2
62
256
6
ByLayer
370
13
48
1
60
0
100
AcDbLine
10
27.6
20
-23.10005
30
0
11
24.424998
21
-22.682053
31
0
39
0
210
0
220
0
230
1
0
LINE
5
259
100
AcDbEntity
8
2
62
256
6
ByLayer
370
13
48
1
60
0
100
AcDbLine
10
24.425002
20
-23.518047
30
0
11
24.424998
21
-22.682053
31
0
39
0
210
0
220
0
230
1
0
LINE
5
25A
100
AcDbEntity
8
2
62
256
6
ByLayer
370
13
48
1
60
0
100
AcDbLine
10
1.6
20
-23.10005
30
0
11
4.774998
21
-22.682053
31
0
39
0
210
0
220
0
230
1
0
LINE
5
25B
100
AcDbEntity
8
2
62
256
6
ByLayer
370
13
48
1
60
0
100
AcDbLine
10
1.6
20
-23.10005
30
0
11
4.775002
21
-23.518047
31
0
39
0
210
0
220
0
230
1
0
LINE
5
25C
100
AcDbEntity
8
2
62
256
6
ByLayer
370
13
48
1
60
0
100
AcDbLine
10
4.774998
20
-22.682053
30
0
11
4.775002
21
-23.518047
31
0
39
0
210
0
220
0
230
1
0
ENDBLK
5
25E
100
AcDbEntity
8
0
100
AcDbBlockEnd
0
BLOCK
5
26B
100
AcDbEntity
8
0
100
AcDbBlockBegin
2
DimnDraft3D6
70
0
10
0
20
0
30
0
3
DimnDraft3D6
0
MTEXT
5
261
100
AcDbEntity
8
2
62
256
6
ByLayer
370
18
48
1
60
0
100
AcDbMText
10
44.825
20
-6.98
30
0
210
0
220
0
230
1
1
\W0.7121;2.5
40
3.5
41
0
44
1.084337
50
90
71
7
72
5
7
iso_b_vert
0
LINE
5
262
100
AcDbEntity
8
2
62
256
6
ByLayer
370
13
48
1
60
0
100
AcDbLine
10
29.6
20
10.5
30
0
11
47.7
21
10.5
31
0
39
0
210
0
220
0
230
1
0
LINE
5
263
100
AcDbEntity
8
2
62
256
6
ByLayer
370
13
48
1
60
0
100
AcDbLine
10
29.6
20
8
30
0
11
47.7
21
8
31
0
39
0
210
0
220
0
230
1
0
LINE
5
264
100
AcDbEntity
8
2
62
256
6
ByLayer
370
13
48
1
60
0
100
AcDbLine
10
45.7
20
-7.855
30
0
11
45.7
21
19.25
31
0
39
0
210
0
220
0
230
1
0
LINE
5
265
100
AcDbEntity
8
2
62
256
6
ByLayer
370
13
48
1
60
0
100
AcDbLine
10
45.7
20
10.5
30
0
11
45.282003
21
13.674998
31
0
39
0
210
0
220
0
230
1
0
LINE
5
266
100
AcDbEntity
8
2
62
256
6
ByLayer
370
13
48
1
60
0
100
AcDbLine
10
45.7
20
10.5
30
0
11
46.117997
21
13.675002
31
0
39
0
210
0
220
0
230
1
0
LINE
5
267
100
AcDbEntity
8
2
62
256
6
ByLayer
370
13
48
1
60
0
100
AcDbLine
10
45.282003
20
13.674998
30
0
11
46.117997
21
13.675002
31
0
39
0
210
0
220
0
230
1
0
LINE
5
268
100
AcDbEntity
8
2
62
256
6
ByLayer
370
13
48
1
60
0
100
AcDbLine
10
45.7
20
8
30
0
11
46.117997
21
4.825002
31
0
39
0
210
0
220
0
230
1
0
LINE
5
269
100
AcDbEntity
8
2
62
256
6
ByLayer
370
13
48
1
60
0
100
AcDbLine
10
45.7
20
8
30
0
11
45.282003
21
4.824998
31
0
39
0
210
0
220
0
230
1
0
LINE
5
26A
100
AcDbEntity
8
2
62
256
6
ByLayer
370
13
48
1
60
0
100
AcDbLine
10
46.117997
20
4.825002
30
0
11
45.282003
21
4.824998
31
0
39
0
210
0
220
0
230
1
0
ENDBLK
5
26C
100
AcDbEntity
8
0
100
AcDbBlockEnd
0
ENDSEC
0
SECTION
2
ENTITIES
0
ARC
5
127
100
AcDbEntity
8
SK1
62
256
6
ByLayer
370
18
48
1
60
0
100
AcDbCircle
39
0
10
7.227723
20
11.525
30
0
40
1.59999999999644
210
0
220
0
230
-1
100
AcDbArc
50
232.832715
51
270
0
ARC
5
128
100
AcDbEntity
8
1
62
256
6
ByLayer
370
18
48
1
60
0
100
AcDbCircle
39
0
10
1.6
20
6.65
30
0
40
1.6
210
0
220
0
230
1
100
AcDbArc
50
90
51
180
0
ARC
5
129
100
AcDbEntity
8
1
62
256
6
ByLayer
370
18
48
1
60
0
100
AcDbCircle
39
0
10
1.6
20
6.65
30
0
40
1.6
210
0
220
0
230
1
100
AcDbArc
50
90
51
180
0
ARC
5
12A
100
AcDbEntity
8
1
62
256
6
ByLayer
370
18
48
1
60
0
100
AcDbCircle
39
0
10
7.227723
20
11.525
30
0
40
1.59999999999644
210
0
220
0
230
-1
100
AcDbArc
50
232.832715
51
270
0
ELLIPSE
5
12B
100
AcDbEntity
8
1
62
256
6
ByLayer
370
18
48
1
60
0
100
AcDbEllipse
10
22.382033
20
9.25
30
0
11
1.28358760011039
21
1.297243759291E-15
31
0
210
0
220
0
230
-1
40
0.46744
41
1.05457302640886
42
-1.05457302640888
0
ELLIPSE
5
12C
100
AcDbEntity
8
1
62
256
6
ByLayer
370
18
48
1
60
0
100
AcDbEllipse
10
23.041428
20
9.25
30
0
11
9.64885723403373E-17
21
0.599999999999937
31
0
210
0
220
0
230
-1
40
0.087172
41
-2.62536935320391
42
-0.516223300385886
0
ELLIPSE
5
12D
100
AcDbEntity
8
1
62
256
6
ByLayer
370
13
48
1
60
0
100
AcDbEllipse
10
26.158781
20
8.20026
30
0
11
0.01872883045826
21
0.23926811511287
31
0
210
0
220
0
230
1
40
0.005457
41
0.689493843876124
42
1.50119639836384
0
ELLIPSE
5
12E
100
AcDbEntity
8
1
62
256
6
ByLayer
370
13
48
1
60
0
100
AcDbEllipse
10
24.928622
20
8.304714
30
0
11
-0.0140720258040037
21
0.239587099172246
31
0
210
0
220
0
230
1
40
0.707947
41
-1.56290533331171
42
-0.878776813451888
0
ELLIPSE
5
12F
100
AcDbEntity
8
1
62
256
6
ByLayer
370
13
48
1
60
0
100
AcDbEllipse
10
26.158781
20
10.29974
30
0
11
0.01872883045826
21
-0.23926811511287
31
0
210
0
220
0
230
1
40
0.005457
41
-1.50119639836385
42
-0.689493843872459
0
ELLIPSE
5
130
100
AcDbEntity
8
1
62
256
6
ByLayer
370
13
48
1
60
0
100
AcDbEllipse
10
24.928622
20
10.195286
30
0
11
-0.014072025804004
21
-0.239587099172246
31
0
210
0
220
0
230
1
40
0.707947
41
0.878776813451888
42
1.56290533331169
0
ELLIPSE
5
131
100
AcDbEntity
8
1
62
256
6
ByLayer
370
13
48
1
60
0
100
AcDbEllipse
10
24.03649
20
8.491414
30
0
11
0.0157922723781558
21
-0.299835837393042
31
0
210
0
220
0
230
-1
40
0.9154
41
-2.66737195205531
42
-1.47753833585945
0
ELLIPSE
5
132
100
AcDbEntity
8
1
62
256
6
ByLayer
370
13
48
1
60
0
100
AcDbEllipse
10
24.03649
20
10.008586
30
0
11
0.0157922723818452
21
0.299835837392026
31
0
210
0
220
0
230
-1
40
0.9154
41
1.47753833584554
42
2.66737195204434
0
ELLIPSE
5
133
100
AcDbEntity
8
1
62
256
6
ByLayer
370
13
48
1
60
0
100
AcDbEllipse
10
24.825674
20
8.302415
30
0
11
0.108797387019834
21
-0.213923183824607
31
0
210
0
220
0
230
1
40
0.678268
41
1.29102409435773
42
1.85056859826456
0
ELLIPSE
5
134
100
AcDbEntity
8
1
62
256
6
ByLayer
370
13
48
1
60
0
100
AcDbEllipse
10
24.825674
20
10.197585
30
0
11
0.108797387019834
21
0.213923183824607
31
0
210
0
220
0
230
1
40
0.678268
41
-1.85056859826458
42
-1.29102409435776
0
ELLIPSE
5
135
100
AcDbEntity
8
1
62
256
6
ByLayer
370
13
48
1
60
0
100
AcDbEllipse
10
24.615335
20
8.488477
30
0
11
0.218929773670482
21
0.120705236839962
31
0
210
0
220
0
230
1
40
0.451067
41
0.609381009277194
42
1.29921470224115
0
ELLIPSE
5
136
100
AcDbEntity
8
1
62
256
6
ByLayer
370
13
48
1
60
0
100
AcDbEllipse
10
24.615335
20
10.011523
30
0
11
-0.218929773670479
21
0.120705236839969
31
0
210
0
220
0
230
1
40
0.451067
41
1.84237795134864
42
2.5322116443126
0
ELLIPSE
5
137
100
AcDbEntity
8
1
62
256
6
ByLayer
370
13
48
1
60
0
100
AcDbEllipse
10
24.570529
20
9.25
30
0
11
1.42452172522279
21
-1.2231398524467E-10
31
0
210
0
220
0
230
-1
40
0.350995
41
-2.25836112874912
42
-1.95476876240894
0
ELLIPSE
5
138
100
AcDbEntity
8
1
62
256
6
ByLayer
370
13
48
1
60
0
100
AcDbEllipse
10
24.570529
20
9.25
30
0
11
1.42452172467598
21
1.43967728977083E-15
31
0
210
0
220
0
230
-1
40
0.350995
41
1.95476876224059
42
2.25836112868194
0
ELLIPSE
5
139
100
AcDbEntity
8
1
62
256
6
ByLayer
370
13
48
1
60
0
100
AcDbEllipse
10
23.968086
20
10.008586
30
0
11
0.274689327591921
21
0.0155897448654044
31
0
210
0
220
0
230
-1
40
0.363396
41
0.0206212699777038
42
1.21045488617925
0
ELLIPSE
5
13A
100
AcDbEntity
8
1
62
256
6
ByLayer
370
13
48
1
60
0
100
AcDbEllipse
10
24.138645
20
9.920672
30
0
11
-0.0383160393775672
21
0.196295392524676
31
0
210
0
220
0
230
1
40
0.336408
41
1.50522506223048
42
2.73571394704436
0
ELLIPSE
5
13B
100
AcDbEntity
8
1
62
256
6
ByLayer
370
13
48
1
60
0
100
AcDbEllipse
10
23.968086
20
8.491414
30
0
11
0.274689327592787
21
-0.015589744865234
31
0
210
0
220
0
230
-1
40
0.363396
41
-1.21045488617675
42
-0.0206212699773555
0
ELLIPSE
5
13C
100
AcDbEntity
8
1
62
256
6
ByLayer
370
13
48
1
60
0
100
AcDbEllipse
10
24.138645
20
8.579328
30
0
11
-0.0383160393775681
21
-0.196295392524676
31
0
210
0
220
0
230
1
40
0.336408
41
-2.73571394704436
42
-1.5052250622305
0
ELLIPSE
5
13D
100
AcDbEntity
8
1
62
256
6
ByLayer
370
13
48
1
60
0
100
AcDbEllipse
10
24.502124
20
9.25
30
0
11
1.44889559351871
21
1.46431047354675E-15
31
0
210
0
220
0
230
-1
40
0.483127
41
-2.25836112863395
42
-1.95476876223185
0
ELLIPSE
5
13E
100
AcDbEntity
8
1
62
256
6
ByLayer
370
13
48
1
60
0
100
AcDbEllipse
10
24.502124
20
9.25
30
0
11
1.44889559331754
21
1.46431047334344E-15
31
0
210
0
220
0
230
-1
40
0.483127
41
1.95476876224048
42
2.25836112869042
0
ELLIPSE
5
13F
100
AcDbEntity
8
1
62
256
6
ByLayer
370
13
48
1
60
0
100
AcDbEllipse
10
24.827398
20
8.302784
30
0
11
0.00548700145360604
21
0.239937268499598
31
0
210
0
220
0
230
1
40
0.706448
41
-1.50523037236397
42
-0.849098397829185
0
ELLIPSE
5
140
100
AcDbEntity
8
1
62
256
6
ByLayer
370
13
48
1
60
0
100
AcDbEllipse
10
24.827398
20
10.197216
30
0
11
0.00548700145360587
21
-0.239937268499598
31
0
210
0
220
0
230
1
40
0.706448
41
0.849098397829167
42
1.50523037236396
0
ELLIPSE
5
141
100
AcDbEntity
8
1
62
256
6
ByLayer
370
13
48
1
60
0
100
AcDbEllipse
10
24.027763
20
9.899029
30
0
11
-0.0383160393775672
21
0.196295392524676
31
0
210
0
220
0
230
1
40
0.336408
41
1.50522506223048
42
2.73571394704436
0
ELLIPSE
5
142
100
AcDbEntity
8
1
62
256
6
ByLayer
370
13
48
1
60
0
100
AcDbEllipse
10
24.027763
20
8.600971
30
0
11
-0.0383160393775681
21
-0.196295392524676
31
0
210
0
220
0
230
1
40
0.336408
41
-2.73571394704433
42
-1.50522506223052
0
ELLIPSE
5
143
100
AcDbEntity
8
1
62
256
6
ByLayer
370
13
48
1
60
0
100
AcDbEllipse
10
24.64569
20
8.508253
30
0
11
-0.199155198215831
21
0.224359548545662
31
0
210
0
220
0
230
1
40
0.867907
41
-1.48925493040502
42
-0.845841420110057
0
ELLIPSE
5
144
100
AcDbEntity
8
1
62
256
6
ByLayer
370
13
48
1
60
0
100
AcDbEllipse
10
23.650977
20
8.709044
30
0
11
-0.073759863887595
21
-0.185901808703636
31
0
210
0
220
0
230
1
40
0.32047
41
-2.41409938327892
42
-1.44432262990156
0
ELLIPSE
5
145
100
AcDbEntity
8
1
62
256
6
ByLayer
370
13
48
1
60
0
100
AcDbEllipse
10
23.650977
20
9.790956
30
0
11
-0.0737598638875999
21
0.185901808703635
31
0
210
0
220
0
230
1
40
0.32047
41
1.4443226299015
42
2.41409938327889
0
ELLIPSE
5
146
100
AcDbEntity
8
1
62
256
6
ByLayer
370
13
48
1
60
0
100
AcDbEllipse
10
24.64569
20
9.991747
30
0
11
-0.199155198215836
21
-0.224359548545657
31
0
210
0
220
0
230
1
40
0.867907
41
0.845841420110089
42
1.48925493040509
0
ELLIPSE
5
147
100
AcDbEntity
8
1
62
256
6
ByLayer
370
13
48
1
60
0
100
AcDbEllipse
10
25.848298
20
8.86998
30
0
11
-0.11829996020908
21
-0.382106162492219
31
0
210
0
220
0
230
1
40
0.046276
41
-1.55647013370581
42
-0.635362849071733
0
ELLIPSE
5
148
100
AcDbEntity
8
1
62
256
6
ByLayer
370
13
48
1
60
0
100
AcDbEllipse
10
25.848298
20
9.63002
30
0
11
-0.11829996020908
21
0.382106162492219
31
0
210
0
220
0
230
1
40
0.046276
41
0.635362849071733
42
1.5564701337058
0
ELLIPSE
5
149
100
AcDbEntity
8
1
62
256
6
ByLayer
370
13
48
1
60
0
100
AcDbEllipse
10
23.557016
20
8.677976
30
0
11
0.179591653469728
21
-0.0880161235456843
31
0
210
0
220
0
230
1
40
0.15816
41
-2.67666253996309
42
-1.88296142475576
0
ELLIPSE
5
14A
100
AcDbEntity
8
1
62
256
6
ByLayer
370
13
48
1
60
0
100
AcDbEllipse
10
23.557016
20
9.822024
30
0
11
0.179591653469724
21
0.088016123545693
31
0
210
0
220
0
230
1
40
0.15816
41
1.88296142475564
42
2.67666253996291
0
ELLIPSE
5
14B
100
AcDbEntity
8
1
62
256
6
ByLayer
370
13
48
1
60
0
100
AcDbEllipse
10
24.692262
20
9.872657
30
0
11
-0.299347745291831
21
0.0197718837923224
31
0
210
0
220
0
230
1
40
0.777951
41
1.69879303455143
42
2.22934227679633
0
ELLIPSE
5
14C
100
AcDbEntity
8
1
62
256
6
ByLayer
370
13
48
1
60
0
100
AcDbEllipse
10
24.692262
20
8.627343
30
0
11
-0.299347745291887
21
-0.0197718837914809
31
0
210
0
220
0
230
1
40
0.777951
41
-2.22934227679353
42
-1.6987930345492
0
ELLIPSE
5
14D
100
AcDbEntity
8
1
62
256
6
ByLayer
370
13
48
1
60
0
100
AcDbEllipse
10
23.694521
20
8.770757
30
0
11
-0.108483181757181
21
0.279698765238315
31
0
210
0
220
0
230
1
40
0.360955
41
-1.02016075382498
42
-0.199709661794718
0
ELLIPSE
5
14E
100
AcDbEntity
8
1
62
256
6
ByLayer
370
13
48
1
60
0
100
AcDbEllipse
10
23.694521
20
9.729243
30
0
11
-0.108483181757197
21
-0.279698765238309
31
0
210
0
220
0
230
1
40
0.360955
41
0.199709661794686
42
1.02016075382502
0
ELLIPSE
5
14F
100
AcDbEntity
8
1
62
256
6
ByLayer
370
13
48
1
60
0
100
AcDbEllipse
10
23.346868
20
10.125983
30
0
11
0.0582979366851085
21
-0.138207635745132
31
0
210
0
220
0
230
1
40
0.750326
41
-1.87731940571838
42
-1.57180531127307
0
ELLIPSE
5
150
100
AcDbEntity
8
1
62
256
6
ByLayer
370
13
48
1
60
0
100
AcDbEllipse
10
23.55842
20
8.817393
30
0
11
-0.0312161822556663
21
0.197548854629383
31
0
210
0
220
0
230
1
40
0.644886
41
0.296340224814589
42
1.02563059493706
0
ELLIPSE
5
151
100
AcDbEntity
8
1
62
256
6
ByLayer
370
13
48
1
60
0
100
AcDbEllipse
10
23.55842
20
9.682607
30
0
11
-0.031216182255666
21
-0.197548854629383
31
0
210
0
220
0
230
1
40
0.644886
41
-1.02563059493701
42
-0.296340224814576
0
ELLIPSE
5
152
100
AcDbEntity
8
1
62
256
6
ByLayer
370
13
48
1
60
0
100
AcDbEllipse
10
23.346868
20
8.374017
30
0
11
-0.0582979366828939
21
-0.138207635746066
31
0
210
0
220
0
230
1
40
0.750326
41
-1.56978734232577
42
-1.26427324788346
0
ELLIPSE
5
153
100
AcDbEntity
8
1
62
256
6
ByLayer
370
13
48
1
60
0
100
AcDbEllipse
10
23.68571
20
9.732663
30
0
11
-0.10863468183397
21
-0.279639957629149
31
0
210
0
220
0
230
1
40
0.363718
41
0.200467310718407
42
1.01550685106548
0
ELLIPSE
5
154
100
AcDbEntity
8
1
62
256
6
ByLayer
370
13
48
1
60
0
100
AcDbEllipse
10
23.68571
20
8.767337
30
0
11
-0.108634681833984
21
0.279639957629143
31
0
210
0
220
0
230
1
40
0.363718
41
-1.01550685106551
42
-0.200467310718441
0
ELLIPSE
5
155
100
AcDbEntity
8
1
62
256
6
ByLayer
370
13
48
1
60
0
100
AcDbEllipse
10
24.773143
20
9.435403
30
0
11
-0.27643120211388
21
-0.11655809923757
31
0
210
0
220
0
230
1
40
0.259655
41
1.58999251460062
42
2.12275416956029
0
ELLIPSE
5
156
100
AcDbEntity
8
1
62
256
6
ByLayer
370
13
48
1
60
0
100
AcDbEllipse
10
24.773143
20
9.064597
30
0
11
-0.276431202115174
21
0.116558099234502
31
0
210
0
220
0
230
1
40
0.259655
41
-2.12275416956321
42
-1.5899925146035
0
ELLIPSE
5
157
100
AcDbEntity
8
1
62
256
6
ByLayer
370
13
48
1
60
0
100
AcDbEllipse
10
26.747654
20
8.199551
30
0
11
-0.00522684702752667
21
0.239943076728942
31
0
210
0
220
0
230
1
40
0.172153
41
0.730759907122298
42
1.49827444467684
0
ELLIPSE
5
158
100
AcDbEntity
8
1
62
256
6
ByLayer
370
13
48
1
60
0
100
AcDbEllipse
10
26.747654
20
10.300449
30
0
11
-0.00522684702752689
21
-0.239943076728942
31
0
210
0
220
0
230
1
40
0.172153
41
-1.49827444467683
42
-0.73075990712235
0
ELLIPSE
5
159
100
AcDbEntity
8
1
62
256
6
ByLayer
370
13
48
1
60
0
100
AcDbEllipse
10
23.344099
20
8.374562
30
0
11
4.24912383924225E-17
21
0.15
31
0
210
0
220
0
230
1
40
0.772149
41
1.23482044578598
42
1.5707963267949
0
ELLIPSE
5
15A
100
AcDbEntity
8
1
62
256
6
ByLayer
370
13
48
1
60
0
100
AcDbEllipse
10
23.344099
20
10.125438
30
0
11
4.24912383924225E-17
21
0.15
31
0
210
0
220
0
230
1
40
0.772149
41
1.5707963267949
42
1.90677220780382
0
ELLIPSE
5
15B
100
AcDbEntity
8
1
62
256
6
ByLayer
370
13
48
1
60
0
100
AcDbEllipse
10
23.543122
20
8.816064
30
0
11
5.665498452323E-17
21
0.2
31
0
210
0
220
0
230
1
40
0.817574
41
0.416381924289195
42
1.23482044578601
0
ELLIPSE
5
15C
100
AcDbEntity
8
1
62
256
6
ByLayer
370
13
48
1
60
0
100
AcDbEllipse
10
23.543122
20
9.683936
30
0
11
5.665498452323E-17
21
0.2
31
0
210
0
220
0
230
1
40
0.817574
41
1.90677220780381
42
2.72521072930062
0
ELLIPSE
5
15D
100
AcDbEntity
8
1
62
256
6
ByLayer
370
13
48
1
60
0
100
AcDbEllipse
10
23.133999
20
9.683936
30
0
11
5.665498452323E-17
21
0.2
31
0
210
0
220
0
230
1
40
0.34202
41
1.90677220780381
42
2.72521072930059
0
ELLIPSE
5
15E
100
AcDbEntity
8
1
62
256
6
ByLayer
370
13
48
1
60
0
100
AcDbEllipse
10
27.3528
20
10.031043
30
0
11
-0.053394885983678
21
-0.0845516773978496
31
0
210
0
220
0
230
1
40
0.139768
41
0.739917285382662
42
1.577169446413
0
ELLIPSE
5
15F
100
AcDbEntity
8
1
62
256
6
ByLayer
370
13
48
1
60
0
100
AcDbEllipse
10
27.513536
20
9.881503
30
0
11
-0.0833383062250994
21
-0.0552695821906731
31
0
210
0
220
0
230
1
40
0.125147
41
1.00886584004906
42
1.63389016497509
0
ELLIPSE
5
160
100
AcDbEntity
8
1
62
256
6
ByLayer
370
13
48
1
60
0
100
AcDbEllipse
10
27.3528
20
8.468957
30
0
11
-0.053394885983678
21
0.0845516773978496
31
0
210
0
220
0
230
1
40
0.139768
41
-1.57716944641304
42
-0.739917285382662
0
ELLIPSE
5
161
100
AcDbEntity
8
1
62
256
6
ByLayer
370
13
48
1
60
0
100
AcDbEllipse
10
23.133999
20
8.816064
30
0
11
-3.67381906146713E-17
21
-0.2
31
0
210
0
220
0
230
1
40
0.34202
41
-2.72521072930059
42
-1.90677220780381
0
ELLIPSE
5
162
100
AcDbEntity
8
1
62
256
6
ByLayer
370
13
48
1
60
0
100
AcDbEllipse
10
27.513536
20
8.618497
30
0
11
-0.0833383062250993
21
0.0552695821906731
31
0
210
0
220
0
230
1
40
0.125147
41
-1.63389016497509
42
-1.00886584004903
0
ELLIPSE
5
163
100
AcDbEntity
8
1
62
256
6
ByLayer
370
13
48
1
60
0
100
AcDbEllipse
10
26.858678
20
9.698773
30
0
11
0.0150020396796469
21
-0.399718574506427
31
0
210
0
220
0
230
1
40
0.406498
41
1.55554103694363
42
2.33646244174223
0
ELLIPSE
5
164
100
AcDbEntity
8
1
62
256
6
ByLayer
370
13
48
1
60
0
100
AcDbEllipse
10
26.858678
20
8.801227
30
0
11
0.0150020396796473
21
0.399718574506427
31
0
210
0
220
0
230
1
40
0.406498
41
-2.33646244174224
42
-1.55554103694363
0
ELLIPSE
5
165
100
AcDbEntity
8
1
62
256
6
ByLayer
370
13
48
1
60
0
100
AcDbEllipse
10
27.220468
20
10.112997
30
0
11
-0.0517697807122172
21
-0.0855563545565667
31
0
210
0
220
0
230
1
40
0.139863
41
0.736209352901214
42
1.57449803098181
0
ELLIPSE
5
166
100
AcDbEntity
8
1
62
256
6
ByLayer
370
13
48
1
60
0
100
AcDbEllipse
10
27.220468
20
8.387003
30
0
11
-0.0517697807122172
21
0.0855563545565667
31
0
210
0
220
0
230
1
40
0.139863
41
-1.57449803098185
42
-0.736209352901024
0
ELLIPSE
5
167
100
AcDbEntity
8
1
62
256
6
ByLayer
370
13
48
1
60
0
100
AcDbEllipse
10
27.123358
20
10.190274
30
0
11
-0.0777352233758327
21
-0.0629065580580387
31
0
210
0
220
0
230
1
40
0.130472
41
1.15591732835911
42
1.6217705643851
0
ELLIPSE
5
168
100
AcDbEntity
8
1
62
256
6
ByLayer
370
13
48
1
60
0
100
AcDbEllipse
10
26.358781
20
10.303593
30
0
11
-0.00794321942284783
21
-0.239868516619419
31
0
210
0
220
0
230
1
40
0.002314
41
0.706533322278381
42
1.50102146588708
0
ELLIPSE
5
169
100
AcDbEntity
8
1
62
256
6
ByLayer
370
13
48
1
60
0
100
AcDbEllipse
10
27.123358
20
8.309726
30
0
11
-0.0777352233758327
21
0.0629065580580387
31
0
210
0
220
0
230
1
40
0.130472
41
-1.62177056438507
42
-1.15591732835933
0
ELLIPSE
5
16A
100
AcDbEntity
8
1
62
256
6
ByLayer
370
13
48
1
60
0
100
AcDbEllipse
10
23.382996
20
7.169859
30
0
11
-3.67381906146715E-16
21
-2.00000000000001
31
0
210
0
220
0
230
1
40
0.34202
41
-2.79252680319093
42
-2.7252107293006
0
ELLIPSE
5
16B
100
AcDbEntity
8
1
62
256
6
ByLayer
370
13
48
1
60
0
100
AcDbEllipse
10
26.358781
20
8.196407
30
0
11
-0.00794321942284761
21
0.239868516619419
31
0
210
0
220
0
230
1
40
0.002314
41
-1.50102146588706
42
-0.70653332228264
0
ELLIPSE
5
16C
100
AcDbEntity
8
1
62
256
6
ByLayer
370
13
48
1
60
0
100
AcDbEllipse
10
23.382996
20
11.330141
30
0
11
5.66549845232303E-16
21
2.00000000000001
31
0
210
0
220
0
230
1
40
0.34202
41
2.7252107293006
42
2.79252680319093
0
ELLIPSE
5
16D
100
AcDbEntity
8
1
62
256
6
ByLayer
370
13
48
1
60
0
100
AcDbEllipse
10
23.127689
20
9.25
30
0
11
5.94877337493915E-17
21
0.21
31
0
210
0
220
0
230
1
40
0.34202
41
-2.7925268031909
42
-0.349065850398889
0
ELLIPSE
5
16E
100
AcDbEntity
8
1
62
256
6
ByLayer
370
13
48
1
60
0
100
AcDbEllipse
10
27.535867
20
9.846883
30
0
11
-0.0846523861242153
21
-0.053235077941868
31
0
210
0
220
0
230
1
40
0.065225
41
1.04575763084798
42
1.67414551543569
0
ELLIPSE
5
16F
100
AcDbEntity
8
1
62
256
6
ByLayer
370
13
48
1
60
0
100
AcDbEllipse
10
27.535867
20
8.653117
30
0
11
-0.0846523861242153
21
0.053235077941868
31
0
210
0
220
0
230
1
40
0.065225
41
-1.67414551543583
42
-1.04575763084756
0
ELLIPSE
5
170
100
AcDbEntity
8
1
62
256
6
ByLayer
370
18
48
1
60
0
100
AcDbEllipse
10
23.041428
20
9.25
30
0
11
9.64885723403373E-17
21
0.599999999999937
31
0
210
0
220
0
230
-1
40
0.087172
41
-2.62536935320391
42
-0.516223300385886
0
ELLIPSE
5
171
100
AcDbEntity
8
1
62
256
6
ByLayer
370
18
48
1
60
0
100
AcDbEllipse
10
22.382033
20
9.25
30
0
11
1.28358760011039
21
1.297243759291E-15
31
0
210
0
220
0
230
-1
40
0.46744
41
1.05457302640886
42
-1.05457302640888
0
ELLIPSE
5
172
100
AcDbEntity
8
1
62
256
6
ByLayer
370
18
48
1
60
0
100
AcDbEllipse
10
24.829028
20
10.34703
30
0
11
0.251841921977993
21
0.0177818623371048
31
0
210
0
220
0
230
-1
40
0.06924
41
-1.56101782178184
42
-0.774400198848185
0
ELLIPSE
5
173
100
AcDbEntity
8
1
62
256
6
ByLayer
370
18
48
1
60
0
100
AcDbEllipse
10
27.648748
20
8.653117
30
0
11
1.1330996904646E-16
21
0.4
31
0
210
0
220
0
230
1
40
0.121869
41
1.5707963267949
42
1.64009079051254
0
ELLIPSE
5
174
100
AcDbEntity
8
1
62
256
6
ByLayer
370
18
48
1
60
0
100
AcDbEllipse
10
27.648748
20
9.846883
30
0
11
1.1330996904646E-16
21
0.4
31
0
210
0
220
0
230
1
40
0.121869
41
1.50150186307726
42
1.5707963267949
0
ELLIPSE
5
175
100
AcDbEntity
8
1
62
256
6
ByLayer
370
18
48
1
60
0
100
AcDbEllipse
10
24.363694
20
10.45
30
0
11
0.201946432116473
21
0
31
0
210
0
220
0
230
1
40
0.990362
41
-1.5707963267949
42
-1.04299365512072
0
ELLIPSE
5
176
100
AcDbEntity
8
1
62
256
6
ByLayer
370
18
48
1
60
0
100
AcDbEllipse
10
27.106337
20
10.471995
30
0
11
0.239997044323581
21
0.0169489929539138
31
0
210
0
220
0
230
-1
40
0.070266
41
-1.73995037660797
42
-1.44395567075392
0
ELLIPSE
5
177
100
AcDbEntity
8
1
62
256
6
ByLayer
370
18
48
1
60
0
100
AcDbEllipse
10
24.829028
20
8.15297
30
0
11
0.251841921961446
21
-0.0177818623351768
31
0
210
0
220
0
230
-1
40
0.06924
41
0.774400198844575
42
1.56101782182587
0
ELLIPSE
5
178
100
AcDbEntity
8
1
62
256
6
ByLayer
370
18
48
1
60
0
100
AcDbEllipse
10
24.64757
20
10.150887
30
0
11
0.0586247302012056
21
-0.191752852286547
31
0
210
-1.56326331346004E-15
220
1.05822557188231E-17
230
1
40
0.997435
41
2.91526219766618
42
-2.91526219766618
0
ELLIPSE
5
179
100
AcDbEntity
8
1
62
256
6
ByLayer
370
18
48
1
60
0
100
AcDbEllipse
10
27.106337
20
8.028005
30
0
11
0.239997045547728
21
-0.016948993033549
31
0
210
0
220
0
230
-1
40
0.070266
41
1.44395567180656
42
1.73995037614213
0
ELLIPSE
5
17A
100
AcDbEntity
8
1
62
256
6
ByLayer
370
18
48
1
60
0
100
AcDbEllipse
10
24.659275
20
8.348294
30
0
11
0.0029729393167071
21
0.200467814146891
31
0
210
-1.59613097713202E-15
220
-6.66986070676025E-19
230
1
40
0.997557
41
2.6338628041141
42
3.08674247812912
0
ELLIPSE
5
17B
100
AcDbEntity
8
1
62
256
6
ByLayer
370
18
48
1
60
0
100
AcDbEllipse
10
24.37444
20
8.05
30
0
11
-0.201490790302156
21
2.46746902040712E-17
31
0
210
0
220
0
230
1
40
0.992601
41
-2.09761674342106
42
-1.5707963267949
0
POINT
5
6C
100
AcDbEntity
8
81
62
256
6
ByLayer
370
18
48
1
60
0
100
AcDbPoint
10
27.6
20
10.5
30
0
39
0
210
0
220
0
230
1
50
360
0
POINT
5
6E
100
AcDbEntity
8
80
62
256
6
ByLayer
370
18
48
1
60
0
100
AcDbPoint
10
0
20
0
30
0
39
0
210
0
220
0
230
1
50
360
0
SPLINE
5
17C
100
AcDbEntity
8
1
62
256
6
ByLayer
370
18
48
1
60
0
100
AcDbSpline
70
4
71
3
72
18
73
14
40
0
40
0
40
0
40
0
40
0.18119409626534
40
0.18119409626534
40
0.361862303964486
40
0.361862303964486
40
0.551167347000522
40
0.551167347000522
40
0.763225975030245
40
0.763225975030245
40
0.996803035954181
40
0.996803035954181
40
1
40
1
40
1
40
1
41
1
10
12.9644268988194
20
6.64999999999955
30
0
41
1
10
12.9644268988194
20
6.81248344262045
30
0
41
1
10
12.9900637222604
20
6.97721398891309
30
0
41
1
10
13.0861803895995
20
7.282772552903
30
0
41
1
10
13.157629535314
20
7.42772818221903
30
0
41
1
10
13.3369721637076
20
7.68907459148917
30
0
41
1
10
13.4484874238902
20
7.80711610420693
30
0
41
1
10
13.7070567671757
20
8.01208903049329
30
0
41
1
10
13.8598756178939
20
8.09631282208471
30
0
41
1
10
14.1914588745767
20
8.21686442500328
30
0
41
1
10
14.3753923266766
20
8.24913693692261
30
0
41
1
10
14.5594590652894
20
8.24999421590584
30
0
41
1
10
14.5619429550443
20
8.24999999999955
30
0
41
1
10
14.5644268988194
20
8.24999999999955
30
0
0
SPLINE
5
17D
100
AcDbEntity
8
1
62
256
6
ByLayer
370
13
48
1
60
0
100
AcDbSpline
70
4
71
3
72
10
73
6
40
0
40
0
40
0
40
0
40
0.709896843428722
40
0.709896843428722
40
1
40
1
40
1
40
1
41
1
10
24.7845849620887
20
8.61788157128004
30
0
41
1
10
24.7786971522086
20
8.62352704246885
30
0
41
1
10
24.7730792764887
20
8.62971090867865
30
0
41
1
10
24.7667433148843
20
8.63866857148381
30
0
41
1
10
24.7650681599822
20
8.64134468366703
30
0
41
1
10
24.7636948429821
20
8.64397753247979
30
0
0
SPLINE
5
17E
100
AcDbEntity
8
1
62
256
6
ByLayer
370
13
48
1
60
0
100
AcDbSpline
70
4
71
3
72
8
73
4
40
0
40
0
40
0
40
0
40
1
40
1
40
1
40
1
41
1
10
24.7636948430068
20
8.64397753247837
30
0
41
1
10
24.7842500998041
20
8.6622050341324
30
0
41
1
10
24.804612279328
20
8.68015167998695
30
0
41
1
10
24.823544614963
20
8.69880114410145
30
0
0
SPLINE
5
17F
100
AcDbEntity
8
1
62
256
6
ByLayer
370
13
48
1
60
0
100
AcDbSpline
70
4
71
3
72
10
73
6
40
0
40
0
40
0
40
0
40
0.644331995687774
40
0.644331995687774
40
1
40
1
40
1
40
1
41
1
10
24.823544614963
20
8.69880114410145
30
0
41
1
10
24.8423417535849
20
8.71731743120651
30
0
41
1
10
24.854361479298
20
8.74266643237834
30
0
41
1
10
24.8635582436185
20
8.7874869366519
30
0
41
1
10
24.8646514454074
20
8.80499210213381
30
0
41
1
10
24.8632877280427
20
8.82362133313626
30
0
0
SPLINE
5
180
100
AcDbEntity
8
1
62
256
6
ByLayer
370
13
48
1
60
0
100
AcDbSpline
70
4
71
3
72
12
73
8
40
0
40
0
40
0
40
0
40
0.0568772518374145
40
0.0568772518374145
40
0.598921195001007
40
0.598921195001007
40
1
40
1
40
1
40
1
41
1
10
25.7425891010004
20
8.56568845082521
30
0
41
1
10
25.7245515992803
20
8.57103303613457
30
0
41
1
10
25.7065274742933
20
8.57636523695476
30
0
41
1
10
25.5189632613311
20
8.63178061371306
30
0
41
1
10
25.3497242492964
20
8.6812731024047
30
0
41
1
10
25.0764510412474
20
8.76113946875333
30
0
41
1
10
24.965133916484
20
8.79368019372063
30
0
41
1
10
24.8632877280432
20
8.82362133313745
30
0
0
SPLINE
5
181
100
AcDbEntity
8
1
62
256
6
ByLayer
370
13
48
1
60
0
100
AcDbSpline
70
4
71
3
72
12
73
8
40
0
40
0
40
0
40
0
40
0.432851996086571
40
0.432851996086571
40
0.716418616561771
40
0.716418616561771
40
1
40
1
40
1
40
1
41
1
10
25.8151325614845
20
8.54418180397965
30
0
41
1
10
25.8046568328338
20
8.54728141449095
30
0
41
1
10
25.7941840602843
20
8.55038518615515
30
0
41
1
10
25.7768579385477
20
8.55552441599912
30
0
41
1
10
25.7700018107041
20
8.55755981491492
30
0
41
1
10
25.7562928218783
20
8.5616267951896
30
0
41
1
10
25.7494397680903
20
8.56365857023221
30
0
41
1
10
25.7425891010004
20
8.56568845082521
30
0
0
SPLINE
5
182
100
AcDbEntity
8
1
62
256
6
ByLayer
370
13
48
1
60
0
100
AcDbSpline
70
4
71
3
72
14
73
10
40
0
40
0
40
0
40
0
40
0.0559482231425851
40
0.0559482231425851
40
0.255082555375332
40
0.255082555375332
40
0.91736630964965
40
0.91736630964965
40
1
40
1
40
1
40
1
41
1
10
26.4217062023472
20
8.49881824753032
30
0
41
1
10
26.4102710337185
20
8.49842296285991
30
0
41
1
10
26.3988345011549
20
8.49806619512515
30
0
41
1
10
26.3467041069351
20
8.4961582372689
30
0
41
1
10
26.3060132231142
20
8.49422714077437
30
0
41
1
10
26.1310688272088
20
8.48852672679709
30
0
41
1
10
25.9936591146986
20
8.49362637972183
30
0
41
1
10
25.8478771051644
20
8.53462646348331
30
0
41
1
10
25.8314856310116
20
8.53934317672147
30
0
41
1
10
25.8151325614845
20
8.54418180397965
30
0
0
SPLINE
5
183
100
AcDbEntity
8
1
62
256
6
ByLayer
370
13
48
1
60
0
100
AcDbSpline
70
4
71
3
72
12
73
8
40
0
40
0
40
0
40
0
40
0.580466676309606
40
0.580466676309606
40
0.902092447109163
40
0.902092447109163
40
1
40
1
40
1
40
1
41
1
10
26.96542001724
20
8.51981853491972
30
0
41
1
10
26.8648041446478
20
8.51555084642175
30
0
41
1
10
26.7598849325172
20
8.51151896166485
30
0
41
1
10
26.5950542118575
20
8.50524713783827
30
0
41
1
10
26.5355659682511
20
8.50291712525487
30
0
41
1
10
26.4579762169912
20
8.50009920255704
30
0
41
1
10
26.4398403518264
20
8.49944509891597
30
0
41
1
10
26.4217062023472
20
8.49881824753032
30
0
0
SPLINE
5
184
100
AcDbEntity
8
1
62
256
6
ByLayer
370
13
48
1
60
0
100
AcDbSpline
70
4
71
3
72
14
73
10
40
0
40
0
40
0
40
0
40
0.0740326958458219
40
0.0740326958458219
40
0.743257125695834
40
0.743257125695834
40
0.939124438646558
40
0.939124438646558
40
1
40
1
40
1
40
1
41
1
10
27.3213347612453
20
8.53643256334971
30
0
41
1
10
27.3126059855915
20
8.53608269316774
30
0
41
1
10
27.3038751248009
20
8.53573149180488
30
0
41
1
10
27.2162008436679
20
8.53219304676492
30
0
41
1
10
27.1369961926742
20
8.52876221494608
30
0
41
1
10
27.0347137397946
20
8.52477321460549
30
0
41
1
10
27.0110630969842
20
8.52233418815004
30
0
41
1
10
26.9801088915618
20
8.52050218307429
30
0
41
1
10
26.9727654069312
20
8.52013009446088
30
0
41
1
10
26.96542001724
20
8.51981853491972
30
0
0
SPLINE
5
185
100
AcDbEntity
8
1
62
256
6
ByLayer
370
13
48
1
60
0
100
AcDbSpline
70
4
71
3
72
8
73
4
40
0
40
0
40
0
40
0
40
1
40
1
40
1
40
1
41
1
10
27.190140659284
20
8.45526372542969
30
0
41
1
10
27.2341557915994
20
8.48185824438929
30
0
41
1
10
27.2778467711874
20
8.50898829346713
30
0
41
1
10
27.3213347612452
20
8.53643256334959
30
0
0
SPLINE
5
186
100
AcDbEntity
8
1
62
256
6
ByLayer
370
13
48
1
60
0
100
AcDbSpline
70
4
71
3
72
8
73
4
40
0
40
0
40
0
40
0
40
1
40
1
40
1
40
1
41
1
10
26.7161920011119
20
8.37762853522744
30
0
41
1
10
26.8757348334777
20
8.37779324949534
30
0
41
1
10
27.0355792331504
20
8.41162146379483
30
0
41
1
10
27.1901406592829
20
8.45526372542901
30
0
0
SPLINE
5
187
100
AcDbEntity
8
1
62
256
6
ByLayer
370
13
48
1
60
0
100
AcDbSpline
70
4
71
3
72
8
73
4
40
0
40
0
40
0
40
0
40
1
40
1
40
1
40
1
41
1
10
26.3530991918525
20
8.37886715841304
30
0
41
1
10
26.4746599531638
20
8.38260094166802
30
0
41
1
10
26.5968950955519
20
8.37750537141966
30
0
41
1
10
26.716192001113
20
8.37762853522568
30
0
0
SPLINE
5
188
100
AcDbEntity
8
1
62
256
6
ByLayer
370
13
48
1
60
0
100
AcDbSpline
70
4
71
3
72
8
73
4
40
0
40
0
40
0
40
0
40
1
40
1
40
1
40
1
41
1
10
26.172400536749
20
8.38493715835565
30
0
41
1
10
26.2323837831874
20
8.37920305140236
30
0
41
1
10
26.2928500715066
20
8.37701658464027
30
0
41
1
10
26.3530991918524
20
8.37886715841299
30
0
0
SPLINE
5
189
100
AcDbEntity
8
1
62
256
6
ByLayer
370
13
48
1
60
0
100
AcDbSpline
70
4
71
3
72
12
73
8
40
0
40
0
40
0
40
0
40
0.140444200279774
40
0.140444200279774
40
0.578672846880988
40
0.578672846880988
40
1
40
1
40
1
40
1
41
1
10
25.0502390423001
20
8.46526349937642
30
0
41
1
10
25.0907683260286
20
8.469912279802
30
0
41
1
10
25.1340049971858
20
8.47265805402654
30
0
41
1
10
25.3188333798474
20
8.47734361775719
30
0
41
1
10
25.4828017897204
20
8.46600566529534
30
0
41
1
10
25.8193415913499
20
8.42921608847951
30
0
41
1
10
25.9971452699765
20
8.40169071044681
30
0
41
1
10
26.172400536749
20
8.38493715835565
30
0
0
SPLINE
5
18A
100
AcDbEntity
8
1
62
256
6
ByLayer
370
13
48
1
60
0
100
AcDbSpline
70
4
71
3
72
8
73
4
40
0
40
0
40
0
40
0
40
1
40
1
40
1
40
1
41
1
10
24.9582665042273
20
8.45839085458616
30
0
41
1
10
24.9890156099214
20
8.45938122766782
30
0
41
1
10
25.0196882286927
20
8.46175926709748
30
0
41
1
10
25.0502390423001
20
8.46526349937642
30
0
0
SPLINE
5
18B
100
AcDbEntity
8
1
62
256
6
ByLayer
370
13
48
1
60
0
100
AcDbSpline
70
4
71
3
72
10
73
6
40
0
40
0
40
0
40
0
40
0.258944711528363
40
0.258944711528363
40
1
40
1
40
1
40
1
41
1
10
24.7845849620887
20
8.61788157128004
30
0
41
1
10
24.799277300327
20
8.60379396079179
30
0
41
1
10
24.8140493078695
20
8.58978898921484
30
0
41
1
10
24.8714142308746
20
8.53604019246274
30
0
41
1
10
24.9146891560262
20
8.49698895699774
30
0
41
1
10
24.958266504227
20
8.45839085458601
30
0
0
SPLINE
5
18C
100
AcDbEntity
8
1
62
256
6
ByLayer
370
13
48
1
60
0
100
AcDbSpline
70
4
71
3
72
10
73
6
40
0
40
0
40
0
40
0
40
0.649009211321481
40
0.649009211321481
40
1
40
1
40
1
40
1
41
1
10
24.8632877280427
20
9.67637866686317
30
0
41
1
10
24.8657560063979
20
9.7100968909231
30
0
41
1
10
24.8599458432008
20
9.7401231563403
30
0
41
1
10
24.8416692657146
20
9.77846990314313
30
0
41
1
10
24.8338663110395
20
9.79103137818751
30
0
41
1
10
24.823544614963
20
9.80119885589826
30
0
0
SPLINE
5
18D
100
AcDbEntity
8
1
62
256
6
ByLayer
370
13
48
1
60
0
100
AcDbSpline
70
4
71
3
72
8
73
4
40
0
40
0
40
0
40
0
40
1
40
1
40
1
40
1
41
1
10
24.823544614963
20
9.80119885589826
30
0
41
1
10
24.804612279328
20
9.8198483200128
30
0
41
1
10
24.7842500998041
20
9.83779496586732
30
0
41
1
10
24.7636948430068
20
9.85602246752137
30
0
0
SPLINE
5
18E
100
AcDbEntity
8
1
62
256
6
ByLayer
370
13
48
1
60
0
100
AcDbSpline
70
4
71
3
72
12
73
8
40
0
40
0
40
0
40
0
40
0.276452079067817
40
0.276452079067817
40
0.899464630432222
40
0.899464630432222
40
1
40
1
40
1
40
1
41
1
10
24.763694843021
20
9.85602246753538
30
0
41
1
10
24.7650009626683
20
9.85852648923395
30
0
41
1
10
24.7665799094947
20
9.86106945155097
30
0
41
1
10
24.7722215249125
20
9.86913828178021
30
0
41
1
10
24.7770183762391
20
9.8746049046789
30
0
41
1
10
24.7829057388044
20
9.88049186731129
30
0
41
1
10
24.7837412366061
20
9.8813094304673
30
0
41
1
10
24.7845849620887
20
9.88211842871971
30
0
0
SPLINE
5
18F
100
AcDbEntity
8
1
62
256
6
ByLayer
370
13
48
1
60
0
100
AcDbSpline
70
4
71
3
72
10
73
6
40
0
40
0
40
0
40
0
40
0.258944711528364
40
0.258944711528364
40
1
40
1
40
1
40
1
41
1
10
24.7845849620887
20
9.88211842871971
30
0
41
1
10
24.799277300327
20
9.89620603920795
30
0
41
1
10
24.8140493078695
20
9.91021101078488
30
0
41
1
10
24.8714142308746
20
9.96395980753701
30
0
41
1
10
24.9146891560262
20
10.003011043002
30
0
41
1
10
24.958266504227
20
10.0416091454137
30
0
0
SPLINE
5
190
100
AcDbEntity
8
1
62
256
6
ByLayer
370
13
48
1
60
0
100
AcDbSpline
70
4
71
3
72
8
73
4
40
0
40
0
40
0
40
0
40
1
40
1
40
1
40
1
41
1
10
24.9582665042273
20
10.0416091454136
30
0
41
1
10
24.9890156099214
20
10.0406187723319
30
0
41
1
10
25.0196882286927
20
10.0382407329022
30
0
41
1
10
25.0502390423001
20
10.0347365006233
30
0
0
SPLINE
5
191
100
AcDbEntity
8
1
62
256
6
ByLayer
370
13
48
1
60
0
100
AcDbSpline
70
4
71
3
72
12
73
8
40
0
40
0
40
0
40
0
40
0.140444200279774
40
0.140444200279774
40
0.578672846880988
40
0.578672846880988
40
1
40
1
40
1
40
1
41
1
10
25.0502390423001
20
10.0347365006233
30
0
41
1
10
25.0907683260286
20
10.0300877201977
30
0
41
1
10
25.1340049971858
20
10.0273419459732
30
0
41
1
10
25.3188333798474
20
10.0226563822426
30
0
41
1
10
25.4828017897204
20
10.0339943347044
30
0
41
1
10
25.8193415913499
20
10.0707839115202
30
0
41
1
10
25.9971452699765
20
10.0983092895529
30
0
41
1
10
26.172400536749
20
10.1150628416441
30
0
0
SPLINE
5
192
100
AcDbEntity
8
1
62
256
6
ByLayer
370
13
48
1
60
0
100
AcDbSpline
70
4
71
3
72
8
73
4
40
0
40
0
40
0
40
0
40
1
40
1
40
1
40
1
41
1
10
26.172400536749
20
10.1150628416441
30
0
41
1
10
26.2323837831874
20
10.1207969485974
30
0
41
1
10
26.2928500715066
20
10.1229834153595
30
0
41
1
10
26.3530991918524
20
10.1211328415867
30
0
0
SPLINE
5
193
100
AcDbEntity
8
1
62
256
6
ByLayer
370
13
48
1
60
0
100
AcDbSpline
70
4
71
3
72
8
73
4
40
0
40
0
40
0
40
0
40
1
40
1
40
1
40
1
41
1
10
26.3530991918525
20
10.1211328415867
30
0
41
1
10
26.4746599531638
20
10.1173990583317
30
0
41
1
10
26.5968950955519
20
10.1224946285801
30
0
41
1
10
26.716192001113
20
10.1223714647741
30
0
0
SPLINE
5
194
100
AcDbEntity
8
1
62
256
6
ByLayer
370
13
48
1
60
0
100
AcDbSpline
70
4
71
3
72
8
73
4
40
0
40
0
40
0
40
0
40
1
40
1
40
1
40
1
41
1
10
26.7161920011119
20
10.1223714647723
30
0
41
1
10
26.8757348334777
20
10.1222067505044
30
0
41
1
10
27.0355792331504
20
10.0883785362049
30
0
41
1
10
27.1901406592829
20
10.0447362745707
30
0
0
SPLINE
5
195
100
AcDbEntity
8
1
62
256
6
ByLayer
370
13
48
1
60
0
100
AcDbSpline
70
4
71
3
72
8
73
4
40
0
40
0
40
0
40
0
40
1
40
1
40
1
40
1
41
1
10
27.190140659284
20
10.0447362745701
30
0
41
1
10
27.2341557915994
20
10.0181417556104
30
0
41
1
10
27.2778467711874
20
9.99101170653262
30
0
41
1
10
27.3213347612452
20
9.96356743665015
30
0
0
SPLINE
5
196
100
AcDbEntity
8
1
62
256
6
ByLayer
370
13
48
1
60
0
100
AcDbSpline
70
4
71
3
72
14
73
10
40
0
40
0
40
0
40
0
40
0.0740326958458219
40
0.0740326958458219
40
0.743257125695834
40
0.743257125695834
40
0.939124438646558
40
0.939124438646558
40
1
40
1
40
1
40
1
41
1
10
27.3213347612453
20
9.96356743665001
30
0
41
1
10
27.3126059855915
20
9.963917306832
30
0
41
1
10
27.3038751248009
20
9.96426850819483
30
0
41
1
10
27.2162008436679
20
9.9678069532348
30
0
41
1
10
27.1369961926742
20
9.97123778505366
30
0
41
1
10
27.0347137397946
20
9.97522678539423
30
0
41
1
10
27.0110630969842
20
9.97766581184968
30
0
41
1
10
26.9801088915618
20
9.97949781692543
30
0
41
1
10
26.9727654069312
20
9.97986990553883
30
0
41
1
10
26.96542001724
20
9.98018146507999
30
0
0
SPLINE
5
197
100
AcDbEntity
8
1
62
256
6
ByLayer
370
13
48
1
60
0
100
AcDbSpline
70
4
71
3
72
12
73
8
40
0
40
0
40
0
40
0
40
0.580466676309606
40
0.580466676309606
40
0.902092447109163
40
0.902092447109163
40
1
40
1
40
1
40
1
41
1
10
26.96542001724
20
9.98018146507999
30
0
41
1
10
26.8648041446478
20
9.98444915357797
30
0
41
1
10
26.7598849325172
20
9.98848103833487
30
0
41
1
10
26.5950542118575
20
9.99475286216145
30
0
41
1
10
26.5355659682511
20
9.99708287474485
30
0
41
1
10
26.4579762169912
20
9.99990079744268
30
0
41
1
10
26.4398403518264
20
10.0005549010838
30
0
41
1
10
26.4217062023472
20
10.0011817524694
30
0
0
SPLINE
5
198
100
AcDbEntity
8
1
62
256
6
ByLayer
370
13
48
1
60
0
100
AcDbSpline
70
4
71
3
72
14
73
10
40
0
40
0
40
0
40
0
40
0.0559482231425851
40
0.0559482231425851
40
0.255082555375332
40
0.255082555375332
40
0.91736630964965
40
0.91736630964965
40
1
40
1
40
1
40
1
41
1
10
26.4217062023472
20
10.0011817524694
30
0
41
1
10
26.4102710337185
20
10.0015770371398
30
0
41
1
10
26.3988345011549
20
10.0019338048746
30
0
41
1
10
26.3467041069351
20
10.0038417627308
30
0
41
1
10
26.3060132231142
20
10.0057728592254
30
0
41
1
10
26.1310688272088
20
10.0114732732026
30
0
41
1
10
25.9936591146986
20
10.0063736202779
30
0
41
1
10
25.8478771051644
20
9.96537353651641
30
0
41
1
10
25.8314856310116
20
9.96065682327824
30
0
41
1
10
25.8151325614845
20
9.95581819602006
30
0
0
SPLINE
5
199
100
AcDbEntity
8
1
62
256
6
ByLayer
370
13
48
1
60
0
100
AcDbSpline
70
4
71
3
72
12
73
8
40
0
40
0
40
0
40
0
40
0.432851996086571
40
0.432851996086571
40
0.716418616561771
40
0.716418616561771
40
1
40
1
40
1
40
1
41
1
10
25.8151325614845
20
9.95581819602006
30
0
41
1
10
25.8046568328338
20
9.95271858550876
30
0
41
1
10
25.7941840602843
20
9.94961481384456
30
0
41
1
10
25.7768579385477
20
9.9444755840006
30
0
41
1
10
25.7700018107041
20
9.94244018508479
30
0
41
1
10
25.7562928218783
20
9.93837320481012
30
0
41
1
10
25.7494397680903
20
9.93634142976751
30
0
41
1
10
25.7425891010004
20
9.93431154917451
30
0
0
SPLINE
5
19A
100
AcDbEntity
8
1
62
256
6
ByLayer
370
13
48
1
60
0
100
AcDbSpline
70
4
71
3
72
12
73
8
40
0
40
0
40
0
40
0
40
0.0568772518374259
40
0.0568772518374259
40
0.598921195001127
40
0.598921195001127
40
1
40
1
40
1
40
1
41
1
10
25.7425891010004
20
9.93431154917451
30
0
41
1
10
25.7245515992803
20
9.92896696386515
30
0
41
1
10
25.7065274742933
20
9.92363476304496
30
0
41
1
10
25.5189632613311
20
9.86821938628665
30
0
41
1
10
25.3497242492964
20
9.81872689759501
30
0
41
1
10
25.0764510412475
20
9.73886053124642
30
0
41
1
10
24.9651339164841
20
9.70631980627914
30
0
41
1
10
24.8632877280433
20
9.67637866686229
30
0
0
SPLINE
5
19B
100
AcDbEntity
8
1
62
256
6
ByLayer
370
13
48
1
60
0
100
AcDbSpline
70
4
71
3
72
8
73
4
40
0
40
0
40
0
40
0
40
1
40
1
40
1
40
1
41
1
10
24.8188209596174
20
8.29893124766903
30
0
41
1
10
24.7566840705692
20
8.35133909160086
30
0
41
1
10
24.6964721480719
20
8.4060446878573
30
0
41
1
10
24.6373478591962
20
8.46182903647883
30
0
0
SPLINE
5
19C
100
AcDbEntity
8
1
62
256
6
ByLayer
370
13
48
1
60
0
100
AcDbSpline
70
4
71
3
72
12
73
8
40
0
40
0
40
0
40
0
40
0.430493117721161
40
0.430493117721161
40
0.862618336992714
40
0.862618336992714
40
1
40
1
40
1
40
1
41
1
10
26.1587805434613
20
8.21700205261354
30
0
41
1
10
25.9906987623659
20
8.23225867917677
30
0
41
1
10
25.8215883462256
20
8.26147754984368
30
0
41
1
10
25.5044434955373
20
8.30454263376592
30
0
41
1
10
25.351699988043
20
8.3196759165169
30
0
41
1
10
25.1772887625655
20
8.32083041259983
30
0
41
1
10
25.1365461454505
20
8.31961333299651
30
0
41
1
10
25.0981203716815
20
8.31656652204282
30
0
0
SPLINE
5
19D
100
AcDbEntity
8
1
62
256
6
ByLayer
370
13
48
1
60
0
100
AcDbSpline
70
4
71
3
72
8
73
4
40
0
40
0
40
0
40
0
40
1
40
1
40
1
40
1
41
1
10
24.8188209596174
20
10.2010687523307
30
0
41
1
10
24.7566840705692
20
10.1486609083989
30
0
41
1
10
24.6964721480719
20
10.0939553121424
30
0
41
1
10
24.6373478591962
20
10.0381709635209
30
0
0
SPLINE
5
19E
100
AcDbEntity
8
1
62
256
6
ByLayer
370
13
48
1
60
0
100
AcDbSpline
70
4
71
3
72
12
73
8
40
0
40
0
40
0
40
0
40
0.430493117721161
40
0.430493117721161
40
0.862618336992714
40
0.862618336992714
40
1
40
1
40
1
40
1
41
1
10
26.1587805434613
20
10.2829979473862
30
0
41
1
10
25.9906987623659
20
10.2677413208229
30
0
41
1
10
25.8215883462256
20
10.238522450156
30
0
41
1
10
25.5044434955373
20
10.1954573662338
30
0
41
1
10
25.351699988043
20
10.1803240834828
30
0
41
1
10
25.1772887625655
20
10.1791695873999
30
0
41
1
10
25.1365461454505
20
10.1803866670032
30
0
41
1
10
25.0981203716815
20
10.1834334779569
30
0
0
SPLINE
5
19F
100
AcDbEntity
8
1
62
256
6
ByLayer
370
13
48
1
60
0
100
AcDbSpline
70
4
71
3
72
12
73
8
40
0
40
0
40
0
40
0
40
0.018287446984155
40
0.018287446984155
40
0.429383149668921
40
0.429383149668921
40
1
40
1
40
1
40
1
41
1
10
24.6074254881242
20
8.74213188808378
30
0
41
1
10
24.6075362362871
20
8.74168516931681
30
0
41
1
10
24.6076466703323
20
8.74123192877931
30
0
41
1
10
24.6102522277266
20
8.73035204113799
30
0
41
1
10
24.6125954624431
20
8.7164505571553
30
0
41
1
10
24.6175084652177
20
8.67687315827283
30
0
41
1
10
24.6199051952737
20
8.64798609154607
30
0
41
1
10
24.6216132026688
20
8.61598961440231
30
0
0
SPLINE
5
1A0
100
AcDbEntity
8
1
62
256
6
ByLayer
370
13
48
1
60
0
100
AcDbSpline
70
4
71
3
72
10
73
6
40
0
40
0
40
0
40
0
40
0.318891167720856
40
0.318891167720856
40
1
40
1
40
1
40
1
41
1
10
24.6216132026688
20
8.61598961440231
30
0
41
1
10
24.6224098521602
20
8.60106580480644
30
0
41
1
10
24.6235152334821
20
8.58532606116518
30
0
41
1
10
24.6278307781879
20
8.53501753542974
30
0
41
1
10
24.6321174721149
20
8.49804940566779
30
0
41
1
10
24.6373478591962
20
8.46182903647883
30
0
0
SPLINE
5
1A1
100
AcDbEntity
8
1
62
256
6
ByLayer
370
13
48
1
60
0
100
AcDbSpline
70
4
71
3
72
12
73
8
40
0
40
0
40
0
40
0
40
0.089550281954247
40
0.089550281954247
40
0.695495664143286
40
0.695495664143286
40
1
40
1
40
1
40
1
41
1
10
24.6373478591962
20
10.0381709635209
30
0
41
1
10
24.6366504824215
20
10.0333416375359
30
0
41
1
10
24.6359706281936
20
10.0285083751667
30
0
41
1
10
24.630892834415
20
9.99142178014185
30
0
41
1
10
24.627265294638
20
9.95887316468912
30
0
41
1
10
24.6234116552874
20
9.91319291256394
30
0
41
1
10
24.6223723977324
20
9.89823255318666
30
0
41
1
10
24.6216132026688
20
9.88401038559743
30
0
0
SPLINE
5
1A2
100
AcDbEntity
8
1
62
256
6
ByLayer
370
13
48
1
60
0
100
AcDbSpline
70
4
71
3
72
14
73
10
40
0
40
0
40
0
40
0
40
0.209495302841087
40
0.209495302841087
40
0.672464390491942
40
0.672464390491942
40
0.981903526404807
40
0.981903526404807
40
1
40
1
40
1
40
1
41
1
10
24.6216132026688
20
9.88401038559743
30
0
41
1
10
24.620979510163
20
9.87213928490186
30
0
41
1
10
24.6202559987988
20
9.8607268649115
30
0
41
1
10
24.6176940629879
20
9.82629078711892
30
0
41
1
10
24.6155182997219
20
9.80528174640673
30
0
41
1
10
24.6114230927658
20
9.77684949758185
30
0
41
1
10
24.6096341492854
20
9.76706707682163
30
0
41
1
10
24.6076466700102
20
9.75876807121827
30
0
41
1
10
24.6075362362065
20
9.75831483068234
30
0
41
1
10
24.6074254881242
20
9.75786811191603
30
0
0
SPLINE
5
1A3
100
AcDbEntity
8
1
62
256
6
ByLayer
370
13
48
1
60
0
100
AcDbSpline
70
4
71
3
72
8
73
4
40
0
40
0
40
0
40
0
40
1
40
1
40
1
40
1
41
1
10
24.9582665042276
20
8.45839085458618
30
0
41
1
10
24.9515452911909
20
8.45111146098401
30
0
41
1
10
24.9437211106933
20
8.44234368488168
30
0
41
1
10
24.9350869923575
20
8.43241113250127
30
0
0
SPLINE
5
1A4
100
AcDbEntity
8
1
62
256
6
ByLayer
370
13
48
1
60
0
100
AcDbSpline
70
4
71
3
72
14
73
10
40
0
40
0
40
0
40
0
40
0.448208770210974
40
0.448208770210974
40
0.913122348259776
40
0.913122348259776
40
0.983427664880478
40
0.983427664880478
40
1
40
1
40
1
40
1
41
1
10
24.9350869923623
20
8.43241113249707
30
0
41
1
10
24.9215455531756
20
8.41683327624071
30
0
41
1
10
24.905341588264
20
8.39820420416189
30
0
41
1
10
24.8698920668223
20
8.35749071406406
30
0
41
1
10
24.849983574595
20
8.33464689438273
30
0
41
1
10
24.8270726024479
20
8.3083866357199
30
0
41
1
10
24.8240126344075
20
8.30487989639735
30
0
41
1
10
24.8202420283415
20
8.30055945032598
30
0
41
1
10
24.8195314790726
20
8.29974534694537
30
0
41
1
10
24.818820959616
20
8.29893124767023
30
0
0
SPLINE
5
1A5
100
AcDbEntity
8
1
62
256
6
ByLayer
370
13
48
1
60
0
100
AcDbSpline
70
4
71
3
72
8
73
4
40
0
40
0
40
0
40
0
40
1
40
1
40
1
40
1
41
1
10
24.9582665042276
20
10.0416091454136
30
0
41
1
10
24.9515452911909
20
10.0488885390157
30
0
41
1
10
24.9437211106933
20
10.057656315118
30
0
41
1
10
24.9350869923575
20
10.0675888674984
30
0
0
SPLINE
5
1A6
100
AcDbEntity
8
1
62
256
6
ByLayer
370
13
48
1
60
0
100
AcDbSpline
70
4
71
3
72
14
73
10
40
0
40
0
40
0
40
0
40
0.448209783482341
40
0.448209783482341
40
0.913122824433937
40
0.913122824433937
40
0.983427843025058
40
0.983427843025058
40
1
40
1
40
1
40
1
41
1
10
24.9951729104534
20
8.3142670223119
30
0
41
1
10
24.9746094473681
20
8.31247854644343
30
0
41
1
10
24.9500116922507
20
8.31033928783958
30
0
41
1
10
24.8962303412136
20
8.30566227372998
30
0
41
1
10
24.8660425013692
20
8.30303720146355
30
0
41
1
10
24.8313234526433
20
8.30001833523548
30
0
41
1
10
24.8266868400137
20
8.29961518023376
30
0
41
1
10
24.8209739567194
20
8.29911844867181
30
0
41
1
10
24.8198974468538
20
8.29902484730707
30
0
41
1
10
24.8188209596194
20
8.29893124766909
30
0
0
SPLINE
5
1A7
100
AcDbEntity
8
1
62
256
6
ByLayer
370
13
48
1
60
0
100
AcDbSpline
70
4
71
3
72
14
73
10
40
0
40
0
40
0
40
0
40
0.448208770210974
40
0.448208770210974
40
0.913122348259776
40
0.913122348259776
40
0.983427664880478
40
0.983427664880478
40
1
40
1
40
1
40
1
41
1
10
24.9350869923623
20
10.0675888675026
30
0
41
1
10
24.9215455531756
20
10.083166723759
30
0
41
1
10
24.905341588264
20
10.1017957958378
30
0
41
1
10
24.8698920668223
20
10.1425092859357
30
0
41
1
10
24.849983574595
20
10.165353105617
30
0
41
1
10
24.8270726024479
20
10.1916133642798
30
0
41
1
10
24.8240126344075
20
10.1951201036024
30
0
41
1
10
24.8202420283415
20
10.1994405496737
30
0
41
1
10
24.8195314790726
20
10.2002546530543
30
0
41
1
10
24.818820959616
20
10.2010687523295
30
0
0
SPLINE
5
1A8
100
AcDbEntity
8
1
62
256
6
ByLayer
370
13
48
1
60
0
100
AcDbSpline
70
4
71
3
72
14
73
10
40
0
40
0
40
0
40
0
40
0.448209783482341
40
0.448209783482341
40
0.913122824433937
40
0.913122824433937
40
0.983427843025058
40
0.983427843025058
40
1
40
1
40
1
40
1
41
1
10
24.9951729104534
20
10.1857329776878
30
0
41
1
10
24.9746094473681
20
10.1875214535563
30
0
41
1
10
24.9500116922507
20
10.1896607121601
30
0
41
1
10
24.8962303412136
20
10.1943377262697
30
0
41
1
10
24.8660425013692
20
10.1969627985362
30
0
41
1
10
24.8313234526433
20
10.1999816647643
30
0
41
1
10
24.8266868400137
20
10.200384819766
30
0
41
1
10
24.8209739567194
20
10.2008815513279
30
0
41
1
10
24.8198974468538
20
10.2009751526926
30
0
41
1
10
24.8188209596194
20
10.2010687523307
30
0
0
SPLINE
5
1A9
100
AcDbEntity
8
1
62
256
6
ByLayer
370
13
48
1
60
0
100
AcDbSpline
70
4
71
3
72
12
73
8
40
0
40
0
40
0
40
0
40
0.37350315843554
40
0.37350315843554
40
0.795694705497851
40
0.795694705497851
40
1
40
1
40
1
40
1
41
1
10
24.6593856798131
20
9.71359192728326
30
0
41
1
10
24.6710534635609
20
9.70770942371914
30
0
41
1
10
24.6816831597665
20
9.70077703989574
30
0
41
1
10
24.7006200088993
20
9.68334311460487
30
0
41
1
10
24.7085333602959
20
9.67226243447172
30
0
41
1
10
24.7143528017275
20
9.65306391639604
30
0
41
1
10
24.7153239472323
20
9.64628000799902
30
0
41
1
10
24.7152169044539
20
9.63916090088395
30
0
0
SPLINE
5
1AA
100
AcDbEntity
8
1
62
256
6
ByLayer
370
13
48
1
60
0
100
AcDbSpline
70
4
71
3
72
12
73
8
40
0
40
0
40
0
40
0
40
0.0542763744367155
40
0.0542763744367155
40
0.496521492455521
40
0.496521492455521
40
1
40
1
40
1
40
1
41
1
10
24.7152169044538
20
9.63916090088387
30
0
41
1
10
24.7151561390062
20
9.63511956584756
30
0
41
1
10
24.7151785928067
20
9.63098437464865
30
0
41
1
10
24.716167948326
20
9.59293789240456
30
0
41
1
10
24.722955092354
20
9.5526628927127
30
0
41
1
10
24.7518066817856
20
9.46349232373368
30
0
41
1
10
24.7764269684705
20
9.41252200754428
30
0
41
1
10
24.8087083957605
20
9.36587696886937
30
0
0
SPLINE
5
1AB
100
AcDbEntity
8
1
62
256
6
ByLayer
370
13
48
1
60
0
100
AcDbSpline
70
4
71
3
72
16
73
12
40
0
40
0
40
0
40
0
40
0.298315131809684
40
0.298315131809684
40
0.533632825549725
40
0.533632825549725
40
0.64077898617517
40
0.64077898617517
40
0.930881665385067
40
0.930881665385067
40
1
40
1
40
1
40
1
41
1
10
24.8087083957605
20
9.36587696886937
30
0
41
1
10
24.8224586946462
20
9.34600847861978
30
0
41
1
10
24.8344062486955
20
9.32392458447879
30
0
41
1
10
24.8474662168349
20
9.28156881211322
30
0
41
1
10
24.8502777390208
20
9.261376154158
30
0
41
1
10
24.8488025034955
20
9.23260406621333
30
0
41
1
10
24.8475581030794
20
9.22352172937289
30
0
41
1
10
24.8404854878039
20
9.19102839346482
30
0
41
1
10
24.8303316191891
20
9.16854722723167
30
0
41
1
10
24.8150440331609
20
9.14354042381294
30
0
41
1
10
24.8119321889308
20
9.1387812501045
30
0
41
1
10
24.8087083957605
20
9.13412303113037
30
0
0
SPLINE
5
1AC
100
AcDbEntity
8
1
62
256
6
ByLayer
370
13
48
1
60
0
100
AcDbSpline
70
4
71
3
72
12
73
8
40
0
40
0
40
0
40
0
40
0.072400628024118
40
0.072400628024118
40
0.542681200842481
40
0.542681200842481
40
1
40
1
40
1
40
1
41
1
10
24.8087083957605
20
9.13412303113037
30
0
41
1
10
24.8039784382182
20
9.12728848039896
30
0
41
1
10
24.7994173867099
20
9.12038158417735
30
0
41
1
10
24.7670358688113
20
9.06899857685531
30
0
41
1
10
24.7459582481576
20
9.02154631434988
30
0
41
1
10
24.7202219966361
20
8.93493893254606
30
0
41
1
10
24.7147143497319
20
8.89426256730081
30
0
41
1
10
24.7152169044538
20
8.86083909911568
30
0
0
SPLINE
5
1AD
100
AcDbEntity
8
1
62
256
6
ByLayer
370
13
48
1
60
0
100
AcDbSpline
70
4
71
3
72
10
73
6
40
0
40
0
40
0
40
0
40
0.334030053675942
40
0.334030053675942
40
1
40
1
40
1
40
1
41
1
10
24.7152169044538
20
8.86083909911568
30
0
41
1
10
24.7153918659962
20
8.84920291047834
30
0
41
1
10
24.712626158964
20
8.8384604046382
30
0
41
1
10
24.697958335975
20
8.81066492037723
30
0
41
1
10
24.6800208663976
20
8.79681163874517
30
0
41
1
10
24.6593856798131
20
8.78640807271645
30
0
0
SPLINE
5
1AE
100
AcDbEntity
8
1
62
256
6
ByLayer
370
13
48
1
60
0
100
AcDbSpline
70
4
71
3
72
8
73
4
40
0
40
0
40
0
40
0
40
1
40
1
40
1
40
1
41
1
10
23.6664455980651
20
8.86360308959206
30
0
41
1
10
23.6610646480122
20
8.8841052019819
30
0
41
1
10
23.6558908241367
20
8.9071603280149
30
0
41
1
10
23.6526147090177
20
8.93215659695952
30
0
0
SPLINE
5
1AF
100
AcDbEntity
8
1
62
256
6
ByLayer
370
13
48
1
60
0
100
AcDbSpline
70
4
71
3
72
8
73
4
40
0
40
0
40
0
40
0
40
1
40
1
40
1
40
1
41
1
10
23.6526147090177
20
8.93215659695952
30
0
41
1
10
23.673102639149
20
8.93792831793132
30
0
41
1
10
23.6938876855839
20
8.94330920327926
30
0
41
1
10
23.7148664719513
20
8.94833535122396
30
0
0
SPLINE
5
1B0
100
AcDbEntity
8
1
62
256
6
ByLayer
370
13
48
1
60
0
100
AcDbSpline
70
4
71
3
72
8
73
4
40
0
40
0
40
0
40
0
40
1
40
1
40
1
40
1
41
1
10
23.7148664719505
20
8.94833535122856
30
0
41
1
10
23.7178417098663
20
8.94904816586299
30
0
41
1
10
23.7208179657886
20
8.94976070584406
30
0
41
1
10
23.723795214021
20
8.95047297712435
30
0
0
SPLINE
5
1B1
100
AcDbEntity
8
1
62
256
6
ByLayer
370
13
48
1
60
0
100
AcDbSpline
70
4
71
3
72
28
73
24
40
0
40
0
40
0
40
0
40
0.0824331628013926
40
0.0824331628013926
40
0.235485992714892
40
0.235485992714892
40
0.365353750303328
40
0.365353750303328
40
0.450881865339947
40
0.450881865339947
40
0.480850336949852
40
0.480850336949852
40
0.574325592928214
40
0.574325592928214
40
0.597106041801673
40
0.597106041801673
40
0.701976945932075
40
0.701976945932075
40
0.720205522192435
40
0.720205522192435
40
0.850377367168771
40
0.850377367168771
40
1
40
1
40
1
40
1
41
1
10
23.723795214021
20
8.95047297712435
30
0
41
1
10
23.747791077577
20
8.95621370249302
30
0
41
1
10
23.7712519946269
20
8.9634339451529
30
0
41
1
10
23.8351496262034
20
8.98865108690083
30
0
41
1
10
23.8740994363459
20
9.0110189582393
30
0
41
1
10
23.9349325388924
20
9.06470548315838
30
0
41
1
10
23.9592944515774
20
9.095032320852
30
0
41
1
10
23.9879457247085
20
9.15253309803936
30
0
41
1
10
23.9964642542704
20
9.1778747010284
30
0
41
1
10
24.0026326894441
20
9.21315153802499
30
0
41
1
10
24.0037700606156
20
9.22252519506853
30
0
41
1
10
24.0063614612623
20
9.26076682500678
30
0
41
1
10
24.0034520633989
20
9.29056290234686
30
0
41
1
10
23.9943898978956
20
9.32501339889905
30
0
41
1
10
23.992324401658
20
9.33176725012157
30
0
41
1
10
23.9795450947274
20
9.36842706949946
30
0
41
1
10
23.9637586656492
20
9.39626752866837
30
0
41
1
10
23.9414347991992
20
9.42444641635169
30
0
41
1
10
23.937982466813
20
9.42856657711485
30
0
41
1
10
23.9094104165165
20
9.46088419304348
30
0
41
1
10
23.8792041383534
20
9.48423753076466
30
0
41
1
10
23.808915041613
20
9.52387673294774
30
0
41
1
10
23.7671153730993
20
9.53916318930817
30
0
41
1
10
23.723795214021
20
9.54952702287537
30
0
0
SPLINE
5
1B2
100
AcDbEntity
8
1
62
256
6
ByLayer
370
13
48
1
60
0
100
AcDbSpline
70
4
71
3
72
8
73
4
40
0
40
0
40
0
40
0
40
1
40
1
40
1
40
1
41
1
10
23.723795214021
20
9.54952702287537
30
0
41
1
10
23.7208179657886
20
9.55023929415566
30
0
41
1
10
23.7178417098663
20
9.55095183413673
30
0
41
1
10
23.7148664719505
20
9.55166464877115
30
0
0
SPLINE
5
1B3
100
AcDbEntity
8
1
62
256
6
ByLayer
370
13
48
1
60
0
100
AcDbSpline
70
4
71
3
72
8
73
4
40
0
40
0
40
0
40
0
40
1
40
1
40
1
40
1
41
1
10
23.7148664719505
20
9.55166464877115
30
0
41
1
10
23.6938876855831
20
9.55669079671586
30
0
41
1
10
23.6731026391491
20
9.56207168207325
30
0
41
1
10
23.6526147090179
20
9.56784340304503
30
0
0
SPLINE
5
1B4
100
AcDbEntity
8
1
62
256
6
ByLayer
370
13
48
1
60
0
100
AcDbSpline
70
4
71
3
72
10
73
6
40
0
40
0
40
0
40
0
40
0.151242748517103
40
0.151242748517103
40
1
40
1
40
1
40
1
41
1
10
23.6526147090177
20
9.5678434030402
30
0
41
1
10
23.6531149923946
20
9.57166049046947
30
0
41
1
10
23.6536590318523
20
9.57543074639648
30
0
41
1
10
23.6574716522986
20
9.59981137172872
30
0
41
1
10
23.661882755891
20
9.61901189435062
30
0
41
1
10
23.6664455980651
20
9.63639691040765
30
0
0
SPLINE
5
1B5
100
AcDbEntity
8
1
62
256
6
ByLayer
370
13
48
1
60
0
100
AcDbSpline
70
4
71
3
72
14
73
10
40
0
40
0
40
0
40
0
40
0.0180992437321471
40
0.0180992437321471
40
0.327555555031554
40
0.327555555031554
40
0.783089016631575
40
0.783089016631575
40
1
40
1
40
1
40
1
41
1
10
24.6074254881242
20
9.75786811191603
30
0
41
1
10
24.6084604407255
20
9.75813196911474
30
0
41
1
10
24.6094951241648
20
9.75840232414626
30
0
41
1
10
24.6281664148289
20
9.76340115851937
30
0
41
1
10
24.6457666302327
20
9.77006058901449
30
0
41
1
10
24.6877311305172
20
9.79074662674688
30
0
41
1
10
24.7118879593939
20
9.80702271063419
30
0
41
1
10
24.7442130974435
20
9.83548534660122
30
0
41
1
10
24.7542531544874
20
9.84545869744446
30
0
41
1
10
24.763694843021
20
9.85602246753538
30
0
0
SPLINE
5
1B6
100
AcDbEntity
8
1
62
256
6
ByLayer
370
13
48
1
60
0
100
AcDbSpline
70
4
71
3
72
12
73
8
40
0
40
0
40
0
40
0
40
0.0182847240742239
40
0.0182847240742239
40
0.429358008400497
40
0.429358008400497
40
1
40
1
40
1
40
1
41
1
10
24.6074254881188
20
8.74213188807718
30
0
41
1
10
24.6084604407251
20
8.74186803088054
30
0
41
1
10
24.6094951241747
20
8.74159767585456
30
0
41
1
10
24.6339733233843
20
8.73504416723947
30
0
41
1
10
24.6574007313325
20
8.72530486160682
30
0
41
1
10
24.7101056255247
20
8.6951449416859
30
0
41
1
10
24.7391079375758
20
8.6714864272395
30
0
41
1
10
24.763694843021
20
8.64397753246436
30
0
0
SPLINE
5
1B7
100
AcDbEntity
8
1
62
256
6
ByLayer
370
13
48
1
60
0
100
AcDbSpline
70
4
71
3
72
16
73
12
40
0
40
0
40
0
40
0
40
0.266114531305344
40
0.266114531305344
40
0.459598281789052
40
0.459598281789052
40
0.654681344527544
40
0.654681344527544
40
0.849490422247785
40
0.849490422247785
40
1
40
1
40
1
40
1
41
1
10
23.5825725191291
20
9.79095567457077
30
0
41
1
10
23.5735711562899
20
9.78738422304778
30
0
41
1
10
23.564076996927
20
9.78484811823532
30
0
41
1
10
23.5475300168957
20
9.78338317838828
30
0
41
1
10
23.5404025170203
20
9.78367180938812
30
0
41
1
10
23.5266373127103
20
9.78655636069632
30
0
41
1
10
23.5198551395322
20
9.78922857903385
30
0
41
1
10
23.5077423483698
20
9.79681604144483
30
0
41
1
10
23.502261079234
20
9.80181772141228
30
0
41
1
10
23.4941824291229
20
9.811951400993
30
0
41
1
10
23.491139239586
20
9.81686798915428
30
0
41
1
10
23.4886123585658
20
9.82202393924908
30
0
0
SPLINE
5
1B8
100
AcDbEntity
8
1
62
256
6
ByLayer
370
13
48
1
60
0
100
AcDbSpline
70
4
71
3
72
8
73
4
40
0
40
0
40
0
40
0
40
1
40
1
40
1
40
1
41
1
10
23.4886123585656
20
9.82202393924888
30
0
41
1
10
23.4362826886598
20
9.92879951132929
30
0
41
1
10
23.3808772994327
20
10.0343067771633
30
0
41
1
10
23.3172833606159
20
10.1339172375136
30
0
0
SPLINE
5
1B9
100
AcDbEntity
8
1
62
256
6
ByLayer
370
13
48
1
60
0
100
AcDbSpline
70
4
71
3
72
8
73
4
40
0
40
0
40
0
40
0
40
1
40
1
40
1
40
1
41
1
10
23.3172833606115
20
8.36608276247242
30
0
41
1
10
23.3808772994312
20
8.46569322282633
30
0
41
1
10
23.4362826886578
20
8.57120048866622
30
0
41
1
10
23.4886123585656
20
8.67797606075081
30
0
0
SPLINE
5
1BA
100
AcDbEntity
8
1
62
256
6
ByLayer
370
13
48
1
60
0
100
AcDbSpline
70
4
71
3
72
16
73
12
40
0
40
0
40
0
40
0
40
0.0863584761048735
40
0.0863584761048735
40
0.277083676707827
40
0.277083676707827
40
0.497685001356078
40
0.497685001356078
40
0.715930577764417
40
0.715930577764417
40
1
40
1
40
1
40
1
41
1
10
23.4886123585656
20
8.67797606075081
30
0
41
1
10
23.4900705944436
20
8.68095150413475
30
0
41
1
10
23.4916961209683
20
8.68384205656116
30
0
41
1
10
23.4974070451895
20
8.69264308767646
30
0
41
1
10
23.5022173965363
20
8.69815267871513
30
0
41
1
10
23.5139979851071
20
8.70773088656736
30
0
41
1
10
23.5213908281854
20
8.7115696222144
30
0
41
1
10
23.53664646247
20
8.71596424469536
30
0
41
1
10
23.544705300207
20
8.71665397901691
30
0
41
1
10
23.5627947729503
20
8.71548884898314
30
0
41
1
10
23.5729718531551
20
8.71285356117767
30
0
41
1
10
23.5825725191291
20
8.70904432542895
30
0
0
SPLINE
5
1BB
100
AcDbEntity
8
1
62
256
6
ByLayer
370
13
48
1
60
0
100
AcDbSpline
70
4
71
3
72
8
73
4
40
0
40
0
40
0
40
0
40
1
40
1
40
1
40
1
41
1
10
24.6593856798131
20
8.78640807271645
30
0
41
1
10
24.642634420939
20
8.77153863523077
30
0
41
1
10
24.6252541290506
20
8.75678875032801
30
0
41
1
10
24.6074254881233
20
8.74213188808102
30
0
0
SPLINE
5
1BC
100
AcDbEntity
8
1
62
256
6
ByLayer
370
13
48
1
60
0
100
AcDbSpline
70
4
71
3
72
8
73
4
40
0
40
0
40
0
40
0
40
1
40
1
40
1
40
1
41
1
10
24.6074254881233
20
9.7578681119187
30
0
41
1
10
24.6252541290506
20
9.7432112496717
30
0
41
1
10
24.642634420939
20
9.72846136476898
30
0
41
1
10
24.6593856798131
20
9.71359192728326
30
0
0
SPLINE
5
1BD
100
AcDbEntity
8
1
62
256
6
ByLayer
370
13
48
1
60
0
100
AcDbSpline
70
4
71
3
72
8
73
4
40
0
40
0
40
0
40
0
40
1
40
1
40
1
40
1
41
1
10
24.9968964503546
20
8.31463620341793
30
0
41
1
10
24.9963107228281
20
8.31464959811822
30
0
41
1
10
24.9957150920118
20
8.31454276657007
30
0
41
1
10
24.9951729104352
20
8.31426702308715
30
0
0
SPLINE
5
1BE
100
AcDbEntity
8
1
62
256
6
ByLayer
370
13
48
1
60
0
100
AcDbSpline
70
4
71
3
72
8
73
4
40
0
40
0
40
0
40
0
40
1
40
1
40
1
40
1
41
1
10
25.0981203716815
20
8.31656652204282
30
0
41
1
10
25.0644516713932
20
8.31458900814127
30
0
41
1
10
25.0306859121296
20
8.31386348967061
30
0
41
1
10
24.996896450355
20
8.31463620341793
30
0
0
SPLINE
5
1BF
100
AcDbEntity
8
1
62
256
6
ByLayer
370
13
48
1
60
0
100
AcDbSpline
70
4
71
3
72
8
73
4
40
0
40
0
40
0
40
0
40
1
40
1
40
1
40
1
41
1
10
24.9968964503546
20
10.1853637965818
30
0
41
1
10
24.9963107228281
20
10.1853504018815
30
0
41
1
10
24.9957150920118
20
10.1854572334296
30
0
41
1
10
24.9951729104352
20
10.1857329769126
30
0
0
SPLINE
5
1C0
100
AcDbEntity
8
1
62
256
6
ByLayer
370
13
48
1
60
0
100
AcDbSpline
70
4
71
3
72
8
73
4
40
0
40
0
40
0
40
0
40
1
40
1
40
1
40
1
41
1
10
25.0981203716815
20
10.1834334779569
30
0
41
1
10
25.0644516713932
20
10.1854109918585
30
0
41
1
10
25.0306859121296
20
10.1861365103291
30
0
41
1
10
24.996896450355
20
10.1853637965818
30
0
0
SPLINE
5
1C1
100
AcDbEntity
8
1
62
256
6
ByLayer
370
13
48
1
60
0
100
AcDbSpline
70
4
71
3
72
12
73
8
40
0
40
0
40
0
40
0
40
0.4751334286001
40
0.4751334286001
40
0.932572567163114
40
0.932572567163114
40
1
40
1
40
1
40
1
41
1
10
24.863287728043
20
8.82362133313603
30
0
41
1
10
24.8681706116841
20
8.85161009669969
30
0
41
1
10
24.8754113106087
20
8.88689176860737
30
0
41
1
10
24.8979694230475
20
8.96332301899182
30
0
41
1
10
24.9132711544947
20
9.00519028389019
30
0
41
1
10
24.9372384178265
20
9.0523706808446
30
0
41
1
10
24.940483523696
20
9.05849737611265
30
0
41
1
10
24.9438616980139
20
9.06459684980487
30
0
0
SPLINE
5
1C2
100
AcDbEntity
8
1
62
256
6
ByLayer
370
13
48
1
60
0
100
AcDbSpline
70
4
71
3
72
12
73
8
40
0
40
0
40
0
40
0
40
0.317065405549387
40
0.317065405549387
40
0.935122454125188
40
0.935122454125188
40
1
40
1
40
1
40
1
41
1
10
24.9438616980199
20
9.0645968497999
30
0
41
1
10
25.0265429048384
20
9.04797483162653
30
0
41
1
10
25.1144360245088
20
9.02969027494763
30
0
41
1
10
25.382412259695
20
8.97248473404045
30
0
41
1
10
25.5751745905629
20
8.92949081080727
30
0
41
1
10
25.7879205279659
20
8.87966045767047
30
0
41
1
10
25.8084174418277
20
8.87483464921283
30
0
41
1
10
25.8289221872925
20
8.86998009483548
30
0
0
SPLINE
5
1C3
100
AcDbEntity
8
1
62
256
6
ByLayer
370
13
48
1
60
0
100
AcDbSpline
70
4
71
3
72
12
73
8
40
0
40
0
40
0
40
0
40
0.485156157749666
40
0.485156157749666
40
0.94199112372415
40
0.94199112372415
40
1
40
1
40
1
40
1
41
1
10
24.9438616980129
20
9.43540315019615
30
0
41
1
10
24.9199171752549
20
9.47863626160282
30
0
41
1
10
24.902462416397
20
9.52364847052269
30
0
41
1
10
24.8781770476215
20
9.60214051613511
30
0
41
1
10
24.8704660180376
20
9.63718290111183
30
0
41
1
10
24.8645310175683
20
9.66934369400667
30
0
41
1
10
24.8638924892732
20
9.67291216626137
30
0
41
1
10
24.8632877280431
20
9.67637866686343
30
0
0
SPLINE
5
1C4
100
AcDbEntity
8
1
62
256
6
ByLayer
370
13
48
1
60
0
100
AcDbSpline
70
4
71
3
72
12
73
8
40
0
40
0
40
0
40
0
40
0.317065405549387
40
0.317065405549387
40
0.935122454125188
40
0.935122454125188
40
1
40
1
40
1
40
1
41
1
10
24.9438616980199
20
9.43540315019985
30
0
41
1
10
25.0265429048384
20
9.45202516837318
30
0
41
1
10
25.1144360245088
20
9.47030972505209
30
0
41
1
10
25.382412259695
20
9.52751526595929
30
0
41
1
10
25.5751745905629
20
9.57050918919248
30
0
41
1
10
25.7879205279659
20
9.62033954232925
30
0
41
1
10
25.8084174418277
20
9.62516535078689
30
0
41
1
10
25.8289221872925
20
9.63001990516423
30
0
0
SPLINE
5
1C5
100
AcDbEntity
8
1
62
256
6
ByLayer
370
13
48
1
60
0
100
AcDbSpline
70
4
71
3
72
16
73
12
40
0
40
0
40
0
40
0
40
0.261377990657867
40
0.261377990657867
40
0.481934515979472
40
0.481934515979472
40
0.715311182526725
40
0.715311182526725
40
0.913572471675964
40
0.913572471675964
40
1
40
1
40
1
40
1
41
1
10
23.6664455980651
20
8.86360308959206
30
0
41
1
10
23.6382650854169
20
8.86585755395114
30
0
41
1
10
23.609482210257
20
8.86468175158788
30
0
41
1
10
23.5583119591352
20
8.85621266684663
30
0
41
1
10
23.5352599904952
20
8.84983591176265
30
0
41
1
10
23.4908020800965
20
8.83196437887531
30
0
41
1
10
23.4691978826307
20
8.82003580965696
30
0
41
1
10
23.4336106141681
20
8.79376375152046
30
0
41
1
10
23.4187432156444
20
8.77988281321947
30
0
41
1
10
23.4003266032143
20
8.75802013542955
30
0
41
1
10
23.3950841229876
20
8.75108145913671
30
0
41
1
10
23.3902464010371
20
8.74391418980338
30
0
0
SPLINE
5
1C6
100
AcDbEntity
8
1
62
256
6
ByLayer
370
13
48
1
60
0
100
AcDbSpline
70
4
71
3
72
16
73
12
40
0
40
0
40
0
40
0
40
0.151923161221768
40
0.151923161221768
40
0.356831087868239
40
0.356831087868239
40
0.562343627100699
40
0.562343627100699
40
0.755962877954035
40
0.755962877954035
40
1
40
1
40
1
40
1
41
1
10
23.3902464010371
20
9.75608581019631
30
0
41
1
10
23.3987219344628
20
9.74352898460211
30
0
41
1
10
23.4084607018455
20
9.73165770563807
30
0
41
1
10
23.4337693949216
20
9.70602281916393
30
0
41
1
10
23.4503767517157
20
9.69285384502413
30
0
41
1
10
23.4864721144675
20
9.6704756252457
30
0
41
1
10
23.5062083156533
20
9.66112473256231
30
0
41
1
10
23.5462120188596
20
9.64710484587374
30
0
41
1
10
23.5666130313182
20
9.64211183574659
30
0
41
1
10
23.6132843685346
20
9.63517333244775
30
0
41
1
10
23.640119169739
20
9.63429077433028
30
0
41
1
10
23.6664455980651
20
9.63639691040765
30
0
0
SPLINE
5
1C7
100
AcDbEntity
8
1
62
256
6
ByLayer
370
13
48
1
60
0
100
AcDbSpline
70
4
71
3
72
10
73
6
40
0
40
0
40
0
40
0
40
0.416310615910619
40
0.416310615910619
40
1
40
1
40
1
40
1
41
1
10
23.3887490202787
20
8.88200211971775
30
0
41
1
10
23.3881183420049
20
8.86168797922588
30
0
41
1
10
23.387913339444
20
8.84173141239418
30
0
41
1
10
23.3882249830663
20
8.79512550690367
30
0
41
1
10
23.3890616222185
20
8.76885841278445
30
0
41
1
10
23.3902464010372
20
8.74391418980335
30
0
0
SPLINE
5
1C8
100
AcDbEntity
8
1
62
256
6
ByLayer
370
13
48
1
60
0
100
AcDbSpline
70
4
71
3
72
8
73
4
40
0
40
0
40
0
40
0
40
1
40
1
40
1
40
1
41
1
10
23.3887490202787
20
8.88200211971775
30
0
41
1
10
23.4019833816743
20
8.88877127902362
30
0
41
1
10
23.4170039201152
20
8.89578229938425
30
0
41
1
10
23.4333034256005
20
8.90262148804231
30
0
0
SPLINE
5
1C9
100
AcDbEntity
8
1
62
256
6
ByLayer
370
13
48
1
60
0
100
AcDbSpline
70
4
71
3
72
14
73
10
40
0
40
0
40
0
40
0
40
0.374928384423448
40
0.374928384423448
40
0.811710849728661
40
0.811710849728661
40
0.984903138272893
40
0.984903138272893
40
1
40
1
40
1
40
1
41
1
10
23.4333034255968
20
8.90262148803856
30
0
41
1
10
23.4561224099594
20
8.9121962164968
30
0
41
1
10
23.4818640226197
20
8.91985701309841
30
0
41
1
10
23.5403666129892
20
8.93137622053914
30
0
41
1
10
23.5743985825837
20
8.93456608545503
30
0
41
1
10
23.6218660913332
20
8.93426972525938
30
0
41
1
10
23.6355336219257
20
8.93364615591454
30
0
41
1
10
23.6502708355023
20
8.93237176854416
30
0
41
1
10
23.6514431034481
20
8.93226640854195
30
0
41
1
10
23.6526147090185
20
8.9321565969598
30
0
0
SPLINE
5
1CA
100
AcDbEntity
8
1
62
256
6
ByLayer
370
13
48
1
60
0
100
AcDbSpline
70
4
71
3
72
14
73
10
40
0
40
0
40
0
40
0
40
0.437747259254554
40
0.437747259254554
40
0.876374424145627
40
0.876374424145627
40
0.984868425798996
40
0.984868425798996
40
1
40
1
40
1
40
1
41
1
10
23.4333034255968
20
9.59737851196118
30
0
41
1
10
23.4598845893819
20
9.58622519236843
30
0
41
1
10
23.4905059503584
20
9.57766271815785
30
0
41
1
10
23.5548008624908
20
9.56698870632053
30
0
41
1
10
23.5893598844025
20
9.56474465899097
30
0
41
1
10
23.6320199308043
20
9.56626982143834
30
0
41
1
10
23.6405771269361
20
9.56678997662689
30
0
41
1
10
23.6502708354998
20
9.56762823149757
30
0
41
1
10
23.6514431034474
20
9.56773359146837
30
0
41
1
10
23.6526147090185
20
9.56784340303992
30
0
0
SPLINE
5
1CB
100
AcDbEntity
8
1
62
256
6
ByLayer
370
13
48
1
60
0
100
AcDbSpline
70
4
71
3
72
8
73
4
40
0
40
0
40
0
40
0
40
1
40
1
40
1
40
1
41
1
10
23.3887490202787
20
9.61799788028196
30
0
41
1
10
23.4019833816743
20
9.61122872097613
30
0
41
1
10
23.4170039201152
20
9.60421770061546
30
0
41
1
10
23.4333034256005
20
9.5973785119574
30
0
0
SPLINE
5
1CC
100
AcDbEntity
8
1
62
256
6
ByLayer
370
13
48
1
60
0
100
AcDbSpline
70
4
71
3
72
10
73
6
40
0
40
0
40
0
40
0
40
0.583689384089929
40
0.583689384089929
40
1
40
1
40
1
40
1
41
1
10
23.3902464010371
20
9.75608581019631
30
0
41
1
10
23.3890616222185
20
9.73114158721523
30
0
41
1
10
23.3882249830663
20
9.70487449309601
30
0
41
1
10
23.387913339444
20
9.65826858760556
30
0
41
1
10
23.3881183420068
20
9.63831202077583
30
0
41
1
10
23.3887490202806
20
9.61799788028398
30
0
0
SPLINE
5
1CD
100
AcDbEntity
8
1
62
256
6
ByLayer
370
13
48
1
60
0
100
AcDbSpline
70
4
71
3
72
12
73
8
40
0
40
0
40
0
40
0
40
0.0293465478546648
40
0.0293465478546648
40
0.716199296865611
40
0.716199296865611
40
1
40
1
40
1
40
1
41
1
10
23.3172833606159
20
10.1339172375136
30
0
41
1
10
23.3164151127
20
10.1333880477085
30
0
41
1
10
23.3155496765878
20
10.1328589381973
30
0
41
1
10
23.2947885333712
20
10.120117244875
30
0
41
1
10
23.2762446429395
20
10.1076860493391
30
0
41
1
10
23.2544391961912
20
10.0914831342276
30
0
41
1
10
23.2484807608145
20
10.0868256015917
30
0
41
1
10
23.2431084369489
20
10.0823796559061
30
0
0
SPLINE
5
1CE
100
AcDbEntity
8
1
62
256
6
ByLayer
370
13
48
1
60
0
100
AcDbSpline
70
4
71
3
72
8
73
4
40
0
40
0
40
0
40
0
40
1
40
1
40
1
40
1
41
1
10
23.2347524090112
20
10.0759843313458
30
0
41
1
10
23.2914003240087
20
9.9719070175353
30
0
41
1
10
23.3417769804954
20
9.86431164601728
30
0
41
1
10
23.3902464010371
20
9.75608581019631
30
0
0
SPLINE
5
1CF
100
AcDbEntity
8
1
62
256
6
ByLayer
370
13
48
1
60
0
100
AcDbSpline
70
4
71
3
72
8
73
4
40
0
40
0
40
0
40
0
40
1
40
1
40
1
40
1
41
1
10
23.2431084369489
20
10.0823796559061
30
0
41
1
10
23.2402587641267
20
10.0800213672226
30
0
41
1
10
23.2374665445717
20
10.0778845453609
30
0
41
1
10
23.2347524090112
20
10.0759843313458
30
0
0
SPLINE
5
1D0
100
AcDbEntity
8
1
62
256
6
ByLayer
370
13
48
1
60
0
100
AcDbSpline
70
4
71
3
72
12
73
8
40
0
40
0
40
0
40
0
40
0.0294712126629231
40
0.0294712126629231
40
0.622158766529877
40
0.622158766529877
40
1
40
1
40
1
40
1
41
1
10
23.3172833606159
20
8.36608276248603
30
0
41
1
10
23.3164151127002
20
8.36661195229257
30
0
41
1
10
23.3155496765894
20
8.36714106180747
30
0
41
1
10
23.2974755734967
20
8.37823364354108
30
0
41
1
10
23.2812985888191
20
8.38894078175755
30
0
41
1
10
23.258396462808
20
8.4054513661427
30
0
41
1
10
23.2502306848161
20
8.41172622304487
30
0
41
1
10
23.2431084369488
20
8.41762034409371
30
0
0
SPLINE
5
1D1
100
AcDbEntity
8
1
62
256
6
ByLayer
370
13
48
1
60
0
100
AcDbSpline
70
4
71
3
72
8
73
4
40
0
40
0
40
0
40
0
40
1
40
1
40
1
40
1
41
1
10
23.2431084369445
20
8.41762034408359
30
0
41
1
10
23.2402587641224
20
8.419978632767
30
0
41
1
10
23.2374665445715
20
8.42211545463903
30
0
41
1
10
23.2347524090112
20
8.42401566865388
30
0
0
SPLINE
5
1D2
100
AcDbEntity
8
1
62
256
6
ByLayer
370
13
48
1
60
0
100
AcDbSpline
70
4
71
3
72
8
73
4
40
0
40
0
40
0
40
0
40
1
40
1
40
1
40
1
41
1
10
23.3902464010372
20
8.74391418980335
30
0
41
1
10
23.3417769804954
20
8.6356883539824
30
0
41
1
10
23.2914003240087
20
8.52809298246441
30
0
41
1
10
23.2347524090112
20
8.42401566865396
30
0
0
SPLINE
5
1D3
100
AcDbEntity
8
1
62
256
6
ByLayer
370
13
48
1
60
0
100
AcDbSpline
70
4
71
3
72
26
73
22
40
0
40
0
40
0
40
0
40
0.0827515238844934
40
0.0827515238844934
40
0.12581559206367
40
0.12581559206367
40
0.250670450127126
40
0.250670450127126
40
0.38565988459967
40
0.38565988459967
40
0.523243120522087
40
0.523243120522087
40
0.658177082710726
40
0.658177082710726
40
0.794420311219042
40
0.794420311219042
40
0.893778828576378
40
0.893778828576378
40
0.931785368228296
40
0.931785368228296
40
1
40
1
40
1
40
1
41
1
10
23.6082223121695
20
9.4473354503649
30
0
41
1
10
23.6214322023479
20
9.44277209633026
30
0
41
1
10
23.6338393291367
20
9.43658961583319
30
0
41
1
10
23.650164463161
20
9.42528894992279
30
0
41
1
10
23.6554067929997
20
9.42102639906096
30
0
41
1
10
23.6741182154141
20
9.40340959461329
30
0
41
1
10
23.6849906535055
20
9.38764479307335
30
0
41
1
10
23.7024421427667
20
9.35154510253008
30
0
41
1
10
23.7088810701152
20
9.33035951411406
30
0
41
1
10
23.7169546526536
20
9.28573559679182
30
0
41
1
10
23.7185900386567
20
9.26160200071556
30
0
41
1
10
23.7169724550515
20
9.21501664016961
30
0
41
1
10
23.7137934005019
20
9.19188671935902
30
0
41
1
10
23.7026256115211
20
9.14923016378694
30
0
41
1
10
23.6944617984535
20
9.12911412743006
30
0
41
1
10
23.6752524001788
20
9.09894455236028
30
0
41
1
10
23.6653654595556
20
9.08735488760615
30
0
41
1
10
23.6489068076275
20
9.07380736356183
30
0
41
1
10
23.6440023231557
20
9.07028231467987
30
0
41
1
10
23.6295383953429
20
9.0613059020661
30
0
41
1
10
23.619153538716
20
9.05644073975381
30
0
41
1
10
23.6082223121695
20
9.05266454963481
30
0
0
SPLINE
5
1D4
100
AcDbEntity
8
1
62
256
6
ByLayer
370
13
48
1
60
0
100
AcDbSpline
70
4
71
3
72
12
73
8
40
0
40
0
40
0
40
0
40
0.0293420255455753
40
0.0293420255455753
40
0.716180168206404
40
0.716180168206404
40
1
40
1
40
1
40
1
41
1
10
23.3172833606159
20
10.1339172375136
30
0
41
1
10
23.3162857859542
20
10.1338356004966
30
0
41
1
10
23.3152910702585
20
10.1337539703256
30
0
41
1
10
23.2914121035417
20
10.1317882020649
30
0
41
1
10
23.2698109573743
20
10.1298735124064
30
0
41
1
10
23.243999341792
20
10.127381515801
30
0
41
1
10
23.2368863779751
20
10.1266656215294
30
0
41
1
10
23.2304097099877
20
10.1259826339721
30
0
0
SPLINE
5
1D5
100
AcDbEntity
8
1
62
256
6
ByLayer
370
13
48
1
60
0
100
AcDbSpline
70
4
71
3
72
14
73
10
40
0
40
0
40
0
40
0
40
0.375382008196676
40
0.375382008196676
40
0.812033352237096
40
0.812033352237096
40
0.984956163702167
40
0.984956163702167
40
1
40
1
40
1
40
1
41
1
10
23.4913621168404
20
9.00045269829653
30
0
41
1
10
23.509071919611
20
9.00131634556502
30
0
41
1
10
23.5286858369909
20
8.99847805653965
30
0
41
1
10
23.5723411561592
20
8.98469207657823
30
0
41
1
10
23.5971677204449
20
8.97231112023397
30
0
41
1
10
23.6310180351576
20
8.94931175384724
30
0
41
1
10
23.6406668461475
20
8.94205263759426
30
0
41
1
10
23.6509791789015
20
8.93352507376599
30
0
41
1
10
23.6517970365626
20
8.93284274916769
30
0
41
1
10
23.6526147090193
20
8.93215659696347
30
0
0
SPLINE
5
1D6
100
AcDbEntity
8
1
62
256
6
ByLayer
370
13
48
1
60
0
100
AcDbSpline
70
4
71
3
72
14
73
10
40
0
40
0
40
0
40
0
40
0.438226381079498
40
0.438226381079498
40
0.876606497754705
40
0.876606497754705
40
0.984922379464605
40
0.984922379464605
40
1
40
1
40
1
40
1
41
1
10
23.4913621168404
20
9.49954730170319
30
0
41
1
10
23.5119904710236
20
9.49854132653934
30
0
41
1
10
23.5352526901999
20
9.50259161523286
30
0
41
1
10
23.5829208610344
20
9.52020284827583
30
0
41
1
10
23.6079577365153
20
9.53400198696505
30
0
41
1
10
23.6381767807407
20
9.55617140156681
30
0
41
1
10
23.6441974945511
20
9.56086695687006
30
0
41
1
10
23.650979178902
20
9.56647492623333
30
0
41
1
10
23.6517970365627
20
9.56715725083191
30
0
41
1
10
23.6526147090193
20
9.56784340303622
30
0
0
SPLINE
5
1D7
100
AcDbEntity
8
1
62
256
6
ByLayer
370
13
48
1
60
0
100
AcDbSpline
70
4
71
3
72
12
73
8
40
0
40
0
40
0
40
0
40
0.0294665749521175
40
0.0294665749521175
40
0.622136526669372
40
0.622136526669372
40
1
40
1
40
1
40
1
41
1
10
23.3172833606161
20
8.36608276248612
30
0
41
1
10
23.3162857859715
20
8.36616439973241
30
0
41
1
10
23.3152910703256
20
8.36624603059127
30
0
41
1
10
23.2945028901905
20
8.36795735376987
30
0
41
1
10
23.2756947131272
20
8.36960688878395
30
0
41
1
10
23.2487161066197
20
8.37214726035978
30
0
41
1
10
23.2389959740471
20
8.3731119140995
30
0
41
1
10
23.2304097099877
20
8.37401736602769
30
0
0
SPLINE
5
1D8
100
AcDbEntity
8
1
62
256
6
ByLayer
370
13
48
1
60
0
100
AcDbSpline
70
4
71
3
72
8
73
4
40
0
40
0
40
0
40
0
40
1
40
1
40
1
40
1
41
1
10
23.4913621168404
20
9.49954730170319
30
0
41
1
10
23.5259374584495
20
9.48191663018315
30
0
41
1
10
23.5621644089747
20
9.46562451546703
30
0
41
1
10
23.5995036654583
20
9.45075565179818
30
0
0
SPLINE
5
1D9
100
AcDbEntity
8
1
62
256
6
ByLayer
370
13
48
1
60
0
100
AcDbSpline
70
4
71
3
72
8
73
4
40
0
40
0
40
0
40
0
40
1
40
1
40
1
40
1
41
1
10
23.5995036654583
20
9.04924434820157
30
0
41
1
10
23.5621644089747
20
9.03437548453269
30
0
41
1
10
23.5259374584495
20
9.01808336981657
30
0
41
1
10
23.4913621168404
20
9.00045269829653
30
0
0
SPLINE
5
1DA
100
AcDbEntity
8
1
62
256
6
ByLayer
370
13
48
1
60
0
100
AcDbSpline
70
4
71
3
72
10
73
6
40
0
40
0
40
0
40
0
40
0.848569790661836
40
0.848569790661836
40
1
40
1
40
1
40
1
41
1
10
27.5256934551195
20
9.87457883122241
30
0
41
1
10
27.4913120258512
20
9.92642091084812
30
0
41
1
10
27.4438979962597
20
9.96987953955917
30
0
41
1
10
27.3838192549265
20
10.0119087603838
30
0
41
1
10
27.374454665912
20
10.0181215620118
30
0
41
1
10
27.3649581024898
20
10.0241186981631
30
0
0
SPLINE
5
1DB
100
AcDbEntity
8
1
62
256
6
ByLayer
370
13
48
1
60
0
100
AcDbSpline
70
4
71
3
72
8
73
4
40
0
40
0
40
0
40
0
40
1
40
1
40
1
40
1
41
1
10
27.3649581024898
20
10.0241186981631
30
0
41
1
10
27.3210882094168
20
10.0518227959508
30
0
41
1
10
27.2770162605411
20
10.0792127140153
30
0
41
1
10
27.2326256850656
20
10.1060732595582
30
0
0
SPLINE
5
1DC
100
AcDbEntity
8
1
62
256
6
ByLayer
370
13
48
1
60
0
100
AcDbSpline
70
4
71
3
72
10
73
6
40
0
40
0
40
0
40
0
40
0.654900204513161
40
0.654900204513161
40
1
40
1
40
1
40
1
41
1
10
27.2326256850656
20
10.1060732595582
30
0
41
1
10
27.2093808214964
20
10.1201386261329
30
0
41
1
10
27.1866679047493
20
10.1353717983151
30
0
41
1
10
27.1550034980857
20
10.1622122939026
30
0
41
1
10
27.1445398484845
20
10.1721988227358
30
0
41
1
10
27.1355155637421
20
10.1833503594264
30
0
0
SPLINE
5
1DD
100
AcDbEntity
8
1
62
256
6
ByLayer
370
13
48
1
60
0
100
AcDbSpline
70
4
71
3
72
10
73
6
40
0
40
0
40
0
40
0
40
0.654900204513161
40
0.654900204513161
40
1
40
1
40
1
40
1
41
1
10
27.2326256850656
20
8.39392674044151
30
0
41
1
10
27.2093808214964
20
8.37986137386687
30
0
41
1
10
27.1866679047493
20
8.36462820168467
30
0
41
1
10
27.1550034980857
20
8.33778770609709
30
0
41
1
10
27.1445398484845
20
8.32780117726389
30
0
41
1
10
27.1355155637421
20
8.3166496405733
30
0
0
SPLINE
5
1DE
100
AcDbEntity
8
1
62
256
6
ByLayer
370
13
48
1
60
0
100
AcDbSpline
70
4
71
3
72
8
73
4
40
0
40
0
40
0
40
0
40
1
40
1
40
1
40
1
41
1
10
27.3649581024898
20
8.47588130183667
30
0
41
1
10
27.3210882094168
20
8.44817720404893
30
0
41
1
10
27.2770162605411
20
8.42078728598446
30
0
41
1
10
27.2326256850656
20
8.39392674044151
30
0
0
SPLINE
5
1DF
100
AcDbEntity
8
1
62
256
6
ByLayer
370
13
48
1
60
0
100
AcDbSpline
70
4
71
3
72
10
73
6
40
0
40
0
40
0
40
0
40
0.848569790661836
40
0.848569790661836
40
1
40
1
40
1
40
1
41
1
10
27.5256934551195
20
8.62542116877731
30
0
41
1
10
27.4913120258512
20
8.57357908915159
30
0
41
1
10
27.4438979962597
20
8.53012046044057
30
0
41
1
10
27.3838192549265
20
8.48809123961593
30
0
41
1
10
27.374454665912
20
8.48187843798789
30
0
41
1
10
27.3649581024898
20
8.47588130183667
30
0
0
SPLINE
5
1E0
100
AcDbEntity
8
1
62
256
6
ByLayer
370
13
48
1
60
0
100
AcDbSpline
70
4
71
3
72
10
73
6
40
0
40
0
40
0
40
0
40
0.635943996638209
40
0.635943996638209
40
1
40
1
40
1
40
1
41
1
10
27.1901406592829
20
8.45526372542901
30
0
41
1
10
27.1670478691558
20
8.43567933384307
30
0
41
1
10
27.1452589478459
20
8.41401271112159
30
0
41
1
10
27.1163860503718
20
8.3755597344628
30
0
41
1
10
27.1069119843145
20
8.36048265888147
30
0
41
1
10
27.0995357068633
20
8.3443639435975
30
0
0
SPLINE
5
1E1
100
AcDbEntity
8
1
62
256
6
ByLayer
370
13
48
1
60
0
100
AcDbSpline
70
4
71
3
72
16
73
12
40
0
40
0
40
0
40
0
40
0.0355583019934282
40
0.0355583019934282
40
0.0904281096557084
40
0.0904281096557084
40
0.198001345750339
40
0.198001345750339
40
0.437176612921005
40
0.437176612921005
40
1
40
1
40
1
40
1
41
1
10
27.0647600217524
20
8.26402406062195
30
0
41
1
10
27.0651593706655
20
8.26499047401518
30
0
41
1
10
27.0655599456349
20
8.26595640331252
30
0
41
1
10
27.0665795843355
20
8.26841629557936
30
0
41
1
10
27.0671995476744
20
8.26990989582558
30
0
41
1
10
27.0690371309082
20
8.2743298753841
30
0
41
1
10
27.0702570500456
20
8.27725501090274
30
0
41
1
10
27.0741994345501
20
8.28667002142885
30
0
41
1
10
27.0769367796375
20
8.29314942332894
30
0
41
1
10
27.0861842955318
20
8.31473120614203
30
0
41
1
10
27.092835395425
20
8.32972235600693
30
0
41
1
10
27.0995357068633
20
8.34436394359747
30
0
0
SPLINE
5
1E2
100
AcDbEntity
8
1
62
256
6
ByLayer
370
13
48
1
60
0
100
AcDbSpline
70
4
71
3
72
8
73
4
40
0
40
0
40
0
40
0
40
1
40
1
40
1
40
1
41
1
10
27.0647600217523
20
8.26402406062201
30
0
41
1
10
26.9478211015789
20
8.23348143416919
30
0
41
1
10
26.826489880715
20
8.21866277328914
30
0
41
1
10
26.7060768987952
20
8.21603973350321
30
0
0
SPLINE
5
1E3
100
AcDbEntity
8
1
62
256
6
ByLayer
370
13
48
1
60
0
100
AcDbSpline
70
4
71
3
72
16
73
12
40
0
40
0
40
0
40
0
40
0.0355583019934282
40
0.0355583019934282
40
0.0904281096557084
40
0.0904281096557084
40
0.198001345750339
40
0.198001345750339
40
0.437176612921005
40
0.437176612921005
40
1
40
1
40
1
40
1
41
1
10
27.0647600217524
20
10.2359759393778
30
0
41
1
10
27.0651593706655
20
10.2350095259845
30
0
41
1
10
27.0655599456349
20
10.2340435966872
30
0
41
1
10
27.0665795843355
20
10.2315837044204
30
0
41
1
10
27.0671995476744
20
10.2300901041741
30
0
41
1
10
27.0690371309082
20
10.2256701246156
30
0
41
1
10
27.0702570500456
20
10.222744989097
30
0
41
1
10
27.0741994345501
20
10.2133299785709
30
0
41
1
10
27.0769367796375
20
10.2068505766708
30
0
41
1
10
27.0861842955318
20
10.1852687938577
30
0
41
1
10
27.092835395425
20
10.1702776439928
30
0
41
1
10
27.0995357068633
20
10.1556360564022
30
0
0
SPLINE
5
1E4
100
AcDbEntity
8
1
62
256
6
ByLayer
370
13
48
1
60
0
100
AcDbSpline
70
4
71
3
72
10
73
6
40
0
40
0
40
0
40
0
40
0.635943996638209
40
0.635943996638209
40
1
40
1
40
1
40
1
41
1
10
27.1901406592829
20
10.0447362745707
30
0
41
1
10
27.1670478691558
20
10.0643206661567
30
0
41
1
10
27.1452589478459
20
10.0859872888781
30
0
41
1
10
27.1163860503718
20
10.1244402655369
30
0
41
1
10
27.1069119843145
20
10.1395173411182
30
0
41
1
10
27.0995357068633
20
10.1556360564022
30
0
0
SPLINE
5
1E5
100
AcDbEntity
8
1
62
256
6
ByLayer
370
13
48
1
60
0
100
AcDbSpline
70
4
71
3
72
8
73
4
40
0
40
0
40
0
40
0
40
1
40
1
40
1
40
1
41
1
10
27.0647600217523
20
10.2359759393777
30
0
41
1
10
26.9478211015789
20
10.2665185658305
30
0
41
1
10
26.826489880715
20
10.2813372267106
30
0
41
1
10
26.7060768987952
20
10.2839602664965
30
0
0
SPLINE
5
1E6
100
AcDbEntity
8
1
62
256
6
ByLayer
370
13
48
1
60
0
100
AcDbSpline
70
4
71
3
72
12
73
8
40
0
40
0
40
0
40
0
40
0.351723890194534
40
0.351723890194534
40
0.712129136736367
40
0.712129136736367
40
1
40
1
40
1
40
1
41
1
10
24.9438616980133
20
9.06459684980516
30
0
41
1
10
24.9585427486302
20
9.10555900664531
30
0
41
1
10
24.9694774148619
20
9.1491737600133
30
0
41
1
10
24.9795833503619
20
9.23870095491768
30
0
41
1
10
24.9783942316414
20
9.28553430009754
30
0
41
1
10
24.9654620411649
20
9.36641971124496
30
0
41
1
10
24.9559204052135
20
9.40175769330511
30
0
41
1
10
24.9438616980128
20
9.43540315019604
30
0
0
SPLINE
5
1E7
100
AcDbEntity
8
1
62
256
6
ByLayer
370
13
48
1
60
0
100
AcDbSpline
70
4
71
3
72
8
73
4
40
0
40
0
40
0
40
0
40
1
40
1
40
1
40
1
41
1
10
23.5995036654583
20
9.45075565179815
30
0
41
1
10
23.6024077881538
20
9.44961545901856
30
0
41
1
10
23.6053140196961
20
9.448475391664
30
0
41
1
10
23.6082223121695
20
9.4473354503649
30
0
0
SPLINE
5
1E8
100
AcDbEntity
8
1
62
256
6
ByLayer
370
13
48
1
60
0
100
AcDbSpline
70
4
71
3
72
8
73
4
40
0
40
0
40
0
40
0
40
1
40
1
40
1
40
1
41
1
10
23.6082223121695
20
9.05266454963481
30
0
41
1
10
23.6053140196961
20
9.05152460833571
30
0
41
1
10
23.6024077881538
20
9.05038454098118
30
0
41
1
10
23.5995036654583
20
9.04924434820157
30
0
0
SPLINE
5
1E9
100
AcDbEntity
8
1
62
256
6
ByLayer
370
13
48
1
60
0
100
AcDbSpline
70
4
71
3
72
8
73
4
40
0
40
0
40
0
40
0
40
1
40
1
40
1
40
1
41
1
10
23.2282766666319
20
8.37456207185838
30
0
41
1
10
23.2289998534678
20
8.37456207185889
30
0
41
1
10
23.2297316666813
20
8.3743886368033
30
0
41
1
10
23.2304097099816
20
8.37401736607046
30
0
0
SPLINE
5
1EA
100
AcDbEntity
8
1
62
256
6
ByLayer
370
13
48
1
60
0
100
AcDbSpline
70
4
71
3
72
8
73
4
40
0
40
0
40
0
40
0
40
1
40
1
40
1
40
1
41
1
10
23.2304097099816
20
10.125982633968
30
0
41
1
10
23.2297316666802
20
10.1256113632327
30
0
41
1
10
23.2289998534693
20
10.1254379281352
30
0
41
1
10
23.2282766666319
20
10.1254379281352
30
0
0
SPLINE
5
1EB
100
AcDbEntity
8
1
62
256
6
ByLayer
370
13
48
1
60
0
100
AcDbSpline
70
4
71
3
72
8
73
4
40
0
40
0
40
0
40
0
40
1
40
1
40
1
40
1
41
1
10
23.4913621168404
20
9.00045269829653
30
0
41
1
10
23.4858744381612
20
8.99945713746473
30
0
41
1
10
23.4809941941612
20
8.99897564445081
30
0
41
1
10
23.4769872801707
20
8.99897564445089
30
0
0
SPLINE
5
1EC
100
AcDbEntity
8
1
62
256
6
ByLayer
370
13
48
1
60
0
100
AcDbSpline
70
4
71
3
72
8
73
4
40
0
40
0
40
0
40
0
40
1
40
1
40
1
40
1
41
1
10
23.4769872801694
20
9.5010243555528
30
0
41
1
10
23.4809941941599
20
9.5010243555528
30
0
41
1
10
23.4858744381614
20
9.50054286253496
30
0
41
1
10
23.4913621168404
20
9.49954730170319
30
0
0
SPLINE
5
1ED
100
AcDbEntity
8
1
62
256
6
ByLayer
370
13
48
1
60
0
100
AcDbSpline
70
4
71
3
72
10
73
6
40
0
40
0
40
0
40
0
40
0.155458310972556
40
0.155458310972556
40
1
40
1
40
1
40
1
41
1
10
27.3213347612453
20
9.96356743665001
30
0
41
1
10
27.3303785370382
20
9.95874735760643
30
0
41
1
10
27.3393254653622
20
9.95374109980074
30
0
41
1
10
27.3954964008332
20
9.92059912608843
30
0
41
1
10
27.4409371698566
20
9.88633270497448
30
0
41
1
10
27.4749845771854
20
9.8432282038529
30
0
0
SPLINE
5
1EE
100
AcDbEntity
8
1
62
256
6
ByLayer
370
13
48
1
60
0
100
AcDbSpline
70
4
71
3
72
10
73
6
40
0
40
0
40
0
40
0
40
0.155458310972556
40
0.155458310972556
40
1
40
1
40
1
40
1
41
1
10
27.3213347612453
20
8.53643256334971
30
0
41
1
10
27.3303785370382
20
8.54125264239329
30
0
41
1
10
27.3393254653622
20
8.54625890019898
30
0
41
1
10
27.3954964008332
20
8.57940087391128
30
0
41
1
10
27.4409371698566
20
8.61366729502524
30
0
41
1
10
27.4749845771854
20
8.65677179614681
30
0
0
SPLINE
5
1EF
100
AcDbEntity
8
1
62
256
6
ByLayer
370
13
48
1
60
0
100
AcDbSpline
70
4
71
3
72
16
73
12
40
0
40
0
40
0
40
0
40
0.0355250902269691
40
0.0355250902269691
40
0.0916529298118417
40
0.0916529298118417
40
0.199749877619611
40
0.199749877619611
40
0.438904840271112
40
0.438904840271112
40
1
40
1
40
1
40
1
41
1
10
27.0647600217525
20
10.2359759393777
30
0
41
1
10
27.0655860030917
20
10.2353429112798
30
0
41
1
10
27.0664129457398
20
10.2347104386631
30
0
41
1
10
27.0685502103392
20
10.2330759752776
30
0
41
1
10
27.0698615812702
20
10.2320743237781
30
0
41
1
10
27.0737020316477
20
10.2291446752618
30
0
41
1
10
27.0762348060014
20
10.2272173375407
30
0
41
1
10
27.0843821111612
20
10.2210347420709
30
0
41
1
10
27.0900153373421
20
10.2167859705246
30
0
41
1
10
27.1088835392969
20
10.202667286195
30
0
41
1
10
27.1222269173128
20
10.1928820354323
30
0
41
1
10
27.1355155637421
20
10.1833503594264
30
0
0
SPLINE
5
1F0
100
AcDbEntity
8
1
62
256
6
ByLayer
370
13
48
1
60
0
100
AcDbSpline
70
4
71
3
72
8
73
4
40
0
40
0
40
0
40
0
40
1
40
1
40
1
40
1
41
1
10
26.7060768987952
20
10.2839602664965
30
0
41
1
10
26.5916344595783
20
10.2865836088788
30
0
41
1
10
26.4749061521671
20
10.2825454757711
30
0
41
1
10
26.3587805434613
20
10.2868512967863
30
0
0
SPLINE
5
1F1
100
AcDbEntity
8
1
62
256
6
ByLayer
370
13
48
1
60
0
100
AcDbSpline
70
4
71
3
72
16
73
12
40
0
40
0
40
0
40
0
40
0.0355250902269691
40
0.0355250902269691
40
0.0916529298118418
40
0.0916529298118418
40
0.199749877619611
40
0.199749877619611
40
0.438904840271112
40
0.438904840271112
40
1
40
1
40
1
40
1
41
1
10
27.0647600217525
20
8.26402406062198
30
0
41
1
10
27.0655860030917
20
8.26465708871993
30
0
41
1
10
27.0664129457398
20
8.2652895613366
30
0
41
1
10
27.0685502103392
20
8.26692402472213
30
0
41
1
10
27.0698615812702
20
8.26792567622169
30
0
41
1
10
27.0737020316477
20
8.27085532473788
30
0
41
1
10
27.0762348060014
20
8.27278266245904
30
0
41
1
10
27.0843821111612
20
8.27896525792889
30
0
41
1
10
27.0900153373421
20
8.28321402947515
30
0
41
1
10
27.1088835392969
20
8.29733271380476
30
0
41
1
10
27.1222269173128
20
8.30711796456745
30
0
41
1
10
27.1355155637421
20
8.3166496405733
30
0
0
SPLINE
5
1F2
100
AcDbEntity
8
1
62
256
6
ByLayer
370
13
48
1
60
0
100
AcDbSpline
70
4
71
3
72
14
73
10
40
0
40
0
40
0
40
0
40
0.0334466877100648
40
0.0334466877100648
40
0.147634490130718
40
0.147634490130718
40
0.594775924699149
40
0.594775924699149
40
1
40
1
40
1
40
1
41
1
10
27.0213727254145
20
9.69877316163266
30
0
41
1
10
27.0272002143374
20
9.69899187606234
30
0
41
1
10
27.03302932197
20
9.6991642271019
30
0
41
1
10
27.0587574615069
20
9.69971200329235
30
0
41
1
10
27.0786653670229
20
9.69938810387328
30
0
41
1
10
27.176494145549
20
9.69770358443338
30
0
41
1
10
27.2544227194233
20
9.69625262433524
30
0
41
1
10
27.4029558192714
20
9.69256920612017
30
0
41
1
10
27.473564429311
20
9.69052226231409
30
0
41
1
10
27.5441651422594
20
9.68820577012571
30
0
0
SPLINE
5
1F3
100
AcDbEntity
8
1
62
256
6
ByLayer
370
13
48
1
60
0
100
AcDbSpline
70
4
71
3
72
14
73
10
40
0
40
0
40
0
40
0
40
0.0334466877100648
40
0.0334466877100648
40
0.147634490130718
40
0.147634490130718
40
0.594775924699149
40
0.594775924699149
40
1
40
1
40
1
40
1
41
1
10
27.0213727254145
20
8.80122683836706
30
0
41
1
10
27.0272002143374
20
8.80100812393738
30
0
41
1
10
27.03302932197
20
8.80083577289784
30
0
41
1
10
27.0587574615069
20
8.80028799670737
30
0
41
1
10
27.0786653670229
20
8.80061189612644
30
0
41
1
10
27.176494145549
20
8.80229641556636
30
0
41
1
10
27.2544227194233
20
8.8037473756645
30
0
41
1
10
27.4029558192714
20
8.80743079387955
30
0
41
1
10
27.473564429311
20
8.80947773768563
30
0
41
1
10
27.5441651422594
20
8.81179422987401
30
0
0
SPLINE
5
1F4
100
AcDbEntity
8
1
62
256
6
ByLayer
370
13
48
1
60
0
100
AcDbSpline
70
4
71
3
72
8
73
4
40
0
40
0
40
0
40
0
40
1
40
1
40
1
40
1
41
1
10
26.7060768987952
20
8.21603973350318
30
0
41
1
10
26.5916344595783
20
8.21341639112089
30
0
41
1
10
26.4749061521671
20
8.2174545242286
30
0
41
1
10
26.3587805434613
20
8.21314870321345
30
0
0
SPLINE
5
1F5
100
AcDbEntity
8
1
62
256
6
ByLayer
370
13
48
1
60
0
100
AcDbSpline
70
4
71
3
72
8
73
4
40
0
40
0
40
0
40
0
40
1
40
1
40
1
40
1
41
1
10
27.4749845771854
20
9.8432282038529
30
0
41
1
10
27.4822290280936
20
9.83405662613828
30
0
41
1
10
27.489375686801
20
9.82477020025698
30
0
41
1
10
27.4964397360487
20
9.81542156969684
30
0
0
SPLINE
5
1F6
100
AcDbEntity
8
1
62
256
6
ByLayer
370
13
48
1
60
0
100
AcDbSpline
70
4
71
3
72
12
73
8
40
0
40
0
40
0
40
0
40
0.447676549458682
40
0.447676549458682
40
0.911865963480885
40
0.911865963480885
40
1
40
1
40
1
40
1
41
1
10
27.4964397360487
20
9.81542156969684
30
0
41
1
10
27.5088546309064
20
9.79899157871037
30
0
41
1
10
27.5197349842376
20
9.78115985699415
30
0
41
1
10
27.5363651532997
20
9.74275971472321
30
0
41
1
10
27.5420103553974
20
9.72166393194445
30
0
41
1
10
27.5439641163249
20
9.69639348646714
30
0
41
1
10
27.5441371532749
20
9.69229887015877
30
0
41
1
10
27.5441651422482
20
9.68820577012485
30
0
0
SPLINE
5
1F7
100
AcDbEntity
8
1
62
256
6
ByLayer
370
13
48
1
60
0
100
AcDbSpline
70
4
71
3
72
12
73
8
40
0
40
0
40
0
40
0
40
0.447676549458682
40
0.447676549458682
40
0.911865963480885
40
0.911865963480885
40
1
40
1
40
1
40
1
41
1
10
27.4964397360487
20
8.68457843030288
30
0
41
1
10
27.5088546309064
20
8.70100842128937
30
0
41
1
10
27.5197349842376
20
8.71884014300556
30
0
41
1
10
27.5363651532997
20
8.75724028527651
30
0
41
1
10
27.5420103553974
20
8.77833606805527
30
0
41
1
10
27.5439641163249
20
8.8036065135326
30
0
41
1
10
27.5441371532749
20
8.80770112984095
30
0
41
1
10
27.5441651422482
20
8.81179422987489
30
0
0
SPLINE
5
1F8
100
AcDbEntity
8
1
62
256
6
ByLayer
370
13
48
1
60
0
100
AcDbSpline
70
4
71
3
72
8
73
4
40
0
40
0
40
0
40
0
40
1
40
1
40
1
40
1
41
1
10
27.4749845771854
20
8.65677179614681
30
0
41
1
10
27.4822290280936
20
8.66594337386144
30
0
41
1
10
27.489375686801
20
8.67522979974274
30
0
41
1
10
27.4964397360487
20
8.68457843030288
30
0
0
SPLINE
5
1F9
100
AcDbEntity
8
1
62
256
6
ByLayer
370
13
48
1
60
0
100
AcDbSpline
70
4
71
3
72
8
73
4
40
0
40
0
40
0
40
0
40
1
40
1
40
1
40
1
41
1
10
26.3587805434613
20
10.2868512967863
30
0
41
1
10
26.2921381523134
20
10.2890581522053
30
0
41
1
10
26.2252553140707
20
10.2882012930468
30
0
41
1
10
26.1587805434613
20
10.2829979473862
30
0
0
SPLINE
5
1FA
100
AcDbEntity
8
1
62
256
6
ByLayer
370
13
48
1
60
0
100
AcDbSpline
70
4
71
3
72
8
73
4
40
0
40
0
40
0
40
0
40
1
40
1
40
1
40
1
41
1
10
26.3587805434613
20
8.21314870321345
30
0
41
1
10
26.2921381523134
20
8.21094184779449
30
0
41
1
10
26.2252553140707
20
8.21179870695292
30
0
41
1
10
26.1587805434613
20
8.21700205261354
30
0
0
SPLINE
5
1FB
100
AcDbEntity
8
1
62
256
6
ByLayer
370
13
48
1
60
0
100
AcDbSpline
70
4
71
3
72
12
73
8
40
0
40
0
40
0
40
0
40
0.708579779368488
40
0.708579779368488
40
0.932133973697437
40
0.932133973697437
40
1
40
1
40
1
40
1
41
1
10
25.9112677608008
20
9.64965927758308
30
0
41
1
10
26.0244377716515
20
9.68519514113169
30
0
41
1
10
26.1446553749491
20
9.70267203532265
30
0
41
1
10
26.3011317076579
20
9.70161618596822
30
0
41
1
10
26.3389673870791
20
9.699821433827
30
0
41
1
10
26.3882933798859
20
9.69810164472818
30
0
41
1
10
26.3997803862395
20
9.69769639966199
30
0
41
1
10
26.4112677608008
20
9.69730180209893
30
0
0
SPLINE
5
1FC
100
AcDbEntity
8
1
62
256
6
ByLayer
370
13
48
1
60
0
100
AcDbSpline
70
4
71
3
72
12
73
8
40
0
40
0
40
0
40
0
40
0.708579779368488
40
0.708579779368488
40
0.932133973697437
40
0.932133973697437
40
1
40
1
40
1
40
1
41
1
10
25.9112677608008
20
8.85034072241663
30
0
41
1
10
26.0244377716515
20
8.81480485886806
30
0
41
1
10
26.1446553749491
20
8.79732796467709
30
0
41
1
10
26.3011317076579
20
8.7983838140315
30
0
41
1
10
26.3389673870791
20
8.80017856617272
30
0
41
1
10
26.3882933798859
20
8.80189835527153
30
0
41
1
10
26.3997803862395
20
8.80230360033772
30
0
41
1
10
26.4112677608008
20
8.80269819790081
30
0
0
SPLINE
5
1FD
100
AcDbEntity
8
1
62
256
6
ByLayer
370
13
48
1
60
0
100
AcDbSpline
70
4
71
3
72
10
73
6
40
0
40
0
40
0
40
0
40
0.561541747824135
40
0.561541747824135
40
1
40
1
40
1
40
1
41
1
10
27.5970257409067
20
9.68820577012571
30
0
41
1
10
27.5970257409067
20
9.71951135555952
30
0
41
1
10
27.5911036869238
20
9.75119377398175
30
0
41
1
10
27.572301096629
20
9.80382654084517
30
0
41
1
10
27.5611390447479
20
9.82607558054562
30
0
41
1
10
27.5480538087949
20
9.84688322259751
30
0
0
SPLINE
5
1FE
100
AcDbEntity
8
1
62
256
6
ByLayer
370
13
48
1
60
0
100
AcDbSpline
70
4
71
3
72
10
73
6
40
0
40
0
40
0
40
0
40
0.561541747824135
40
0.561541747824135
40
1
40
1
40
1
40
1
41
1
10
27.5970257409067
20
8.81179422987401
30
0
41
1
10
27.5970257409067
20
8.78048864444023
30
0
41
1
10
27.5911036869238
20
8.74880622601796
30
0
41
1
10
27.572301096629
20
8.69617345915458
30
0
41
1
10
27.5611390447479
20
8.67392441945412
30
0
41
1
10
27.5480538087949
20
8.6531167774022
30
0
0
SPLINE
5
1FF
100
AcDbEntity
8
1
62
256
6
ByLayer
370
13
48
1
60
0
100
AcDbSpline
70
4
71
3
72
16
73
12
40
0
40
0
40
0
40
0
40
0.0007084940797618
40
0.0007084940797618
40
0.283937687189524
40
0.283937687189524
40
0.567818407080674
40
0.567818407080674
40
0.999291505920235
40
0.999291505920235
40
1
40
1
40
1
40
1
41
1
10
25.8289221872925
20
8.86998009483548
30
0
41
1
10
25.8289416274431
20
8.86997549138579
30
0
41
1
10
25.8289610676156
20
8.86997088796062
30
0
41
1
10
25.8367519568993
20
8.86812598923447
30
0
41
1
10
25.8445252383642
20
8.86628173244605
30
0
41
1
10
25.8600911151087
20
8.86258094452171
30
0
41
1
10
25.8678840471778
20
8.86072423995375
30
0
41
1
10
25.8875212263736
20
8.85603587395832
30
0
41
1
10
25.8993665335016
20
8.85319899647661
30
0
41
1
10
25.911228866792
20
8.85035006351299
30
0
41
1
10
25.9112483137939
20
8.85034539295452
30
0
41
1
10
25.9112677608008
20
8.85034072241663
30
0
0
SPLINE
5
200
100
AcDbEntity
8
1
62
256
6
ByLayer
370
13
48
1
60
0
100
AcDbSpline
70
4
71
3
72
8
73
4
40
0
40
0
40
0
40
0
40
1
40
1
40
1
40
1
41
1
10
27.5480538087934
20
8.65311677740277
30
0
41
1
10
27.5407025010737
20
8.64376496256702
30
0
41
1
10
27.5332526545729
20
8.63451648680419
30
0
41
1
10
27.5256934551195
20
8.62542116877731
30
0
0
SPLINE
5
201
100
AcDbEntity
8
1
62
256
6
ByLayer
370
13
48
1
60
0
100
AcDbSpline
70
4
71
3
72
8
73
4
40
0
40
0
40
0
40
0
40
1
40
1
40
1
40
1
41
1
10
27.5480538087934
20
9.84688322259697
30
0
41
1
10
27.5407025010737
20
9.8562350374327
30
0
41
1
10
27.5332526545729
20
9.86548351319553
30
0
41
1
10
27.5256934551195
20
9.87457883122241
30
0
0
SPLINE
5
202
100
AcDbEntity
8
1
62
256
6
ByLayer
370
13
48
1
60
0
100
AcDbSpline
70
4
71
3
72
16
73
12
40
0
40
0
40
0
40
0
40
0.0007084940797618
40
0.0007084940797618
40
0.283937687189524
40
0.283937687189524
40
0.567818407080674
40
0.567818407080674
40
0.999291505920235
40
0.999291505920235
40
1
40
1
40
1
40
1
41
1
10
25.8289221872925
20
9.63001990516423
30
0
41
1
10
25.8289416274202
20
9.63002450875592
30
0
41
1
10
25.8289610676156
20
9.6300291120391
30
0
41
1
10
25.8367519568993
20
9.63187401076524
30
0
41
1
10
25.8445252383642
20
9.63371826755366
30
0
41
1
10
25.8600911151087
20
9.63741905547803
30
0
41
1
10
25.8678840471778
20
9.63927576004596
30
0
41
1
10
25.8875212263736
20
9.6439641260414
30
0
41
1
10
25.8993665335016
20
9.64680100352311
30
0
41
1
10
25.911228866792
20
9.64964993648672
30
0
41
1
10
25.9112483137595
20
9.64965460718867
30
0
41
1
10
25.9112677608008
20
9.64965927758308
30
0
0
SPLINE
5
203
100
AcDbEntity
8
1
62
256
6
ByLayer
370
13
48
1
60
0
100
AcDbSpline
70
4
71
3
72
8
73
4
40
0
40
0
40
0
40
0
40
1
40
1
40
1
40
1
41
1
10
25.8289221872925
20
9.24999999999986
30
0
41
1
10
25.8563707117953
20
9.24999999999986
30
0
41
1
10
25.883819236298
20
9.24999999999986
30
0
41
1
10
25.9112677608008
20
9.24999999999986
30
0
0
SPLINE
5
204
100
AcDbEntity
8
1
62
256
6
ByLayer
370
13
48
1
60
0
100
AcDbSpline
70
4
71
3
72
12
73
8
40
0
40
0
40
0
40
0
40
0.103790018033927
40
0.103790018033927
40
0.424238012362856
40
0.424238012362856
40
1
40
1
40
1
40
1
41
1
10
26.4112677608008
20
8.80269819790081
30
0
41
1
10
26.4330673288144
20
8.80324733771249
30
0
41
1
10
26.4548777846228
20
8.80355489078104
30
0
41
1
10
26.5437817615811
20
8.80474109482148
30
0
41
1
10
26.6108617198122
20
8.80524774843434
30
0
41
1
10
26.7952022369241
20
8.80549814759902
30
0
41
1
10
26.9116787067389
20
8.80424595821509
30
0
41
1
10
27.0213727254145
20
8.80122683836706
30
0
0
SPLINE
5
205
100
AcDbEntity
8
1
62
256
6
ByLayer
370
13
48
1
60
0
100
AcDbSpline
70
4
71
3
72
12
73
8
40
0
40
0
40
0
40
0
40
0.103790018033927
40
0.103790018033927
40
0.424238012362856
40
0.424238012362856
40
1
40
1
40
1
40
1
41
1
10
26.4112677608008
20
9.69730180209893
30
0
41
1
10
26.4330673288144
20
9.69675266228722
30
0
41
1
10
26.4548777846228
20
9.6964451092187
30
0
41
1
10
26.5437817615811
20
9.69525890517824
30
0
41
1
10
26.6108617198122
20
9.69475225156538
30
0
41
1
10
26.7952022369241
20
9.69450185240069
30
0
41
1
10
26.9116787067389
20
9.69575404178462
30
0
41
1
10
27.0213727254145
20
9.69877316163266
30
0
0
SPLINE
5
206
100
AcDbEntity
8
1
62
256
6
ByLayer
370
18
48
1
60
0
100
AcDbSpline
70
4
71
3
72
18
73
14
40
0
40
0
40
0
40
0
40
0.18119409626534
40
0.18119409626534
40
0.361862303964486
40
0.361862303964486
40
0.551167347000522
40
0.551167347000522
40
0.763225975030245
40
0.763225975030245
40
0.996803035954181
40
0.996803035954181
40
1
40
1
40
1
40
1
41
1
10
12.9644268988194
20
6.64999999999955
30
0
41
1
10
12.9644268988194
20
6.81248344262045
30
0
41
1
10
12.9900637222604
20
6.97721398891309
30
0
41
1
10
13.0861803895995
20
7.282772552903
30
0
41
1
10
13.157629535314
20
7.42772818221903
30
0
41
1
10
13.3369721637076
20
7.68907459148917
30
0
41
1
10
13.4484874238902
20
7.80711610420693
30
0
41
1
10
13.7070567671757
20
8.01208903049329
30
0
41
1
10
13.8598756178939
20
8.09631282208471
30
0
41
1
10
14.1914588745767
20
8.21686442500328
30
0
41
1
10
14.3753923266766
20
8.24913693692261
30
0
41
1
10
14.5594590652894
20
8.24999421590584
30
0
41
1
10
14.5619429550443
20
8.24999999999955
30
0
41
1
10
14.5644268988194
20
8.24999999999955
30
0
0
SPLINE
5
207
100
AcDbEntity
8
1
62
256
6
ByLayer
370
18
48
1
60
0
100
AcDbSpline
70
4
71
3
72
14
73
10
40
0
40
0
40
0
40
0
40
0.208995027535852
40
0.208995027535852
40
0.417850725206471
40
0.417850725206471
40
0.626704295977396
40
0.626704295977396
40
1
40
1
40
1
40
1
41
1
10
25.0981203716815
20
8.12808059894533
30
0
41
1
10
25.1562077150717
20
8.1280905664579
30
0
41
1
10
25.2193237323135
20
8.12742438184989
30
0
41
1
10
25.3529850333383
20
8.12476588277781
30
0
41
1
10
25.4239830856551
20
8.12276533923983
30
0
41
1
10
25.5714347232616
20
8.1175033478001
30
0
41
1
10
25.6483929364638
20
8.1142239142201
30
0
41
1
10
25.8664550970089
20
8.10351754742484
30
0
41
1
10
26.0134966889726
20
8.09470430342924
30
0
41
1
10
26.1587805434602
20
8.08449502383922
30
0
0
SPLINE
5
208
100
AcDbEntity
8
1
62
256
6
ByLayer
370
18
48
1
60
0
100
AcDbSpline
70
4
71
3
72
8
73
4
40
0
40
0
40
0
40
0
40
1
40
1
40
1
40
1
41
1
10
26.3587805434613
20
8.07044077173191
30
0
41
1
10
26.4750917668498
20
8.0622674354502
30
0
41
1
10
26.591741836253
20
8.05335007058076
30
0
41
1
10
26.7060768987952
20
8.04389544853649
30
0
0
SPLINE
5
209
100
AcDbEntity
8
1
62
256
6
ByLayer
370
18
48
1
60
0
100
AcDbSpline
70
4
71
3
72
16
73
12
40
0
40
0
40
0
40
0
40
0.202092460849677
40
0.202092460849677
40
0.40403224558886
40
0.40403224558886
40
0.608298678109016
40
0.608298678109016
40
0.816163444624776
40
0.816163444624776
40
1
40
1
40
1
40
1
41
1
10
27.2892494524132
20
7.99965914303476
30
0
41
1
10
27.3220366161257
20
7.99763873356639
30
0
41
1
10
27.3555757070523
20
8.00133596651943
30
0
41
1
10
27.418560543168
20
8.01941121847906
30
0
41
1
10
27.4488706298537
20
8.03402078878034
30
0
41
1
10
27.5026257090698
20
8.0720734663885
30
0
41
1
10
27.5267215742438
20
8.09612646051937
30
0
41
1
10
27.5656361058238
20
8.15057010832578
30
0
41
1
10
27.5808214046758
20
8.18180774486731
30
0
41
1
10
27.5988410260335
20
8.24309128442192
30
0
41
1
10
27.6030935129214
20
8.27352028280464
30
0
41
1
10
27.6028388286043
20
8.30363045874631
30
0
0
SPLINE
5
20A
100
AcDbEntity
8
1
62
256
6
ByLayer
370
18
48
1
60
0
100
AcDbSpline
70
4
71
3
72
16
73
12
40
0
40
0
40
0
40
0
40
0.21060160365595
40
0.21060160365595
40
0.421213120944743
40
0.421213120944743
40
0.631488126466471
40
0.631488126466471
40
0.839116239426997
40
0.839116239426997
40
1
40
1
40
1
40
1
41
1
10
27.6028388286043
20
10.1963695412534
30
0
41
1
10
27.6031296556105
20
10.2307527040102
30
0
41
1
10
27.5975070259551
20
10.2656080877358
30
0
41
1
10
27.5754093689247
20
10.3304982075361
30
0
41
1
10
27.5586256018936
20
10.3614347625974
30
0
41
1
10
27.5163383595429
20
10.415052978811
30
0
41
1
10
27.4902502953765
20
10.4384967697379
30
0
41
1
10
27.4328186585456
20
10.4743496716446
30
0
41
1
10
27.4007334811872
20
10.4873902149456
30
0
41
1
10
27.34215887377
20
10.4999462562825
30
0
41
1
10
27.3154914357368
20
10.5019579395538
30
0
41
1
10
27.2892494524132
20
10.500340856965
30
0
0
SPLINE
5
20B
100
AcDbEntity
8
1
62
256
6
ByLayer
370
18
48
1
60
0
100
AcDbSpline
70
4
71
3
72
14
73
10
40
0
40
0
40
0
40
0
40
0.209562190252725
40
0.209562190252725
40
0.419048660097218
40
0.419048660097218
40
0.628042586344193
40
0.628042586344193
40
1
40
1
40
1
40
1
41
1
10
26.1587805434613
20
10.4155049761611
30
0
41
1
10
26.0766126081607
20
10.4097309317721
30
0
41
1
10
25.9940966332411
20
10.4044113402664
30
0
41
1
10
25.8317767669576
20
10.3949047593478
30
0
41
1
10
25.751417699214
20
10.3906849415348
30
0
41
1
10
25.59577107806
20
10.3834961737294
30
0
41
1
10
25.5199400027967
20
10.3804997576918
30
0
41
1
10
25.3197346270461
20
10.3740257942406
30
0
41
1
10
25.2007351939602
20
10.3719017928367
30
0
41
1
10
25.0981203716826
20
10.3719194010534
30
0
0
SPLINE
5
20C
100
AcDbEntity
8
1
62
256
6
ByLayer
370
18
48
1
60
0
100
AcDbSpline
70
4
71
3
72
8
73
4
40
0
40
0
40
0
40
0
40
1
40
1
40
1
40
1
41
1
10
26.7060768987952
20
10.4561045514632
30
0
41
1
10
26.591741836253
20
10.4466499294189
30
0
41
1
10
26.4750917668498
20
10.4377325645495
30
0
41
1
10
26.3587805434613
20
10.4295592282678
30
0
0
LINE
5
70
100
AcDbEntity
8
80
62
256
6
ByLayer
370
18
48
1
60
0
100
AcDbLine
10
0
20
0
30
0
11
-5
21
0
31
0
39
0
210
0
220
0
230
1
0
LINE
5
71
100
AcDbEntity
8
81
62
256
6
ByLayer
370
18
48
1
60
0
100
AcDbLine
10
27.6
20
10.5
30
0
11
32.6
21
10.5
31
0
39
0
210
0
220
0
230
1
0
LINE
5
72
100
AcDbEntity
8
1
62
256
6
ByLayer
370
18
48
1
60
0
100
AcDbLine
10
-0.1
20
10.25
30
0
11
-0.1
21
-10
31
0
39
0
210
0
220
0
230
1
0
LINE
5
74
100
AcDbEntity
8
SK1
62
256
6
ByLayer
370
18
48
1
60
0
100
AcDbLine
10
-66
20
-10
30
0
11
-69
21
-7
31
0
39
0
210
0
220
0
230
1
0
LINE
5
76
100
AcDbEntity
8
SK1
62
256
6
ByLayer
370
18
48
1
60
0
100
AcDbLine
10
-69
20
6.925
30
0
11
-69
21
-7
31
0
39
0
210
0
220
0
230
1
0
LINE
5
77
100
AcDbEntity
8
SK1
62
256
6
ByLayer
370
18
48
1
60
0
100
AcDbLine
10
-4.888118
20
-10
30
0
11
-4.888118
21
10.25
31
0
39
0
210
0
220
0
230
1
0
LINE
5
78
100
AcDbEntity
8
SK1
62
256
6
ByLayer
370
18
48
1
60
0
100
AcDbLine
10
-66
20
-10
30
0
11
-7.227723
21
-10
31
0
39
0
210
0
220
0
230
1
0
LINE
5
79
100
AcDbEntity
8
SK1
62
256
6
ByLayer
370
18
48
1
60
0
100
AcDbLine
10
-0.1
20
10.25
30
0
11
-4.888118
21
10.25
31
0
39
0
210
0
220
0
230
1
0
LINE
5
7A
100
AcDbEntity
8
SK1
62
256
6
ByLayer
370
18
48
1
60
0
100
AcDbLine
10
-0.1
20
10.25
30
0
11
-0.1
21
-10
31
0
39
0
210
0
220
0
230
1
0
LINE
5
7B
100
AcDbEntity
8
SK1
62
256
6
ByLayer
370
18
48
1
60
0
100
AcDbLine
10
-5.682242
20
-10
30
0
11
-4.888118
21
-10
31
0
39
0
210
0
220
0
230
1
0
LINE
5
7C
100
AcDbEntity
8
SK1
62
256
6
ByLayer
370
18
48
1
60
0
100
AcDbLine
10
-7.227723
20
-10
30
0
11
-5.682242
21
-10
31
0
39
0
210
0
220
0
230
1
0
LINE
5
7D
100
AcDbEntity
8
SK1
62
256
6
ByLayer
370
18
48
1
60
0
100
AcDbLine
10
-66
20
9.925
30
0
11
-69
21
6.925
31
0
39
0
210
0
220
0
230
1
0
LINE
5
7E
100
AcDbEntity
8
SK1
62
256
6
ByLayer
370
13
48
1
60
0
100
AcDbLine
10
-7.227723
20
9.925
30
0
11
-7.227723
21
-10
31
0
39
0
210
0
220
0
230
1
0
LINE
5
7F
100
AcDbEntity
8
SK1
62
256
6
ByLayer
370
18
48
1
60
0
100
AcDbLine
10
-0.1
20
-10
30
0
11
-4.888118
21
-10
31
0
39
0
210
0
220
0
230
1
0
LINE
5
80
100
AcDbEntity
8
SK1
62
256
6
ByLayer
370
18
48
1
60
0
100
AcDbLine
10
-66
20
9.925
30
0
11
-7.227723
21
9.925
31
0
39
0
210
0
220
0
230
1
0
LINE
5
81
100
AcDbEntity
8
SK1
62
256
6
ByLayer
370
18
48
1
60
0
100
AcDbLine
10
-5.682242
20
10.25
30
0
11
-6.261092
21
10.25
31
0
39
0
210
0
220
0
230
1
0
LINE
5
82
100
AcDbEntity
8
SK1
62
256
6
ByLayer
370
13
48
1
60
0
100
AcDbLine
10
-5.682242
20
-10
30
0
11
-5.682242
21
10.25
31
0
39
0
210
0
220
0
230
1
0
LINE
5
83
100
AcDbEntity
8
SK1
62
256
6
ByLayer
370
18
48
1
60
0
100
AcDbLine
10
-4.888118
20
10.25
30
0
11
-5.682242
21
10.25
31
0
39
0
210
0
220
0
230
1
0
LINE
5
84
100
AcDbEntity
8
1
62
256
6
ByLayer
370
18
48
1
60
0
100
AcDbLine
10
12.964427
20
-1.791324
30
0
11
1
21
-10
31
0
39
0
210
0
220
0
230
1
0
LINE
5
85
100
AcDbEntity
8
1
62
256
6
ByLayer
370
18
48
1
60
0
100
AcDbLine
10
23.015611
20
8.258431
30
0
11
23.015611
21
8.728186
31
0
39
0
210
0
220
0
230
1
0
LINE
5
86
100
AcDbEntity
8
1
62
256
6
ByLayer
370
18
48
1
60
0
100
AcDbLine
10
23.015611
20
9.771814
30
0
11
23.015611
21
10.241569
31
0
39
0
210
0
220
0
230
1
0
LINE
5
87
100
AcDbEntity
8
1
62
256
6
ByLayer
370
13
48
1
60
0
100
AcDbLine
10
18.890738
20
8.25
30
0
11
18.890738
21
10.25
31
0
39
0
210
0
220
0
230
1
0
LINE
5
88
100
AcDbEntity
8
1
62
256
6
ByLayer
370
18
48
1
60
0
100
AcDbLine
10
13.890738
20
8.25
30
0
11
1.6
21
8.25
31
0
39
0
210
0
220
0
230
1
0
LINE
5
89
100
AcDbEntity
8
1
62
256
6
ByLayer
370
18
48
1
60
0
100
AcDbLine
10
23.013022
20
10.25
30
0
11
18.890738
21
10.25
31
0
39
0
210
0
220
0
230
1
0
LINE
5
8A
100
AcDbEntity
8
1
62
256
6
ByLayer
370
18
48
1
60
0
100
AcDbLine
10
0
20
-10
30
0
11
1
21
-10
31
0
39
0
210
0
220
0
230
1
0
LINE
5
8B
100
AcDbEntity
8
1
62
256
6
ByLayer
370
18
48
1
60
0
100
AcDbLine
10
0
20
-10
30
0
11
0
21
6.65
31
0
39
0
210
0
220
0
230
1
0
LINE
5
8C
100
AcDbEntity
8
1
62
256
6
ByLayer
370
18
48
1
60
0
100
AcDbLine
10
23.015611
20
8.258431
30
0
11
23.013022
21
8.25
31
0
39
0
210
0
220
0
230
1
0
LINE
5
8D
100
AcDbEntity
8
1
62
256
6
ByLayer
370
18
48
1
60
0
100
AcDbLine
10
13.890738
20
10.25
30
0
11
-0.1
21
10.25
31
0
39
0
210
0
220
0
230
1
0
LINE
5
8E
100
AcDbEntity
8
1
62
256
6
ByLayer
370
18
48
1
60
0
100
AcDbLine
10
18.890738
20
10.25
30
0
11
13.890738
21
10.25
31
0
39
0
210
0
220
0
230
1
0
LINE
5
8F
100
AcDbEntity
8
1
62
256
6
ByLayer
370
18
48
1
60
0
100
AcDbLine
10
23.013022
20
10.25
30
0
11
23.015611
21
10.241569
31
0
39
0
210
0
220
0
230
1
0
LINE
5
90
100
AcDbEntity
8
1
62
256
6
ByLayer
370
18
48
1
60
0
100
AcDbLine
10
12.964427
20
-1.791324
30
0
11
12.964427
21
6.65
31
0
39
0
210
0
220
0
230
1
0
LINE
5
91
100
AcDbEntity
8
1
62
256
6
ByLayer
370
18
48
1
60
0
100
AcDbLine
10
18.890738
20
8.25
30
0
11
13.890738
21
8.25
31
0
39
0
210
0
220
0
230
1
0
LINE
5
92
100
AcDbEntity
8
1
62
256
6
ByLayer
370
18
48
1
60
0
100
AcDbLine
10
0
20
-10
30
0
11
-0.1
21
-10
31
0
39
0
210
0
220
0
230
1
0
LINE
5
93
100
AcDbEntity
8
1
62
256
6
ByLayer
370
18
48
1
60
0
100
AcDbLine
10
23.013022
20
8.25
30
0
11
18.890738
21
8.25
31
0
39
0
210
0
220
0
230
1
0
LINE
5
94
100
AcDbEntity
8
1
62
256
6
ByLayer
370
13
48
1
60
0
100
AcDbLine
10
0
20
6.65
30
0
11
12.964427
21
6.65
31
0
39
0
210
0
220
0
230
1
0
LINE
5
95
100
AcDbEntity
8
1
62
256
6
ByLayer
370
13
48
1
60
0
100
AcDbLine
10
13.890738
20
10.25
30
0
11
13.890738
21
8.25
31
0
39
0
210
0
220
0
230
1
0
LINE
5
96
100
AcDbEntity
8
1
62
256
6
ByLayer
370
13
48
1
60
0
100
AcDbLine
10
-7.227723
20
9.925
30
0
11
-7.227723
21
-10
31
0
39
0
210
0
220
0
230
1
0
LINE
5
97
100
AcDbEntity
8
1
62
256
6
ByLayer
370
13
48
1
60
0
100
AcDbLine
10
18.890738
20
8.25
30
0
11
18.890738
21
10.25
31
0
39
0
210
0
220
0
230
1
0
LINE
5
98
100
AcDbEntity
8
1
62
256
6
ByLayer
370
13
48
1
60
0
100
AcDbLine
10
0
20
6.65
30
0
11
12.964427
21
6.65
31
0
39
0
210
0
220
0
230
1
0
LINE
5
99
100
AcDbEntity
8
1
62
256
6
ByLayer
370
13
48
1
60
0
100
AcDbLine
10
24.311238
20
8.25
30
0
11
24.311238
21
8.477886
31
0
39
0
210
0
220
0
230
1
0
LINE
5
9A
100
AcDbEntity
8
1
62
256
6
ByLayer
370
13
48
1
60
0
100
AcDbLine
10
24.311238
20
8.477886
30
0
11
24.637348
21
8.461829
31
0
39
0
210
0
220
0
230
1
0
LINE
5
9B
100
AcDbEntity
8
1
62
256
6
ByLayer
370
13
48
1
60
0
100
AcDbLine
10
24.830259
20
8.13536
30
0
11
24.818821
21
8.298931
31
0
39
0
210
0
220
0
230
1
0
LINE
5
9C
100
AcDbEntity
8
1
62
256
6
ByLayer
370
13
48
1
60
0
100
AcDbLine
10
24.830259
20
10.36464
30
0
11
24.818821
21
10.201069
31
0
39
0
210
0
220
0
230
1
0
LINE
5
9D
100
AcDbEntity
8
1
62
256
6
ByLayer
370
13
48
1
60
0
100
AcDbLine
10
25.09812
20
8.316567
30
0
11
25.09812
21
8.128081
31
0
39
0
210
0
220
0
230
1
0
LINE
5
9E
100
AcDbEntity
8
1
62
256
6
ByLayer
370
13
48
1
60
0
100
AcDbLine
10
26.158781
20
8.217002
30
0
11
26.158781
21
8.084495
31
0
39
0
210
0
220
0
230
1
0
LINE
5
9F
100
AcDbEntity
8
1
62
256
6
ByLayer
370
13
48
1
60
0
100
AcDbLine
10
24.637348
20
10.038171
30
0
11
24.311238
21
10.022114
31
0
39
0
210
0
220
0
230
1
0
LINE
5
A0
100
AcDbEntity
8
1
62
256
6
ByLayer
370
13
48
1
60
0
100
AcDbLine
10
24.311238
20
10.022114
30
0
11
24.311238
21
10.25
31
0
39
0
210
0
220
0
230
1
0
LINE
5
A1
100
AcDbEntity
8
1
62
256
6
ByLayer
370
13
48
1
60
0
100
AcDbLine
10
26.158781
20
10.282998
30
0
11
26.158781
21
10.415505
31
0
39
0
210
0
220
0
230
1
0
LINE
5
A2
100
AcDbEntity
8
1
62
256
6
ByLayer
370
13
48
1
60
0
100
AcDbLine
10
25.09812
20
10.183433
30
0
11
25.09812
21
10.371919
31
0
39
0
210
0
220
0
230
1
0
LINE
5
A3
100
AcDbEntity
8
1
62
256
6
ByLayer
370
13
48
1
60
0
100
AcDbLine
10
24.607425
20
8.742132
30
0
11
24.147776
21
8.764764
31
0
39
0
210
0
220
0
230
1
0
LINE
5
A4
100
AcDbEntity
8
1
62
256
6
ByLayer
370
13
48
1
60
0
100
AcDbLine
10
24.147776
20
9.735236
30
0
11
24.607425
21
9.757868
31
0
39
0
210
0
220
0
230
1
0
LINE
5
A5
100
AcDbEntity
8
1
62
256
6
ByLayer
370
13
48
1
60
0
100
AcDbLine
10
24.637348
20
8.461829
30
0
11
24.784585
21
8.617882
31
0
39
0
210
0
220
0
230
1
0
LINE
5
A6
100
AcDbEntity
8
1
62
256
6
ByLayer
370
13
48
1
60
0
100
AcDbLine
10
24.784585
20
9.882118
30
0
11
24.637348
21
10.038171
31
0
39
0
210
0
220
0
230
1
0
LINE
5
A7
100
AcDbEntity
8
1
62
256
6
ByLayer
370
13
48
1
60
0
100
AcDbLine
10
24.995173
20
8.314267
30
0
11
25.008193
21
8.128065
31
0
39
0
210
0
220
0
230
1
0
LINE
5
A8
100
AcDbEntity
8
1
62
256
6
ByLayer
370
13
48
1
60
0
100
AcDbLine
10
24.995173
20
10.185733
30
0
11
25.008193
21
10.371935
31
0
39
0
210
0
220
0
230
1
0
LINE
5
A9
100
AcDbEntity
8
1
62
256
6
ByLayer
370
13
48
1
60
0
100
AcDbLine
10
24.659386
20
9.713592
30
0
11
24.036893
21
9.713592
31
0
39
0
210
0
220
0
230
1
0
LINE
5
AA
100
AcDbEntity
8
1
62
256
6
ByLayer
370
13
48
1
60
0
100
AcDbLine
10
24.659386
20
8.786408
30
0
11
24.036893
21
8.786408
31
0
39
0
210
0
220
0
230
1
0
LINE
5
AB
100
AcDbEntity
8
1
62
256
6
ByLayer
370
13
48
1
60
0
100
AcDbLine
10
24.242833
20
10.022114
30
0
11
24.311238
21
10.022114
31
0
39
0
210
0
220
0
230
1
0
LINE
5
AC
100
AcDbEntity
8
1
62
256
6
ByLayer
370
13
48
1
60
0
100
AcDbLine
10
24.242833
20
8.477886
30
0
11
24.311238
21
8.477886
31
0
39
0
210
0
220
0
230
1
0
LINE
5
AD
100
AcDbEntity
8
1
62
256
6
ByLayer
370
13
48
1
60
0
100
AcDbLine
10
24.242833
20
10.25
30
0
11
24.242833
21
10.022114
31
0
39
0
210
0
220
0
230
1
0
LINE
5
AE
100
AcDbEntity
8
1
62
256
6
ByLayer
370
13
48
1
60
0
100
AcDbLine
10
24.242833
20
8.477886
30
0
11
24.242833
21
8.25
31
0
39
0
210
0
220
0
230
1
0
LINE
5
AF
100
AcDbEntity
8
1
62
256
6
ByLayer
370
13
48
1
60
0
100
AcDbLine
10
24.070241
20
9.920672
30
0
11
23.959359
21
9.899029
31
0
39
0
210
0
220
0
230
1
0
LINE
5
B0
100
AcDbEntity
8
1
62
256
6
ByLayer
370
13
48
1
60
0
100
AcDbLine
10
23.317283
20
10.133917
30
0
11
23.317283
21
10.25
31
0
39
0
210
0
220
0
230
1
0
LINE
5
B1
100
AcDbEntity
8
1
62
256
6
ByLayer
370
13
48
1
60
0
100
AcDbLine
10
23.317283
20
8.25
30
0
11
23.317283
21
8.366083
31
0
39
0
210
0
220
0
230
1
0
LINE
5
B2
100
AcDbEntity
8
1
62
256
6
ByLayer
370
13
48
1
60
0
100
AcDbLine
10
23.959359
20
8.600971
30
0
11
24.070241
21
8.579328
31
0
39
0
210
0
220
0
230
1
0
LINE
5
B3
100
AcDbEntity
8
1
62
256
6
ByLayer
370
13
48
1
60
0
100
AcDbLine
10
24.147776
20
8.764764
30
0
11
24.036893
21
8.786408
31
0
39
0
210
0
220
0
230
1
0
LINE
5
B4
100
AcDbEntity
8
1
62
256
6
ByLayer
370
13
48
1
60
0
100
AcDbLine
10
24.036893
20
9.713592
30
0
11
24.147776
21
9.735236
31
0
39
0
210
0
220
0
230
1
0
LINE
5
B5
100
AcDbEntity
8
1
62
256
6
ByLayer
370
13
48
1
60
0
100
AcDbLine
10
13.890738
20
10.25
30
0
11
13.890738
21
8.25
31
0
39
0
210
0
220
0
230
1
0
LINE
5
B6
100
AcDbEntity
8
1
62
256
6
ByLayer
370
13
48
1
60
0
100
AcDbLine
10
25.911268
20
9.649659
30
0
11
25.911268
21
9.25
31
0
39
0
210
0
220
0
230
1
0
LINE
5
B7
100
AcDbEntity
8
1
62
256
6
ByLayer
370
13
48
1
60
0
100
AcDbLine
10
23.23041
20
10.25
30
0
11
23.23041
21
10.125983
31
0
39
0
210
0
220
0
230
1
0
LINE
5
B8
100
AcDbEntity
8
1
62
256
6
ByLayer
370
13
48
1
60
0
100
AcDbLine
10
23.23041
20
8.374017
30
0
11
23.23041
21
8.25
31
0
39
0
210
0
220
0
230
1
0
LINE
5
B9
100
AcDbEntity
8
1
62
256
6
ByLayer
370
13
48
1
60
0
100
AcDbLine
10
23.06942
20
9.617998
30
0
11
23.388749
21
9.617998
31
0
39
0
210
0
220
0
230
1
0
LINE
5
BA
100
AcDbEntity
8
1
62
256
6
ByLayer
370
13
48
1
60
0
100
AcDbLine
10
23.015612
20
10.068506
30
0
11
23.06942
21
9.617998
31
0
39
0
210
0
220
0
230
1
0
LINE
5
BB
100
AcDbEntity
8
1
62
256
6
ByLayer
370
13
48
1
60
0
100
AcDbLine
10
23.234752
20
10.075984
30
0
11
23.014718
21
10.075984
31
0
39
0
210
0
220
0
230
1
0
LINE
5
BC
100
AcDbEntity
8
1
62
256
6
ByLayer
370
13
48
1
60
0
100
AcDbLine
10
23.234752
20
8.424016
30
0
11
23.014718
21
8.424016
31
0
39
0
210
0
220
0
230
1
0
LINE
5
BD
100
AcDbEntity
8
1
62
256
6
ByLayer
370
13
48
1
60
0
100
AcDbLine
10
23.015612
20
8.431494
30
0
11
23.06942
21
8.882002
31
0
39
0
210
0
220
0
230
1
0
LINE
5
BE
100
AcDbEntity
8
1
62
256
6
ByLayer
370
13
48
1
60
0
100
AcDbLine
10
23.06942
20
8.882002
30
0
11
23.388749
21
8.882002
31
0
39
0
210
0
220
0
230
1
0
LINE
5
BF
100
AcDbEntity
8
1
62
256
6
ByLayer
370
13
48
1
60
0
100
AcDbLine
10
27.600117
20
9.874579
30
0
11
27.525693
21
9.874579
31
0
39
0
210
0
220
0
230
1
0
LINE
5
C0
100
AcDbEntity
8
1
62
256
6
ByLayer
370
13
48
1
60
0
100
AcDbLine
10
27.135516
20
10.18335
30
0
11
27.135516
21
10.490867
31
0
39
0
210
0
220
0
230
1
0
LINE
5
C1
100
AcDbEntity
8
1
62
256
6
ByLayer
370
13
48
1
60
0
100
AcDbLine
10
27.135516
20
8.31665
30
0
11
27.135516
21
8.009133
31
0
39
0
210
0
220
0
230
1
0
LINE
5
C2
100
AcDbEntity
8
1
62
256
6
ByLayer
370
13
48
1
60
0
100
AcDbLine
10
27.600117
20
8.625421
30
0
11
27.525693
21
8.625421
31
0
39
0
210
0
220
0
230
1
0
LINE
5
C3
100
AcDbEntity
8
1
62
256
6
ByLayer
370
13
48
1
60
0
100
AcDbLine
10
25.828922
20
9.63002
30
0
11
25.828922
21
9.25
31
0
39
0
210
0
220
0
230
1
0
LINE
5
C4
100
AcDbEntity
8
1
62
256
6
ByLayer
370
13
48
1
60
0
100
AcDbLine
10
25.828922
20
8.86998
30
0
11
25.828922
21
9.25
31
0
39
0
210
0
220
0
230
1
0
LINE
5
C5
100
AcDbEntity
8
1
62
256
6
ByLayer
370
13
48
1
60
0
100
AcDbLine
10
23.01185
20
10.125438
30
0
11
23.228277
21
10.125438
31
0
39
0
210
0
220
0
230
1
0
LINE
5
C6
100
AcDbEntity
8
1
62
256
6
ByLayer
370
13
48
1
60
0
100
AcDbLine
10
26.706077
20
8.21604
30
0
11
26.706077
21
8.043895
31
0
39
0
210
0
220
0
230
1
0
LINE
5
C7
100
AcDbEntity
8
1
62
256
6
ByLayer
370
13
48
1
60
0
100
AcDbLine
10
23.01185
20
8.374562
30
0
11
23.228277
21
8.374562
31
0
39
0
210
0
220
0
230
1
0
LINE
5
C8
100
AcDbEntity
8
1
62
256
6
ByLayer
370
13
48
1
60
0
100
AcDbLine
10
27.06476
20
8.014235
30
0
11
27.06476
21
8.264024
31
0
39
0
210
0
220
0
230
1
0
LINE
5
C9
100
AcDbEntity
8
1
62
256
6
ByLayer
370
13
48
1
60
0
100
AcDbLine
10
27.06476
20
10.485765
30
0
11
27.06476
21
10.235976
31
0
39
0
210
0
220
0
230
1
0
LINE
5
CA
100
AcDbEntity
8
1
62
256
6
ByLayer
370
13
48
1
60
0
100
AcDbLine
10
23.106333
20
9.501024
30
0
11
23.476987
21
9.501024
31
0
39
0
210
0
220
0
230
1
0
LINE
5
CB
100
AcDbEntity
8
1
62
256
6
ByLayer
370
13
48
1
60
0
100
AcDbLine
10
26.706077
20
10.28396
30
0
11
26.706077
21
10.456105
31
0
39
0
210
0
220
0
230
1
0
LINE
5
CC
100
AcDbEntity
8
1
62
256
6
ByLayer
370
13
48
1
60
0
100
AcDbLine
10
23.106333
20
8.998976
30
0
11
23.476987
21
8.998976
31
0
39
0
210
0
220
0
230
1
0
LINE
5
CD
100
AcDbEntity
8
1
62
256
6
ByLayer
370
13
48
1
60
0
100
AcDbLine
10
26.358781
20
10.286851
30
0
11
26.358781
21
10.429559
31
0
39
0
210
0
220
0
230
1
0
LINE
5
CE
100
AcDbEntity
8
1
62
256
6
ByLayer
370
13
48
1
60
0
100
AcDbLine
10
26.358781
20
8.213149
30
0
11
26.358781
21
8.070441
31
0
39
0
210
0
220
0
230
1
0
LINE
5
CF
100
AcDbEntity
8
1
62
256
6
ByLayer
370
13
48
1
60
0
100
AcDbLine
10
23.14904
20
9.049244
30
0
11
23.599504
21
9.049244
31
0
39
0
210
0
220
0
230
1
0
LINE
5
D0
100
AcDbEntity
8
1
62
256
6
ByLayer
370
13
48
1
60
0
100
AcDbLine
10
23.14904
20
9.450756
30
0
11
23.599504
21
9.450756
31
0
39
0
210
0
220
0
230
1
0
LINE
5
D1
100
AcDbEntity
8
1
62
256
6
ByLayer
370
13
48
1
60
0
100
AcDbLine
10
25.911268
20
8.850341
30
0
11
25.815133
21
8.544182
31
0
39
0
210
0
220
0
230
1
0
LINE
5
D2
100
AcDbEntity
8
1
62
256
6
ByLayer
370
13
48
1
60
0
100
AcDbLine
10
23.152254
20
9.447335
30
0
11
23.608222
21
9.447335
31
0
39
0
210
0
220
0
230
1
0
LINE
5
D3
100
AcDbEntity
8
1
62
256
6
ByLayer
370
13
48
1
60
0
100
AcDbLine
10
23.152254
20
9.052665
30
0
11
23.608222
21
9.052665
31
0
39
0
210
0
220
0
230
1
0
LINE
5
D4
100
AcDbEntity
8
1
62
256
6
ByLayer
370
13
48
1
60
0
100
AcDbLine
10
25.911268
20
9.649659
30
0
11
25.815133
21
9.955818
31
0
39
0
210
0
220
0
230
1
0
LINE
5
D5
100
AcDbEntity
8
1
62
256
6
ByLayer
370
13
48
1
60
0
100
AcDbLine
10
26.421706
20
10.001182
30
0
11
26.411268
21
9.697302
31
0
39
0
210
0
220
0
230
1
0
LINE
5
D6
100
AcDbEntity
8
1
62
256
6
ByLayer
370
13
48
1
60
0
100
AcDbLine
10
27.548054
20
9.846883
30
0
11
27.6
21
9.846883
31
0
39
0
210
0
220
0
230
1
0
LINE
5
D7
100
AcDbEntity
8
1
62
256
6
ByLayer
370
13
48
1
60
0
100
AcDbLine
10
27.548054
20
8.653117
30
0
11
27.6
21
8.653117
31
0
39
0
210
0
220
0
230
1
0
LINE
5
D8
100
AcDbEntity
8
1
62
256
6
ByLayer
370
13
48
1
60
0
100
AcDbLine
10
26.421706
20
8.498818
30
0
11
26.411268
21
8.802698
31
0
39
0
210
0
220
0
230
1
0
LINE
5
D9
100
AcDbEntity
8
1
62
256
6
ByLayer
370
13
48
1
60
0
100
AcDbLine
10
27.544165
20
9.688206
30
0
11
27.597026
21
9.688206
31
0
39
0
210
0
220
0
230
1
0
LINE
5
DA
100
AcDbEntity
8
1
62
256
6
ByLayer
370
13
48
1
60
0
100
AcDbLine
10
25.911268
20
8.850341
30
0
11
25.911268
21
9.25
31
0
39
0
210
0
220
0
230
1
0
LINE
5
DB
100
AcDbEntity
8
1
62
256
6
ByLayer
370
13
48
1
60
0
100
AcDbLine
10
27.597026
20
8.811794
30
0
11
27.597026
21
9.688206
31
0
39
0
210
0
220
0
230
1
0
LINE
5
DC
100
AcDbEntity
8
1
62
256
6
ByLayer
370
13
48
1
60
0
100
AcDbLine
10
27.544165
20
8.811794
30
0
11
27.597026
21
8.811794
31
0
39
0
210
0
220
0
230
1
0
LINE
5
DD
100
AcDbEntity
8
1
62
256
6
ByLayer
370
13
48
1
60
0
100
AcDbLine
10
23.000093
20
9.617998
30
0
11
23.06942
21
9.617998
31
0
39
0
210
0
220
0
230
1
0
LINE
5
DE
100
AcDbEntity
8
1
62
256
6
ByLayer
370
13
48
1
60
0
100
AcDbLine
10
23.000093
20
8.882002
30
0
11
23.06942
21
8.882002
31
0
39
0
210
0
220
0
230
1
0
LINE
5
DF
100
AcDbEntity
8
1
62
256
6
ByLayer
370
13
48
1
60
0
100
AcDbLine
10
23.14904
20
9.450756
30
0
11
23.152254
21
9.447335
31
0
39
0
210
0
220
0
230
1
0
LINE
5
E0
100
AcDbEntity
8
1
62
256
6
ByLayer
370
13
48
1
60
0
100
AcDbLine
10
23.14904
20
9.049244
30
0
11
23.152254
21
9.052665
31
0
39
0
210
0
220
0
230
1
0
LINE
5
E1
100
AcDbEntity
8
1
62
256
6
ByLayer
370
13
48
1
60
0
100
AcDbLine
10
27.544165
20
9.688206
30
0
11
27.544165
21
8.811794
31
0
39
0
210
0
220
0
230
1
0
LINE
5
E2
100
AcDbEntity
8
1
62
256
6
ByLayer
370
13
48
1
60
0
100
AcDbLine
10
22.991978
20
9.447335
30
0
11
23.152254
21
9.447335
31
0
39
0
210
0
220
0
230
1
0
LINE
5
E3
100
AcDbEntity
8
1
62
256
6
ByLayer
370
13
48
1
60
0
100
AcDbLine
10
27.021373
20
9.698773
30
0
11
27.021373
21
8.801227
31
0
39
0
210
0
220
0
230
1
0
LINE
5
E4
100
AcDbEntity
8
1
62
256
6
ByLayer
370
13
48
1
60
0
100
AcDbLine
10
22.993871
20
8.998976
30
0
11
23.106333
21
8.998976
31
0
39
0
210
0
220
0
230
1
0
LINE
5
E5
100
AcDbEntity
8
1
62
256
6
ByLayer
370
13
48
1
60
0
100
AcDbLine
10
26.411268
20
9.697302
30
0
11
26.411268
21
8.802698
31
0
39
0
210
0
220
0
230
1
0
LINE
5
E6
100
AcDbEntity
8
1
62
256
6
ByLayer
370
13
48
1
60
0
100
AcDbLine
10
22.993871
20
9.501024
30
0
11
23.106333
21
9.501024
31
0
39
0
210
0
220
0
230
1
0
LINE
5
E7
100
AcDbEntity
8
1
62
256
6
ByLayer
370
13
48
1
60
0
100
AcDbLine
10
22.992089
20
9.049244
30
0
11
23.14904
21
9.049244
31
0
39
0
210
0
220
0
230
1
0
LINE
5
E8
100
AcDbEntity
8
1
62
256
6
ByLayer
370
13
48
1
60
0
100
AcDbLine
10
22.992089
20
9.450756
30
0
11
23.14904
21
9.450756
31
0
39
0
210
0
220
0
230
1
0
LINE
5
E9
100
AcDbEntity
8
1
62
256
6
ByLayer
370
13
48
1
60
0
100
AcDbLine
10
22.991978
20
9.052665
30
0
11
23.152254
21
9.052665
31
0
39
0
210
0
220
0
230
1
0
LINE
5
EA
100
AcDbEntity
8
1
62
256
6
ByLayer
370
13
48
1
60
0
100
AcDbLine
10
-5.682242
20
-10
30
0
11
-5.682242
21
10.25
31
0
39
0
210
0
220
0
230
1
0
LINE
5
EB
100
AcDbEntity
8
1
62
256
6
ByLayer
370
18
48
1
60
0
100
AcDbLine
10
13.890738
20
8.25
30
0
11
1.6
21
8.25
31
0
39
0
210
0
220
0
230
1
0
LINE
5
EC
100
AcDbEntity
8
1
62
256
6
ByLayer
370
18
48
1
60
0
100
AcDbLine
10
13.890738
20
10.25
30
0
11
-4.888118
21
10.25
31
0
39
0
210
0
220
0
230
1
0
LINE
5
ED
100
AcDbEntity
8
1
62
256
6
ByLayer
370
18
48
1
60
0
100
AcDbLine
10
23.013022
20
8.25
30
0
11
18.890738
21
8.25
31
0
39
0
210
0
220
0
230
1
0
LINE
5
EE
100
AcDbEntity
8
1
62
256
6
ByLayer
370
18
48
1
60
0
100
AcDbLine
10
0
20
-10
30
0
11
0
21
6.65
31
0
39
0
210
0
220
0
230
1
0
LINE
5
EF
100
AcDbEntity
8
1
62
256
6
ByLayer
370
18
48
1
60
0
100
AcDbLine
10
23.013022
20
10.25
30
0
11
18.890738
21
10.25
31
0
39
0
210
0
220
0
230
1
0
LINE
5
F0
100
AcDbEntity
8
1
62
256
6
ByLayer
370
18
48
1
60
0
100
AcDbLine
10
18.890738
20
8.25
30
0
11
13.890738
21
8.25
31
0
39
0
210
0
220
0
230
1
0
LINE
5
F1
100
AcDbEntity
8
1
62
256
6
ByLayer
370
18
48
1
60
0
100
AcDbLine
10
18.890738
20
10.25
30
0
11
13.890738
21
10.25
31
0
39
0
210
0
220
0
230
1
0
LINE
5
F2
100
AcDbEntity
8
1
62
256
6
ByLayer
370
18
48
1
60
0
100
AcDbLine
10
23.015611
20
8.258431
30
0
11
23.015611
21
8.728186
31
0
39
0
210
0
220
0
230
1
0
LINE
5
F3
100
AcDbEntity
8
1
62
256
6
ByLayer
370
18
48
1
60
0
100
AcDbLine
10
23.015611
20
8.258431
30
0
11
23.013022
21
8.25
31
0
39
0
210
0
220
0
230
1
0
LINE
5
F4
100
AcDbEntity
8
1
62
256
6
ByLayer
370
18
48
1
60
0
100
AcDbLine
10
23.013022
20
10.25
30
0
11
23.015611
21
10.241569
31
0
39
0
210
0
220
0
230
1
0
LINE
5
F5
100
AcDbEntity
8
1
62
256
6
ByLayer
370
18
48
1
60
0
100
AcDbLine
10
-5.682242
20
10.25
30
0
11
-6.261092
21
10.25
31
0
39
0
210
0
220
0
230
1
0
LINE
5
F6
100
AcDbEntity
8
1
62
256
6
ByLayer
370
18
48
1
60
0
100
AcDbLine
10
-4.888118
20
-10
30
0
11
-4.888118
21
10.25
31
0
39
0
210
0
220
0
230
1
0
LINE
5
F7
100
AcDbEntity
8
1
62
256
6
ByLayer
370
18
48
1
60
0
100
AcDbLine
10
-69
20
6.925
30
0
11
-69
21
-7
31
0
39
0
210
0
220
0
230
1
0
LINE
5
F8
100
AcDbEntity
8
1
62
256
6
ByLayer
370
18
48
1
60
0
100
AcDbLine
10
-4.888118
20
10.25
30
0
11
-5.682242
21
10.25
31
0
39
0
210
0
220
0
230
1
0
LINE
5
F9
100
AcDbEntity
8
1
62
256
6
ByLayer
370
18
48
1
60
0
100
AcDbLine
10
-66
20
9.925
30
0
11
-7.227723
21
9.925
31
0
39
0
210
0
220
0
230
1
0
LINE
5
FA
100
AcDbEntity
8
1
62
256
6
ByLayer
370
18
48
1
60
0
100
AcDbLine
10
0
20
-10
30
0
11
1
21
-10
31
0
39
0
210
0
220
0
230
1
0
LINE
5
FB
100
AcDbEntity
8
1
62
256
6
ByLayer
370
18
48
1
60
0
100
AcDbLine
10
-7.227723
20
-10
30
0
11
-5.682242
21
-10
31
0
39
0
210
0
220
0
230
1
0
LINE
5
FC
100
AcDbEntity
8
1
62
256
6
ByLayer
370
18
48
1
60
0
100
AcDbLine
10
0
20
-10
30
0
11
-4.888118
21
-10
31
0
39
0
210
0
220
0
230
1
0
LINE
5
FD
100
AcDbEntity
8
1
62
256
6
ByLayer
370
18
48
1
60
0
100
AcDbLine
10
-66
20
-10
30
0
11
-7.227723
21
-10
31
0
39
0
210
0
220
0
230
1
0
LINE
5
FE
100
AcDbEntity
8
1
62
256
6
ByLayer
370
18
48
1
60
0
100
AcDbLine
10
-5.682242
20
-10
30
0
11
-4.888118
21
-10
31
0
39
0
210
0
220
0
230
1
0
LINE
5
FF
100
AcDbEntity
8
1
62
256
6
ByLayer
370
18
48
1
60
0
100
AcDbLine
10
12.964427
20
-1.791324
30
0
11
12.964427
21
6.65
31
0
39
0
210
0
220
0
230
1
0
LINE
5
100
100
AcDbEntity
8
1
62
256
6
ByLayer
370
18
48
1
60
0
100
AcDbLine
10
23.015611
20
9.771814
30
0
11
23.015611
21
10.241569
31
0
39
0
210
0
220
0
230
1
0
LINE
5
101
100
AcDbEntity
8
1
62
256
6
ByLayer
370
18
48
1
60
0
100
AcDbLine
10
-66
20
-10
30
0
11
-69
21
-7
31
0
39
0
210
0
220
0
230
1
0
LINE
5
102
100
AcDbEntity
8
1
62
256
6
ByLayer
370
18
48
1
60
0
100
AcDbLine
10
-66
20
9.925
30
0
11
-69
21
6.925
31
0
39
0
210
0
220
0
230
1
0
LINE
5
103
100
AcDbEntity
8
1
62
256
6
ByLayer
370
18
48
1
60
0
100
AcDbLine
10
12.964427
20
-1.791324
30
0
11
1
21
-10
31
0
39
0
210
0
220
0
230
1
0
LINE
5
104
100
AcDbEntity
8
1
62
256
6
ByLayer
370
18
48
1
60
0
100
AcDbLine
10
23.317283
20
10.25
30
0
11
23.23041
21
10.25
31
0
39
0
210
0
220
0
230
1
0
LINE
5
105
100
AcDbEntity
8
1
62
256
6
ByLayer
370
18
48
1
60
0
100
AcDbLine
10
24.311238
20
10.25
30
0
11
24.242833
21
10.25
31
0
39
0
210
0
220
0
230
1
0
LINE
5
106
100
AcDbEntity
8
1
62
256
6
ByLayer
370
18
48
1
60
0
100
AcDbLine
10
24.475747
20
8.222882
30
0
11
24.559449
21
8.174557
31
0
39
0
210
0
220
0
230
1
0
LINE
5
107
100
AcDbEntity
8
1
62
256
6
ByLayer
370
18
48
1
60
0
100
AcDbLine
10
24.645343
20
8.14829
30
0
11
24.830259
21
8.13536
31
0
39
0
210
0
220
0
230
1
0
LINE
5
108
100
AcDbEntity
8
1
62
256
6
ByLayer
370
18
48
1
60
0
100
AcDbLine
10
25.09812
20
10.371919
30
0
11
25.008193
21
10.371935
31
0
39
0
210
0
220
0
230
1
0
LINE
5
109
100
AcDbEntity
8
1
62
256
6
ByLayer
370
18
48
1
60
0
100
AcDbLine
10
26.158781
20
8.084495
30
0
11
26.358781
21
8.070441
31
0
39
0
210
0
220
0
230
1
0
LINE
5
10A
100
AcDbEntity
8
1
62
256
6
ByLayer
370
18
48
1
60
0
100
AcDbLine
10
25.008193
20
8.128065
30
0
11
25.09812
21
8.128081
31
0
39
0
210
0
220
0
230
1
0
LINE
5
10B
100
AcDbEntity
8
1
62
256
6
ByLayer
370
18
48
1
60
0
100
AcDbLine
10
24.54752
20
10.324628
30
0
11
24.465402
21
10.277217
31
0
39
0
210
0
220
0
230
1
0
LINE
5
10C
100
AcDbEntity
8
1
62
256
6
ByLayer
370
18
48
1
60
0
100
AcDbLine
10
23.23041
20
10.25
30
0
11
23.01185
21
10.25
31
0
39
0
210
0
220
0
230
1
0
LINE
5
10D
100
AcDbEntity
8
1
62
256
6
ByLayer
370
18
48
1
60
0
100
AcDbLine
10
27.289249
20
10.500341
30
0
11
27.135516
21
10.490867
31
0
39
0
210
0
220
0
230
1
0
LINE
5
10E
100
AcDbEntity
8
1
62
256
6
ByLayer
370
18
48
1
60
0
100
AcDbLine
10
23.317283
20
8.25
30
0
11
24.242833
21
8.25
31
0
39
0
210
0
220
0
230
1
0
LINE
5
10F
100
AcDbEntity
8
1
62
256
6
ByLayer
370
18
48
1
60
0
100
AcDbLine
10
27.600117
20
9.874579
30
0
11
27.602839
21
10.19637
31
0
39
0
210
0
220
0
230
1
0
LINE
5
110
100
AcDbEntity
8
1
62
256
6
ByLayer
370
18
48
1
60
0
100
AcDbLine
10
23.23041
20
8.25
30
0
11
23.317283
21
8.25
31
0
39
0
210
0
220
0
230
1
0
LINE
5
111
100
AcDbEntity
8
1
62
256
6
ByLayer
370
18
48
1
60
0
100
AcDbLine
10
26.358781
20
10.429559
30
0
11
26.158781
21
10.415505
31
0
39
0
210
0
220
0
230
1
0
LINE
5
112
100
AcDbEntity
8
1
62
256
6
ByLayer
370
18
48
1
60
0
100
AcDbLine
10
26.706077
20
8.043895
30
0
11
27.06476
21
8.014235
31
0
39
0
210
0
220
0
230
1
0
LINE
5
113
100
AcDbEntity
8
1
62
256
6
ByLayer
370
18
48
1
60
0
100
AcDbLine
10
24.311238
20
10.25
30
0
11
24.363694
21
10.25
31
0
39
0
210
0
220
0
230
1
0
LINE
5
114
100
AcDbEntity
8
1
62
256
6
ByLayer
370
18
48
1
60
0
100
AcDbLine
10
27.602839
20
8.30363
30
0
11
27.600117
21
8.625421
31
0
39
0
210
0
220
0
230
1
0
LINE
5
115
100
AcDbEntity
8
1
62
256
6
ByLayer
370
18
48
1
60
0
100
AcDbLine
10
24.830259
20
10.36464
30
0
11
24.63336
21
10.350872
31
0
39
0
210
0
220
0
230
1
0
LINE
5
116
100
AcDbEntity
8
1
62
256
6
ByLayer
370
18
48
1
60
0
100
AcDbLine
10
24.242833
20
10.25
30
0
11
23.317283
21
10.25
31
0
39
0
210
0
220
0
230
1
0
LINE
5
117
100
AcDbEntity
8
1
62
256
6
ByLayer
370
18
48
1
60
0
100
AcDbLine
10
27.06476
20
10.485765
30
0
11
26.706077
21
10.456105
31
0
39
0
210
0
220
0
230
1
0
LINE
5
118
100
AcDbEntity
8
1
62
256
6
ByLayer
370
18
48
1
60
0
100
AcDbLine
10
24.242833
20
8.25
30
0
11
24.311238
21
8.25
31
0
39
0
210
0
220
0
230
1
0
LINE
5
119
100
AcDbEntity
8
1
62
256
6
ByLayer
370
18
48
1
60
0
100
AcDbLine
10
23.01185
20
8.25
30
0
11
23.23041
21
8.25
31
0
39
0
210
0
220
0
230
1
0
LINE
5
11A
100
AcDbEntity
8
1
62
256
6
ByLayer
370
18
48
1
60
0
100
AcDbLine
10
27.6
20
8.653117
30
0
11
27.6
21
9.846883
31
0
39
0
210
0
220
0
230
1
0
LINE
5
11B
100
AcDbEntity
8
1
62
256
6
ByLayer
370
18
48
1
60
0
100
AcDbLine
10
27.135516
20
8.009133
30
0
11
27.289249
21
7.999659
31
0
39
0
210
0
220
0
230
1
0
LINE
5
11C
100
AcDbEntity
8
1
62
256
6
ByLayer
370
18
48
1
60
0
100
AcDbLine
10
24.37444
20
8.25
30
0
11
24.311238
21
8.25
31
0
39
0
210
0
220
0
230
1
0
LINE
5
11D
100
AcDbEntity
8
SK2
62
256
6
ByLayer
370
13
48
1
60
0
100
AcDbLine
10
-78.60005
20
10
30
0
11
-78.60005
21
-10
31
0
39
0
210
0
220
0
230
1
0
LINE
5
11F
100
AcDbEntity
8
SK2
62
256
6
ByLayer
370
13
48
1
60
0
100
AcDbLine
10
-2
20
-10
30
0
11
-80.60005
21
-10
31
0
39
0
210
0
220
0
230
1
0
LINE
5
120
100
AcDbEntity
8
SK2
62
256
6
ByLayer
370
13
48
1
60
0
100
AcDbLine
10
-2
20
10
30
0
11
-80.60005
21
10
31
0
39
0
210
0
220
0
230
1
0
LINE
5
121
100
AcDbEntity
8
SK2
62
256
6
ByLayer
370
18
48
1
60
0
100
AcDbLine
10
-78.60005
20
-10
30
0
11
-79.018047
21
-6.825002
31
0
39
0
210
0
220
0
230
1
0
LINE
5
122
100
AcDbEntity
8
SK2
62
256
6
ByLayer
370
18
48
1
60
0
100
AcDbLine
10
-78.60005
20
-10
30
0
11
-78.182053
21
-6.824998
31
0
39
0
210
0
220
0
230
1
0
LINE
5
123
100
AcDbEntity
8
SK2
62
256
6
ByLayer
370
18
48
1
60
0
100
AcDbLine
10
-79.018047
20
-6.825002
30
0
11
-78.182053
21
-6.824998
31
0
39
0
210
0
220
0
230
1
0
LINE
5
124
100
AcDbEntity
8
SK2
62
256
6
ByLayer
370
18
48
1
60
0
100
AcDbLine
10
-78.60005
20
10
30
0
11
-78.182053
21
6.825002
31
0
39
0
210
0
220
0
230
1
0
LINE
5
125
100
AcDbEntity
8
SK2
62
256
6
ByLayer
370
18
48
1
60
0
100
AcDbLine
10
-78.60005
20
10
30
0
11
-79.018047
21
6.824998
31
0
39
0
210
0
220
0
230
1
0
LINE
5
126
100
AcDbEntity
8
SK2
62
256
6
ByLayer
370
18
48
1
60
0
100
AcDbLine
10
-78.182053
20
6.825002
30
0
11
-79.018047
21
6.824998
31
0
39
0
210
0
220
0
230
1
0
MTEXT
5
20D
100
AcDbEntity
8
SK6
62
256
6
ByLayer
370
18
48
1
60
0
100
AcDbMText
10
-52.325025
20
-50.62458
30
0
210
0
220
0
230
1
1
\W0.7873;QS-QD-RFF26C2020D
40
3.5
41
0
44
1.084337
50
0
71
7
72
5
7
iso_b_vert
0
MTEXT
5
211
100
AcDbEntity
8
SK2
62
256
6
ByLayer
370
18
48
1
60
0
100
AcDbMText
10
-79.47505
20
-1.169737
30
0
210
0
220
0
230
1
1
\W0.6740;20
40
3.5
41
0
44
1.084337
50
89.9999999999999
71
7
72
5
7
iso_b_vert
0
DIMENSION
5
220
100
AcDbEntity
8
2
62
256
6
ByLayer
370
13
48
1
60
0
100
AcDbDimension
2
DimnDraft3D1
10
52.7
20
10.5
30
0
11
52.7
21
-3.857895
31
0
70
32
71
5
72
1
41
1
210
0
220
0
230
1
3
Standard
100
AcDbAlignedDimension
13
3.6
23
-10
33
0
14
29.6
24
10.5
34
0
50
90
100
AcDbRotatedDimension
1001
ACAD
1000
DSTYLE
1002
{
1070
    74
1070
     0
1070
   279
1070
     0
1070
   172
1070
     1
1070
   173
1070
     1
1070
   340
1005
20E
1070
   271
1070
     1
1070
    77
1070
     1
1070
    73
1070
     0
1070
   171
1070
     3
1070
   274
1070
     4
1070
   177
1070
     2
1070
   176
1070
     2
1070
   178
1070
     7
1070
    78
1070
     8
1070
    41
1041
3.175
1070
   147
1041
1.75
1070
    42
1041
2.0
1070
    44
1041
2.0
1070
   140
1041
3.5
1070
   343
1005
221
1070
   344
1005
221
1002
}
0
DIMENSION
5
235
100
AcDbEntity
8
SK2
62
256
6
ByLayer
370
13
48
1
60
0
100
AcDbDimension
2
DimnDraft3D2
10
-66
20
-23.10005
30
0
11
-68.259868
21
-23.10005
31
0
70
32
71
5
72
1
41
1
210
0
220
0
230
1
3
Standard
100
AcDbAlignedDimension
13
-69
23
-12
33
0
14
-66
24
-12
34
0
50
0
100
AcDbRotatedDimension
1001
ACAD
1000
DSTYLE
1002
{
1070
   279
1070
     0
1070
   172
1070
     1
1070
   173
1070
     1
1070
   340
1005
20E
1070
    77
1070
     1
1070
    73
1070
     0
1070
   171
1070
     3
1070
   274
1070
     4
1070
   177
1070
     2
1070
   176
1070
     2
1070
   178
1070
     7
1070
    78
1070
     8
1070
    41
1041
3.175
1070
   147
1041
1.75
1070
    42
1041
2.0
1070
    44
1041
2.0
1070
   140
1041
3.5
1070
   343
1005
221
1070
   344
1005
221
1002
}
0
DIMENSION
5
243
100
AcDbEntity
8
SK2
62
256
6
ByLayer
370
13
48
1
60
0
100
AcDbDimension
2
DimnDraft3D3
10
27.6
20
33.100889
30
0
11
-24.807895
21
33.100889
31
0
70
32
71
5
72
1
41
1
210
0
220
0
230
1
3
Standard
100
AcDbAlignedDimension
13
-69
23
-8
33
0
14
27.6
24
12.5
34
0
50
0
100
AcDbRotatedDimension
1001
ACAD
1000
DSTYLE
1002
{
1070
   279
1070
     0
1070
   172
1070
     1
1070
   173
1070
     1
1070
   340
1005
20E
1070
   271
1070
     1
1070
    77
1070
     1
1070
    73
1070
     0
1070
   171
1070
     3
1070
   274
1070
     4
1070
   177
1070
     2
1070
   176
1070
     2
1070
   178
1070
     7
1070
    78
1070
     8
1070
    41
1041
3.175
1070
   147
1041
1.75
1070
    42
1041
2.0
1070
    44
1041
2.0
1070
   140
1041
3.5
1070
   343
1005
221
1070
   344
1005
221
1002
}
0
DIMENSION
5
251
100
AcDbEntity
8
2
62
256
6
ByLayer
370
13
48
1
60
0
100
AcDbDimension
2
DimnDraft3D4
10
27.6
20
27.100889
30
0
11
6.692105
21
27.100889
31
0
70
32
71
5
72
1
41
1
210
0
220
0
230
1
3
Standard
100
AcDbAlignedDimension
13
-6
23
12
33
0
14
27.6
24
12.5
34
0
50
0
100
AcDbRotatedDimension
1001
ACAD
1000
DSTYLE
1002
{
1070
   279
1070
     0
1070
   172
1070
     1
1070
   173
1070
     1
1070
   340
1005
20E
1070
   271
1070
     1
1070
    77
1070
     1
1070
    73
1070
     0
1070
   171
1070
     3
1070
   274
1070
     4
1070
   177
1070
     2
1070
   176
1070
     2
1070
   178
1070
     7
1070
    78
1070
     8
1070
    41
1041
3.175
1070
   147
1041
1.75
1070
    42
1041
2.0
1070
    44
1041
2.0
1070
   140
1041
3.5
1070
   343
1005
221
1070
   344
1005
221
1002
}
0
DIMENSION
5
25F
100
AcDbEntity
8
2
62
256
6
ByLayer
370
13
48
1
60
0
100
AcDbDimension
2
DimnDraft3D5
10
1.6
20
-23.10005
30
0
11
12.509211
21
-23.10005
31
0
70
32
71
5
72
1
41
1
210
0
220
0
230
1
3
Standard
100
AcDbAlignedDimension
13
27.6
23
8.5
33
0
14
1.6
24
-12
34
0
50
0
100
AcDbRotatedDimension
1001
ACAD
1000
DSTYLE
1002
{
1070
   279
1070
     0
1070
   172
1070
     1
1070
   173
1070
     1
1070
   340
1005
20E
1070
   271
1070
     1
1070
    77
1070
     1
1070
    73
1070
     0
1070
   171
1070
     3
1070
   274
1070
     4
1070
   177
1070
     2
1070
   176
1070
     2
1070
   178
1070
     7
1070
    78
1070
     8
1070
    41
1041
3.175
1070
   147
1041
1.75
1070
    42
1041
2.0
1070
    44
1041
2.0
1070
   140
1041
3.5
1070
   343
1005
221
1070
   344
1005
221
1002
}
0
DIMENSION
5
26D
100
AcDbEntity
8
2
62
256
6
ByLayer
370
13
48
1
60
0
100
AcDbDimension
2
DimnDraft3D6
10
45.7
20
8
30
0
11
45.7
21
-7.855
31
0
70
32
71
5
72
1
41
1
210
0
220
0
230
1
3
Standard
100
AcDbAlignedDimension
13
29.6
23
10.5
33
0
14
29.6
24
8
34
0
50
90
100
AcDbRotatedDimension
1001
ACAD
1000
DSTYLE
1002
{
1070
    74
1070
     0
1070
   279
1070
     0
1070
   172
1070
     1
1070
   173
1070
     1
1070
   340
1005
20E
1070
   271
1070
     1
1070
    77
1070
     1
1070
    73
1070
     0
1070
   171
1070
     3
1070
   274
1070
     4
1070
   177
1070
     2
1070
   176
1070
     2
1070
   178
1070
     7
1070
    78
1070
     8
1070
    41
1041
3.175
1070
   147
1041
1.75
1070
    42
1041
2.0
1070
    44
1041
2.0
1070
   140
1041
3.5
1070
   343
1005
221
1070
   344
1005
221
1002
}
0
ENDSEC
0
SECTION
2
OBJECTS
0
DICTIONARY
5
2d7
330
0
100
AcDbDictionary
280
0
281
1
3
ACAD_GROUP
350
2d8
3
ACAD_MLINESTYLE
350
2d9
0
DICTIONARY
5
2d8
330
0
100
AcDbDictionary
280
0
281
1
0
DICTIONARY
5
2d9
330
0
100
AcDbDictionary
280
0
281
1
3
Standard
350
18
0
MLINESTYLE
5
18
330
2d9
100
AcDbMlineStyle
2
Standard
70
0
3

62
256
51
90
52
90
71
2
49
-0.5
62
256
6
ByLayer
49
0.5
62
256
6
ByLayer
0
RASTERVARIABLES
5
2c6
330

100
AcDbRasterVariables
90
0
70
1
71
1
72
1
0
ENDSEC
0
EOF
