0
SECTION
2
HEADER
9
$ACADVER
1
AC1015
9
$DWGCODEPAGE
3
ANSI_1252
9
$HANDSEED
5
2fc
9
$ANGBASE
50
0
9
$ANGDIR
70
0
9
$ATTMODE
70
1
9
$AUNITS
70
0
9
$AUPREC
70
0
9
$CECOLOR
62
256
9
$CELTSCALE
40
1
9
$CELTYPE
6
ByLayer
9
$CELWEIGHT
370
18
9
$CLAYER
8
0
9
$CMLJUST
70
0
9
$CMLSCALE
40
1
9
$CMLSTYLE
2
Standard
9
$DIMSTYLE
2
Standard
9
$TEXTSIZE
40
0.2
9
$TEXTSTYLE
7
Standard
9
$LUNITS
70
2
9
$LUPREC
70
4
9
$EXTNAMES
290
1
9
$INSUNITS
70
4
9
$LTSCALE
40
1
9
$LWDISPLAY
290
1
9
$PDMODE
70
0
9
$PDSIZE
40
0
9
$PLINEGEN
70
0
0
ENDSEC
0
SECTION
2
CLASSES
0
CLASS
1
RASTERVARIABLES
2
AcDbRasterVariables
3
ISM
90
0
280
0
281
0
0
ENDSEC
0
SECTION
2
TABLES
0
TABLE
2
VPORT
5
2f2
100
AcDbSymbolTable
0
VPORT
5
1
100
AcDbSymbolTableRecord
100
AcDbViewportTableRecord
2
*Active
70
0
10
0
20
0
11
1
21
1
12
-1
22
1
13
0
23
0
14
0.5
24
0.5
15
10
25
10
16
0
26
0
36
1
17
0
27
0
37
0
0
ENDTAB
0
TABLE
2
LTYPE
5
2f3
100
AcDbSymbolTable
0
LTYPE
5
14
100
AcDbSymbolTableRecord
100
AcDbLinetypeTableRecord
70
0
2
ByBlock
3

72
65
73
0
40
0
0
LTYPE
5
15
100
AcDbSymbolTableRecord
100
AcDbLinetypeTableRecord
70
0
2
ByLayer
3

72
65
73
0
40
0
0
LTYPE
5
16
100
AcDbSymbolTableRecord
100
AcDbLinetypeTableRecord
70
0
2
CONTINUOUS
3
Solid line
72
65
73
0
40
0
0
LTYPE
5
6A
100
AcDbSymbolTableRecord
100
AcDbLinetypeTableRecord
70
0
2
CENTER
3
____ _ ____ _ ____ _ ____
72
65
73
4
40
47.5
49
22
74
0
49
-8.5
74
0
49
8.5
74
0
49
-8.5
74
0
0
LTYPE
5
6B
100
AcDbSymbolTableRecord
100
AcDbLinetypeTableRecord
70
0
2
DASHED
3
__ __ __ __ __ __ __ __ __
72
65
73
2
40
25.72
49
12.86
74
0
49
-12.86
74
0
0
ENDTAB
0
TABLE
2
LAYER
5
2f4
100
AcDbSymbolTable
0
LAYER
5
10
100
AcDbSymbolTableRecord
100
AcDbLayerTableRecord
2
0
70
0
62
7
6
CONTINUOUS
290
1
370
-3
390
0
0
LAYER
5
6D
100
AcDbSymbolTableRecord
100
AcDbLayerTableRecord
2
80
70
0
62
-6
6
CONTINUOUS
290
1
370
-3
390
0
0
LAYER
5
6F
100
AcDbSymbolTableRecord
100
AcDbLayerTableRecord
2
81
70
0
62
-3
6
CONTINUOUS
290
1
370
-3
390
0
0
LAYER
5
83
100
AcDbSymbolTableRecord
100
AcDbLayerTableRecord
2
1
70
0
62
4
6
CONTINUOUS
290
1
370
-3
390
0
0
LAYER
5
22C
100
AcDbSymbolTableRecord
100
AcDbLayerTableRecord
2
2
70
0
62
7
6
CONTINUOUS
290
1
370
-3
390
0
0
LAYER
5
2df
100
AcDbSymbolTableRecord
100
AcDbLayerTableRecord
2
SK1
70
0
62
4
6
CONTINUOUS
290
1
370
-3
390
0
0
LAYER
5
2e0
100
AcDbSymbolTableRecord
100
AcDbLayerTableRecord
2
SK2
70
0
62
7
6
CONTINUOUS
290
1
370
-3
390
0
0
LAYER
5
2e1
100
AcDbSymbolTableRecord
100
AcDbLayerTableRecord
2
SK6
70
0
62
5
6
CONTINUOUS
290
1
370
-3
390
0
0
ENDTAB
0
TABLE
2
STYLE
5
2f5
100
AcDbSymbolTable
0
STYLE
5
11
100
AcDbSymbolTableRecord
100
AcDbTextStyleTableRecord
2
Standard
3
txt
70
0
71
0
40
0
41
1
42
0
50
0
0
STYLE
5
226
100
AcDbSymbolTableRecord
100
AcDbTextStyleTableRecord
2
iso_b_vert
3
simplex.shx
70
0
71
0
40
0
41
1
42
0
50
0
0
STYLE
5
227
100
AcDbSymbolTableRecord
100
AcDbTextStyleTableRecord
2
DWGDirectTextStyle
3
simplex
70
0
71
0
40
0
41
1
42
0
50
0
0
ENDTAB
0
TABLE
2
DIMSTYLE
5
2f6
100
AcDbSymbolTable
100
AcDbDimStyleTable
0
DIMSTYLE
105
27
100
AcDbSymbolTableRecord
100
AcDbDimStyleTableRecord
2
Standard
70
0
3
<>
41
0.18
42
0.0625
44
0.18
140
0.18
147
0.09
73
0
74
0
77
1
271
2
275
0
278
52
280
0
340
11
0
ENDTAB
0
TABLE
2
VIEW
5
2f7
100
AcDbSymbolTable
0
ENDTAB
0
TABLE
2
UCS
5
2f8
100
AcDbSymbolTable
0
ENDTAB
0
TABLE
2
APPID
5
2f9
100
AcDbSymbolTable
0
APPID
5
12
100
AcDbSymbolTableRecord
100
AcDbRegAppTableRecord
2
ACAD
70
0
0
ENDTAB
0
TABLE
2
BLOCK_RECORD
5
2fa
100
AcDbSymbolTable
0
BLOCK_RECORD
5
1F
100
AcDbSymbolTableRecord
100
AcDbBlockTableRecord
2
*Model_Space
340
0
70
0
0
BLOCK_RECORD
5
1B
100
AcDbSymbolTableRecord
100
AcDbBlockTableRecord
2
*Paper_Space
340
0
70
0
0
BLOCK_RECORD
5
23
100
AcDbSymbolTableRecord
100
AcDbBlockTableRecord
2
*Paper_Space0
340
0
70
0
0
BLOCK_RECORD
5
22A
100
AcDbSymbolTableRecord
100
AcDbBlockTableRecord
2
DimnDraft3D1
340
0
70
0
0
BLOCK_RECORD
5
239
100
AcDbSymbolTableRecord
100
AcDbBlockTableRecord
2
_CLOSED
340
0
70
0
0
BLOCK_RECORD
5
240
100
AcDbSymbolTableRecord
100
AcDbBlockTableRecord
2
DimnDraft3D2
340
0
70
0
0
BLOCK_RECORD
5
24E
100
AcDbSymbolTableRecord
100
AcDbBlockTableRecord
2
DimnDraft3D3
340
0
70
0
0
BLOCK_RECORD
5
25C
100
AcDbSymbolTableRecord
100
AcDbBlockTableRecord
2
DimnDraft3D4
340
0
70
0
0
BLOCK_RECORD
5
26A
100
AcDbSymbolTableRecord
100
AcDbBlockTableRecord
2
DimnDraft3D5
340
0
70
0
0
BLOCK_RECORD
5
278
100
AcDbSymbolTableRecord
100
AcDbBlockTableRecord
2
DimnDraft3D6
340
0
70
0
0
ENDTAB
0
ENDSEC
0
SECTION
2
BLOCKS
0
BLOCK
5
20
100
AcDbEntity
8
0
100
AcDbBlockBegin
2
*Model_Space
70
0
10
0
20
0
30
0
3
*Model_Space
0
ENDBLK
5
21
100
AcDbEntity
8
0
100
AcDbBlockEnd
0
BLOCK
5
1C
100
AcDbEntity
8
0
100
AcDbBlockBegin
2
*Paper_Space
70
0
10
0
20
0
30
0
3
*Paper_Space
0
ENDBLK
5
1D
100
AcDbEntity
8
0
100
AcDbBlockEnd
0
BLOCK
5
24
100
AcDbEntity
8
0
100
AcDbBlockBegin
2
*Paper_Space0
70
0
10
0
20
0
30
0
3
*Paper_Space0
0
ENDBLK
5
25
100
AcDbEntity
8
0
100
AcDbBlockEnd
0
BLOCK
5
236
100
AcDbEntity
8
0
100
AcDbBlockBegin
2
DimnDraft3D1
70
0
10
0
20
0
30
0
3
DimnDraft3D1
0
MTEXT
5
22B
100
AcDbEntity
8
2
62
256
6
ByLayer
370
18
48
1
60
0
100
AcDbMText
10
10.882895
20
29.97505
30
0
210
0
220
0
230
1
1
\W0.7640;40.6
40
3.5
41
0
44
1.084337
50
0
71
7
72
5
7
iso_b_vert
0
LINE
5
22D
100
AcDbEntity
8
2
62
256
6
ByLayer
370
13
48
1
60
0
100
AcDbLine
10
-6
20
14.5
30
0
11
-6
21
31.10005
31
0
39
0
210
0
220
0
230
1
0
LINE
5
22E
100
AcDbEntity
8
2
62
256
6
ByLayer
370
13
48
1
60
0
100
AcDbLine
10
34.6
20
-11
30
0
11
34.6
21
31.10005
31
0
39
0
210
0
220
0
230
1
0
LINE
5
22F
100
AcDbEntity
8
2
62
256
6
ByLayer
370
13
48
1
60
0
100
AcDbLine
10
-6
20
29.10005
30
0
11
34.6
21
29.10005
31
0
39
0
210
0
220
0
230
1
0
LINE
5
230
100
AcDbEntity
8
2
62
256
6
ByLayer
370
13
48
1
60
0
100
AcDbLine
10
-6
20
29.10005
30
0
11
-2.825002
21
29.518047
31
0
39
0
210
0
220
0
230
1
0
LINE
5
231
100
AcDbEntity
8
2
62
256
6
ByLayer
370
13
48
1
60
0
100
AcDbLine
10
-6
20
29.10005
30
0
11
-2.824998
21
28.682053
31
0
39
0
210
0
220
0
230
1
0
LINE
5
232
100
AcDbEntity
8
2
62
256
6
ByLayer
370
13
48
1
60
0
100
AcDbLine
10
-2.825002
20
29.518047
30
0
11
-2.824998
21
28.682053
31
0
39
0
210
0
220
0
230
1
0
LINE
5
233
100
AcDbEntity
8
2
62
256
6
ByLayer
370
13
48
1
60
0
100
AcDbLine
10
34.6
20
29.10005
30
0
11
31.425002
21
28.682053
31
0
39
0
210
0
220
0
230
1
0
LINE
5
234
100
AcDbEntity
8
2
62
256
6
ByLayer
370
13
48
1
60
0
100
AcDbLine
10
34.6
20
29.10005
30
0
11
31.424998
21
29.518047
31
0
39
0
210
0
220
0
230
1
0
LINE
5
235
100
AcDbEntity
8
2
62
256
6
ByLayer
370
13
48
1
60
0
100
AcDbLine
10
31.425002
20
28.682053
30
0
11
31.424998
21
29.518047
31
0
39
0
210
0
220
0
230
1
0
ENDBLK
5
237
100
AcDbEntity
8
0
100
AcDbBlockEnd
0
BLOCK
5
23A
100
AcDbEntity
8
0
100
AcDbBlockBegin
2
_CLOSED
70
0
10
0
20
0
30
0
3
_CLOSED
0
LINE
5
23C
100
AcDbEntity
8
0
62
256
6
ByLayer
370
-2
48
1
60
0
100
AcDbLine
10
-1
20
0.166667
30
0
11
0
21
0
31
0
39
0
210
0
220
0
230
1
0
LINE
5
23D
100
AcDbEntity
8
0
62
256
6
ByLayer
370
-2
48
1
60
0
100
AcDbLine
10
0
20
0
30
0
11
-1
21
-0.166667
31
0
39
0
210
0
220
0
230
1
0
LINE
5
23E
100
AcDbEntity
8
0
62
256
6
ByLayer
370
-2
48
1
60
0
100
AcDbLine
10
-1
20
0.166667
30
0
11
-1
21
-0.166667
31
0
39
0
210
0
220
0
230
1
0
LINE
5
23F
100
AcDbEntity
8
0
62
256
6
ByLayer
370
-2
48
1
60
0
100
AcDbLine
10
0
20
0
30
0
11
-1
21
0
31
0
39
0
210
0
220
0
230
1
0
ENDBLK
5
23B
100
AcDbEntity
8
0
100
AcDbBlockEnd
0
BLOCK
5
24B
100
AcDbEntity
8
0
100
AcDbBlockBegin
2
DimnDraft3D2
70
0
10
0
20
0
30
0
3
DimnDraft3D2
0
MTEXT
5
241
100
AcDbEntity
8
SK2
62
256
6
ByLayer
370
18
48
1
60
0
100
AcDbMText
10
-82.384868
20
-25.233569
30
0
210
0
220
0
230
1
1
\W0.5404;3
40
3.5
41
0
44
1.084337
50
0
71
7
72
5
7
iso_b_vert
0
LINE
5
242
100
AcDbEntity
8
SK2
62
256
6
ByLayer
370
13
48
1
60
0
100
AcDbLine
10
-84
20
10.5
30
0
11
-84
21
-28.108569
31
0
39
0
210
0
220
0
230
1
0
LINE
5
243
100
AcDbEntity
8
SK2
62
256
6
ByLayer
370
13
48
1
60
0
100
AcDbLine
10
-81
20
-14.5
30
0
11
-81
21
-28.108569
31
0
39
0
210
0
220
0
230
1
0
LINE
5
244
100
AcDbEntity
8
SK2
62
256
6
ByLayer
370
13
48
1
60
0
100
AcDbLine
10
-92.75
20
-26.108569
30
0
11
-72.25
21
-26.108569
31
0
39
0
210
0
220
0
230
1
0
LINE
5
245
100
AcDbEntity
8
SK2
62
256
6
ByLayer
370
13
48
1
60
0
100
AcDbLine
10
-84
20
-26.108569
30
0
11
-87.174998
21
-26.526566
31
0
39
0
210
0
220
0
230
1
0
LINE
5
246
100
AcDbEntity
8
SK2
62
256
6
ByLayer
370
13
48
1
60
0
100
AcDbLine
10
-84
20
-26.108569
30
0
11
-87.175002
21
-25.690573
31
0
39
0
210
0
220
0
230
1
0
LINE
5
247
100
AcDbEntity
8
SK2
62
256
6
ByLayer
370
13
48
1
60
0
100
AcDbLine
10
-87.174998
20
-26.526566
30
0
11
-87.175002
21
-25.690573
31
0
39
0
210
0
220
0
230
1
0
LINE
5
248
100
AcDbEntity
8
SK2
62
256
6
ByLayer
370
13
48
1
60
0
100
AcDbLine
10
-81
20
-26.108569
30
0
11
-77.825002
21
-25.690573
31
0
39
0
210
0
220
0
230
1
0
LINE
5
249
100
AcDbEntity
8
SK2
62
256
6
ByLayer
370
13
48
1
60
0
100
AcDbLine
10
-81
20
-26.108569
30
0
11
-77.824998
21
-26.526566
31
0
39
0
210
0
220
0
230
1
0
LINE
5
24A
100
AcDbEntity
8
SK2
62
256
6
ByLayer
370
13
48
1
60
0
100
AcDbLine
10
-77.825002
20
-25.690573
30
0
11
-77.824998
21
-26.526566
31
0
39
0
210
0
220
0
230
1
0
ENDBLK
5
24C
100
AcDbEntity
8
0
100
AcDbBlockEnd
0
BLOCK
5
259
100
AcDbEntity
8
0
100
AcDbBlockBegin
2
DimnDraft3D3
70
0
10
0
20
0
30
0
3
DimnDraft3D3
0
MTEXT
5
24F
100
AcDbEntity
8
SK2
62
256
6
ByLayer
370
18
48
1
60
0
100
AcDbMText
10
-28.365789
20
35.97505
30
0
210
0
220
0
230
1
1
\W0.6261;118.6
40
3.5
41
0
44
1.084337
50
0
71
7
72
5
7
iso_b_vert
0
LINE
5
250
100
AcDbEntity
8
SK2
62
256
6
ByLayer
370
13
48
1
60
0
100
AcDbLine
10
-84
20
14.5
30
0
11
-84
21
37.10005
31
0
39
0
210
0
220
0
230
1
0
LINE
5
251
100
AcDbEntity
8
SK2
62
256
6
ByLayer
370
13
48
1
60
0
100
AcDbLine
10
34.6
20
-11
30
0
11
34.6
21
37.10005
31
0
39
0
210
0
220
0
230
1
0
LINE
5
252
100
AcDbEntity
8
SK2
62
256
6
ByLayer
370
13
48
1
60
0
100
AcDbLine
10
-84
20
35.10005
30
0
11
34.6
21
35.10005
31
0
39
0
210
0
220
0
230
1
0
LINE
5
253
100
AcDbEntity
8
SK2
62
256
6
ByLayer
370
13
48
1
60
0
100
AcDbLine
10
-84
20
35.10005
30
0
11
-80.825002
21
35.518047
31
0
39
0
210
0
220
0
230
1
0
LINE
5
254
100
AcDbEntity
8
SK2
62
256
6
ByLayer
370
13
48
1
60
0
100
AcDbLine
10
-84
20
35.10005
30
0
11
-80.824998
21
34.682053
31
0
39
0
210
0
220
0
230
1
0
LINE
5
255
100
AcDbEntity
8
SK2
62
256
6
ByLayer
370
13
48
1
60
0
100
AcDbLine
10
-80.825002
20
35.518047
30
0
11
-80.824998
21
34.682053
31
0
39
0
210
0
220
0
230
1
0
LINE
5
256
100
AcDbEntity
8
SK2
62
256
6
ByLayer
370
13
48
1
60
0
100
AcDbLine
10
34.6
20
35.10005
30
0
11
31.425002
21
34.682053
31
0
39
0
210
0
220
0
230
1
0
LINE
5
257
100
AcDbEntity
8
SK2
62
256
6
ByLayer
370
13
48
1
60
0
100
AcDbLine
10
34.6
20
35.10005
30
0
11
31.424998
21
35.518047
31
0
39
0
210
0
220
0
230
1
0
LINE
5
258
100
AcDbEntity
8
SK2
62
256
6
ByLayer
370
13
48
1
60
0
100
AcDbLine
10
31.425002
20
34.682053
30
0
11
31.424998
21
35.518047
31
0
39
0
210
0
220
0
230
1
0
ENDBLK
5
25A
100
AcDbEntity
8
0
100
AcDbBlockEnd
0
BLOCK
5
267
100
AcDbEntity
8
0
100
AcDbBlockBegin
2
DimnDraft3D4
70
0
10
0
20
0
30
0
3
DimnDraft3D4
0
MTEXT
5
25D
100
AcDbEntity
8
2
62
256
6
ByLayer
370
18
48
1
60
0
100
AcDbMText
10
16.884211
20
-25.233569
30
0
210
0
220
0
230
1
1
\W0.6740;33
40
3.5
41
0
44
1.084337
50
0
71
7
72
5
7
iso_b_vert
0
LINE
5
25E
100
AcDbEntity
8
2
62
256
6
ByLayer
370
13
48
1
60
0
100
AcDbLine
10
34.6
20
-15
30
0
11
34.6
21
-28.108569
31
0
39
0
210
0
220
0
230
1
0
LINE
5
25F
100
AcDbEntity
8
2
62
256
6
ByLayer
370
13
48
1
60
0
100
AcDbLine
10
1.6
20
-14.5
30
0
11
1.6
21
-28.108569
31
0
39
0
210
0
220
0
230
1
0
LINE
5
260
100
AcDbEntity
8
2
62
256
6
ByLayer
370
13
48
1
60
0
100
AcDbLine
10
34.6
20
-26.108569
30
0
11
1.6
21
-26.108569
31
0
39
0
210
0
220
0
230
1
0
LINE
5
261
100
AcDbEntity
8
2
62
256
6
ByLayer
370
13
48
1
60
0
100
AcDbLine
10
34.6
20
-26.108569
30
0
11
31.425002
21
-26.526566
31
0
39
0
210
0
220
0
230
1
0
LINE
5
262
100
AcDbEntity
8
2
62
256
6
ByLayer
370
13
48
1
60
0
100
AcDbLine
10
34.6
20
-26.108569
30
0
11
31.424998
21
-25.690573
31
0
39
0
210
0
220
0
230
1
0
LINE
5
263
100
AcDbEntity
8
2
62
256
6
ByLayer
370
13
48
1
60
0
100
AcDbLine
10
31.425002
20
-26.526566
30
0
11
31.424998
21
-25.690573
31
0
39
0
210
0
220
0
230
1
0
LINE
5
264
100
AcDbEntity
8
2
62
256
6
ByLayer
370
13
48
1
60
0
100
AcDbLine
10
1.6
20
-26.108569
30
0
11
4.774998
21
-25.690573
31
0
39
0
210
0
220
0
230
1
0
LINE
5
265
100
AcDbEntity
8
2
62
256
6
ByLayer
370
13
48
1
60
0
100
AcDbLine
10
1.6
20
-26.108569
30
0
11
4.775002
21
-26.526566
31
0
39
0
210
0
220
0
230
1
0
LINE
5
266
100
AcDbEntity
8
2
62
256
6
ByLayer
370
13
48
1
60
0
100
AcDbLine
10
4.774998
20
-25.690573
30
0
11
4.775002
21
-26.526566
31
0
39
0
210
0
220
0
230
1
0
ENDBLK
5
268
100
AcDbEntity
8
0
100
AcDbBlockEnd
0
BLOCK
5
275
100
AcDbEntity
8
0
100
AcDbBlockBegin
2
DimnDraft3D5
70
0
10
0
20
0
30
0
3
DimnDraft3D5
0
MTEXT
5
26B
100
AcDbEntity
8
2
62
256
6
ByLayer
370
18
48
1
60
0
100
AcDbMText
10
58.825
20
-3.482895
30
0
210
0
220
0
230
1
1
\W0.7346;25.5
40
3.5
41
0
44
1.084337
50
90
71
7
72
5
7
iso_b_vert
0
LINE
5
26C
100
AcDbEntity
8
2
62
256
6
ByLayer
370
13
48
1
60
0
100
AcDbLine
10
-4
20
12.5
30
0
11
61.7
21
12.5
31
0
39
0
210
0
220
0
230
1
0
LINE
5
26D
100
AcDbEntity
8
2
62
256
6
ByLayer
370
13
48
1
60
0
100
AcDbLine
10
36.6
20
-13
30
0
11
61.7
21
-13
31
0
39
0
210
0
220
0
230
1
0
LINE
5
26E
100
AcDbEntity
8
2
62
256
6
ByLayer
370
13
48
1
60
0
100
AcDbLine
10
59.7
20
12.5
30
0
11
59.7
21
-13
31
0
39
0
210
0
220
0
230
1
0
LINE
5
26F
100
AcDbEntity
8
2
62
256
6
ByLayer
370
13
48
1
60
0
100
AcDbLine
10
59.7
20
12.5
30
0
11
60.117997
21
9.325002
31
0
39
0
210
0
220
0
230
1
0
LINE
5
270
100
AcDbEntity
8
2
62
256
6
ByLayer
370
13
48
1
60
0
100
AcDbLine
10
59.7
20
12.5
30
0
11
59.282003
21
9.324998
31
0
39
0
210
0
220
0
230
1
0
LINE
5
271
100
AcDbEntity
8
2
62
256
6
ByLayer
370
13
48
1
60
0
100
AcDbLine
10
60.117997
20
9.325002
30
0
11
59.282003
21
9.324998
31
0
39
0
210
0
220
0
230
1
0
LINE
5
272
100
AcDbEntity
8
2
62
256
6
ByLayer
370
13
48
1
60
0
100
AcDbLine
10
59.7
20
-13
30
0
11
59.282003
21
-9.825002
31
0
39
0
210
0
220
0
230
1
0
LINE
5
273
100
AcDbEntity
8
2
62
256
6
ByLayer
370
13
48
1
60
0
100
AcDbLine
10
59.7
20
-13
30
0
11
60.117997
21
-9.824998
31
0
39
0
210
0
220
0
230
1
0
LINE
5
274
100
AcDbEntity
8
2
62
256
6
ByLayer
370
13
48
1
60
0
100
AcDbLine
10
59.282003
20
-9.825002
30
0
11
60.117997
21
-9.824998
31
0
39
0
210
0
220
0
230
1
0
ENDBLK
5
276
100
AcDbEntity
8
0
100
AcDbBlockEnd
0
BLOCK
5
283
100
AcDbEntity
8
0
100
AcDbBlockBegin
2
DimnDraft3D6
70
0
10
0
20
0
30
0
3
DimnDraft3D6
0
MTEXT
5
279
100
AcDbEntity
8
2
62
256
6
ByLayer
370
18
48
1
60
0
100
AcDbMText
10
51.825
20
-23.945789
30
0
210
0
220
0
230
1
1
\W0.5404;3
40
3.5
41
0
44
1.084337
50
90
71
7
72
5
7
iso_b_vert
0
LINE
5
27A
100
AcDbEntity
8
2
62
256
6
ByLayer
370
13
48
1
60
0
100
AcDbLine
10
36.6
20
-13
30
0
11
54.7
21
-13
31
0
39
0
210
0
220
0
230
1
0
LINE
5
27B
100
AcDbEntity
8
2
62
256
6
ByLayer
370
13
48
1
60
0
100
AcDbLine
10
36.6
20
-10
30
0
11
54.7
21
-10
31
0
39
0
210
0
220
0
230
1
0
LINE
5
27C
100
AcDbEntity
8
2
62
256
6
ByLayer
370
13
48
1
60
0
100
AcDbLine
10
52.7
20
-1.25
30
0
11
52.7
21
-24.820789
31
0
39
0
210
0
220
0
230
1
0
LINE
5
27D
100
AcDbEntity
8
2
62
256
6
ByLayer
370
13
48
1
60
0
100
AcDbLine
10
52.7
20
-13
30
0
11
53.117997
21
-16.174998
31
0
39
0
210
0
220
0
230
1
0
LINE
5
27E
100
AcDbEntity
8
2
62
256
6
ByLayer
370
13
48
1
60
0
100
AcDbLine
10
52.7
20
-13
30
0
11
52.282003
21
-16.175002
31
0
39
0
210
0
220
0
230
1
0
LINE
5
27F
100
AcDbEntity
8
2
62
256
6
ByLayer
370
13
48
1
60
0
100
AcDbLine
10
53.117997
20
-16.174998
30
0
11
52.282003
21
-16.175002
31
0
39
0
210
0
220
0
230
1
0
LINE
5
280
100
AcDbEntity
8
2
62
256
6
ByLayer
370
13
48
1
60
0
100
AcDbLine
10
52.7
20
-10
30
0
11
52.282003
21
-6.825002
31
0
39
0
210
0
220
0
230
1
0
LINE
5
281
100
AcDbEntity
8
2
62
256
6
ByLayer
370
13
48
1
60
0
100
AcDbLine
10
52.7
20
-10
30
0
11
53.117997
21
-6.824998
31
0
39
0
210
0
220
0
230
1
0
LINE
5
282
100
AcDbEntity
8
2
62
256
6
ByLayer
370
13
48
1
60
0
100
AcDbLine
10
52.282003
20
-6.825002
30
0
11
53.117997
21
-6.824998
31
0
39
0
210
0
220
0
230
1
0
ENDBLK
5
284
100
AcDbEntity
8
0
100
AcDbBlockEnd
0
ENDSEC
0
SECTION
2
ENTITIES
0
ARC
5
138
100
AcDbEntity
8
SK1
62
256
6
ByLayer
370
18
48
1
60
0
100
AcDbCircle
39
0
10
7.227723
20
-14.025
30
0
40
1.6000000000213
210
0
220
0
230
-1
100
AcDbArc
50
90
51
122.461745
0
ARC
5
139
100
AcDbEntity
8
1
62
256
6
ByLayer
370
18
48
1
60
0
100
AcDbCircle
39
0
10
1.6
20
-8.725
30
0
40
1.6
210
0
220
0
230
1
100
AcDbArc
50
180
51
270
0
ARC
5
13A
100
AcDbEntity
8
1
62
256
6
ByLayer
370
18
48
1
60
0
100
AcDbCircle
39
0
10
24.8
20
-12.55
30
0
40
0.2
210
0
220
0
230
1
100
AcDbArc
50
218.681386
51
240
0
ARC
5
13B
100
AcDbEntity
8
1
62
256
6
ByLayer
370
18
48
1
60
0
100
AcDbCircle
39
0
10
24.8
20
-10.45
30
0
40
0.2
210
0
220
0
230
1
100
AcDbArc
50
120
51
141.318614
0
ARC
5
13C
100
AcDbEntity
8
1
62
256
6
ByLayer
370
18
48
1
60
0
100
AcDbCircle
39
0
10
1.6
20
-8.725
30
0
40
1.6
210
0
220
0
230
1
100
AcDbArc
50
180
51
270
0
ARC
5
13D
100
AcDbEntity
8
1
62
256
6
ByLayer
370
18
48
1
60
0
100
AcDbCircle
39
0
10
7.227723
20
-14.025
30
0
40
1.6000000000213
210
0
220
0
230
-1
100
AcDbArc
50
90
51
122.461745
0
ELLIPSE
5
13E
100
AcDbEntity
8
1
62
256
6
ByLayer
370
18
48
1
60
0
100
AcDbEllipse
10
29.382033
20
-11.5
30
0
11
1.28358760011042
21
1.29724375929103E-15
31
0
210
0
220
0
230
-1
40
0.46744
41
1.05457302641326
42
-1.05457302641322
0
ELLIPSE
5
13F
100
AcDbEntity
8
1
62
256
6
ByLayer
370
18
48
1
60
0
100
AcDbEllipse
10
30.041428
20
-11.5
30
0
11
9.64885723403761E-17
21
0.600000000000178
31
0
210
0
220
0
230
-1
40
0.087172
41
-2.62536935320768
42
-0.516223300382185
0
ELLIPSE
5
140
100
AcDbEntity
8
1
62
256
6
ByLayer
370
13
48
1
60
0
100
AcDbEllipse
10
26.908132
20
-12.769586
30
0
11
0.979582052441868
21
0.301726209249339
31
0
210
0
220
0
230
-1
40
0.270086
41
-2.24185105458835
42
-2.05273074518797
0
ELLIPSE
5
141
100
AcDbEntity
8
1
62
256
6
ByLayer
370
13
48
1
60
0
100
AcDbEllipse
10
26.908132
20
-10.230414
30
0
11
0.979582052586833
21
-0.30172620926435
31
0
210
0
220
0
230
-1
40
0.270086
41
2.05273074524066
42
2.24185105461879
0
ELLIPSE
5
142
100
AcDbEntity
8
1
62
256
6
ByLayer
370
13
48
1
60
0
100
AcDbEllipse
10
26.908132
20
-10.230414
30
0
11
0.998914191737045
21
-0.226032306476616
31
0
210
0
220
0
230
-1
40
0.206112
41
1.99506909481379
42
2.24548541567882
0
ELLIPSE
5
143
100
AcDbEntity
8
1
62
256
6
ByLayer
370
13
48
1
60
0
100
AcDbEllipse
10
26.908132
20
-12.769586
30
0
11
0.998914191645347
21
0.226032306469743
31
0
210
0
220
0
230
-1
40
0.206112
41
-2.2454854156581
42
-1.99506909477489
0
ELLIPSE
5
144
100
AcDbEntity
8
1
62
256
6
ByLayer
370
13
48
1
60
0
100
AcDbEllipse
10
33.97413
20
-11.5
30
0
11
-7.38495814331257
21
9.04366666501288E-16
31
0
210
0
220
0
230
1
40
0.121869
41
1.16456723893879
42
1.18682389135614
0
ELLIPSE
5
145
100
AcDbEntity
8
1
62
256
6
ByLayer
370
13
48
1
60
0
100
AcDbEllipse
10
33.97413
20
-11.5
30
0
11
-7.38495814331257
21
9.04366666501288E-16
31
0
210
0
220
0
230
1
40
0.121869
41
-1.18682389135615
42
-1.16456723893881
0
ELLIPSE
5
146
100
AcDbEntity
8
1
62
256
6
ByLayer
370
13
48
1
60
0
100
AcDbEllipse
10
33.058781
20
-12.681166
30
0
11
0.0322705528359686
21
0.237820544570188
31
0
210
0
220
0
230
1
40
0.009402
41
0.684082575265842
42
1.50161815253471
0
ELLIPSE
5
147
100
AcDbEntity
8
1
62
256
6
ByLayer
370
13
48
1
60
0
100
AcDbEllipse
10
31.828622
20
-12.559701
30
0
11
-0.0129780832447762
21
0.239648845929397
31
0
210
0
220
0
230
1
40
0.707925
41
-1.55967335367816
42
-0.878821726711962
0
ELLIPSE
5
148
100
AcDbEntity
8
1
62
256
6
ByLayer
370
13
48
1
60
0
100
AcDbEllipse
10
33.058781
20
-10.318834
30
0
11
0.0322705528359684
21
-0.237820544570188
31
0
210
0
220
0
230
1
40
0.009402
41
-1.50161815253483
42
-0.684082575267941
0
ELLIPSE
5
149
100
AcDbEntity
8
1
62
256
6
ByLayer
370
13
48
1
60
0
100
AcDbEllipse
10
31.828622
20
-10.440299
30
0
11
-0.0129780832447759
21
-0.239648845929397
31
0
210
0
220
0
230
1
40
0.707925
41
0.878821726711933
42
1.55967335367819
0
ELLIPSE
5
14A
100
AcDbEntity
8
1
62
256
6
ByLayer
370
13
48
1
60
0
100
AcDbEllipse
10
33.974131
20
-11.5
30
0
11
7.34839775604842
21
2.13200123910056E-08
31
0
210
0
220
0
230
-1
40
0.08165
41
1.95476878095718
42
2.00162050834128
0
ELLIPSE
5
14B
100
AcDbEntity
8
1
62
256
6
ByLayer
370
13
48
1
60
0
100
AcDbEllipse
10
31.586644
20
-11.5
30
0
11
1.63150680856366
21
2.98446856982728E-10
31
0
210
0
220
0
230
-1
40
0.367758
41
-2.17407423382005
42
-2.00162049158915
0
ELLIPSE
5
14C
100
AcDbEntity
8
1
62
256
6
ByLayer
370
13
48
1
60
0
100
AcDbEllipse
10
33.974131
20
-11.5
30
0
11
7.3483976959839
21
-1.85207203519599E-08
31
0
210
0
220
0
230
-1
40
0.08165
41
-2.00162050672176
42
-1.95476877899024
0
ELLIPSE
5
14D
100
AcDbEntity
8
1
62
256
6
ByLayer
370
13
48
1
60
0
100
AcDbEllipse
10
31.586644
20
-11.5
30
0
11
1.6315068118569
21
6.75012108279394E-10
31
0
210
0
220
0
230
-1
40
0.367758
41
2.00162049265789
42
2.17407423460795
0
ELLIPSE
5
14E
100
AcDbEntity
8
1
62
256
6
ByLayer
370
13
48
1
60
0
100
AcDbEllipse
10
31.723829
20
-10.438617
30
0
11
0.1082392992065
21
0.214206101937563
31
0
210
0
220
0
230
1
40
0.678671
41
-1.8487997631195
42
-1.29279293091362
0
ELLIPSE
5
14F
100
AcDbEntity
8
1
62
256
6
ByLayer
370
13
48
1
60
0
100
AcDbEllipse
10
31.723829
20
-12.561383
30
0
11
0.1082392992065
21
-0.214206101937563
31
0
210
0
220
0
230
1
40
0.678671
41
1.29279293091362
42
1.8487997631195
0
ELLIPSE
5
150
100
AcDbEntity
8
1
62
256
6
ByLayer
370
13
48
1
60
0
100
AcDbEllipse
10
31.459452
20
-12.321836
30
0
11
0.219354463278089
21
0.119931728245622
31
0
210
0
220
0
230
1
40
0.441633
41
0.600579851753464
42
1.3066281739155
0
ELLIPSE
5
151
100
AcDbEntity
8
1
62
256
6
ByLayer
370
13
48
1
60
0
100
AcDbEllipse
10
31.459452
20
-10.678164
30
0
11
-0.219354463278086
21
0.119931728245626
31
0
210
0
220
0
230
1
40
0.441633
41
1.83496447967435
42
2.54101280183643
0
ELLIPSE
5
152
100
AcDbEntity
8
1
62
256
6
ByLayer
370
13
48
1
60
0
100
AcDbEllipse
10
30.895115
20
-12.226897
30
0
11
-0.0433548151255266
21
-0.195244359727577
31
0
210
0
220
0
230
1
40
0.334809
41
-2.68611088405471
42
-1.496587133406
0
ELLIPSE
5
153
100
AcDbEntity
8
1
62
256
6
ByLayer
370
13
48
1
60
0
100
AcDbEllipse
10
30.895115
20
-10.773103
30
0
11
-0.0433548151255279
21
0.195244359727577
31
0
210
0
220
0
230
1
40
0.334809
41
1.49658713340597
42
2.68611088405475
0
ELLIPSE
5
154
100
AcDbEntity
8
1
62
256
6
ByLayer
370
13
48
1
60
0
100
AcDbEllipse
10
31.51824
20
-11.5
30
0
11
1.65588067641872
21
-8.02893149849348E-10
31
0
210
0
220
0
230
-1
40
0.483127
41
2.00162049121674
42
2.17407423351357
0
ELLIPSE
5
155
100
AcDbEntity
8
1
62
256
6
ByLayer
370
13
48
1
60
0
100
AcDbEllipse
10
31.51824
20
-11.5
30
0
11
1.6558806783622
21
1.67349768410912E-15
31
0
210
0
220
0
230
-1
40
0.483127
41
-2.17407423404323
42
-2.00162049191037
0
ELLIPSE
5
156
100
AcDbEntity
8
1
62
256
6
ByLayer
370
13
48
1
60
0
100
AcDbEllipse
10
31.725564
20
-12.561022
30
0
11
0.00742724597932589
21
0.239885047506431
31
0
210
0
220
0
230
1
40
0.70617
41
-1.4995182195746
42
-0.846393084122579
0
ELLIPSE
5
157
100
AcDbEntity
8
1
62
256
6
ByLayer
370
13
48
1
60
0
100
AcDbEllipse
10
31.725564
20
-10.438978
30
0
11
0.00742724597932567
21
-0.239885047506431
31
0
210
0
220
0
230
1
40
0.70617
41
0.846393084122572
42
1.49951821957461
0
ELLIPSE
5
158
100
AcDbEntity
8
1
62
256
6
ByLayer
370
13
48
1
60
0
100
AcDbEllipse
10
30.647188
20
-12.158784
30
0
11
-0.0631638165780187
21
-0.189763885592856
31
0
210
0
220
0
230
1
40
0.326425
41
-2.5033944629968
42
-1.46256868006914
0
ELLIPSE
5
159
100
AcDbEntity
8
1
62
256
6
ByLayer
370
13
48
1
60
0
100
AcDbEllipse
10
30.647188
20
-10.841216
30
0
11
-0.0631638165785347
21
0.189763885592684
31
0
210
0
220
0
230
1
40
0.326425
41
1.46256868006823
42
2.50339446299223
0
ELLIPSE
5
15A
100
AcDbEntity
8
1
62
256
6
ByLayer
370
13
48
1
60
0
100
AcDbEllipse
10
31.450683
20
-10.665535
30
0
11
-0.195064510201764
21
-0.227925068519779
31
0
210
0
220
0
230
1
40
0.863833
41
0.830178756051609
42
1.49289835248471
0
ELLIPSE
5
15B
100
AcDbEntity
8
1
62
256
6
ByLayer
370
13
48
1
60
0
100
AcDbEllipse
10
31.450683
20
-12.334465
30
0
11
0.195064510201759
21
-0.227925068519783
31
0
210
0
220
0
230
1
40
0.863833
41
1.64869430110507
42
2.3114138975382
0
ELLIPSE
5
15C
100
AcDbEntity
8
1
62
256
6
ByLayer
370
13
48
1
60
0
100
AcDbEllipse
10
30.550966
20
-12.197967
30
0
11
0.182866340278506
21
-0.0809932194269721
31
0
210
0
220
0
230
1
40
0.14582
41
-2.77286095187722
42
-1.88885149068658
0
ELLIPSE
5
15D
100
AcDbEntity
8
1
62
256
6
ByLayer
370
13
48
1
60
0
100
AcDbEllipse
10
30.550966
20
-10.802033
30
0
11
0.182866340278443
21
0.0809932194271139
31
0
210
0
220
0
230
1
40
0.14582
41
1.8888514906866
42
2.77286095187513
0
ELLIPSE
5
15E
100
AcDbEntity
8
1
62
256
6
ByLayer
370
13
48
1
60
0
100
AcDbEllipse
10
31.502412
20
-10.793067
30
0
11
-0.299757884748935
21
0.0120503332254432
31
0
210
0
220
0
230
1
40
0.786325
41
1.677914350623
42
2.25220990045423
0
ELLIPSE
5
15F
100
AcDbEntity
8
1
62
256
6
ByLayer
370
13
48
1
60
0
100
AcDbEllipse
10
31.502412
20
-12.206933
30
0
11
0.299757884748933
21
0.0120503332254948
31
0
210
0
220
0
230
1
40
0.786325
41
0.889382753135427
42
1.46367830296668
0
ELLIPSE
5
160
100
AcDbEntity
8
1
62
256
6
ByLayer
370
13
48
1
60
0
100
AcDbEllipse
10
30.292326
20
-10.374098
30
0
11
0.0570319130279923
21
-0.138734858259803
31
0
210
0
220
0
230
1
40
0.776494
41
-1.87977830526731
42
-1.56980601158793
0
ELLIPSE
5
161
100
AcDbEntity
8
1
62
256
6
ByLayer
370
13
48
1
60
0
100
AcDbEllipse
10
30.292326
20
-12.625902
30
0
11
-0.0570319130268966
21
-0.138734858260253
31
0
210
0
220
0
230
1
40
0.776494
41
-1.57178664200835
42
-1.26181434832865
0
ELLIPSE
5
162
100
AcDbEntity
8
1
62
256
6
ByLayer
370
13
48
1
60
0
100
AcDbEllipse
10
30.68147
20
-11.979243
30
0
11
-0.105329348464612
21
0.280901634655301
31
0
210
0
220
0
230
1
40
0.319781
41
-1.09012327608123
42
-0.203695114400036
0
ELLIPSE
5
163
100
AcDbEntity
8
1
62
256
6
ByLayer
370
13
48
1
60
0
100
AcDbEllipse
10
30.68147
20
-11.020757
30
0
11
-0.105329348464631
21
-0.280901634655294
31
0
210
0
220
0
230
1
40
0.319781
41
0.203695114399998
42
1.09012327608123
0
ELLIPSE
5
164
100
AcDbEntity
8
1
62
256
6
ByLayer
370
13
48
1
60
0
100
AcDbEllipse
10
31.609329
20
-11.788572
30
0
11
-0.263738087060282
21
0.142976296755033
31
0
210
0
220
0
230
1
40
0.337339
41
-2.12742665195262
42
-1.51944467242795
0
ELLIPSE
5
165
100
AcDbEntity
8
1
62
256
6
ByLayer
370
13
48
1
60
0
100
AcDbEllipse
10
31.609329
20
-11.211428
30
0
11
-0.26373808706239
21
-0.142976296751144
31
0
210
0
220
0
230
1
40
0.337339
41
1.51944467242557
42
2.12742665190395
0
ELLIPSE
5
166
100
AcDbEntity
8
1
62
256
6
ByLayer
370
13
48
1
60
0
100
AcDbEllipse
10
30.289927
20
-10.374562
30
0
11
4.24912383924225E-17
21
0.15
31
0
210
0
220
0
230
1
40
0.795546
41
1.5707963267949
42
1.90677220780382
0
ELLIPSE
5
167
100
AcDbEntity
8
1
62
256
6
ByLayer
370
13
48
1
60
0
100
AcDbEllipse
10
30.289927
20
-12.625438
30
0
11
4.24912383924225E-17
21
0.15
31
0
210
0
220
0
230
1
40
0.795546
41
1.23482044578598
42
1.5707963267949
0
ELLIPSE
5
168
100
AcDbEntity
8
1
62
256
6
ByLayer
370
13
48
1
60
0
100
AcDbEllipse
10
30.033293
20
-12.625438
30
0
11
-2.75536429610035E-17
21
-0.15
31
0
210
0
220
0
230
1
40
0.34202
41
-1.75278811305915
42
-1.5707963267949
0
ELLIPSE
5
169
100
AcDbEntity
8
1
62
256
6
ByLayer
370
13
48
1
60
0
100
AcDbEllipse
10
30.033293
20
-10.374562
30
0
11
4.24912383924225E-17
21
0.15
31
0
210
0
220
0
230
1
40
0.34202
41
1.5707963267949
42
1.75278811305913
0
ELLIPSE
5
16A
100
AcDbEntity
8
1
62
256
6
ByLayer
370
13
48
1
60
0
100
AcDbEllipse
10
30.539982
20
-11.066549
30
0
11
-0.0205626710087509
21
-0.198940133107892
31
0
210
0
220
0
230
1
40
0.702979
41
-1.10867675839076
42
-0.33705954463877
0
ELLIPSE
5
16B
100
AcDbEntity
8
1
62
256
6
ByLayer
370
13
48
1
60
0
100
AcDbEllipse
10
30.539982
20
-11.933451
30
0
11
-0.0205626710087514
21
0.198940133107892
31
0
210
0
220
0
230
1
40
0.702979
41
0.33705954463877
42
1.10867675839078
0
ELLIPSE
5
16C
100
AcDbEntity
8
1
62
256
6
ByLayer
370
13
48
1
60
0
100
AcDbEllipse
10
30.672352
20
-11.017337
30
0
11
0.1054031629799
21
0.280873945452106
31
0
210
0
220
0
230
1
40
0.321796
41
-2.93702761420039
42
-2.05551827773611
0
ELLIPSE
5
16D
100
AcDbEntity
8
1
62
256
6
ByLayer
370
13
48
1
60
0
100
AcDbEllipse
10
30.672352
20
-11.982663
30
0
11
-0.105403162979924
21
0.280873945452097
31
0
210
0
220
0
230
1
40
0.321796
41
-1.0860743758537
42
-0.204565039389421
0
ELLIPSE
5
16E
100
AcDbEntity
8
1
62
256
6
ByLayer
370
13
48
1
60
0
100
AcDbEllipse
10
33.747654
20
-12.691357
30
0
11
-0.00560126668057228
21
0.239934628204378
31
0
210
0
220
0
230
1
40
0.172043
41
0.732097455140958
42
1.49800588930571
0
ELLIPSE
5
16F
100
AcDbEntity
8
1
62
256
6
ByLayer
370
13
48
1
60
0
100
AcDbEllipse
10
33.747654
20
-10.308643
30
0
11
-0.00560126668057245
21
-0.239934628204378
31
0
210
0
220
0
230
1
40
0.172043
41
-1.49800588930574
42
-0.732097455141062
0
ELLIPSE
5
170
100
AcDbEntity
8
1
62
256
6
ByLayer
370
13
48
1
60
0
100
AcDbEllipse
10
30.531197
20
-11.933936
30
0
11
5.665498452323E-17
21
0.2
31
0
210
0
220
0
230
1
40
0.803713
41
0.416381924289176
42
1.234820445786
0
ELLIPSE
5
171
100
AcDbEntity
8
1
62
256
6
ByLayer
370
13
48
1
60
0
100
AcDbEllipse
10
30.531197
20
-11.066064
30
0
11
5.665498452323E-17
21
0.2
31
0
210
0
220
0
230
1
40
0.803713
41
1.90677220780381
42
2.72521072930061
0
ELLIPSE
5
172
100
AcDbEntity
8
1
62
256
6
ByLayer
370
13
48
1
60
0
100
AcDbEllipse
10
30.133999
20
-11.066064
30
0
11
5.665498452323E-17
21
0.2
31
0
210
0
220
0
230
1
40
0.34202
41
1.90677220780383
42
2.72521072930065
0
ELLIPSE
5
173
100
AcDbEntity
8
1
62
256
6
ByLayer
370
13
48
1
60
0
100
AcDbEllipse
10
30.133999
20
-11.933936
30
0
11
-3.67381906146713E-17
21
-0.2
31
0
210
0
220
0
230
1
40
0.34202
41
-2.72521072930065
42
-1.90677220780383
0
ELLIPSE
5
174
100
AcDbEntity
8
1
62
256
6
ByLayer
370
13
48
1
60
0
100
AcDbEllipse
10
34.352853
20
-12.421167
30
0
11
-0.0533981556875965
21
0.0845496124719871
31
0
210
0
220
0
230
1
40
0.139768
41
-1.57717485146101
42
-0.740023965274731
0
ELLIPSE
5
175
100
AcDbEntity
8
1
62
256
6
ByLayer
370
13
48
1
60
0
100
AcDbEllipse
10
34.513527
20
-12.27169
30
0
11
-0.0833341889559589
21
0.0552757899179428
31
0
210
0
220
0
230
1
40
0.125151
41
-1.63388084261208
42
-1.00888984397368
0
ELLIPSE
5
176
100
AcDbEntity
8
1
62
256
6
ByLayer
370
13
48
1
60
0
100
AcDbEllipse
10
34.352853
20
-10.578833
30
0
11
-0.0533981556875966
21
-0.0845496124719871
31
0
210
0
220
0
230
1
40
0.139768
41
0.740023965275252
42
1.57717485146101
0
ELLIPSE
5
177
100
AcDbEntity
8
1
62
256
6
ByLayer
370
13
48
1
60
0
100
AcDbEllipse
10
34.513527
20
-10.72831
30
0
11
-0.0833341889559589
21
-0.0552757899179427
31
0
210
0
220
0
230
1
40
0.125151
41
1.00888984397317
42
1.63388084261208
0
ELLIPSE
5
178
100
AcDbEntity
8
1
62
256
6
ByLayer
370
13
48
1
60
0
100
AcDbEllipse
10
33.858678
20
-10.910924
30
0
11
0.014829333617164
21
-0.399725019062444
31
0
210
0
220
0
230
1
40
0.406503
41
1.5557166718563
42
2.33595515067485
0
ELLIPSE
5
179
100
AcDbEntity
8
1
62
256
6
ByLayer
370
13
48
1
60
0
100
AcDbEllipse
10
33.858678
20
-12.089076
30
0
11
0.0148293336171642
21
0.399725019062444
31
0
210
0
220
0
230
1
40
0.406503
41
-2.33595515067485
42
-1.55571667185632
0
ELLIPSE
5
17A
100
AcDbEntity
8
1
62
256
6
ByLayer
370
13
48
1
60
0
100
AcDbEllipse
10
34.123358
20
-12.58063
30
0
11
-0.0777628762498878
21
0.0628723713354654
31
0
210
0
220
0
230
1
40
0.13045
41
-1.62182792903077
42
-1.15581636427949
0
ELLIPSE
5
17B
100
AcDbEntity
8
1
62
256
6
ByLayer
370
13
48
1
60
0
100
AcDbEllipse
10
34.220403
20
-12.503257
30
0
11
-0.0518341759381039
21
0.0855173561612945
31
0
210
0
220
0
230
1
40
0.13986
41
-1.57460332353076
42
-0.736311954699806
0
ELLIPSE
5
17C
100
AcDbEntity
8
1
62
256
6
ByLayer
370
13
48
1
60
0
100
AcDbEllipse
10
34.220403
20
-10.496743
30
0
11
-0.0518341759381039
21
-0.0855173561612945
31
0
210
0
220
0
230
1
40
0.13986
41
0.73631195470061
42
1.57460332353076
0
ELLIPSE
5
17D
100
AcDbEntity
8
1
62
256
6
ByLayer
370
13
48
1
60
0
100
AcDbEllipse
10
34.123358
20
-10.41937
30
0
11
-0.0777628762498878
21
-0.0628723713354653
31
0
210
0
220
0
230
1
40
0.13045
41
1.1558163642798
42
1.62182792903091
0
ELLIPSE
5
17E
100
AcDbEntity
8
1
62
256
6
ByLayer
370
13
48
1
60
0
100
AcDbEllipse
10
33.358781
20
-12.695151
30
0
11
-0.00824662055120453
21
0.239858277425409
31
0
210
0
220
0
230
1
40
0.002403
41
-1.5010244491874
42
-0.709373157659111
0
ELLIPSE
5
17F
100
AcDbEntity
8
1
62
256
6
ByLayer
370
13
48
1
60
0
100
AcDbEllipse
10
33.358781
20
-10.304849
30
0
11
-0.0082466205512047
21
-0.239858277425409
31
0
210
0
220
0
230
1
40
0.002403
41
0.709373157670828
42
1.50102444918826
0
ELLIPSE
5
180
100
AcDbEntity
8
1
62
256
6
ByLayer
370
13
48
1
60
0
100
AcDbEllipse
10
30.382996
20
-9.419859
30
0
11
5.665498452323E-16
21
2
31
0
210
0
220
0
230
1
40
0.34202
41
2.7252107293006
42
2.79252680319092
0
ELLIPSE
5
181
100
AcDbEntity
8
1
62
256
6
ByLayer
370
13
48
1
60
0
100
AcDbEllipse
10
30.382996
20
-13.580141
30
0
11
-3.67381906146713E-16
21
-2
31
0
210
0
220
0
230
1
40
0.34202
41
-2.79252680319093
42
-2.7252107293006
0
ELLIPSE
5
182
100
AcDbEntity
8
1
62
256
6
ByLayer
370
13
48
1
60
0
100
AcDbEllipse
10
34.535862
20
-10.76293
30
0
11
-0.0846493904271157
21
-0.0532398412874957
31
0
210
0
220
0
230
1
40
0.065231
41
1.045779548897
42
1.67414184501556
0
ELLIPSE
5
183
100
AcDbEntity
8
1
62
256
6
ByLayer
370
13
48
1
60
0
100
AcDbEllipse
10
34.535862
20
-12.23707
30
0
11
-0.0846493904271157
21
0.0532398412874958
31
0
210
0
220
0
230
1
40
0.065231
41
-1.67414184501556
42
-1.04577954889649
0
ELLIPSE
5
184
100
AcDbEntity
8
1
62
256
6
ByLayer
370
13
48
1
60
0
100
AcDbEllipse
10
30.127689
20
-11.5
30
0
11
5.94877337493915E-17
21
0.21
31
0
210
0
220
0
230
1
40
0.34202
41
-2.7925268031909
42
-0.349065850398889
0
ELLIPSE
5
185
100
AcDbEntity
8
1
62
256
6
ByLayer
370
18
48
1
60
0
100
AcDbEllipse
10
29.382033
20
-11.5
30
0
11
1.28358760011042
21
1.29724375929103E-15
31
0
210
0
220
0
230
-1
40
0.46744
41
1.05457302641326
42
-1.05457302641322
0
ELLIPSE
5
186
100
AcDbEntity
8
1
62
256
6
ByLayer
370
18
48
1
60
0
100
AcDbEllipse
10
30.041428
20
-11.5
30
0
11
9.64885723403761E-17
21
0.600000000000178
31
0
210
0
220
0
230
-1
40
0.087172
41
-2.62536935320768
42
-0.516223300382185
0
ELLIPSE
5
187
100
AcDbEntity
8
1
62
256
6
ByLayer
370
18
48
1
60
0
100
AcDbEllipse
10
34.106337
20
-12.973303
30
0
11
0.239997044687586
21
-0.016948992977286
31
0
210
0
220
0
230
-1
40
0.070266
41
1.44395567108591
42
1.73995037648858
0
ELLIPSE
5
188
100
AcDbEntity
8
1
62
256
6
ByLayer
370
18
48
1
60
0
100
AcDbEllipse
10
34.648748
20
-12.23707
30
0
11
1.1330996904646E-16
21
0.4
31
0
210
0
220
0
230
1
40
0.121869
41
1.5707963267949
42
1.64009079051255
0
ELLIPSE
5
189
100
AcDbEntity
8
1
62
256
6
ByLayer
370
18
48
1
60
0
100
AcDbEllipse
10
34.648748
20
-10.76293
30
0
11
1.1330996904646E-16
21
0.4
31
0
210
0
220
0
230
1
40
0.121869
41
1.50150186307725
42
1.5707963267949
0
ELLIPSE
5
18A
100
AcDbEntity
8
1
62
256
6
ByLayer
370
18
48
1
60
0
100
AcDbEllipse
10
31.142652
20
-10.05
30
0
11
0.201946432116473
21
0
31
0
210
0
220
0
230
1
40
0.990362
41
-1.5707963267949
42
-1.04299365512072
0
ELLIPSE
5
18B
100
AcDbEntity
8
1
62
256
6
ByLayer
370
18
48
1
60
0
100
AcDbEllipse
10
31.736306
20
-12.841309
30
0
11
0.251841921973965
21
-0.0177818623365696
31
0
210
0
220
0
230
-1
40
0.06924
41
0.774400198855208
42
1.56101782179809
0
ELLIPSE
5
18C
100
AcDbEntity
8
1
62
256
6
ByLayer
370
18
48
1
60
0
100
AcDbEllipse
10
31.153398
20
-12.95
30
0
11
-0.201490790302156
21
2.46746902040712E-17
31
0
210
0
220
0
230
1
40
0.992601
41
-2.09761674342106
42
-1.5707963267949
0
ELLIPSE
5
18D
100
AcDbEntity
8
1
62
256
6
ByLayer
370
18
48
1
60
0
100
AcDbEllipse
10
31.736306
20
-10.158691
30
0
11
0.251841921993836
21
0.017781862339011
31
0
210
0
220
0
230
-1
40
0.06924
41
-1.56101782173573
42
-0.774400198845991
0
ELLIPSE
5
18E
100
AcDbEntity
8
1
62
256
6
ByLayer
370
18
48
1
60
0
100
AcDbEllipse
10
34.106337
20
-10.026697
30
0
11
0.239997044557322
21
0.0169489929695451
31
0
210
0
220
0
230
-1
40
0.070266
41
-1.73995037649378
42
-1.44395567092988
0
ELLIPSE
5
18F
100
AcDbEntity
8
1
62
256
6
ByLayer
370
18
48
1
60
0
100
AcDbEllipse
10
31.39757
20
-10.365831
30
0
11
0.058624730201206
21
-0.191752852286547
31
0
210
-1.59644179966719E-15
220
4.38574520942052E-19
230
1
40
0.997435
41
2.91526219766618
42
-2.91526219766618
0
ELLIPSE
5
190
100
AcDbEntity
8
1
62
256
6
ByLayer
370
18
48
1
60
0
100
AcDbEllipse
10
31.409275
20
-12.634987
30
0
11
0.00297293931671267
21
0.200467814146891
31
0
210
-1.59612295829283E-15
220
-1.26268957575375E-19
230
1
40
0.997557
41
2.63386280411414
42
3.08674247812914
0
POINT
5
6C
100
AcDbEntity
8
80
62
256
6
ByLayer
370
18
48
1
60
0
100
AcDbPoint
10
0
20
0
30
0
39
0
210
0
220
0
230
1
50
360
0
POINT
5
6E
100
AcDbEntity
8
81
62
256
6
ByLayer
370
18
48
1
60
0
100
AcDbPoint
10
34.6
20
-13
30
0
39
0
210
0
220
0
230
1
50
360
0
SPLINE
5
191
100
AcDbEntity
8
1
62
256
6
ByLayer
370
18
48
1
60
0
100
AcDbSpline
70
4
71
3
72
18
73
14
40
0
40
0
40
0
40
0
40
0.0032810493446536
40
0.0032810493446536
40
0.255872981956729
40
0.255872981956729
40
0.509618707550077
40
0.509618707550077
40
0.743334425582862
40
0.743334425582862
40
0.947287437650393
40
0.947287437650393
40
1
40
1
40
1
40
1
41
1
10
16.4363970895993
20
-10.3249999999996
30
0
41
1
10
16.4338274617328
20
-10.3249999999996
30
0
41
1
10
16.4312578715801
20
-10.3249938098887
30
0
41
1
10
16.2308635804668
20
-10.3240282906889
30
0
41
1
10
16.0300729004956
20
-10.2855978744292
30
0
41
1
10
15.6555076968334
20
-10.1360219148318
30
0
41
1
10
15.4760550027615
20
-10.0219596624204
30
0
41
1
10
15.1851261962126
20
-9.74084088848451
30
0
41
1
10
15.0650281363514
20
-9.57377608954189
30
0
41
1
10
14.9072481862579
20
-9.22812628342362
30
0
41
1
10
14.8589744386403
20
-9.0483973010835
30
0
41
1
10
14.8385356367411
20
-8.82043559653374
30
0
41
1
10
14.8363970895993
20
-8.77268768513335
30
0
41
1
10
14.8363970895993
20
-8.7249999999996
30
0
0
SPLINE
5
192
100
AcDbEntity
8
1
62
256
6
ByLayer
370
13
48
1
60
0
100
AcDbSpline
70
4
71
3
72
10
73
6
40
0
40
0
40
0
40
0
40
0.664993946719532
40
0.664993946719532
40
1
40
1
40
1
40
1
41
1
10
31.631795236158
20
-12.1487363109571
30
0
41
1
10
31.6544008183665
20
-12.127909729238
30
0
41
1
10
31.671972629713
20
-12.1020653977737
30
0
41
1
10
31.6836688596485
20
-12.0537893475429
30
0
41
1
10
31.6849134160383
20
-12.0356089155524
30
0
41
1
10
31.6838678419132
20
-12.0162732843469
30
0
0
SPLINE
5
193
100
AcDbEntity
8
1
62
256
6
ByLayer
370
13
48
1
60
0
100
AcDbSpline
70
4
71
3
72
12
73
8
40
0
40
0
40
0
40
0
40
0.274450233641753
40
0.274450233641753
40
0.728710906931613
40
0.728710906931613
40
1
40
1
40
1
40
1
41
1
10
32.7146869282979
20
-12.3193842198352
30
0
41
1
10
32.6122143236957
20
-12.2889049344261
30
0
41
1
10
32.5094974627491
20
-12.2585576137444
30
0
41
1
10
32.2439453836002
20
-12.1804224140219
30
0
41
1
10
32.0820473482734
20
-12.1331292282364
30
0
41
1
10
31.8460793802261
20
-12.0640519317748
30
0
41
1
10
31.7617198878049
20
-12.0394840952044
30
0
41
1
10
31.6838678419132
20
-12.0162732843469
30
0
0
SPLINE
5
194
100
AcDbEntity
8
1
62
256
6
ByLayer
370
13
48
1
60
0
100
AcDbSpline
70
4
71
3
72
16
73
12
40
0
40
0
40
0
40
0
40
0.0442199247554627
40
0.0442199247554627
40
0.048439955548864
40
0.048439955548864
40
0.216895358525141
40
0.216895358525141
40
0.889245809546153
40
0.889245809546153
40
1
40
1
40
1
40
1
41
1
10
33.4219297662852
20
-12.3912955122488
30
0
41
1
10
33.4113300785451
20
-12.391665245278
30
0
41
1
10
33.4007291289449
20
-12.3919965677045
30
0
41
1
10
33.3891179461187
20
-12.3924033575065
30
0
41
1
10
33.3881063966876
20
-12.3924389247096
30
0
41
1
10
33.3467182945273
20
-12.3938990834113
30
0
41
1
10
33.3063476610928
20
-12.3957952769958
30
0
41
1
10
33.1067119730517
20
-12.4025387130351
30
0
41
1
10
32.9453726295508
20
-12.3815925254051
30
0
41
1
10
32.7656324617667
20
-12.3341118723989
30
0
41
1
10
32.7400997197492
20
-12.3269429593314
30
0
41
1
10
32.7146869282979
20
-12.3193842198352
30
0
0
SPLINE
5
195
100
AcDbEntity
8
1
62
256
6
ByLayer
370
13
48
1
60
0
100
AcDbSpline
70
4
71
3
72
12
73
8
40
0
40
0
40
0
40
0
40
0.609383607480292
40
0.609383607480292
40
0.614539779329414
40
0.614539779329414
40
1
40
1
40
1
40
1
41
1
10
33.9656057053218
20
-12.3702937355132
30
0
41
1
10
33.8600213620049
20
-12.3746467476632
30
0
41
1
10
33.7496097970342
20
-12.3789762006415
30
0
41
1
10
33.6373081383666
20
-12.3832477127721
30
0
41
1
10
33.6363601843113
20
-12.3832837679088
30
0
41
1
10
33.5647049543389
20
-12.386009066924
30
0
41
1
10
33.4932165299022
20
-12.3888089228606
30
0
41
1
10
33.4219297662852
20
-12.3912955122488
30
0
0
SPLINE
5
196
100
AcDbEntity
8
1
62
256
6
ByLayer
370
13
48
1
60
0
100
AcDbSpline
70
4
71
3
72
12
73
8
40
0
40
0
40
0
40
0
40
0.178891096392299
40
0.178891096392299
40
0.986291642516443
40
0.986291642516443
40
1
40
1
40
1
40
1
41
1
10
34.3213895076228
20
-12.3536987770376
30
0
41
1
10
34.3003115269679
20
-12.3545351180847
30
0
41
1
10
34.2792221384665
20
-12.3553781384347
30
0
41
1
10
34.1629014296376
20
-12.3600668305062
30
0
41
1
10
34.0679540502601
20
-12.3657104928001
30
0
41
1
10
33.9689156735317
20
-12.3701542689344
30
0
41
1
10
33.9672607449414
20
-12.37022550184
30
0
41
1
10
33.9656057053218
20
-12.3702937355132
30
0
0
SPLINE
5
197
100
AcDbEntity
8
1
62
256
6
ByLayer
370
13
48
1
60
0
100
AcDbSpline
70
4
71
3
72
8
73
4
40
0
40
0
40
0
40
0
40
1
40
1
40
1
40
1
41
1
10
34.1900286630425
20
-12.4350239663355
30
0
41
1
10
34.234090020669
20
-12.4083609984287
30
0
41
1
10
34.2778395366007
20
-12.3811841798811
30
0
41
1
10
34.3213895076228
20
-12.3536987770376
30
0
0
SPLINE
5
198
100
AcDbEntity
8
1
62
256
6
ByLayer
370
13
48
1
60
0
100
AcDbSpline
70
4
71
3
72
8
73
4
40
0
40
0
40
0
40
0
40
1
40
1
40
1
40
1
41
1
10
33.7158957172693
20
-12.5135442121619
30
0
41
1
10
33.8755545267195
20
-12.513027799944
30
0
41
1
10
34.0354150796997
20
-12.478835050772
30
0
41
1
10
34.1900286630425
20
-12.4350239663355
30
0
0
SPLINE
5
199
100
AcDbEntity
8
1
62
256
6
ByLayer
370
13
48
1
60
0
100
AcDbSpline
70
4
71
3
72
8
73
4
40
0
40
0
40
0
40
0
40
1
40
1
40
1
40
1
41
1
10
33.3528986418119
20
-12.5131405318691
30
0
41
1
10
33.4744062234275
20
-12.5090903763063
30
0
41
1
10
33.5966210532666
20
-12.5139300029259
30
0
41
1
10
33.7158957172707
20
-12.5135442121638
30
0
0
SPLINE
5
19A
100
AcDbEntity
8
1
62
256
6
ByLayer
370
13
48
1
60
0
100
AcDbSpline
70
4
71
3
72
8
73
4
40
0
40
0
40
0
40
0
40
1
40
1
40
1
40
1
41
1
10
33.0823771357602
20
-12.4966632769218
30
0
41
1
10
33.1716495580756
20
-12.5103648582544
30
0
41
1
10
33.2625883571386
20
-12.5161508024796
30
0
41
1
10
33.3528986418104
20
-12.5131405318695
30
0
0
SPLINE
5
19B
100
AcDbEntity
8
1
62
256
6
ByLayer
370
13
48
1
60
0
100
AcDbSpline
70
4
71
3
72
14
73
10
40
0
40
0
40
0
40
0
40
0.102691686735347
40
0.102691686735347
40
0.53816841361549
40
0.53816841361549
40
0.926474667639871
40
0.926474667639871
40
1
40
1
40
1
40
1
41
1
10
31.9509720530679
20
-12.3997161884496
30
0
41
1
10
31.9808939994081
20
-12.3964733053309
30
0
41
1
10
32.0122711139629
20
-12.3942683386647
30
0
41
1
10
32.1807977171794
20
-12.3875856117881
30
0
41
1
10
32.342161843352
20
-12.39790023917
30
0
41
1
10
32.6640413220708
20
-12.432466054654
30
0
41
1
10
32.8272620626367
20
-12.4559450447094
30
0
41
1
10
33.0201021624027
20
-12.4870419880046
30
0
41
1
10
33.0512578164011
20
-12.4918870663725
30
0
41
1
10
33.0823771357602
20
-12.4966632769217
30
0
0
SPLINE
5
19C
100
AcDbEntity
8
1
62
256
6
ByLayer
370
13
48
1
60
0
100
AcDbSpline
70
4
71
3
72
8
73
4
40
0
40
0
40
0
40
0
40
1
40
1
40
1
40
1
41
1
10
31.8573483090605
20
-12.4059807254673
30
0
41
1
10
31.8886707932501
20
-12.4053143773061
30
0
41
1
10
31.9198681643654
20
-12.4030871682131
30
0
41
1
10
31.9509720530679
20
-12.3997161884496
30
0
0
SPLINE
5
19D
100
AcDbEntity
8
1
62
256
6
ByLayer
370
13
48
1
60
0
100
AcDbSpline
70
4
71
3
72
10
73
6
40
0
40
0
40
0
40
0
40
0.436659189793396
40
0.436659189793396
40
1
40
1
40
1
40
1
41
1
10
31.6305156049706
20
-12.1937288291373
30
0
41
1
10
31.6626760675876
20
-12.2255132220168
30
0
41
1
10
31.6951835994715
20
-12.2569513132945
30
0
41
1
10
31.7705662077347
20
-12.3279669604642
30
0
41
1
10
31.8138220700955
20
-12.367174534857
30
0
41
1
10
31.8573483090634
20
-12.405980725468
30
0
0
SPLINE
5
19E
100
AcDbEntity
8
1
62
256
6
ByLayer
370
13
48
1
60
0
100
AcDbSpline
70
4
71
3
72
10
73
6
40
0
40
0
40
0
40
0
40
0.73561768390405
40
0.73561768390405
40
1
40
1
40
1
40
1
41
1
10
31.6305156049706
20
-12.1937288291373
30
0
41
1
10
31.6246851208416
20
-12.1879665240225
30
0
41
1
10
31.6191348692197
20
-12.181653987776
30
0
41
1
10
31.6131625911601
20
-12.1728770110706
30
0
41
1
10
31.6117118978094
20
-12.170495246386
30
0
41
1
10
31.6104895579181
20
-12.1681459458917
30
0
0
SPLINE
5
19F
100
AcDbEntity
8
1
62
256
6
ByLayer
370
13
48
1
60
0
100
AcDbSpline
70
4
71
3
72
8
73
4
40
0
40
0
40
0
40
0
40
1
40
1
40
1
40
1
41
1
10
31.6104895579211
20
-12.1681459458884
30
0
41
1
10
31.6176603296031
20
-12.161683352543
30
0
41
1
10
31.6247646325939
20
-12.1552136243177
30
0
41
1
10
31.631795236158
20
-12.1487363109571
30
0
0
SPLINE
5
1A0
100
AcDbEntity
8
1
62
256
6
ByLayer
370
13
48
1
60
0
100
AcDbSpline
70
4
71
3
72
12
73
8
40
0
40
0
40
0
40
0
40
0.233793069268613
40
0.233793069268613
40
0.849542984529965
40
0.849542984529965
40
1
40
1
40
1
40
1
41
1
10
31.610489557929
20
-10.8318540541034
30
0
41
1
10
31.6115678802707
20
-10.8297815510058
30
0
41
1
10
31.6128235703368
20
-10.8276841848607
30
0
41
1
10
31.6177801949082
20
-10.8202108278762
30
0
41
1
10
31.6222297367628
20
-10.814870555254
30
0
41
1
10
31.6281198492317
20
-10.8086744166901
30
0
41
1
10
31.6293089587678
20
-10.8074637070966
30
0
41
1
10
31.6305156049706
20
-10.8062711708625
30
0
0
SPLINE
5
1A1
100
AcDbEntity
8
1
62
256
6
ByLayer
370
13
48
1
60
0
100
AcDbSpline
70
4
71
3
72
10
73
6
40
0
40
0
40
0
40
0
40
0.436659189793399
40
0.436659189793399
40
1
40
1
40
1
40
1
41
1
10
31.6305156049706
20
-10.8062711708625
30
0
41
1
10
31.6626760675876
20
-10.774486777983
30
0
41
1
10
31.6951835994715
20
-10.7430486867053
30
0
41
1
10
31.7705662077347
20
-10.6720330395356
30
0
41
1
10
31.8138220700955
20
-10.6328254651428
30
0
41
1
10
31.8573483090634
20
-10.5940192745318
30
0
0
SPLINE
5
1A2
100
AcDbEntity
8
1
62
256
6
ByLayer
370
13
48
1
60
0
100
AcDbSpline
70
4
71
3
72
8
73
4
40
0
40
0
40
0
40
0
40
1
40
1
40
1
40
1
41
1
10
31.8573483090605
20
-10.5940192745325
30
0
41
1
10
31.8886707932501
20
-10.5946856226937
30
0
41
1
10
31.9198681643654
20
-10.5969128317866
30
0
41
1
10
31.9509720530679
20
-10.6002838115502
30
0
0
SPLINE
5
1A3
100
AcDbEntity
8
1
62
256
6
ByLayer
370
13
48
1
60
0
100
AcDbSpline
70
4
71
3
72
14
73
10
40
0
40
0
40
0
40
0
40
0.102691686735347
40
0.102691686735347
40
0.53816841361549
40
0.53816841361549
40
0.926474667639871
40
0.926474667639871
40
1
40
1
40
1
40
1
41
1
10
31.9509720530679
20
-10.6002838115502
30
0
41
1
10
31.9808939994081
20
-10.6035266946689
30
0
41
1
10
32.0122711139629
20
-10.6057316613351
30
0
41
1
10
32.1807977171794
20
-10.6124143882117
30
0
41
1
10
32.342161843352
20
-10.6020997608297
30
0
41
1
10
32.6640413220708
20
-10.5675339453458
30
0
41
1
10
32.8272620626367
20
-10.5440549552905
30
0
41
1
10
33.0201021624027
20
-10.5129580119952
30
0
41
1
10
33.0512578164011
20
-10.5081129336273
30
0
41
1
10
33.0823771357602
20
-10.5033367230781
30
0
0
SPLINE
5
1A4
100
AcDbEntity
8
1
62
256
6
ByLayer
370
13
48
1
60
0
100
AcDbSpline
70
4
71
3
72
8
73
4
40
0
40
0
40
0
40
0
40
1
40
1
40
1
40
1
41
1
10
33.0823771357602
20
-10.503336723078
30
0
41
1
10
33.1716495580756
20
-10.4896351417454
30
0
41
1
10
33.2625883571386
20
-10.4838491975201
30
0
41
1
10
33.3528986418104
20
-10.4868594681303
30
0
0
SPLINE
5
1A5
100
AcDbEntity
8
1
62
256
6
ByLayer
370
13
48
1
60
0
100
AcDbSpline
70
4
71
3
72
8
73
4
40
0
40
0
40
0
40
0
40
1
40
1
40
1
40
1
41
1
10
33.3528986418119
20
-10.4868594681307
30
0
41
1
10
33.4744062234275
20
-10.4909096236935
30
0
41
1
10
33.5966210532666
20
-10.4860699970739
30
0
41
1
10
33.7158957172707
20
-10.486455787836
30
0
0
SPLINE
5
1A6
100
AcDbEntity
8
1
62
256
6
ByLayer
370
13
48
1
60
0
100
AcDbSpline
70
4
71
3
72
8
73
4
40
0
40
0
40
0
40
0
40
1
40
1
40
1
40
1
41
1
10
33.7158957172693
20
-10.4864557878378
30
0
41
1
10
33.8755545267195
20
-10.4869722000558
30
0
41
1
10
34.0354150796997
20
-10.5211649492278
30
0
41
1
10
34.1900286630425
20
-10.5649760336642
30
0
0
SPLINE
5
1A7
100
AcDbEntity
8
1
62
256
6
ByLayer
370
13
48
1
60
0
100
AcDbSpline
70
4
71
3
72
8
73
4
40
0
40
0
40
0
40
0
40
1
40
1
40
1
40
1
41
1
10
34.1900286630425
20
-10.5649760336643
30
0
41
1
10
34.234090020669
20
-10.5916390015711
30
0
41
1
10
34.2778395366007
20
-10.6188158201187
30
0
41
1
10
34.3213895076228
20
-10.6463012229621
30
0
0
SPLINE
5
1A8
100
AcDbEntity
8
1
62
256
6
ByLayer
370
13
48
1
60
0
100
AcDbSpline
70
4
71
3
72
12
73
8
40
0
40
0
40
0
40
0
40
0.178891096392299
40
0.178891096392299
40
0.986291642516443
40
0.986291642516443
40
1
40
1
40
1
40
1
41
1
10
34.3213895076228
20
-10.6463012229621
30
0
41
1
10
34.3003115269679
20
-10.645464881915
30
0
41
1
10
34.2792221384665
20
-10.6446218615651
30
0
41
1
10
34.1629014296376
20
-10.6399331694935
30
0
41
1
10
34.0679540502601
20
-10.6342895071996
30
0
41
1
10
33.9689156735317
20
-10.6298457310653
30
0
41
1
10
33.9672607449414
20
-10.6297744981597
30
0
41
1
10
33.9656057053218
20
-10.6297062644866
30
0
0
SPLINE
5
1A9
100
AcDbEntity
8
1
62
256
6
ByLayer
370
13
48
1
60
0
100
AcDbSpline
70
4
71
3
72
12
73
8
40
0
40
0
40
0
40
0
40
0.609383607480292
40
0.609383607480292
40
0.614539779329414
40
0.614539779329414
40
1
40
1
40
1
40
1
41
1
10
33.9656057053218
20
-10.6297062644866
30
0
41
1
10
33.8600213620049
20
-10.6253532523365
30
0
41
1
10
33.7496097970342
20
-10.6210237993583
30
0
41
1
10
33.6373081383666
20
-10.6167522872277
30
0
41
1
10
33.6363601843113
20
-10.616716232091
30
0
41
1
10
33.5647049543389
20
-10.6139909330757
30
0
41
1
10
33.4932165299022
20
-10.6111910771392
30
0
41
1
10
33.4219297662852
20
-10.6087044877509
30
0
0
SPLINE
5
1AA
100
AcDbEntity
8
1
62
256
6
ByLayer
370
13
48
1
60
0
100
AcDbSpline
70
4
71
3
72
16
73
12
40
0
40
0
40
0
40
0
40
0.0442199247554627
40
0.0442199247554627
40
0.048439955548864
40
0.048439955548864
40
0.216895358525141
40
0.216895358525141
40
0.889245809546153
40
0.889245809546153
40
1
40
1
40
1
40
1
41
1
10
33.4219297662852
20
-10.6087044877509
30
0
41
1
10
33.4113300785451
20
-10.6083347547218
30
0
41
1
10
33.4007291289449
20
-10.6080034322953
30
0
41
1
10
33.3891179461187
20
-10.6075966424932
30
0
41
1
10
33.3881063966876
20
-10.6075610752902
30
0
41
1
10
33.3467182945273
20
-10.6061009165885
30
0
41
1
10
33.3063476610928
20
-10.604204723004
30
0
41
1
10
33.1067119730517
20
-10.5974612869647
30
0
41
1
10
32.9453726295508
20
-10.6184074745947
30
0
41
1
10
32.7656324617667
20
-10.6658881276009
30
0
41
1
10
32.7400997197492
20
-10.6730570406684
30
0
41
1
10
32.7146869282979
20
-10.6806157801646
30
0
0
SPLINE
5
1AB
100
AcDbEntity
8
1
62
256
6
ByLayer
370
13
48
1
60
0
100
AcDbSpline
70
4
71
3
72
12
73
8
40
0
40
0
40
0
40
0
40
0.274450233641753
40
0.274450233641753
40
0.728710906931611
40
0.728710906931611
40
1
40
1
40
1
40
1
41
1
10
32.7146869282979
20
-10.6806157801646
30
0
41
1
10
32.6122143236957
20
-10.7110950655737
30
0
41
1
10
32.5094974627491
20
-10.7414423862553
30
0
41
1
10
32.2439453836002
20
-10.8195775859779
30
0
41
1
10
32.0820473482734
20
-10.8668707717634
30
0
41
1
10
31.8460793802261
20
-10.935948068225
30
0
41
1
10
31.7617198878049
20
-10.9605159047954
30
0
41
1
10
31.6838678419132
20
-10.9837267156529
30
0
0
SPLINE
5
1AC
100
AcDbEntity
8
1
62
256
6
ByLayer
370
13
48
1
60
0
100
AcDbSpline
70
4
71
3
72
10
73
6
40
0
40
0
40
0
40
0
40
0.659159716151023
40
0.659159716151023
40
1
40
1
40
1
40
1
41
1
10
31.6838678419132
20
-10.9837267156529
30
0
41
1
10
31.6859020371366
20
-10.9461086762459
30
0
41
1
10
31.6777349617729
20
-10.9137408361742
30
0
41
1
10
31.6536893544428
20
-10.8742206936552
30
0
41
1
10
31.6434984870353
20
-10.8620459245334
30
0
41
1
10
31.631795236158
20
-10.8512636890427
30
0
0
SPLINE
5
1AD
100
AcDbEntity
8
1
62
256
6
ByLayer
370
13
48
1
60
0
100
AcDbSpline
70
4
71
3
72
8
73
4
40
0
40
0
40
0
40
0
40
1
40
1
40
1
40
1
41
1
10
31.631795236158
20
-10.8512636890427
30
0
41
1
10
31.6247646325939
20
-10.8447863756821
30
0
41
1
10
31.6176603296031
20
-10.8383166474568
30
0
41
1
10
31.6104895579211
20
-10.8318540541114
30
0
0
SPLINE
5
1AE
100
AcDbEntity
8
1
62
256
6
ByLayer
370
13
48
1
60
0
100
AcDbSpline
70
4
71
3
72
8
73
4
40
0
40
0
40
0
40
0
40
1
40
1
40
1
40
1
41
1
10
31.7169741247547
20
-12.5648446992159
30
0
41
1
10
31.6355486668608
20
-12.4954493196159
30
0
41
1
10
31.5571073551695
20
-12.4225205419943
30
0
41
1
10
31.4804455603129
20
-12.3478961953477
30
0
0
SPLINE
5
1AF
100
AcDbEntity
8
1
62
256
6
ByLayer
370
13
48
1
60
0
100
AcDbSpline
70
4
71
3
72
8
73
4
40
0
40
0
40
0
40
0
40
1
40
1
40
1
40
1
41
1
10
31.7169741247547
20
-10.4351553007838
30
0
41
1
10
31.6355486668608
20
-10.5045506803839
30
0
41
1
10
31.5571073551695
20
-10.5774794580055
30
0
41
1
10
31.4804455603129
20
-10.6521038046521
30
0
0
SPLINE
5
1B0
100
AcDbEntity
8
1
62
256
6
ByLayer
370
13
48
1
60
0
100
AcDbSpline
70
4
71
3
72
12
73
8
40
0
40
0
40
0
40
0
40
0.46817896742225
40
0.46817896742225
40
0.899165978787896
40
0.899165978787896
40
1
40
1
40
1
40
1
41
1
10
33.0587805434613
20
-12.664424185351
30
0
41
1
10
32.877506035505
20
-12.6359004882465
30
0
41
1
10
32.6936117660435
20
-12.6011182702039
30
0
41
1
10
32.3658158689768
20
-12.557465362729
30
0
41
1
10
32.2153724323278
20
-12.5433983198626
30
0
41
1
10
32.0560286247614
20
-12.5446525221277
30
0
41
1
10
32.0264524991725
20
-12.5457520960093
30
0
41
1
10
31.9981203716814
20
-12.5478480284313
30
0
0
SPLINE
5
1B1
100
AcDbEntity
8
1
62
256
6
ByLayer
370
13
48
1
60
0
100
AcDbSpline
70
4
71
3
72
12
73
8
40
0
40
0
40
0
40
0
40
0.46817896742225
40
0.46817896742225
40
0.899165978787896
40
0.899165978787896
40
1
40
1
40
1
40
1
41
1
10
33.0587805434613
20
-10.3355758146487
30
0
41
1
10
32.877506035505
20
-10.3640995117533
30
0
41
1
10
32.6936117660435
20
-10.3988817297959
30
0
41
1
10
32.3658158689768
20
-10.4425346372708
30
0
41
1
10
32.2153724323278
20
-10.4566016801372
30
0
41
1
10
32.0560286247614
20
-10.4553474778721
30
0
41
1
10
32.0264524991725
20
-10.4542479039905
30
0
41
1
10
31.9981203716814
20
-10.4521519715685
30
0
0
SPLINE
5
1B2
100
AcDbEntity
8
1
62
256
6
ByLayer
370
13
48
1
60
0
100
AcDbSpline
70
4
71
3
72
10
73
6
40
0
40
0
40
0
40
0
40
0.132191617121101
40
0.132191617121101
40
1
40
1
40
1
40
1
41
1
10
31.8573483090604
20
-12.4059807254673
30
0
41
1
10
31.8564468305523
20
-12.4069459406577
30
0
41
1
10
31.85552642843
20
-12.4079366369628
30
0
41
1
10
31.848454107713
20
-12.4155876604871
30
0
41
1
10
31.8414978788606
20
-12.4233291937066
30
0
41
1
10
31.8339180002564
20
-12.431958608995
30
0
0
SPLINE
5
1B3
100
AcDbEntity
8
1
62
256
6
ByLayer
370
13
48
1
60
0
100
AcDbSpline
70
4
71
3
72
14
73
10
40
0
40
0
40
0
40
0
40
0.447953066725052
40
0.447953066725052
40
0.912809598186729
40
0.912809598186729
40
0.983423615312508
40
0.983423615312508
40
1
40
1
40
1
40
1
41
1
10
31.8339180002563
20
-12.4319586089956
30
0
41
1
10
31.8203040290404
20
-12.4474576186458
30
0
41
1
10
31.8040154112901
20
-12.4659907513417
30
0
41
1
10
31.7683740707567
20
-12.5065050797021
30
0
41
1
10
31.7483538761323
20
-12.5292431727843
30
0
41
1
10
31.7253006224607
20
-12.5553996929225
30
0
41
1
10
31.7222095971505
20
-12.5589062950434
30
0
41
1
10
31.7184037038145
20
-12.5632232403093
30
0
41
1
10
31.7176888999301
20
-12.5640339722495
30
0
41
1
10
31.7169741247485
20
-12.5648446992149
30
0
0
SPLINE
5
1B4
100
AcDbEntity
8
1
62
256
6
ByLayer
370
13
48
1
60
0
100
AcDbSpline
70
4
71
3
72
14
73
10
40
0
40
0
40
0
40
0
40
0.447953066725053
40
0.447953066725053
40
0.912809598186729
40
0.912809598186729
40
0.983423615312508
40
0.983423615312508
40
1
40
1
40
1
40
1
41
1
10
31.8339180002563
20
-10.5680413910042
30
0
41
1
10
31.8203040290404
20
-10.5525423813539
30
0
41
1
10
31.8040154112901
20
-10.5340092486581
30
0
41
1
10
31.7683740707567
20
-10.4934949202977
30
0
41
1
10
31.7483538761323
20
-10.4707568272154
30
0
41
1
10
31.7253006224607
20
-10.4446003070773
30
0
41
1
10
31.7222095971505
20
-10.4410937049564
30
0
41
1
10
31.7184037038145
20
-10.4367767596905
30
0
41
1
10
31.7176888999301
20
-10.4359660277503
30
0
41
1
10
31.7169741247485
20
-10.4351553007849
30
0
0
SPLINE
5
1B5
100
AcDbEntity
8
1
62
256
6
ByLayer
370
13
48
1
60
0
100
AcDbSpline
70
4
71
3
72
10
73
6
40
0
40
0
40
0
40
0
40
0.132191617121101
40
0.132191617121101
40
1
40
1
40
1
40
1
41
1
10
31.8573483090604
20
-10.5940192745325
30
0
41
1
10
31.8564468305523
20
-10.593054059342
30
0
41
1
10
31.85552642843
20
-10.5920633630369
30
0
41
1
10
31.848454107713
20
-10.5844123395126
30
0
41
1
10
31.8414978788606
20
-10.5766708062931
30
0
41
1
10
31.8339180002564
20
-10.5680413910047
30
0
0
SPLINE
5
1B6
100
AcDbEntity
8
1
62
256
6
ByLayer
370
13
48
1
60
0
100
AcDbSpline
70
4
71
3
72
12
73
8
40
0
40
0
40
0
40
0
40
0.559278359968975
40
0.559278359968975
40
0.982064699130975
40
0.982064699130975
40
1
40
1
40
1
40
1
41
1
10
31.4655988415542
20
-12.1970076234222
30
0
41
1
10
31.4639058993619
20
-12.1648080621544
30
0
41
1
10
31.4615176185074
20
-12.135633087518
30
0
41
1
10
31.4565061637906
20
-12.0946350461351
30
0
41
1
10
31.4540306406306
20
-12.0798924597157
30
0
41
1
10
31.4512781291035
20
-12.0685192129116
30
0
41
1
10
31.4511665651818
20
-12.0680661052064
30
0
41
1
10
31.4510546870629
20
-12.0676195138537
30
0
0
SPLINE
5
1B7
100
AcDbEntity
8
1
62
256
6
ByLayer
370
13
48
1
60
0
100
AcDbSpline
70
4
71
3
72
10
73
6
40
0
40
0
40
0
40
0
40
0.709641074204652
40
0.709641074204652
40
1
40
1
40
1
40
1
41
1
10
31.4804455603129
20
-12.3478961953477
30
0
41
1
10
31.4753414889782
20
-12.3110319885919
30
0
41
1
10
31.4711861437205
20
-12.2733941765534
30
0
41
1
10
31.4672412502849
20
-12.2243929024851
30
0
41
1
10
31.4663022439905
20
-12.2103862549868
30
0
41
1
10
31.4655988415525
20
-12.1970076234221
30
0
0
SPLINE
5
1B8
100
AcDbEntity
8
1
62
256
6
ByLayer
370
13
48
1
60
0
100
AcDbSpline
70
4
71
3
72
12
73
8
40
0
40
0
40
0
40
0
40
0.135507654329451
40
0.135507654329451
40
0.742115377580087
40
0.742115377580087
40
1
40
1
40
1
40
1
41
1
10
31.4804455603129
20
-10.6521038046521
30
0
41
1
10
31.4794577311546
20
-10.6592384107228
30
0
41
1
10
31.4785068164279
20
-10.666382672982
30
0
41
1
10
31.4735694178171
20
-10.7050350454403
30
0
41
1
10
31.4702919601627
20
-10.7367056490604
30
0
41
1
10
31.4670296012879
20
-10.7787994893875
30
0
41
1
10
31.4662219824782
20
-10.7911403095503
30
0
41
1
10
31.4655988415537
20
-10.8029923765776
30
0
0
SPLINE
5
1B9
100
AcDbEntity
8
1
62
256
6
ByLayer
370
13
48
1
60
0
100
AcDbSpline
70
4
71
3
72
14
73
10
40
0
40
0
40
0
40
0
40
0.0177509856471946
40
0.0177509856471946
40
0.340726860481444
40
0.340726860481444
40
0.792711195890233
40
0.792711195890233
40
1
40
1
40
1
40
1
41
1
10
31.4510546870629
20
-10.9323804861461
30
0
41
1
10
31.4511665651505
20
-10.9319338947937
30
0
41
1
10
31.4512781289784
20
-10.931480787089
30
0
41
1
10
31.4534062656342
20
-10.9226874300444
30
0
41
1
10
31.4553239640451
20
-10.9121526240239
30
0
41
1
10
31.4595178404373
20
-10.8825410382397
30
0
41
1
10
31.4616827821099
20
-10.8613706218627
30
0
41
1
10
31.4642384176628
20
-10.8266531222721
30
0
41
1
10
31.4649648606851
20
-10.8150506180988
30
0
41
1
10
31.4655988415542
20
-10.8029923765775
30
0
0
SPLINE
5
1BA
100
AcDbEntity
8
1
62
256
6
ByLayer
370
13
48
1
60
0
100
AcDbSpline
70
4
71
3
72
18
73
14
40
0
40
0
40
0
40
0
40
0.10212592206704
40
0.10212592206704
40
0.219798180864097
40
0.219798180864097
40
0.395678331134856
40
0.395678331134856
40
0.733655817510089
40
0.733655817510089
40
0.802063348489368
40
0.802063348489368
40
1
40
1
40
1
40
1
41
1
10
31.0559779585026
20
-12.326755677451
30
0
41
1
10
31.0564416368178
20
-12.3134760472197
30
0
41
1
10
31.05608929913
20
-12.3001169525712
30
0
41
1
10
31.0536446728814
20
-12.2718846307219
30
0
41
1
10
31.0512850832915
20
-12.2569521064426
30
0
41
1
10
31.0431564052165
20
-12.2212015586245
30
0
41
1
10
31.036209646695
20
-12.2007733452544
30
0
41
1
10
31.0118798067115
20
-12.1465335593216
30
0
41
1
10
30.990286699554
20
-12.116151819865
30
0
41
1
10
30.9616240935597
20
-12.0871939333326
30
0
41
1
10
30.9566229893451
20
-12.0824945864557
30
0
41
1
10
30.9368310070575
20
-12.0651641154967
30
0
41
1
10
30.9212866355731
20
-12.0542191462933
30
0
41
1
10
30.9052940680713
20
-12.0451731223788
30
0
0
SPLINE
5
1BB
100
AcDbEntity
8
1
62
256
6
ByLayer
370
13
48
1
60
0
100
AcDbSpline
70
4
71
3
72
14
73
10
40
0
40
0
40
0
40
0
40
0.447954004797037
40
0.447954004797037
40
0.912810038934036
40
0.912810038934036
40
0.983423779130199
40
0.983423779130199
40
1
40
1
40
1
40
1
41
1
10
31.8933275812136
20
-12.5495304559491
30
0
41
1
10
31.8727755286919
20
-12.5513153960275
30
0
41
1
10
31.8481939779358
20
-12.5534502100752
30
0
41
1
10
31.7944355442363
20
-12.5581186183362
30
0
41
1
10
31.7642532997474
20
-12.5607395039344
30
0
41
1
10
31.7295181484127
20
-12.5637555302519
30
0
41
1
10
31.7248611889836
20
-12.5641598862849
30
0
41
1
10
31.7191276857054
20
-12.5646577116979
30
0
41
1
10
31.7180508939064
20
-12.564751206329
30
0
41
1
10
31.7169741247543
20
-12.564844699216
30
0
0
SPLINE
5
1BC
100
AcDbEntity
8
1
62
256
6
ByLayer
370
13
48
1
60
0
100
AcDbSpline
70
4
71
3
72
14
73
10
40
0
40
0
40
0
40
0
40
0.447954004797037
40
0.447954004797037
40
0.912810038934036
40
0.912810038934036
40
0.983423779130199
40
0.983423779130199
40
1
40
1
40
1
40
1
41
1
10
31.8933275812136
20
-10.4504695440507
30
0
41
1
10
31.8727755286919
20
-10.4486846039723
30
0
41
1
10
31.8481939779358
20
-10.4465497899245
30
0
41
1
10
31.7944355442363
20
-10.4418813816636
30
0
41
1
10
31.7642532997474
20
-10.4392604960654
30
0
41
1
10
31.7295181484127
20
-10.4362444697479
30
0
41
1
10
31.7248611889836
20
-10.4358401137149
30
0
41
1
10
31.7191276857054
20
-10.4353422883019
30
0
41
1
10
31.7180508939064
20
-10.4352487936707
30
0
41
1
10
31.7169741247543
20
-10.4351553007838
30
0
0
SPLINE
5
1BD
100
AcDbEntity
8
1
62
256
6
ByLayer
370
13
48
1
60
0
100
AcDbSpline
70
4
71
3
72
12
73
8
40
0
40
0
40
0
40
0
40
0.356479833160399
40
0.356479833160399
40
0.824168720346733
40
0.824168720346733
40
1
40
1
40
1
40
1
41
1
10
31.4643787537961
20
-10.9436896872598
30
0
41
1
10
31.4767763033464
20
-10.9502026864515
30
0
41
1
10
31.4880463981537
20
-10.9577987637905
30
0
41
1
10
31.5095864832785
20
-10.9783151088321
30
0
41
1
10
31.5185295226104
20
-10.9924948935568
30
0
41
1
10
31.52407326674
20
-11.0152004400751
30
0
41
1
10
31.5249217874923
20
-11.0218159823498
30
0
41
1
10
31.5250392603487
20
-11.0287110476952
30
0
0
SPLINE
5
1BE
100
AcDbEntity
8
1
62
256
6
ByLayer
370
13
48
1
60
0
100
AcDbSpline
70
4
71
3
72
12
73
8
40
0
40
0
40
0
40
0
40
0.443558069836982
40
0.443558069836982
40
0.507222026557664
40
0.507222026557664
40
1
40
1
40
1
40
1
41
1
10
31.5250392603488
20
-11.0287110476952
30
0
41
1
10
31.525625933741
20
-11.0631458226604
30
0
41
1
10
31.5334575781989
20
-11.1040741850546
30
0
41
1
10
31.5513800260717
20
-11.1526159305866
30
0
41
1
10
31.5538277204397
20
-11.1588406550521
30
0
41
1
10
31.576282853545
20
-11.2126034618303
30
0
41
1
10
31.606340828125
20
-11.2625008733966
30
0
41
1
10
31.6439598709927
20
-11.3076185157851
30
0
0
SPLINE
5
1BF
100
AcDbEntity
8
1
62
256
6
ByLayer
370
13
48
1
60
0
100
AcDbSpline
70
4
71
3
72
18
73
14
40
0
40
0
40
0
40
0
40
0.262962488711577
40
0.262962488711577
40
0.43136352889061
40
0.43136352889061
40
0.488169625072958
40
0.488169625072958
40
0.652801403480982
40
0.652801403480982
40
0.712254155913291
40
0.712254155913291
40
1
40
1
40
1
40
1
41
1
10
31.6439598709927
20
-11.3076185157851
30
0
41
1
10
31.6671201854563
20
-11.335395373086
30
0
41
1
10
31.6885389915202
20
-11.3661566550824
30
0
41
1
10
31.713950371308
20
-11.4220894838633
30
0
41
1
10
31.7214580237961
20
-11.4457924278391
30
0
41
1
10
31.7259784141927
20
-11.4782878333405
30
0
41
1
10
31.7266641796623
20
-11.4866563003372
30
0
41
1
10
31.7274106952605
20
-11.5189215057644
30
0
41
1
10
31.72374714007
20
-11.5432293424189
30
0
41
1
10
31.7143596854291
20
-11.5741657882316
30
0
41
1
10
31.7114227244078
20
-11.5823043815642
30
0
41
1
10
31.6925277493289
20
-11.6281138424875
30
0
41
1
10
31.6692256559174
20
-11.6620794732649
30
0
41
1
10
31.6439598709999
20
-11.6923814842061
30
0
0
SPLINE
5
1C0
100
AcDbEntity
8
1
62
256
6
ByLayer
370
13
48
1
60
0
100
AcDbSpline
70
4
71
3
72
12
73
8
40
0
40
0
40
0
40
0
40
0.0695374380305743
40
0.0695374380305743
40
0.564718845075643
40
0.564718845075643
40
1
40
1
40
1
40
1
41
1
10
31.6439598709999
20
-11.6923814842061
30
0
41
1
10
31.6385610813286
20
-11.6988564140061
30
0
41
1
10
31.6333230650435
20
-11.7054109635302
30
0
41
1
10
31.5927993674551
20
-11.7583263081585
30
0
41
1
10
31.5653523725795
20
-11.8087888540874
30
0
41
1
10
31.5331669750443
20
-11.8974117671847
30
0
41
1
10
31.5256153955242
20
-11.937472717622
30
0
41
1
10
31.5250392603488
20
-11.9712889523045
30
0
0
SPLINE
5
1C1
100
AcDbEntity
8
1
62
256
6
ByLayer
370
13
48
1
60
0
100
AcDbSpline
70
4
71
3
72
10
73
6
40
0
40
0
40
0
40
0
40
0.323499890762715
40
0.323499890762715
40
1
40
1
40
1
40
1
41
1
10
31.5250392603488
20
-11.9712889523045
30
0
41
1
10
31.5248229895014
20
-11.9839829623968
30
0
41
1
10
31.5221009308092
20
-11.9957465266667
30
0
41
1
10
31.5072698303883
20
-12.0276860745182
30
0
41
1
10
31.4876680100065
20
-12.0440754024251
30
0
41
1
10
31.4643787537961
20
-12.0563103127399
30
0
0
SPLINE
5
1C2
100
AcDbEntity
8
1
62
256
6
ByLayer
370
13
48
1
60
0
100
AcDbSpline
70
4
71
3
72
12
73
8
40
0
40
0
40
0
40
0
40
0.833271550695841
40
0.833271550695841
40
0.924873187913958
40
0.924873187913958
40
1
40
1
40
1
40
1
41
1
10
30.6610166945646
20
-11.9940882031482
30
0
41
1
10
30.6544754484441
20
-11.9595708997962
30
0
41
1
10
30.6449923927374
20
-11.9168966793299
30
0
41
1
10
30.640181068922
20
-11.8635669341888
30
0
41
1
10
30.6397613475273
20
-11.8581473055585
30
0
41
1
10
30.6391308505303
20
-11.8481631661793
30
0
41
1
10
30.6388959908553
20
-11.8436188918927
30
0
41
1
10
30.6387159227923
20
-11.8390329632429
30
0
0
SPLINE
5
1C3
100
AcDbEntity
8
1
62
256
6
ByLayer
370
13
48
1
60
0
100
AcDbSpline
70
4
71
3
72
8
73
4
40
0
40
0
40
0
40
0
40
1
40
1
40
1
40
1
41
1
10
30.6387159227923
20
-11.8390329632429
30
0
41
1
10
30.659987312203
20
-11.8328942415295
30
0
41
1
10
30.6815114137464
20
-11.8271522119494
30
0
41
1
10
30.7032105368037
20
-11.8217756253576
30
0
0
SPLINE
5
1C4
100
AcDbEntity
8
1
62
256
6
ByLayer
370
13
48
1
60
0
100
AcDbSpline
70
4
71
3
72
8
73
4
40
0
40
0
40
0
40
0
40
1
40
1
40
1
40
1
41
1
10
30.7032105368034
20
-11.8217756253559
30
0
41
1
10
30.7062783445423
20
-11.8210154870816
30
0
41
1
10
30.7093468504694
20
-11.8202554427516
30
0
41
1
10
30.7124160421628
20
-11.8194954910671
30
0
0
SPLINE
5
1C5
100
AcDbEntity
8
1
62
256
6
ByLayer
370
13
48
1
60
0
100
AcDbSpline
70
4
71
3
72
26
73
22
40
0
40
0
40
0
40
0
40
0.0783346115779722
40
0.0783346115779722
40
0.229067417424992
40
0.229067417424992
40
0.361148737487712
40
0.361148737487712
40
0.451044286208709
40
0.451044286208709
40
0.480076288213215
40
0.480076288213215
40
0.580804987892491
40
0.580804987892491
40
0.598553408472289
40
0.598553408472289
40
0.721865021031447
40
0.721865021031447
40
0.852573440596253
40
0.852573440596253
40
1
40
1
40
1
40
1
41
1
10
30.7124160421628
20
-11.8194954910671
30
0
41
1
10
30.7363716105936
20
-11.8135639376159
30
0
41
1
10
30.7598327503349
20
-11.8061586706429
30
0
41
1
10
30.8253859658397
20
-11.7799008296079
30
0
41
1
10
30.8659116446279
20
-11.7563010498236
30
0
41
1
10
30.9301656555828
20
-11.6993484326082
30
0
41
1
10
30.9562012292316
20
-11.6666292496864
30
0
41
1
10
30.9871009177855
20
-11.6042269467145
30
0
41
1
10
30.9963228169935
20
-11.5762181158148
30
0
41
1
10
31.0026526489823
20
-11.5381476115942
30
0
41
1
10
31.0037565534503
20
-11.5286470667844
30
0
41
1
10
31.006535622122
20
-11.4866487424099
30
0
41
1
10
31.0029896944569
20
-11.4530994502487
30
0
41
1
10
30.9928135335292
20
-11.4165606236644
30
0
41
1
10
30.9911033398723
20
-11.4110584618829
30
0
41
1
10
30.9765578244499
20
-11.3686791181927
30
0
41
1
10
30.9563208175636
20
-11.3345999946106
30
0
41
1
10
30.9056247831178
20
-11.2756980780515
30
0
41
1
10
30.873851925294
20
-11.250414714149
30
0
41
1
10
30.8004676930902
20
-11.2079441245458
30
0
41
1
10
30.7571805456305
20
-11.1915884890854
30
0
41
1
10
30.7124160421628
20
-11.1805045089327
30
0
0
SPLINE
5
1C6
100
AcDbEntity
8
1
62
256
6
ByLayer
370
13
48
1
60
0
100
AcDbSpline
70
4
71
3
72
8
73
4
40
0
40
0
40
0
40
0
40
1
40
1
40
1
40
1
41
1
10
30.7124160421628
20
-11.1805045089327
30
0
41
1
10
30.7093468504694
20
-11.1797445572482
30
0
41
1
10
30.7062783445423
20
-11.1789845129182
30
0
41
1
10
30.7032105368034
20
-11.1782243746438
30
0
0
SPLINE
5
1C7
100
AcDbEntity
8
1
62
256
6
ByLayer
370
13
48
1
60
0
100
AcDbSpline
70
4
71
3
72
8
73
4
40
0
40
0
40
0
40
0
40
1
40
1
40
1
40
1
41
1
10
30.7032105368034
20
-11.1782243746438
30
0
41
1
10
30.6815114137461
20
-11.1728477880521
30
0
41
1
10
30.6599873122031
20
-11.1671057584685
30
0
41
1
10
30.6387159227925
20
-11.1609670367551
30
0
0
SPLINE
5
1C8
100
AcDbEntity
8
1
62
256
6
ByLayer
370
13
48
1
60
0
100
AcDbSpline
70
4
71
3
72
20
73
16
40
0
40
0
40
0
40
0
40
0.114266316237489
40
0.114266316237489
40
0.331231960429442
40
0.331231960429442
40
0.599155656755157
40
0.599155656755157
40
0.722874848940947
40
0.722874848940947
40
0.871512516236653
40
0.871512516236653
40
0.967654963824484
40
0.967654963824484
40
1
40
1
40
1
40
1
41
1
10
30.905294068073
20
-10.9548268776214
30
0
41
1
10
30.9145383163395
20
-10.9495979679495
30
0
41
1
10
30.9236231348746
20
-10.9437409175789
30
0
41
1
10
30.9492280670811
20
-10.9249682151515
30
0
41
1
10
30.965276744252
20
-10.9103163055361
30
0
41
1
10
30.9980286906964
20
-10.8724271183951
30
0
41
1
10
31.0143711478299
20
-10.847531827762
30
0
41
1
10
31.0331414661541
20
-10.8062303621544
30
0
41
1
10
31.0383907764822
20
-10.7922856633344
30
0
41
1
10
31.047858461063
20
-10.7603462150163
30
0
41
1
10
31.0517121178798
20
-10.741882314626
30
0
41
1
10
31.0553663096761
20
-10.7108205811756
30
0
41
1
10
31.0561297476896
20
-10.6983453571316
30
0
41
1
10
31.0561906263781
20
-10.6816675033306
30
0
41
1
10
31.0561249332387
20
-10.6774536419886
30
0
41
1
10
31.0559779585028
20
-10.6732443225488
30
0
0
SPLINE
5
1C9
100
AcDbEntity
8
1
62
256
6
ByLayer
370
13
48
1
60
0
100
AcDbSpline
70
4
71
3
72
10
73
6
40
0
40
0
40
0
40
0
40
0.0748872813144652
40
0.0748872813144652
40
1
40
1
40
1
40
1
41
1
10
30.6387159227923
20
-11.1609670367569
30
0
41
1
10
30.6388959908553
20
-11.1563811081071
30
0
41
1
10
30.6391308505303
20
-11.1518368338205
30
0
41
1
10
30.6428644178648
20
-11.0927144956872
30
0
41
1
10
30.6537561749332
20
-11.044224612788
30
0
41
1
10
30.6610166945643
20
-11.0059117968531
30
0
0
SPLINE
5
1CA
100
AcDbEntity
8
1
62
256
6
ByLayer
370
13
48
1
60
0
100
AcDbSpline
70
4
71
3
72
16
73
12
40
0
40
0
40
0
40
0
40
0.249954056036558
40
0.249954056036558
40
0.699484194384015
40
0.699484194384015
40
0.851133931227642
40
0.851133931227642
40
0.935108677236773
40
0.935108677236773
40
1
40
1
40
1
40
1
41
1
10
30.8267110292775
20
-12.2268974965045
30
0
41
1
10
30.8427048966234
20
-12.2304490006952
30
0
41
1
10
30.8585947536486
20
-12.234631905269
30
0
41
1
10
30.9021970348683
20
-12.2485674865996
30
0
41
1
10
30.9302297071818
20
-12.2597714076045
30
0
41
1
10
30.9625570510524
20
-12.283219319487
30
0
41
1
10
30.9704121947257
20
-12.2900650624512
30
0
41
1
10
30.9801629147231
20
-12.3028211492217
30
0
41
1
10
30.9831940821262
20
-12.307907753161
30
0
41
1
10
30.9866841498694
20
-12.3176298067033
30
0
41
1
10
30.9875739298376
20
-12.3222200449415
30
0
41
1
10
30.9875739298376
20
-12.326755677451
30
0
0
SPLINE
5
1CB
100
AcDbEntity
8
1
62
256
6
ByLayer
370
13
48
1
60
0
100
AcDbSpline
70
4
71
3
72
20
73
16
40
0
40
0
40
0
40
0
40
0.0199906994069362
40
0.0199906994069362
40
0.0825919577440876
40
0.0825919577440876
40
0.195169299288357
40
0.195169299288357
40
0.306011529795777
40
0.306011529795777
40
0.591177675589546
40
0.591177675589546
40
0.85412822131223
40
0.85412822131223
40
1
40
1
40
1
40
1
41
1
10
30.9875739298377
20
-10.6732443225488
30
0
41
1
10
30.9875739298377
20
-10.6746558473501
30
0
41
1
10
30.9874914943693
20
-10.6760698732453
30
0
41
1
10
30.9868329759386
20
-10.681802870228
30
0
41
1
10
30.9855574593884
20
-10.6860718491902
30
0
41
1
10
30.9806296077618
20
-10.6970378588876
30
0
41
1
10
30.9758782533064
20
-10.7032863595625
30
0
41
1
10
30.9654630806492
20
-10.7141451041686
30
0
41
1
10
30.959676381482
20
-10.7189174098233
30
0
41
1
10
30.9382455610535
20
-10.7342830738215
30
0
41
1
10
30.9211325656859
20
-10.7426612867127
30
0
41
1
10
30.8877211729543
20
-10.7562475648145
30
0
41
1
10
30.8712362948113
20
-10.7616193506469
30
0
41
1
10
30.8453568251732
20
-10.7687358047044
30
0
41
1
10
30.8360536989462
20
-10.7710279251729
30
0
41
1
10
30.8267110292773
20
-10.7731025034954
30
0
0
SPLINE
5
1CC
100
AcDbEntity
8
1
62
256
6
ByLayer
370
13
48
1
60
0
100
AcDbSpline
70
4
71
3
72
14
73
10
40
0
40
0
40
0
40
0
40
0.0177534078899156
40
0.0177534078899156
40
0.340744812432132
40
0.340744812432132
40
0.785966596962005
40
0.785966596962005
40
1
40
1
40
1
40
1
41
1
10
31.4510546870629
20
-10.9323804861461
30
0
41
1
10
31.4520935591131
20
-10.9321193181416
30
0
41
1
10
31.4531321595046
20
-10.931851656369
30
0
41
1
10
31.4729966272014
20
-10.9266051557525
30
0
41
1
10
31.4917885884792
20
-10.9194399402448
30
0
41
1
10
31.5347600859257
20
-10.8978226896955
30
0
41
1
10
31.5587945413718
20
-10.8813851019799
30
0
41
1
10
31.5910000960522
20
-10.8526738137018
30
0
41
1
10
31.6010527060188
20
-10.84255827921
30
0
41
1
10
31.610489557929
20
-10.8318540541034
30
0
0
SPLINE
5
1CD
100
AcDbEntity
8
1
62
256
6
ByLayer
370
13
48
1
60
0
100
AcDbSpline
70
4
71
3
72
12
73
8
40
0
40
0
40
0
40
0
40
0.559301985460886
40
0.559301985460886
40
0.982067221682947
40
0.982067221682947
40
1
40
1
40
1
40
1
41
1
10
31.610489557929
20
-12.1681459458964
30
0
41
1
10
31.5860762799805
20
-12.1404539544106
30
0
41
1
10
31.5571861880885
20
-12.1165461082717
30
0
41
1
10
31.5034740589433
20
-12.0852512885933
30
0
41
1
10
31.4788250511787
20
-12.0749342174857
30
0
41
1
10
31.4531321595028
20
-12.068148343632
30
0
41
1
10
31.4520935591125
20
-12.0678806818586
30
0
41
1
10
31.4510546870628
20
-12.0676195138537
30
0
0
SPLINE
5
1CE
100
AcDbEntity
8
1
62
256
6
ByLayer
370
13
48
1
60
0
100
AcDbSpline
70
4
71
3
72
8
73
4
40
0
40
0
40
0
40
0
40
1
40
1
40
1
40
1
41
1
10
30.2639115680548
20
-12.6339172375212
30
0
41
1
10
30.3472851478713
20
-12.4951344673784
30
0
41
1
10
30.416569163954
20
-12.3469659249435
30
0
41
1
10
30.4825621452742
20
-12.1979670943812
30
0
0
SPLINE
5
1CF
100
AcDbEntity
8
1
62
256
6
ByLayer
370
13
48
1
60
0
100
AcDbSpline
70
4
71
3
72
16
73
12
40
0
40
0
40
0
40
0
40
0.0745951303882249
40
0.0745951303882249
40
0.27553513169183
40
0.27553513169183
40
0.501427420118119
40
0.501427420118119
40
0.725494997757322
40
0.725494997757322
40
1
40
1
40
1
40
1
41
1
10
30.4825621452742
20
-12.1979670943813
30
0
41
1
10
30.4837736749443
20
-12.1952317049441
30
0
41
1
10
30.4851163296951
20
-12.1925572078749
30
0
41
1
10
30.4905147865576
20
-12.1830767358222
30
0
41
1
10
30.495461783055
20
-12.1767105424776
30
0
41
1
10
30.5076198241713
20
-12.1655631329548
30
0
41
1
10
30.5152342937161
20
-12.1609241671942
30
0
41
1
10
30.531205119136
20
-12.1550310189243
30
0
41
1
10
30.5397662566659
20
-12.1536400991378
30
0
41
1
10
30.5585207140202
20
-12.1535642009222
30
0
41
1
10
30.5689309570329
20
-12.1555045458585
30
0
41
1
10
30.5787842780358
20
-12.1587842708631
30
0
0
SPLINE
5
1D0
100
AcDbEntity
8
1
62
256
6
ByLayer
370
13
48
1
60
0
100
AcDbSpline
70
4
71
3
72
16
73
12
40
0
40
0
40
0
40
0
40
0.108772443208259
40
0.108772443208259
40
0.369799377627614
40
0.369799377627614
40
0.571154122074464
40
0.571154122074464
40
0.786314444449857
40
0.786314444449857
40
1
40
1
40
1
40
1
41
1
10
30.5787842780347
20
-10.8412157291374
30
0
41
1
10
30.574842530994
20
-10.8425277584854
30
0
41
1
10
30.5708295616293
20
-10.8436227135308
30
0
41
1
10
30.5571495011343
20
-10.8464561410264
30
0
41
1
10
30.5470910912765
20
-10.8470160849209
30
0
41
1
10
30.5298590002818
20
-10.8445065950911
30
0
41
1
10
30.5223925092281
20
-10.8421859946965
30
0
41
1
10
30.5083165495634
20
-10.8348649951487
30
0
41
1
10
30.5016145563071
20
-10.8295801783689
30
0
41
1
10
30.4905405846474
20
-10.8171023139174
30
0
41
1
10
30.4859929686991
20
-10.8097790123653
30
0
41
1
10
30.482562145276
20
-10.8020329056175
30
0
0
SPLINE
5
1D1
100
AcDbEntity
8
1
62
256
6
ByLayer
370
13
48
1
60
0
100
AcDbSpline
70
4
71
3
72
8
73
4
40
0
40
0
40
0
40
0
40
1
40
1
40
1
40
1
41
1
10
31.9981203716814
20
-10.4521519715685
30
0
41
1
10
31.9638409048776
20
-10.4502955813487
30
0
41
1
10
31.9294607622627
20
-10.4497655152026
30
0
41
1
10
31.8950622867788
20
-10.4508305500657
30
0
0
SPLINE
5
1D2
100
AcDbEntity
8
1
62
256
6
ByLayer
370
13
48
1
60
0
100
AcDbSpline
70
4
71
3
72
10
73
6
40
0
40
0
40
0
40
0
40
0.140418403423082
40
0.140418403423082
40
1
40
1
40
1
40
1
41
1
10
31.8950622867786
20
-10.4508305500657
30
0
41
1
10
31.8949786281127
20
-10.4508331402792
30
0
41
1
10
31.8948949964083
20
-10.4508333443649
30
0
41
1
10
31.8943060068436
20
-10.4508168280183
30
0
41
1
10
31.8937967459171
20
-10.4507066152633
30
0
41
1
10
31.8933275812036
20
-10.4504695442552
30
0
0
SPLINE
5
1D3
100
AcDbEntity
8
1
62
256
6
ByLayer
370
13
48
1
60
0
100
AcDbSpline
70
4
71
3
72
8
73
4
40
0
40
0
40
0
40
0
40
1
40
1
40
1
40
1
41
1
10
30.4825621452735
20
-10.80203290562
30
0
41
1
10
30.4165691639542
20
-10.6530340750598
30
0
41
1
10
30.3472851478721
20
-10.5048655326272
30
0
41
1
10
30.2639115680571
20
-10.3660827624862
30
0
0
SPLINE
5
1D4
100
AcDbEntity
8
1
62
256
6
ByLayer
370
13
48
1
60
0
100
AcDbSpline
70
4
71
3
72
8
73
4
40
0
40
0
40
0
40
0
40
1
40
1
40
1
40
1
41
1
10
31.9981203716814
20
-12.5478480284313
30
0
41
1
10
31.9638409048776
20
-12.549704418651
30
0
41
1
10
31.9294607622627
20
-12.5502344847972
30
0
41
1
10
31.8950622867788
20
-12.5491694499341
30
0
0
SPLINE
5
1D5
100
AcDbEntity
8
1
62
256
6
ByLayer
370
13
48
1
60
0
100
AcDbSpline
70
4
71
3
72
10
73
6
40
0
40
0
40
0
40
0
40
0.140418403423082
40
0.140418403423082
40
1
40
1
40
1
40
1
41
1
10
31.8950622867786
20
-12.5491694499341
30
0
41
1
10
31.8949786281127
20
-12.5491668597205
30
0
41
1
10
31.8948949964083
20
-12.5491666556349
30
0
41
1
10
31.8943060068436
20
-12.5491831719814
30
0
41
1
10
31.8937967459171
20
-12.5492933847365
30
0
41
1
10
31.8933275812036
20
-12.5495304557446
30
0
0
SPLINE
5
1D6
100
AcDbEntity
8
1
62
256
6
ByLayer
370
13
48
1
60
0
100
AcDbSpline
70
4
71
3
72
8
73
4
40
0
40
0
40
0
40
0
40
1
40
1
40
1
40
1
41
1
10
31.4643787537961
20
-12.0563103127399
30
0
41
1
10
31.459967111299
20
-12.0600859171018
30
0
41
1
10
31.4555251065502
20
-12.0638555577374
30
0
41
1
10
31.4510546870629
20
-12.0676195138537
30
0
0
SPLINE
5
1D7
100
AcDbEntity
8
1
62
256
6
ByLayer
370
13
48
1
60
0
100
AcDbSpline
70
4
71
3
72
12
73
8
40
0
40
0
40
0
40
0
40
0.473871515909109
40
0.473871515909109
40
0.928528687587425
40
0.928528687587425
40
1
40
1
40
1
40
1
41
1
10
31.78962014135
20
-11.2114277736804
30
0
41
1
10
31.7605769079864
20
-11.1729785205615
30
0
41
1
10
31.738076503972
20
-11.1320708637637
30
0
41
1
10
31.7054858788087
20
-11.0585283835132
30
0
41
1
10
31.6944900899473
20
-11.0248133486184
30
0
41
1
10
31.6859581625813
20
-10.9922594476797
30
0
41
1
10
31.684884631021
20
-10.9879167218484
30
0
41
1
10
31.6838678419132
20
-10.9837267156529
30
0
0
SPLINE
5
1D8
100
AcDbEntity
8
1
62
256
6
ByLayer
370
13
48
1
60
0
100
AcDbSpline
70
4
71
3
72
8
73
4
40
0
40
0
40
0
40
0
40
1
40
1
40
1
40
1
41
1
10
31.4510546870629
20
-10.9323804861461
30
0
41
1
10
31.4555251065502
20
-10.9361444422624
30
0
41
1
10
31.459967111299
20
-10.939914082898
30
0
41
1
10
31.4643787537961
20
-10.9436896872598
30
0
0
SPLINE
5
1D9
100
AcDbEntity
8
1
62
256
6
ByLayer
370
13
48
1
60
0
100
AcDbSpline
70
4
71
3
72
12
73
8
40
0
40
0
40
0
40
0
40
0.152393412053729
40
0.152393412053729
40
0.680490075193607
40
0.680490075193607
40
1
40
1
40
1
40
1
41
1
10
31.7896201413597
20
-11.7885722263171
30
0
41
1
10
31.8346105972902
20
-11.7975263045562
30
0
41
1
10
31.8812734171518
20
-11.8070165700645
30
0
41
1
10
32.0939294786754
20
-11.8510824448214
30
0
41
1
10
32.2774173301441
20
-11.8911680904635
30
0
41
1
10
32.578376870561
20
-11.9601006649952
30
0
41
1
10
32.6952214954585
20
-11.9876055334765
30
0
41
1
10
32.8112677608008
20
-12.0158410745107
30
0
0
SPLINE
5
1DA
100
AcDbEntity
8
1
62
256
6
ByLayer
370
13
48
1
60
0
100
AcDbSpline
70
4
71
3
72
12
73
8
40
0
40
0
40
0
40
0
40
0.453713856043948
40
0.453713856043948
40
0.935255270278036
40
0.935255270278036
40
1
40
1
40
1
40
1
41
1
10
31.6838678419132
20
-12.0162732843469
30
0
41
1
10
31.6902549278144
20
-11.9899532448314
30
0
41
1
10
31.6997841086873
20
-11.9576855385582
30
0
41
1
10
31.7293410835708
20
-11.8854599986053
30
0
41
1
10
31.7503116579038
20
-11.8441812682374
30
0
41
1
10
31.7817069341031
20
-11.7992580890006
30
0
41
1
10
31.7855997151618
20
-11.7938947185575
30
0
41
1
10
31.7896201413555
20
-11.7885722263121
30
0
0
SPLINE
5
1DB
100
AcDbEntity
8
1
62
256
6
ByLayer
370
13
48
1
60
0
100
AcDbSpline
70
4
71
3
72
12
73
8
40
0
40
0
40
0
40
0
40
0.152393412067187
40
0.152393412067187
40
0.68049007519868
40
0.68049007519868
40
1
40
1
40
1
40
1
41
1
10
31.7896201413457
20
-11.2114277736854
30
0
41
1
10
31.8346105972805
20
-11.2024736954455
30
0
41
1
10
31.8812734171468
20
-11.1929834299363
30
0
41
1
10
32.0939294786754
20
-11.1489175551784
30
0
41
1
10
32.2774173301441
20
-11.1088319095363
30
0
41
1
10
32.578376870561
20
-11.0398993350046
30
0
41
1
10
32.6952214954585
20
-11.0123944665233
30
0
41
1
10
32.8112677608008
20
-10.9841589254891
30
0
0
SPLINE
5
1DC
100
AcDbEntity
8
1
62
256
6
ByLayer
370
13
48
1
60
0
100
AcDbSpline
70
4
71
3
72
16
73
12
40
0
40
0
40
0
40
0
40
0.257384746008501
40
0.257384746008501
40
0.483485531381172
40
0.483485531381172
40
0.71945910330869
40
0.71945910330869
40
0.925748185145375
40
0.925748185145375
40
1
40
1
40
1
40
1
41
1
10
30.6610166945646
20
-11.9940882031482
30
0
41
1
10
30.6316687367362
20
-11.9915861532452
30
0
41
1
10
30.6016686457385
20
-11.9930316735147
30
0
41
1
10
30.5476222628196
20
-12.0030255811653
30
0
41
1
10
30.5228412392242
20
-12.0107769362004
30
0
41
1
10
30.4759336807441
20
-12.0321780148552
30
0
41
1
10
30.4535298246701
20
-12.0462768998188
30
0
41
1
10
30.4168300974004
20
-12.0773137419917
30
0
41
1
10
30.4015959942175
20
-12.0939052091306
30
0
41
1
10
30.3843415664157
20
-12.1184150272252
30
0
41
1
10
30.3800684610182
20
-12.1251384780967
30
0
41
1
10
30.3761342837701
20
-12.1320289653287
30
0
0
SPLINE
5
1DD
100
AcDbEntity
8
1
62
256
6
ByLayer
370
13
48
1
60
0
100
AcDbSpline
70
4
71
3
72
16
73
12
40
0
40
0
40
0
40
0
40
0.215940694014332
40
0.215940694014332
40
0.440749342864023
40
0.440749342864023
40
0.6480631149087
40
0.6480631149087
40
0.900502256755734
40
0.900502256755734
40
1
40
1
40
1
40
1
41
1
10
30.3761342837701
20
-10.8679710346725
30
0
41
1
10
30.3874887091378
20
-10.8878576635884
30
0
41
1
10
30.4017703058924
20
-10.9064361598136
30
0
41
1
10
30.4355311178214
20
-10.9399193928967
30
0
41
1
10
30.4554935542142
20
-10.9549357614888
30
0
41
1
10
30.4971485157203
20
-10.9784750870558
30
0
41
1
10
30.5188925805651
20
-10.987589647721
30
0
41
1
10
30.5687388690062
20
-11.0021464515233
30
0
41
1
10
30.5977360562636
20
-11.0065221205435
30
0
41
1
10
30.6380565109324
20
-11.0072707033974
30
0
41
1
10
30.6495709364867
20
-11.0068876009637
30
0
41
1
10
30.6610166945643
20
-11.005911796853
30
0
0
SPLINE
5
1DE
100
AcDbEntity
8
1
62
256
6
ByLayer
370
13
48
1
60
0
100
AcDbSpline
70
4
71
3
72
14
73
10
40
0
40
0
40
0
40
0
40
0.0140696667047013
40
0.0140696667047013
40
0.158297294424887
40
0.158297294424887
40
0.557403345933072
40
0.557403345933072
40
1
40
1
40
1
40
1
41
1
10
30.6387159227632
20
-11.1609670367588
30
0
41
1
10
30.6375460584102
20
-11.1611302068006
30
0
41
1
10
30.636375468005
20
-11.1612893370034
30
0
41
1
10
30.6230171191251
20
-11.1630656762816
30
0
41
1
10
30.6107456069811
20
-11.1642969270919
30
0
41
1
10
30.5650925286651
20
-11.1674390259888
30
0
41
1
10
30.5314247709742
20
-11.1668145658748
30
0
41
1
10
30.4656728605842
20
-11.1597035542508
30
0
41
1
10
30.4330791217041
20
-11.1524710109448
30
0
41
1
10
30.4056329534176
20
-11.1423064434264
30
0
0
SPLINE
5
1DF
100
AcDbEntity
8
1
62
256
6
ByLayer
370
13
48
1
60
0
100
AcDbSpline
70
4
71
3
72
8
73
4
40
0
40
0
40
0
40
0
40
1
40
1
40
1
40
1
41
1
10
30.4056329534175
20
-11.1423064434049
30
0
41
1
10
30.3963391835321
20
-11.1388645366697
30
0
41
1
10
30.387572294916
20
-11.1354048260508
30
0
41
1
10
30.3794417210372
20
-11.1320021197186
30
0
0
SPLINE
5
1E0
100
AcDbEntity
8
1
62
256
6
ByLayer
370
13
48
1
60
0
100
AcDbSpline
70
4
71
3
72
10
73
6
40
0
40
0
40
0
40
0
40
0.782589980152529
40
0.782589980152529
40
1
40
1
40
1
40
1
41
1
10
30.3761342837701
20
-10.8679710346725
30
0
41
1
10
30.3750264075113
20
-10.9278868040868
30
0
41
1
10
30.3733409185196
20
-10.9972283883655
30
0
41
1
10
30.3768419616687
20
-11.0902982850526
30
0
41
1
10
30.3779402791545
20
-11.1110249027804
30
0
41
1
10
30.3794417210386
20
-11.1320021197165
30
0
0
SPLINE
5
1E1
100
AcDbEntity
8
1
62
256
6
ByLayer
370
13
48
1
60
0
100
AcDbSpline
70
4
71
3
72
10
73
6
40
0
40
0
40
0
40
0
40
0.217410019846355
40
0.217410019846355
40
1
40
1
40
1
40
1
41
1
10
30.3794417210372
20
-11.867997880282
30
0
41
1
10
30.3779402791531
20
-11.8889750972182
30
0
41
1
10
30.3768419616687
20
-11.9097017149472
30
0
41
1
10
30.3733409185196
20
-12.0027716116348
30
0
41
1
10
30.3750264075113
20
-12.0721131959141
30
0
41
1
10
30.3761342837701
20
-12.1320289653287
30
0
0
SPLINE
5
1E2
100
AcDbEntity
8
1
62
256
6
ByLayer
370
13
48
1
60
0
100
AcDbSpline
70
4
71
3
72
8
73
4
40
0
40
0
40
0
40
0
40
1
40
1
40
1
40
1
41
1
10
30.3794417210372
20
-11.867997880282
30
0
41
1
10
30.3875722949159
20
-11.8645951739498
30
0
41
1
10
30.3963391835321
20
-11.8611354633302
30
0
41
1
10
30.4056329534175
20
-11.8576935565949
30
0
0
SPLINE
5
1E3
100
AcDbEntity
8
1
62
256
6
ByLayer
370
13
48
1
60
0
100
AcDbSpline
70
4
71
3
72
14
73
10
40
0
40
0
40
0
40
0
40
0.362290872375782
40
0.362290872375782
40
0.75921727113372
40
0.75921727113372
40
0.985981513552925
40
0.985981513552925
40
1
40
1
40
1
40
1
41
1
10
30.4056329534176
20
-11.8576935565734
30
0
41
1
10
30.4281812464505
20
-11.8493428955789
30
0
41
1
10
30.4541207849953
20
-11.8429736241296
30
0
41
1
10
30.5118571823039
20
-11.8344830133914
30
0
41
1
10
30.5447419197083
20
-11.8327066008655
30
0
41
1
10
30.5968158183066
20
-11.8344356382935
30
0
41
1
10
30.6161285437686
20
-11.8360183087435
30
0
41
1
10
30.6363754679909
20
-11.8387106630088
30
0
41
1
10
30.6375460583943
20
-11.8388697931997
30
0
41
1
10
30.6387159227444
20
-11.8390329632371
30
0
0
SPLINE
5
1E4
100
AcDbEntity
8
1
62
256
6
ByLayer
370
13
48
1
60
0
100
AcDbSpline
70
4
71
3
72
12
73
8
40
0
40
0
40
0
40
0
40
0.027753964396557
40
0.027753964396557
40
0.667826589987148
40
0.667826589987148
40
1
40
1
40
1
40
1
41
1
10
30.2639115680571
20
-10.3660827624861
30
0
41
1
10
30.26302249383
20
-10.366594687115
30
0
41
1
10
30.2621362973346
20
-10.3671065367085
30
0
41
1
10
30.241139438886
20
-10.3792800928329
30
0
41
1
10
30.2223677783528
20
-10.3911474247194
30
0
41
1
10
30.1985834198732
20
-10.4077783083683
30
0
41
1
10
30.1911418620728
20
-10.4133204733209
30
0
41
1
10
30.1846560826642
20
-10.4185200609354
30
0
0
SPLINE
5
1E5
100
AcDbEntity
8
1
62
256
6
ByLayer
370
13
48
1
60
0
100
AcDbSpline
70
4
71
3
72
10
73
6
40
0
40
0
40
0
40
0
40
0.820434354426583
40
0.820434354426583
40
1
40
1
40
1
40
1
41
1
10
30.1772670677278
20
-10.424015668654
30
0
41
1
10
30.2373176229179
20
-10.5427324181905
30
0
41
1
10
30.2907218307757
20
-10.6648162505155
30
0
41
1
10
30.3537878651403
20
-10.8141877093672
30
0
41
1
10
30.365006782063
20
-10.8410617225016
30
0
41
1
10
30.3761342837706
20
-10.8679710346722
30
0
0
SPLINE
5
1E6
100
AcDbEntity
8
1
62
256
6
ByLayer
370
13
48
1
60
0
100
AcDbSpline
70
4
71
3
72
8
73
4
40
0
40
0
40
0
40
0
40
1
40
1
40
1
40
1
41
1
10
30.1846560826642
20
-10.4185200609354
30
0
41
1
10
30.1821308679729
20
-10.4205445015154
30
0
41
1
10
30.1796628452491
20
-10.4223801985339
30
0
41
1
10
30.1772670677278
20
-10.424015668654
30
0
0
SPLINE
5
1E7
100
AcDbEntity
8
1
62
256
6
ByLayer
370
13
48
1
60
0
100
AcDbSpline
70
4
71
3
72
12
73
8
40
0
40
0
40
0
40
0
40
0.0278313206712517
40
0.0278313206712517
40
0.611473023609022
40
0.611473023609022
40
1
40
1
40
1
40
1
41
1
10
30.2639115680654
20
-12.6339172375034
30
0
41
1
10
30.2630224938382
20
-12.6334053128776
30
0
41
1
10
30.2621362973421
20
-12.6328934632879
30
0
41
1
10
30.2428803330612
20
-12.6217292426223
30
0
41
1
10
30.2256423082254
20
-12.6109187529853
30
0
41
1
10
30.2010972420243
20
-12.5940822902433
30
0
41
1
10
30.1922210960019
20
-12.5875447382467
30
0
41
1
10
30.1846560826641
20
-12.5814799390643
30
0
0
SPLINE
5
1E8
100
AcDbEntity
8
1
62
256
6
ByLayer
370
13
48
1
60
0
100
AcDbSpline
70
4
71
3
72
8
73
4
40
0
40
0
40
0
40
0
40
1
40
1
40
1
40
1
41
1
10
30.1846560826641
20
-12.5814799390643
30
0
41
1
10
30.1821308679729
20
-12.5794554984843
30
0
41
1
10
30.1796628452491
20
-12.5776198014659
30
0
41
1
10
30.1772670677279
20
-12.5759843313458
30
0
0
SPLINE
5
1E9
100
AcDbEntity
8
1
62
256
6
ByLayer
370
13
48
1
60
0
100
AcDbSpline
70
4
71
3
72
10
73
6
40
0
40
0
40
0
40
0
40
0.819881036339605
40
0.819881036339605
40
1
40
1
40
1
40
1
41
1
10
30.3761342837701
20
-12.1320289653287
30
0
41
1
10
30.3253430321445
20
-12.2548559647256
30
0
41
1
10
30.2729973133249
20
-12.3771935301972
30
0
41
1
10
30.2032770273131
20
-12.5236422096646
30
0
41
1
10
30.1904566776892
20
-12.549909174883
30
0
41
1
10
30.1772670677279
20
-12.5759843313458
30
0
0
SPLINE
5
1EA
100
AcDbEntity
8
1
62
256
6
ByLayer
370
13
48
1
60
0
100
AcDbSpline
70
4
71
3
72
12
73
8
40
0
40
0
40
0
40
0
40
0.0277499781510944
40
0.0277499781510944
40
0.667808133384293
40
0.667808133384293
40
1
40
1
40
1
40
1
41
1
10
30.263911568057
20
-10.3660827624861
30
0
41
1
10
30.2629034320478
20
-10.3661611799299
30
0
41
1
10
30.2618982158727
20
-10.3662395951406
30
0
41
1
10
30.2380665525594
20
-10.3681043677515
30
0
41
1
10
30.2165180885701
20
-10.3699193486594
30
0
41
1
10
30.1888224267558
20
-10.3724591528697
30
0
41
1
10
30.180073554872
20
-10.3733048712674
30
0
41
1
10
30.1723583203581
20
-10.3740977768681
30
0
0
SPLINE
5
1EB
100
AcDbEntity
8
1
62
256
6
ByLayer
370
13
48
1
60
0
100
AcDbSpline
70
4
71
3
72
12
73
8
40
0
40
0
40
0
40
0
40
0.0278272716373759
40
0.0278272716373759
40
0.611453167879501
40
0.611453167879501
40
1
40
1
40
1
40
1
41
1
10
30.2639115680571
20
-12.6339172375137
30
0
41
1
10
30.2629034319402
20
-12.6338388216492
30
0
41
1
10
30.2618982154425
20
-12.6337604111762
30
0
41
1
10
30.2400426145075
20
-12.6320502262532
30
0
41
1
10
30.2202762805606
20
-12.6303966595152
30
0
41
1
10
30.1917749645618
20
-12.627824783171
30
0
41
1
10
30.1813573467759
20
-12.6268270658483
30
0
41
1
10
30.1723583203581
20
-12.6259022231316
30
0
0
SPLINE
5
1EC
100
AcDbEntity
8
1
62
256
6
ByLayer
370
13
48
1
60
0
100
AcDbSpline
70
4
71
3
72
26
73
22
40
0
40
0
40
0
40
0
40
0.102035501666901
40
0.102035501666901
40
0.129284389714829
40
0.129284389714829
40
0.254161410871578
40
0.254161410871578
40
0.386333886983898
40
0.386333886983898
40
0.523125606178389
40
0.523125606178389
40
0.658908540792033
40
0.658908540792033
40
0.795133361230144
40
0.795133361230144
40
0.895568684120736
40
0.895568684120736
40
0.931575554525879
40
0.931575554525879
40
1
40
1
40
1
40
1
41
1
10
30.5964890019636
20
-11.3026645496348
30
0
41
1
10
30.6131393767336
20
-11.3079841234695
30
0
41
1
10
30.6291034127914
20
-11.3156550932708
30
0
41
1
10
30.6463800184523
20
-11.3278720373239
30
0
41
1
10
30.64992822141
20
-11.3306310478253
30
0
41
1
10
30.6686371526018
20
-11.3465700376583
30
0
41
1
10
30.6810099307052
20
-11.362598290587
30
0
41
1
10
30.7005417637306
20
-11.3988739209839
30
0
41
1
10
30.7077186636935
20
-11.4198861104083
30
0
41
1
10
30.7168173796711
20
-11.4642649527195
30
0
41
1
10
30.718667366816
20
-11.4883255343375
30
0
41
1
10
30.7168386014334
20
-11.5351292011225
30
0
41
1
10
30.7131780830524
20
-11.5585218607744
30
0
41
1
10
30.700271409133
20
-11.6016592445897
30
0
41
1
10
30.6908281262292
20
-11.6220284975206
30
0
41
1
10
30.668731185536
20
-11.652503296625
30
0
41
1
10
30.6572851116735
20
-11.6641967965665
30
0
41
1
10
30.6391386222023
20
-11.6773146373364
30
0
41
1
10
30.6340445533438
20
-11.6805566278108
30
0
41
1
10
30.6187059419969
20
-11.6891056025423
30
0
41
1
10
30.6077600338148
20
-11.6937345052239
30
0
41
1
10
30.5964890019636
20
-11.6973354503649
30
0
0
SPLINE
5
1ED
100
AcDbEntity
8
1
62
256
6
ByLayer
370
13
48
1
60
0
100
AcDbSpline
70
4
71
3
72
14
73
10
40
0
40
0
40
0
40
0
40
0.27475847941734
40
0.27475847941734
40
0.512436463803127
40
0.512436463803127
40
0.749993769781322
40
0.749993769781322
40
1
40
1
40
1
40
1
41
1
10
31.7896201413547
20
-11.7885722263115
30
0
41
1
10
31.8118015893239
20
-11.7404351427235
30
0
41
1
10
31.8306589366166
20
-11.6889104453592
30
0
41
1
10
31.8534625769751
20
-11.5891040181781
30
0
41
1
10
31.8590594822314
20
-11.540555090057
30
0
41
1
10
31.8578279543455
20
-11.4445252259541
30
0
41
1
10
31.8510126304754
20
-11.3962474359846
30
0
41
1
10
31.8272786525577
20
-11.3019245959617
30
0
41
1
10
31.8098376614737
20
-11.2553028379871
30
0
41
1
10
31.7896201413508
20
-11.2114277736799
30
0
0
SPLINE
5
1EE
100
AcDbEntity
8
1
62
256
6
ByLayer
370
13
48
1
60
0
100
AcDbSpline
70
4
71
3
72
8
73
4
40
0
40
0
40
0
40
0
40
1
40
1
40
1
40
1
41
1
10
30.1705951003268
20
-12.6254379281352
30
0
41
1
10
30.1711929686635
20
-12.6254379281352
30
0
41
1
10
30.1717967952489
20
-12.6255881269813
30
0
41
1
10
30.1723583203562
20
-12.625902223117
30
0
0
SPLINE
5
1EF
100
AcDbEntity
8
1
62
256
6
ByLayer
370
13
48
1
60
0
100
AcDbSpline
70
4
71
3
72
8
73
4
40
0
40
0
40
0
40
0
40
1
40
1
40
1
40
1
41
1
10
30.1723583203562
20
-10.3740977768694
30
0
41
1
10
30.1717967952486
20
-10.3744118730058
30
0
41
1
10
30.1711929686639
20
-10.3745620718646
30
0
41
1
10
30.1705951003268
20
-10.3745620718646
30
0
0
SPLINE
5
1F0
100
AcDbEntity
8
1
62
256
6
ByLayer
370
13
48
1
60
0
100
AcDbSpline
70
4
71
3
72
10
73
6
40
0
40
0
40
0
40
0
40
0.84896187346875
40
0.84896187346875
40
1
40
1
40
1
40
1
41
1
10
34.5256851850748
20
-10.7352342528895
30
0
41
1
10
34.4912977154034
20
-10.6833914497462
30
0
41
1
10
34.443874742716
20
-10.6399358019811
30
0
41
1
10
34.3838155264513
20
-10.5979302278616
30
0
41
1
10
34.3744787017949
20
-10.5917362922221
30
0
41
1
10
34.3650107000385
20
-10.5857566807602
30
0
0
SPLINE
5
1F1
100
AcDbEntity
8
1
62
256
6
ByLayer
370
13
48
1
60
0
100
AcDbSpline
70
4
71
3
72
8
73
4
40
0
40
0
40
0
40
0
40
1
40
1
40
1
40
1
41
1
10
34.3650107000385
20
-10.5857566807602
30
0
41
1
10
34.3210937227593
20
-10.5580204733251
30
0
41
1
10
34.2769798114245
20
-10.5305908253663
30
0
41
1
10
34.232560747957
20
-10.5036673369175
30
0
0
SPLINE
5
1F2
100
AcDbEntity
8
1
62
256
6
ByLayer
370
13
48
1
60
0
100
AcDbSpline
70
4
71
3
72
10
73
6
40
0
40
0
40
0
40
0
40
0.657586553479613
40
0.657586553479613
40
1
40
1
40
1
40
1
41
1
10
34.232560747957
20
-10.5036673369175
30
0
41
1
10
34.2092305437702
20
-10.4895263255162
30
0
41
1
10
34.1864384919004
20
-10.4742029059565
30
0
41
1
10
34.1548281900599
20
-10.4472941054107
30
0
41
1
10
34.1444660370969
20
-10.4373646658892
30
0
41
1
10
34.135515563742
20
-10.4262943891192
30
0
0
SPLINE
5
1F3
100
AcDbEntity
8
1
62
256
6
ByLayer
370
13
48
1
60
0
100
AcDbSpline
70
4
71
3
72
10
73
6
40
0
40
0
40
0
40
0
40
0.657586553479614
40
0.657586553479614
40
1
40
1
40
1
40
1
41
1
10
34.232560747957
20
-12.4963326630823
30
0
41
1
10
34.2092305437702
20
-12.5104736744836
30
0
41
1
10
34.1864384919004
20
-12.5257970940433
30
0
41
1
10
34.1548281900599
20
-12.5527058945891
30
0
41
1
10
34.1444660370969
20
-12.5626353341105
30
0
41
1
10
34.135515563742
20
-12.5737056108806
30
0
0
SPLINE
5
1F4
100
AcDbEntity
8
1
62
256
6
ByLayer
370
13
48
1
60
0
100
AcDbSpline
70
4
71
3
72
8
73
4
40
0
40
0
40
0
40
0
40
1
40
1
40
1
40
1
41
1
10
34.3650107000385
20
-12.4142433192396
30
0
41
1
10
34.3210937227593
20
-12.4419795266747
30
0
41
1
10
34.2769798114245
20
-12.4694091746335
30
0
41
1
10
34.232560747957
20
-12.4963326630823
30
0
0
SPLINE
5
1F5
100
AcDbEntity
8
1
62
256
6
ByLayer
370
13
48
1
60
0
100
AcDbSpline
70
4
71
3
72
10
73
6
40
0
40
0
40
0
40
0
40
0.84896187346875
40
0.84896187346875
40
1
40
1
40
1
40
1
41
1
10
34.5256851850748
20
-12.2647657471103
30
0
41
1
10
34.4912977154034
20
-12.3166085502535
30
0
41
1
10
34.443874742716
20
-12.3600641980186
30
0
41
1
10
34.3838155264513
20
-12.4020697721382
30
0
41
1
10
34.3744787017949
20
-12.4082637077777
30
0
41
1
10
34.3650107000385
20
-12.4142433192396
30
0
0
SPLINE
5
1F6
100
AcDbEntity
8
1
62
256
6
ByLayer
370
13
48
1
60
0
100
AcDbSpline
70
4
71
3
72
14
73
10
40
0
40
0
40
0
40
0
40
0.0140322366304758
40
0.0140322366304758
40
0.158091565624719
40
0.158091565624719
40
0.557043656612004
40
0.557043656612004
40
1
40
1
40
1
40
1
41
1
10
30.6387159228241
20
-11.1609670367486
30
0
41
1
10
30.6379360645915
20
-11.1617277696409
30
0
41
1
10
30.6371559091054
20
-11.1624850537707
30
0
41
1
10
30.6282316685991
20
-11.1710835651134
30
0
41
1
10
30.6199670064645
20
-11.1785038459878
30
0
41
1
10
30.5889415558847
20
-11.204367397961
30
0
41
1
10
30.5655368582111
20
-11.2198053070196
30
0
41
1
10
30.5187541033905
20
-11.2424891446818
30
0
41
1
10
30.4949133424734
20
-11.2490099070338
30
0
41
1
10
30.4743263124385
20
-11.2495141354523
30
0
0
SPLINE
5
1F7
100
AcDbEntity
8
1
62
256
6
ByLayer
370
13
48
1
60
0
100
AcDbSpline
70
4
71
3
72
14
73
10
40
0
40
0
40
0
40
0
40
0.362636115875106
40
0.362636115875106
40
0.759502173372961
40
0.759502173372961
40
0.986017775516147
40
0.986017775516147
40
1
40
1
40
1
40
1
41
1
10
30.4743263124385
20
-11.7504858645475
30
0
41
1
10
30.4912406290798
20
-11.7509001389289
30
0
41
1
10
30.5102969105352
20
-11.7553333287586
30
0
41
1
10
30.5517568775429
20
-11.7724121105697
30
0
41
1
10
30.5748386743135
20
-11.7860125947447
30
0
41
1
10
30.6105592323138
20
-11.8132263585058
30
0
41
1
10
30.623626747303
20
-11.82447959032
30
0
41
1
10
30.6371559091053
20
-11.8375149462291
30
0
41
1
10
30.6379360645915
20
-11.838272230359
30
0
41
1
10
30.6387159228241
20
-11.8390329632512
30
0
0
SPLINE
5
1F8
100
AcDbEntity
8
1
62
256
6
ByLayer
370
13
48
1
60
0
100
AcDbSpline
70
4
71
3
72
8
73
4
40
0
40
0
40
0
40
0
40
1
40
1
40
1
40
1
41
1
10
30.4743263124398
20
-11.2495141354548
30
0
41
1
10
30.5107270135585
20
-11.2675286793668
30
0
41
1
10
30.5486103280918
20
-11.284119884111
30
0
41
1
10
30.5875073723823
20
-11.2992443482016
30
0
0
SPLINE
5
1F9
100
AcDbEntity
8
1
62
256
6
ByLayer
370
13
48
1
60
0
100
AcDbSpline
70
4
71
3
72
10
73
6
40
0
40
0
40
0
40
0
40
0.638823417468865
40
0.638823417468865
40
1
40
1
40
1
40
1
41
1
10
34.1900286630425
20
-12.4350239663355
30
0
41
1
10
34.166841990865
20
-12.4547106579255
30
0
41
1
10
34.1449724664755
20
-12.4765022876987
30
0
41
1
10
34.1161775948407
20
-12.5150198729896
30
0
41
1
10
34.1068123576004
20
-12.5299982956349
30
0
41
1
10
34.0995116901682
20
-12.5459979598173
30
0
0
SPLINE
5
1FA
100
AcDbEntity
8
1
62
256
6
ByLayer
370
13
48
1
60
0
100
AcDbSpline
70
4
71
3
72
16
73
12
40
0
40
0
40
0
40
0
40
0.0355702320992689
40
0.0355702320992689
40
0.09050817101665
40
0.09050817101665
40
0.198049233530909
40
0.198049233530909
40
0.436780146594192
40
0.436780146594192
40
1
40
1
40
1
40
1
41
1
10
34.0647600217563
20
-12.6263220355864
30
0
41
1
10
34.0651586810189
20
-12.6253552596238
30
0
41
1
10
34.0655584542086
20
-12.6243889211319
30
0
41
1
10
34.0665771815565
20
-12.6219268549542
30
0
41
1
10
34.0671970808021
20
-12.6204315089404
30
0
41
1
10
34.0690334070428
20
-12.6160112009544
30
0
41
1
10
34.0702528942054
20
-12.6130877962549
30
0
41
1
10
34.0741930527674
20
-12.6036898385928
30
0
41
1
10
34.0769343827305
20
-12.5972280597343
30
0
41
1
10
34.0861946238308
20
-12.5756594360557
30
0
41
1
10
34.0928248586496
20
-12.5606523814508
30
0
41
1
10
34.0995116901683
20
-12.5459979598174
30
0
0
SPLINE
5
1FB
100
AcDbEntity
8
1
62
256
6
ByLayer
370
13
48
1
60
0
100
AcDbSpline
70
4
71
3
72
8
73
4
40
0
40
0
40
0
40
0
40
1
40
1
40
1
40
1
41
1
10
34.0647600217523
20
-12.6263220355883
30
0
41
1
10
33.9478492133728
20
-12.6570735908759
30
0
41
1
10
33.8265101800572
20
-12.6720572868027
30
0
41
1
10
33.7060768987952
20
-12.6748687981323
30
0
0
SPLINE
5
1FC
100
AcDbEntity
8
1
62
256
6
ByLayer
370
13
48
1
60
0
100
AcDbSpline
70
4
71
3
72
16
73
12
40
0
40
0
40
0
40
0
40
0.0355702320992689
40
0.0355702320992689
40
0.09050817101665
40
0.09050817101665
40
0.198049233530909
40
0.198049233530909
40
0.436780146594192
40
0.436780146594192
40
1
40
1
40
1
40
1
41
1
10
34.0647600217563
20
-10.3736779644134
30
0
41
1
10
34.0651586810189
20
-10.374644740376
30
0
41
1
10
34.0655584542086
20
-10.3756110788679
30
0
41
1
10
34.0665771815565
20
-10.3780731450456
30
0
41
1
10
34.0671970808021
20
-10.3795684910594
30
0
41
1
10
34.0690334070428
20
-10.3839887990454
30
0
41
1
10
34.0702528942054
20
-10.3869122037449
30
0
41
1
10
34.0741930527674
20
-10.396310161407
30
0
41
1
10
34.0769343827305
20
-10.4027719402655
30
0
41
1
10
34.0861946238308
20
-10.424340563944
30
0
41
1
10
34.0928248586496
20
-10.4393476185489
30
0
41
1
10
34.0995116901683
20
-10.4540020401824
30
0
0
SPLINE
5
1FD
100
AcDbEntity
8
1
62
256
6
ByLayer
370
13
48
1
60
0
100
AcDbSpline
70
4
71
3
72
8
73
4
40
0
40
0
40
0
40
0
40
1
40
1
40
1
40
1
41
1
10
30.5875073723823
20
-11.7007556517982
30
0
41
1
10
30.5486103280918
20
-11.7158801158887
30
0
41
1
10
30.5107270135585
20
-11.732471320633
30
0
41
1
10
30.4743263124398
20
-11.750485864545
30
0
0
SPLINE
5
1FE
100
AcDbEntity
8
1
62
256
6
ByLayer
370
13
48
1
60
0
100
AcDbSpline
70
4
71
3
72
10
73
6
40
0
40
0
40
0
40
0
40
0.638823417468865
40
0.638823417468865
40
1
40
1
40
1
40
1
41
1
10
34.1900286630425
20
-10.5649760336642
30
0
41
1
10
34.166841990865
20
-10.5452893420743
30
0
41
1
10
34.1449724664755
20
-10.5234977123012
30
0
41
1
10
34.1161775948407
20
-10.4849801270102
30
0
41
1
10
34.1068123576004
20
-10.4700017043649
30
0
41
1
10
34.0995116901682
20
-10.4540020401825
30
0
0
SPLINE
5
1FF
100
AcDbEntity
8
1
62
256
6
ByLayer
370
13
48
1
60
0
100
AcDbSpline
70
4
71
3
72
8
73
4
40
0
40
0
40
0
40
0
40
1
40
1
40
1
40
1
41
1
10
30.5875073723823
20
-11.2992443482016
30
0
41
1
10
30.590499776207
20
-11.3003844320355
30
0
41
1
10
30.5934936621595
20
-11.3015244996309
30
0
41
1
10
30.5964890019636
20
-11.3026645496348
30
0
0
SPLINE
5
200
100
AcDbEntity
8
1
62
256
6
ByLayer
370
13
48
1
60
0
100
AcDbSpline
70
4
71
3
72
8
73
4
40
0
40
0
40
0
40
0
40
1
40
1
40
1
40
1
41
1
10
34.0647600217523
20
-10.3736779644115
30
0
41
1
10
33.9478492133728
20
-10.3429264091239
30
0
41
1
10
33.8265101800572
20
-10.3279427131971
30
0
41
1
10
33.7060768987952
20
-10.3251312018675
30
0
0
SPLINE
5
201
100
AcDbEntity
8
1
62
256
6
ByLayer
370
13
48
1
60
0
100
AcDbSpline
70
4
71
3
72
8
73
4
40
0
40
0
40
0
40
0
40
1
40
1
40
1
40
1
41
1
10
30.4661840397672
20
-11.2489756444471
30
0
41
1
10
30.4686096513478
20
-11.2489756444471
30
0
41
1
10
30.4713428169147
20
-11.249151640098
30
0
41
1
10
30.4743263124381
20
-11.2495141354524
30
0
0
SPLINE
5
202
100
AcDbEntity
8
1
62
256
6
ByLayer
370
13
48
1
60
0
100
AcDbSpline
70
4
71
3
72
8
73
4
40
0
40
0
40
0
40
0
40
1
40
1
40
1
40
1
41
1
10
30.5964890019636
20
-11.6973354503649
30
0
41
1
10
30.5934936621595
20
-11.6984755003689
30
0
41
1
10
30.590499776207
20
-11.6996155679643
30
0
41
1
10
30.5875073723823
20
-11.7007556517982
30
0
0
SPLINE
5
203
100
AcDbEntity
8
1
62
256
6
ByLayer
370
13
48
1
60
0
100
AcDbSpline
70
4
71
3
72
8
73
4
40
0
40
0
40
0
40
0
40
1
40
1
40
1
40
1
41
1
10
30.4743263124385
20
-11.7504858645475
30
0
41
1
10
30.471342816915
20
-11.7508483599019
30
0
41
1
10
30.4686096513474
20
-11.7510243555528
30
0
41
1
10
30.4661840397669
20
-11.7510243555528
30
0
0
SPLINE
5
204
100
AcDbEntity
8
1
62
256
6
ByLayer
370
13
48
1
60
0
100
AcDbSpline
70
4
71
3
72
16
73
12
40
0
40
0
40
0
40
0
40
0.0355303527441481
40
0.0355303527441481
40
0.0917680599187357
40
0.0917680599187357
40
0.200182520092063
40
0.200182520092063
40
0.439533504711995
40
0.439533504711995
40
1
40
1
40
1
40
1
41
1
10
34.0647600217524
20
-10.3736779644115
30
0
41
1
10
34.0655855998636
20
-10.3743116919934
30
0
41
1
10
34.0664120929672
20
-10.3749449260104
30
0
41
1
10
34.0685507889318
20
-10.3765828455439
30
0
41
1
10
34.0698640688781
20
-10.377587159314
30
0
41
1
10
34.0737129338246
20
-10.3805260228995
30
0
41
1
10
34.0762525536656
20
-10.3824594815918
30
0
41
1
10
34.0844114693382
20
-10.3886507387094
30
0
41
1
10
34.0900517136001
20
-10.392899059486
30
0
41
1
10
34.1089188273347
20
-10.4069955282559
30
0
41
1
10
34.1222466489563
20
-10.4167682610634
30
0
41
1
10
34.135515563742
20
-10.4262943891192
30
0
0
SPLINE
5
205
100
AcDbEntity
8
1
62
256
6
ByLayer
370
13
48
1
60
0
100
AcDbSpline
70
4
71
3
72
16
73
12
40
0
40
0
40
0
40
0
40
0.0355303527441481
40
0.0355303527441481
40
0.0917680599187357
40
0.0917680599187357
40
0.200182520092063
40
0.200182520092063
40
0.439533504711995
40
0.439533504711995
40
1
40
1
40
1
40
1
41
1
10
34.0647600217524
20
-12.6263220355883
30
0
41
1
10
34.0655855998636
20
-12.6256883080063
30
0
41
1
10
34.0664120929672
20
-12.6250550739894
30
0
41
1
10
34.0685507889318
20
-12.6234171544558
30
0
41
1
10
34.0698640688781
20
-12.6224128406858
30
0
41
1
10
34.0737129338246
20
-12.6194739771003
30
0
41
1
10
34.0762525536656
20
-12.617540518408
30
0
41
1
10
34.0844114693382
20
-12.6113492612903
30
0
41
1
10
34.0900517136001
20
-12.6071009405138
30
0
41
1
10
34.1089188273347
20
-12.5930044717438
30
0
41
1
10
34.1222466489563
20
-12.5832317389364
30
0
41
1
10
34.135515563742
20
-12.5737056108806
30
0
0
SPLINE
5
206
100
AcDbEntity
8
1
62
256
6
ByLayer
370
13
48
1
60
0
100
AcDbSpline
70
4
71
3
72
10
73
6
40
0
40
0
40
0
40
0
40
0.155061591761428
40
0.155061591761428
40
1
40
1
40
1
40
1
41
1
10
34.3213895076228
20
-12.3536987770376
30
0
41
1
10
34.3304066184319
20
-12.3488929319819
30
0
41
1
10
34.3393274149503
20
-12.3439019696701
30
0
41
1
10
34.3954797246053
20
-12.3107807762725
30
0
41
1
10
34.4409287471059
20
-12.2765179393005
30
0
41
1
10
34.4749811562301
20
-12.2334129109394
30
0
0
SPLINE
5
207
100
AcDbEntity
8
1
62
256
6
ByLayer
370
13
48
1
60
0
100
AcDbSpline
70
4
71
3
72
8
73
4
40
0
40
0
40
0
40
0
40
1
40
1
40
1
40
1
41
1
10
33.7060768987952
20
-12.6748687981323
30
0
41
1
10
33.5916360304015
20
-12.6776921713632
30
0
41
1
10
33.4749005955276
20
-12.6739389632707
30
0
41
1
10
33.3587805434613
20
-12.6784092273822
30
0
0
SPLINE
5
208
100
AcDbEntity
8
1
62
256
6
ByLayer
370
13
48
1
60
0
100
AcDbSpline
70
4
71
3
72
8
73
4
40
0
40
0
40
0
40
0
40
1
40
1
40
1
40
1
41
1
10
33.7060768987952
20
-10.3251312018675
30
0
41
1
10
33.5916360304015
20
-10.3223078286366
30
0
41
1
10
33.4749005955276
20
-10.3260610367291
30
0
41
1
10
33.3587805434613
20
-10.3215907726176
30
0
0
SPLINE
5
209
100
AcDbEntity
8
1
62
256
6
ByLayer
370
13
48
1
60
0
100
AcDbSpline
70
4
71
3
72
10
73
6
40
0
40
0
40
0
40
0
40
0.155061591761428
40
0.155061591761428
40
1
40
1
40
1
40
1
41
1
10
34.3213895076228
20
-10.6463012229621
30
0
41
1
10
34.3304066184319
20
-10.6511070680178
30
0
41
1
10
34.3393274149503
20
-10.6560980303297
30
0
41
1
10
34.3954797246053
20
-10.6892192237273
30
0
41
1
10
34.4409287471059
20
-10.7234820606993
30
0
41
1
10
34.4749811562301
20
-10.7665870890603
30
0
0
SPLINE
5
20A
100
AcDbEntity
8
1
62
256
6
ByLayer
370
13
48
1
60
0
100
AcDbSpline
70
4
71
3
72
8
73
4
40
0
40
0
40
0
40
0
40
1
40
1
40
1
40
1
41
1
10
34.4749811562301
20
-10.7665870890603
30
0
41
1
10
34.4822263780105
20
-10.7757584075766
30
0
41
1
10
34.4893737130963
20
-10.7850446667619
30
0
41
1
10
34.4964383490931
20
-10.7943932095381
30
0
0
SPLINE
5
20B
100
AcDbEntity
8
1
62
256
6
ByLayer
370
13
48
1
60
0
100
AcDbSpline
70
4
71
3
72
10
73
6
40
0
40
0
40
0
40
0
40
0.596085739020476
40
0.596085739020476
40
1
40
1
40
1
40
1
41
1
10
34.4964383490931
20
-10.7943932095381
30
0
41
1
10
34.5128939358857
20
-10.8161686778151
30
0
41
1
10
34.5267245821227
20
-10.8405970994091
30
0
41
1
10
34.54081187438
20
-10.884269480044
30
0
41
1
10
34.544038381206
20
-10.9030190147406
30
0
41
1
10
34.5441651422481
20
-10.9216103813396
30
0
0
SPLINE
5
20C
100
AcDbEntity
8
1
62
256
6
ByLayer
370
13
48
1
60
0
100
AcDbSpline
70
4
71
3
72
12
73
8
40
0
40
0
40
0
40
0
40
0.0075770979405842
40
0.0075770979405842
40
0.524912447401083
40
0.524912447401083
40
1
40
1
40
1
40
1
41
1
10
34.0213727254145
20
-10.9109243775769
30
0
41
1
10
34.0226938848631
20
-10.9108753640969
30
0
41
1
10
34.0240151186687
20
-10.9108286952261
30
0
41
1
10
34.115463818229
20
-10.9077622069789
30
0
41
1
10
34.205673527038
20
-10.9125262603927
30
0
41
1
10
34.3786115881781
20
-10.9165825891104
30
0
41
1
10
34.4613940232688
20
-10.9189024501283
30
0
41
1
10
34.5441651422333
20
-10.9216103813443
30
0
0
SPLINE
5
20D
100
AcDbEntity
8
1
62
256
6
ByLayer
370
13
48
1
60
0
100
AcDbSpline
70
4
71
3
72
10
73
6
40
0
40
0
40
0
40
0
40
0.596085739020476
40
0.596085739020476
40
1
40
1
40
1
40
1
41
1
10
34.4964383490931
20
-12.2056067904617
30
0
41
1
10
34.5128939358857
20
-12.1838313221846
30
0
41
1
10
34.5267245821227
20
-12.1594029005907
30
0
41
1
10
34.54081187438
20
-12.1157305199558
30
0
41
1
10
34.544038381206
20
-12.0969809852592
30
0
41
1
10
34.5441651422481
20
-12.0783896186602
30
0
0
SPLINE
5
20E
100
AcDbEntity
8
1
62
256
6
ByLayer
370
13
48
1
60
0
100
AcDbSpline
70
4
71
3
72
12
73
8
40
0
40
0
40
0
40
0
40
0.0075770979405842
40
0.0075770979405842
40
0.524912447401083
40
0.524912447401083
40
1
40
1
40
1
40
1
41
1
10
34.0213727254145
20
-12.0890756224229
30
0
41
1
10
34.0226938848631
20
-12.0891246359029
30
0
41
1
10
34.0240151186687
20
-12.0891713047737
30
0
41
1
10
34.115463818229
20
-12.0922377930209
30
0
41
1
10
34.205673527038
20
-12.0874737396071
30
0
41
1
10
34.3786115881781
20
-12.0834174108894
30
0
41
1
10
34.4613940232688
20
-12.0810975498715
30
0
41
1
10
34.5441651422333
20
-12.0783896186555
30
0
0
SPLINE
5
20F
100
AcDbEntity
8
1
62
256
6
ByLayer
370
13
48
1
60
0
100
AcDbSpline
70
4
71
3
72
8
73
4
40
0
40
0
40
0
40
0
40
1
40
1
40
1
40
1
41
1
10
34.4749811562301
20
-12.2334129109394
30
0
41
1
10
34.4822263780105
20
-12.2242415924232
30
0
41
1
10
34.4893737130963
20
-12.2149553332378
30
0
41
1
10
34.4964383490931
20
-12.2056067904617
30
0
0
SPLINE
5
210
100
AcDbEntity
8
1
62
256
6
ByLayer
370
13
48
1
60
0
100
AcDbSpline
70
4
71
3
72
8
73
4
40
0
40
0
40
0
40
0
40
1
40
1
40
1
40
1
41
1
10
33.3587805434613
20
-12.6784092273822
30
0
41
1
10
33.2587308196864
20
-12.6818490590907
30
0
41
1
10
33.1579761895169
20
-12.6778843275054
30
0
41
1
10
33.0587805434613
20
-12.664424185351
30
0
0
SPLINE
5
211
100
AcDbEntity
8
1
62
256
6
ByLayer
370
13
48
1
60
0
100
AcDbSpline
70
4
71
3
72
8
73
4
40
0
40
0
40
0
40
0
40
1
40
1
40
1
40
1
41
1
10
33.3587805434613
20
-10.3215907726176
30
0
41
1
10
33.2587308196864
20
-10.3181509409091
30
0
41
1
10
33.1579761895169
20
-10.3221156724944
30
0
41
1
10
33.0587805434613
20
-10.3355758146487
30
0
0
SPLINE
5
212
100
AcDbEntity
8
1
62
256
6
ByLayer
370
13
48
1
60
0
100
AcDbSpline
70
4
71
3
72
16
73
12
40
0
40
0
40
0
40
0
40
0.113631665737173
40
0.113631665737173
40
0.758132216188134
40
0.758132216188134
40
0.942823120099093
40
0.942823120099093
40
0.947778003019258
40
0.947778003019258
40
1
40
1
40
1
40
1
41
1
10
32.8112677608008
20
-10.9841589254891
30
0
41
1
10
32.8332807942053
20
-10.9771548566282
30
0
41
1
10
32.8554088133189
20
-10.9705022088568
30
0
41
1
10
33.0026697940168
20
-10.9288144307203
30
0
41
1
10
33.1333481685156
20
-10.9060720412508
30
0
41
1
10
33.3009734748333
20
-10.9075565740162
30
0
41
1
10
33.3386296238166
20
-10.9093628094534
30
0
41
1
10
33.37730048355
20
-10.9107409642208
30
0
41
1
10
33.3783108496888
20
-10.9107769815542
30
0
41
1
10
33.3899699703881
20
-10.911192624761
30
0
41
1
10
33.40061882194
20
-10.911569538127
30
0
41
1
10
33.4112677608008
20
-10.9119439585289
30
0
0
SPLINE
5
213
100
AcDbEntity
8
1
62
256
6
ByLayer
370
13
48
1
60
0
100
AcDbSpline
70
4
71
3
72
16
73
12
40
0
40
0
40
0
40
0
40
0.113631665737173
40
0.113631665737173
40
0.758132216188134
40
0.758132216188134
40
0.942823120099093
40
0.942823120099093
40
0.947778003019258
40
0.947778003019258
40
1
40
1
40
1
40
1
41
1
10
32.8112677608008
20
-12.0158410745107
30
0
41
1
10
32.8332807942053
20
-12.0228451433716
30
0
41
1
10
32.8554088133189
20
-12.029497791143
30
0
41
1
10
33.0026697940168
20
-12.0711855692795
30
0
41
1
10
33.1333481685156
20
-12.093927958749
30
0
41
1
10
33.3009734748333
20
-12.0924434259836
30
0
41
1
10
33.3386296238166
20
-12.0906371905464
30
0
41
1
10
33.37730048355
20
-12.089259035779
30
0
41
1
10
33.3783108496888
20
-12.0892230184455
30
0
41
1
10
33.3899699703881
20
-12.0888073752388
30
0
41
1
10
33.40061882194
20
-12.0884304618728
30
0
41
1
10
33.4112677608008
20
-12.0880560414708
30
0
0
SPLINE
5
214
100
AcDbEntity
8
1
62
256
6
ByLayer
370
13
48
1
60
0
100
AcDbSpline
70
4
71
3
72
10
73
6
40
0
40
0
40
0
40
0
40
0.411878619131049
40
0.411878619131049
40
1
40
1
40
1
40
1
41
1
10
34.5970257408783
20
-12.0783896186557
30
0
41
1
10
34.5970257408783
20
-12.1014981245595
30
0
41
1
10
34.5938567437525
20
-12.1247801424886
30
0
41
1
10
34.5795589487909
20
-12.1788475536442
30
0
41
1
10
34.5654981180154
20
-12.2093262690557
30
0
41
1
10
34.5480487400853
20
-12.2370701384849
30
0
0
SPLINE
5
215
100
AcDbEntity
8
1
62
256
6
ByLayer
370
13
48
1
60
0
100
AcDbSpline
70
4
71
3
72
10
73
6
40
0
40
0
40
0
40
0
40
0.411878619131049
40
0.411878619131049
40
1
40
1
40
1
40
1
41
1
10
34.5970257408783
20
-10.9216103813442
30
0
41
1
10
34.5970257408783
20
-10.8985018754402
30
0
41
1
10
34.5938567437525
20
-10.8752198575112
30
0
41
1
10
34.5795589487909
20
-10.8211524463555
30
0
41
1
10
34.5654981180154
20
-10.7906737309441
30
0
41
1
10
34.5480487400853
20
-10.7629298615149
30
0
0
SPLINE
5
216
100
AcDbEntity
8
1
62
256
6
ByLayer
370
13
48
1
60
0
100
AcDbSpline
70
4
71
3
72
8
73
4
40
0
40
0
40
0
40
0
40
1
40
1
40
1
40
1
41
1
10
34.5480487400851
20
-12.2370701384848
30
0
41
1
10
34.5406964490065
20
-12.246422036507
30
0
41
1
10
34.5332455329699
20
-12.2556705144897
30
0
41
1
10
34.5256851850748
20
-12.2647657471103
30
0
0
SPLINE
5
217
100
AcDbEntity
8
1
62
256
6
ByLayer
370
13
48
1
60
0
100
AcDbSpline
70
4
71
3
72
8
73
4
40
0
40
0
40
0
40
0
40
1
40
1
40
1
40
1
41
1
10
34.5480487400851
20
-10.7629298615149
30
0
41
1
10
34.5406964490065
20
-10.7535779634928
30
0
41
1
10
34.5332455329699
20
-10.7443294855101
30
0
41
1
10
34.5256851850748
20
-10.7352342528895
30
0
0
SPLINE
5
218
100
AcDbEntity
8
1
62
256
6
ByLayer
370
13
48
1
60
0
100
AcDbSpline
70
4
71
3
72
12
73
8
40
0
40
0
40
0
40
0
40
0.390105015408732
40
0.390105015408732
40
0.395238792462735
40
0.395238792462735
40
1
40
1
40
1
40
1
41
1
10
33.4112677608008
20
-12.0880560414708
30
0
41
1
10
33.4930131894969
20
-12.0859482964434
30
0
41
1
10
33.5750694911571
20
-12.0855375442182
30
0
41
1
10
33.6568134956408
20
-12.0852520424255
30
0
41
1
10
33.6578786372164
20
-12.0852484357164
30
0
41
1
10
33.7833815366521
20
-12.0848368638383
30
0
41
1
10
33.9061458913861
20
-12.0859407825702
30
0
41
1
10
34.0213727254145
20
-12.0890756224229
30
0
0
SPLINE
5
219
100
AcDbEntity
8
1
62
256
6
ByLayer
370
13
48
1
60
0
100
AcDbSpline
70
4
71
3
72
12
73
8
40
0
40
0
40
0
40
0
40
0.390105015408732
40
0.390105015408732
40
0.395238792462735
40
0.395238792462735
40
1
40
1
40
1
40
1
41
1
10
33.4112677608008
20
-10.9119439585289
30
0
41
1
10
33.4930131894969
20
-10.9140517035564
30
0
41
1
10
33.5750694911571
20
-10.9144624557816
30
0
41
1
10
33.6568134956408
20
-10.9147479575743
30
0
41
1
10
33.6578786372164
20
-10.9147515642833
30
0
41
1
10
33.7833815366521
20
-10.9151631361615
30
0
41
1
10
33.9061458913861
20
-10.9140592174295
30
0
41
1
10
34.0213727254145
20
-10.9109243775769
30
0
0
SPLINE
5
21A
100
AcDbEntity
8
1
62
256
6
ByLayer
370
18
48
1
60
0
100
AcDbSpline
70
4
71
3
72
18
73
14
40
0
40
0
40
0
40
0
40
0.0032810493446536
40
0.0032810493446536
40
0.255872981956729
40
0.255872981956729
40
0.509618707550077
40
0.509618707550077
40
0.743334425582862
40
0.743334425582862
40
0.947287437650393
40
0.947287437650393
40
1
40
1
40
1
40
1
41
1
10
16.4363970895993
20
-10.3249999999996
30
0
41
1
10
16.4338274617328
20
-10.3249999999996
30
0
41
1
10
16.4312578715801
20
-10.3249938098887
30
0
41
1
10
16.2308635804668
20
-10.3240282906889
30
0
41
1
10
16.0300729004956
20
-10.2855978744292
30
0
41
1
10
15.6555076968334
20
-10.1360219148318
30
0
41
1
10
15.4760550027615
20
-10.0219596624204
30
0
41
1
10
15.1851261962126
20
-9.74084088848451
30
0
41
1
10
15.0650281363514
20
-9.57377608954189
30
0
41
1
10
14.9072481862579
20
-9.22812628342362
30
0
41
1
10
14.8589744386403
20
-9.0483973010835
30
0
41
1
10
14.8385356367411
20
-8.82043559653374
30
0
41
1
10
14.8363970895993
20
-8.77268768513335
30
0
41
1
10
14.8363970895993
20
-8.7249999999996
30
0
0
SPLINE
5
21B
100
AcDbEntity
8
1
62
256
6
ByLayer
370
18
48
1
60
0
100
AcDbSpline
70
4
71
3
72
16
73
12
40
0
40
0
40
0
40
0
40
0.210601603648632
40
0.210601603648632
40
0.421213120937357
40
0.421213120937357
40
0.631488126460197
40
0.631488126460197
40
0.839116239420829
40
0.839116239420829
40
1
40
1
40
1
40
1
41
1
10
34.6046912194302
20
-10.1944437461469
30
0
41
1
10
34.604885104101
20
-10.1715216376432
30
0
41
1
10
34.6011366843306
20
-10.1482847151601
30
0
41
1
10
34.5864049129777
20
-10.1050246352939
30
0
41
1
10
34.5752157349576
20
-10.084400265253
30
0
41
1
10
34.5470242400575
20
-10.0486547877768
30
0
41
1
10
34.52963219728
20
-10.0330255938252
30
0
41
1
10
34.4913444393929
20
-10.0091236592203
30
0
41
1
10
34.469954321154
20
-10.0004299636861
30
0
41
1
10
34.4309045828753
20
-9.99205926946095
30
0
41
1
10
34.4131262908525
20
-9.99071814727995
30
0
41
1
10
34.3956316353027
20
-9.99179620233923
30
0
0
SPLINE
5
21C
100
AcDbEntity
8
1
62
256
6
ByLayer
370
18
48
1
60
0
100
AcDbSpline
70
4
71
3
72
10
73
6
40
0
40
0
40
0
40
0
40
0.584711417492912
40
0.584711417492912
40
1
40
1
40
1
40
1
41
1
10
26.235193928482
20
-12.7499999999999
30
0
41
1
10
26.2376165600087
20
-12.7499999999999
30
0
41
1
10
26.2400566535847
20
-12.7499999999999
30
0
41
1
10
26.2442589248979
20
-12.7499999999999
30
0
41
1
10
26.2460127381757
20
-12.7499999999999
30
0
41
1
10
26.2477750315741
20
-12.7499999999999
30
0
0
SPLINE
5
21D
100
AcDbEntity
8
1
62
256
6
ByLayer
370
18
48
1
60
0
100
AcDbSpline
70
4
71
3
72
16
73
12
40
0
40
0
40
0
40
0
40
0.202092460849674
40
0.202092460849674
40
0.404032245588857
40
0.404032245588857
40
0.608298678109005
40
0.608298678109005
40
0.816163444624768
40
0.816163444624768
40
1
40
1
40
1
40
1
41
1
10
34.3956316353027
20
-13.0082037976606
30
0
41
1
10
34.4174897444444
20
-13.0095507373061
30
0
41
1
10
34.4398491383955
20
-13.0070859153375
30
0
41
1
10
34.4818390291393
20
-12.9950357473643
30
0
41
1
10
34.5020457535964
20
-12.9852960338302
30
0
41
1
10
34.5378824730738
20
-12.9599275820914
30
0
41
1
10
34.5539463831898
20
-12.9438922526708
30
0
41
1
10
34.5798894042432
20
-12.9075964874666
30
0
41
1
10
34.5900129368112
20
-12.8867713964389
30
0
41
1
10
34.6020260177163
20
-12.8459157034025
30
0
41
1
10
34.6048610089749
20
-12.8256297044807
30
0
41
1
10
34.6046912194302
20
-12.8055562538528
30
0
0
SPLINE
5
21E
100
AcDbEntity
8
1
62
256
6
ByLayer
370
18
48
1
60
0
100
AcDbSpline
70
4
71
3
72
10
73
6
40
0
40
0
40
0
40
0
40
0.629562107774395
40
0.629562107774395
40
1
40
1
40
1
40
1
41
1
10
24.8
20
-12.7499999999999
30
0
41
1
10
24.7782969300919
20
-12.7499999999999
30
0
41
1
10
24.756172793229
20
-12.7463589368066
30
0
41
1
10
24.7231987911384
20
-12.7351217868949
30
0
41
1
10
24.7112516429095
20
-12.7297012198197
30
0
41
1
10
24.6999999999999
20
-12.723205080757
30
0
0
SPLINE
5
21F
100
AcDbEntity
8
1
62
256
6
ByLayer
370
18
48
1
60
0
100
AcDbSpline
70
4
71
3
72
10
73
6
40
0
40
0
40
0
40
0
40
0.62956174027551
40
0.62956174027551
40
1
40
1
40
1
40
1
41
1
10
24.7
20
-10.276794919243
30
0
41
1
10
24.718944038489
20
-10.2658575735218
30
0
41
1
10
24.7400004695306
20
-10.2579691588872
30
0
41
1
10
24.7741148019193
20
-10.2512594713555
30
0
41
1
10
24.7871096425299
20
-10.2499999999998
30
0
41
1
10
24.8
20
-10.2499999999998
30
0
0
SPLINE
5
220
100
AcDbEntity
8
1
62
256
6
ByLayer
370
18
48
1
60
0
100
AcDbSpline
70
4
71
3
72
10
73
6
40
0
40
0
40
0
40
0
40
0.76746257010027
40
0.76746257010027
40
1
40
1
40
1
40
1
41
1
10
26.2477750315741
20
-10.2499999999999
30
0
41
1
10
26.2445183560328
20
-10.2499999999999
30
0
41
1
10
26.2412905642182
20
-10.2499999999999
30
0
41
1
10
26.237123695827
20
-10.2499999999999
30
0
41
1
10
26.2361574346188
20
-10.2499999999999
30
0
41
1
10
26.235193928482
20
-10.2499999999999
30
0
0
SPLINE
5
221
100
AcDbEntity
8
1
62
256
6
ByLayer
370
18
48
1
60
0
100
AcDbSpline
70
4
71
3
72
14
73
10
40
0
40
0
40
0
40
0
40
0.209562190252725
40
0.209562190252725
40
0.419048660097219
40
0.419048660097219
40
0.628042586344193
40
0.628042586344193
40
1
40
1
40
1
40
1
41
1
10
33.0587805434613
20
-10.0902146883914
30
0
41
1
10
32.9766126081607
20
-10.0959887327804
30
0
41
1
10
32.8940966332411
20
-10.1013083242861
30
0
41
1
10
32.7317767669575
20
-10.1108149052047
30
0
41
1
10
32.651417699214
20
-10.1150347230178
30
0
41
1
10
32.49577107806
20
-10.1222234908232
30
0
41
1
10
32.4199400027967
20
-10.1252199068607
30
0
41
1
10
32.2197346270461
20
-10.1316938703119
30
0
41
1
10
32.1007351939601
20
-10.1338178717158
30
0
41
1
10
31.9981203716826
20
-10.1338002634991
30
0
0
SPLINE
5
222
100
AcDbEntity
8
1
62
256
6
ByLayer
370
18
48
1
60
0
100
AcDbSpline
70
4
71
3
72
8
73
4
40
0
40
0
40
0
40
0
40
1
40
1
40
1
40
1
41
1
10
33.7060768987952
20
-10.0425879870359
30
0
41
1
10
33.591741836253
20
-10.0520426090802
30
0
41
1
10
33.4750917668497
20
-10.0609599739496
30
0
41
1
10
33.3587805434613
20
-10.0691333102313
30
0
0
SPLINE
5
223
100
AcDbEntity
8
1
62
256
6
ByLayer
370
18
48
1
60
0
100
AcDbSpline
70
4
71
3
72
14
73
10
40
0
40
0
40
0
40
0
40
0.208995027535852
40
0.208995027535852
40
0.417850725206471
40
0.417850725206471
40
0.626704295977397
40
0.626704295977397
40
1
40
1
40
1
40
1
41
1
10
31.9981203716814
20
-12.8661997365016
30
0
41
1
10
32.0562077150717
20
-12.8661897689891
30
0
41
1
10
32.1193237323135
20
-12.8668559535971
30
0
41
1
10
32.2529850333382
20
-12.8695144526692
30
0
41
1
10
32.3239830856551
20
-12.8715149962071
30
0
41
1
10
32.4714347232616
20
-12.8767769876469
30
0
41
1
10
32.5483929364638
20
-12.8800564212269
30
0
41
1
10
32.7664550970089
20
-12.8907627880222
30
0
41
1
10
32.9134966889726
20
-12.8995760320178
30
0
41
1
10
33.0587805434602
20
-12.9097853116078
30
0
0
SPLINE
5
224
100
AcDbEntity
8
1
62
256
6
ByLayer
370
18
48
1
60
0
100
AcDbSpline
70
4
71
3
72
8
73
4
40
0
40
0
40
0
40
0
40
1
40
1
40
1
40
1
41
1
10
33.3587805434613
20
-12.9308666897684
30
0
41
1
10
33.4750917668497
20
-12.9390400260502
30
0
41
1
10
33.591741836253
20
-12.9479573909196
30
0
41
1
10
33.7060768987952
20
-12.9574120129639
30
0
0
LINE
5
70
100
AcDbEntity
8
80
62
256
6
ByLayer
370
18
48
1
60
0
100
AcDbLine
10
0
20
0
30
0
11
-5
21
0
31
0
39
0
210
0
220
0
230
1
0
LINE
5
71
100
AcDbEntity
8
81
62
256
6
ByLayer
370
18
48
1
60
0
100
AcDbLine
10
34.6
20
-13
30
0
11
39.6
21
-13
31
0
39
0
210
0
220
0
230
1
0
LINE
5
72
100
AcDbEntity
8
SK1
62
256
6
ByLayer
370
18
48
1
60
0
100
AcDbLine
10
-81
20
-12.425
30
0
11
-84
21
-9.425
31
0
39
0
210
0
220
0
230
1
0
LINE
5
74
100
AcDbEntity
8
SK1
62
256
6
ByLayer
370
18
48
1
60
0
100
AcDbLine
10
-4.888118
20
-12.675
30
0
11
-5.682242
21
-12.675
31
0
39
0
210
0
220
0
230
1
0
LINE
5
75
100
AcDbEntity
8
SK1
62
256
6
ByLayer
370
18
48
1
60
0
100
AcDbLine
10
-84
20
9.5
30
0
11
-84
21
-9.425
31
0
39
0
210
0
220
0
230
1
0
LINE
5
76
100
AcDbEntity
8
SK1
62
256
6
ByLayer
370
18
48
1
60
0
100
AcDbLine
10
-5.682242
20
-12.675
30
0
11
-6.368945
21
-12.675
31
0
39
0
210
0
220
0
230
1
0
LINE
5
77
100
AcDbEntity
8
SK1
62
256
6
ByLayer
370
18
48
1
60
0
100
AcDbLine
10
-81
20
12.5
30
0
11
-84
21
9.5
31
0
39
0
210
0
220
0
230
1
0
LINE
5
78
100
AcDbEntity
8
SK1
62
256
6
ByLayer
370
18
48
1
60
0
100
AcDbLine
10
-7.227723
20
12.5
30
0
11
-5.682242
21
12.5
31
0
39
0
210
0
220
0
230
1
0
LINE
5
79
100
AcDbEntity
8
SK1
62
256
6
ByLayer
370
13
48
1
60
0
100
AcDbLine
10
-5.682242
20
-12.675
30
0
11
-5.682242
21
12.5
31
0
39
0
210
0
220
0
230
1
0
LINE
5
7A
100
AcDbEntity
8
SK1
62
256
6
ByLayer
370
13
48
1
60
0
100
AcDbLine
10
-7.227723
20
12.5
30
0
11
-7.227723
21
-12.425
31
0
39
0
210
0
220
0
230
1
0
LINE
5
7B
100
AcDbEntity
8
SK1
62
256
6
ByLayer
370
18
48
1
60
0
100
AcDbLine
10
-81
20
-12.425
30
0
11
-7.227723
21
-12.425
31
0
39
0
210
0
220
0
230
1
0
LINE
5
7C
100
AcDbEntity
8
SK1
62
256
6
ByLayer
370
18
48
1
60
0
100
AcDbLine
10
-81
20
12.5
30
0
11
-7.227723
21
12.5
31
0
39
0
210
0
220
0
230
1
0
LINE
5
7D
100
AcDbEntity
8
SK1
62
256
6
ByLayer
370
18
48
1
60
0
100
AcDbLine
10
-5.682242
20
12.5
30
0
11
-4.888118
21
12.5
31
0
39
0
210
0
220
0
230
1
0
LINE
5
7E
100
AcDbEntity
8
SK1
62
256
6
ByLayer
370
18
48
1
60
0
100
AcDbLine
10
-0.1
20
12.5
30
0
11
-0.1
21
-12.675
31
0
39
0
210
0
220
0
230
1
0
LINE
5
7F
100
AcDbEntity
8
SK1
62
256
6
ByLayer
370
18
48
1
60
0
100
AcDbLine
10
-0.1
20
-12.675
30
0
11
-4.888118
21
-12.675
31
0
39
0
210
0
220
0
230
1
0
LINE
5
80
100
AcDbEntity
8
SK1
62
256
6
ByLayer
370
18
48
1
60
0
100
AcDbLine
10
-0.1
20
12.5
30
0
11
-4.888118
21
12.5
31
0
39
0
210
0
220
0
230
1
0
LINE
5
81
100
AcDbEntity
8
SK1
62
256
6
ByLayer
370
18
48
1
60
0
100
AcDbLine
10
-4.888118
20
-12.675
30
0
11
-4.888118
21
12.5
31
0
39
0
210
0
220
0
230
1
0
LINE
5
82
100
AcDbEntity
8
1
62
256
6
ByLayer
370
18
48
1
60
0
100
AcDbLine
10
0
20
12.5
30
0
11
-0.1
21
12.5
31
0
39
0
210
0
220
0
230
1
0
LINE
5
84
100
AcDbEntity
8
1
62
256
6
ByLayer
370
18
48
1
60
0
100
AcDbLine
10
20.890738
20
-12.675
30
0
11
-0.1
21
-12.675
31
0
39
0
210
0
220
0
230
1
0
LINE
5
85
100
AcDbEntity
8
1
62
256
6
ByLayer
370
13
48
1
60
0
100
AcDbLine
10
0
20
-8.725
30
0
11
14.836397
21
-8.725
31
0
39
0
210
0
220
0
230
1
0
LINE
5
86
100
AcDbEntity
8
1
62
256
6
ByLayer
370
18
48
1
60
0
100
AcDbLine
10
29.95928
20
-10.325
30
0
11
30.015611
21
-10.508431
31
0
39
0
210
0
220
0
230
1
0
LINE
5
87
100
AcDbEntity
8
1
62
256
6
ByLayer
370
13
48
1
60
0
100
AcDbLine
10
25.890738
20
-12.675
30
0
11
25.890738
21
-10.325
31
0
39
0
210
0
220
0
230
1
0
LINE
5
88
100
AcDbEntity
8
1
62
256
6
ByLayer
370
18
48
1
60
0
100
AcDbLine
10
29.95928
20
-10.325
30
0
11
25.890738
21
-10.325
31
0
39
0
210
0
220
0
230
1
0
LINE
5
89
100
AcDbEntity
8
1
62
256
6
ByLayer
370
18
48
1
60
0
100
AcDbLine
10
-0.1
20
12.5
30
0
11
-0.1
21
-12.675
31
0
39
0
210
0
220
0
230
1
0
LINE
5
8A
100
AcDbEntity
8
1
62
256
6
ByLayer
370
18
48
1
60
0
100
AcDbLine
10
14.836397
20
-8.725
30
0
11
14.836397
21
3.100721
31
0
39
0
210
0
220
0
230
1
0
LINE
5
8B
100
AcDbEntity
8
1
62
256
6
ByLayer
370
13
48
1
60
0
100
AcDbLine
10
20.890738
20
-10.325
30
0
11
20.890738
21
-12.675
31
0
39
0
210
0
220
0
230
1
0
LINE
5
8C
100
AcDbEntity
8
1
62
256
6
ByLayer
370
18
48
1
60
0
100
AcDbLine
10
30.015611
20
-12.491569
30
0
11
29.95928
21
-12.675
31
0
39
0
210
0
220
0
230
1
0
LINE
5
8D
100
AcDbEntity
8
1
62
256
6
ByLayer
370
18
48
1
60
0
100
AcDbLine
10
30.015611
20
-12.491569
30
0
11
30.015611
21
-12.021814
31
0
39
0
210
0
220
0
230
1
0
LINE
5
8E
100
AcDbEntity
8
1
62
256
6
ByLayer
370
18
48
1
60
0
100
AcDbLine
10
1
20
12.5
30
0
11
14.836397
21
3.100721
31
0
39
0
210
0
220
0
230
1
0
LINE
5
8F
100
AcDbEntity
8
1
62
256
6
ByLayer
370
18
48
1
60
0
100
AcDbLine
10
0
20
12.5
30
0
11
0
21
-8.725
31
0
39
0
210
0
220
0
230
1
0
LINE
5
90
100
AcDbEntity
8
1
62
256
6
ByLayer
370
18
48
1
60
0
100
AcDbLine
10
29.95928
20
-12.675
30
0
11
25.890738
21
-12.675
31
0
39
0
210
0
220
0
230
1
0
LINE
5
91
100
AcDbEntity
8
1
62
256
6
ByLayer
370
18
48
1
60
0
100
AcDbLine
10
25.890738
20
-10.325
30
0
11
20.890738
21
-10.325
31
0
39
0
210
0
220
0
230
1
0
LINE
5
92
100
AcDbEntity
8
1
62
256
6
ByLayer
370
18
48
1
60
0
100
AcDbLine
10
0
20
12.5
30
0
11
1
21
12.5
31
0
39
0
210
0
220
0
230
1
0
LINE
5
93
100
AcDbEntity
8
1
62
256
6
ByLayer
370
18
48
1
60
0
100
AcDbLine
10
30.015611
20
-10.978186
30
0
11
30.015611
21
-10.508431
31
0
39
0
210
0
220
0
230
1
0
LINE
5
94
100
AcDbEntity
8
1
62
256
6
ByLayer
370
18
48
1
60
0
100
AcDbLine
10
25.890738
20
-12.675
30
0
11
20.890738
21
-12.675
31
0
39
0
210
0
220
0
230
1
0
LINE
5
95
100
AcDbEntity
8
1
62
256
6
ByLayer
370
18
48
1
60
0
100
AcDbLine
10
20.890738
20
-10.325
30
0
11
1.6
21
-10.325
31
0
39
0
210
0
220
0
230
1
0
LINE
5
96
100
AcDbEntity
8
1
62
256
6
ByLayer
370
13
48
1
60
0
100
AcDbLine
10
25.890738
20
-12.675
30
0
11
25.890738
21
-10.325
31
0
39
0
210
0
220
0
230
1
0
LINE
5
97
100
AcDbEntity
8
1
62
256
6
ByLayer
370
13
48
1
60
0
100
AcDbLine
10
-7.227723
20
12.5
30
0
11
-7.227723
21
-12.425
31
0
39
0
210
0
220
0
230
1
0
LINE
5
98
100
AcDbEntity
8
1
62
256
6
ByLayer
370
13
48
1
60
0
100
AcDbLine
10
25.265685
20
-10.325003
30
0
11
25.265685
21
-10.25
31
0
39
0
210
0
220
0
230
1
0
LINE
5
99
100
AcDbEntity
8
1
62
256
6
ByLayer
370
13
48
1
60
0
100
AcDbLine
10
25.265685
20
-12.674997
30
0
11
25.265685
21
-12.75
31
0
39
0
210
0
220
0
230
1
0
LINE
5
9A
100
AcDbEntity
8
1
62
256
6
ByLayer
370
13
48
1
60
0
100
AcDbLine
10
24.7
20
-10.276795
30
0
11
24.7
21
-10.325035
31
0
39
0
210
0
220
0
230
1
0
LINE
5
9B
100
AcDbEntity
8
1
62
256
6
ByLayer
370
13
48
1
60
0
100
AcDbLine
10
24.7
20
-12.674965
30
0
11
24.7
21
-12.723205
31
0
39
0
210
0
220
0
230
1
0
LINE
5
9C
100
AcDbEntity
8
1
62
256
6
ByLayer
370
13
48
1
60
0
100
AcDbLine
10
20.890738
20
-10.325
30
0
11
20.890738
21
-12.675
31
0
39
0
210
0
220
0
230
1
0
LINE
5
9D
100
AcDbEntity
8
1
62
256
6
ByLayer
370
13
48
1
60
0
100
AcDbLine
10
-5.682242
20
-12.675
30
0
11
-5.682242
21
12.5
31
0
39
0
210
0
220
0
230
1
0
LINE
5
9E
100
AcDbEntity
8
1
62
256
6
ByLayer
370
13
48
1
60
0
100
AcDbLine
10
31.055978
20
-12.75
30
0
11
31.055978
21
-12.326756
31
0
39
0
210
0
220
0
230
1
0
LINE
5
9F
100
AcDbEntity
8
1
62
256
6
ByLayer
370
13
48
1
60
0
100
AcDbLine
10
31.207676
20
-12.334465
30
0
11
31.480446
21
-12.347896
31
0
39
0
210
0
220
0
230
1
0
LINE
5
A0
100
AcDbEntity
8
1
62
256
6
ByLayer
370
13
48
1
60
0
100
AcDbLine
10
31.737538
20
-12.858919
30
0
11
31.716974
21
-12.564845
31
0
39
0
210
0
220
0
230
1
0
LINE
5
A1
100
AcDbEntity
8
1
62
256
6
ByLayer
370
13
48
1
60
0
100
AcDbLine
10
31.737538
20
-10.141081
30
0
11
31.716974
21
-10.435155
31
0
39
0
210
0
220
0
230
1
0
LINE
5
A2
100
AcDbEntity
8
1
62
256
6
ByLayer
370
13
48
1
60
0
100
AcDbLine
10
31.480446
20
-10.652104
30
0
11
31.207676
21
-10.665535
31
0
39
0
210
0
220
0
230
1
0
LINE
5
A3
100
AcDbEntity
8
1
62
256
6
ByLayer
370
13
48
1
60
0
100
AcDbLine
10
31.055978
20
-10.673244
30
0
11
31.055978
21
-10.25
31
0
39
0
210
0
220
0
230
1
0
LINE
5
A4
100
AcDbEntity
8
1
62
256
6
ByLayer
370
13
48
1
60
0
100
AcDbLine
10
31.99812
20
-12.547848
30
0
11
31.99812
21
-12.8662
31
0
39
0
210
0
220
0
230
1
0
LINE
5
A5
100
AcDbEntity
8
1
62
256
6
ByLayer
370
13
48
1
60
0
100
AcDbLine
10
33.058781
20
-12.664424
30
0
11
33.058781
21
-12.909785
31
0
39
0
210
0
220
0
230
1
0
LINE
5
A6
100
AcDbEntity
8
1
62
256
6
ByLayer
370
13
48
1
60
0
100
AcDbLine
10
31.630516
20
-10.806271
30
0
11
31.480446
21
-10.652104
31
0
39
0
210
0
220
0
230
1
0
LINE
5
A7
100
AcDbEntity
8
1
62
256
6
ByLayer
370
13
48
1
60
0
100
AcDbLine
10
33.058781
20
-10.335576
30
0
11
33.058781
21
-10.090215
31
0
39
0
210
0
220
0
230
1
0
LINE
5
A8
100
AcDbEntity
8
1
62
256
6
ByLayer
370
13
48
1
60
0
100
AcDbLine
10
31.99812
20
-10.452152
30
0
11
31.99812
21
-10.1338
31
0
39
0
210
0
220
0
230
1
0
LINE
5
A9
100
AcDbEntity
8
1
62
256
6
ByLayer
370
13
48
1
60
0
100
AcDbLine
10
31.480446
20
-12.347896
30
0
11
31.630516
21
-12.193729
31
0
39
0
210
0
220
0
230
1
0
LINE
5
AA
100
AcDbEntity
8
1
62
256
6
ByLayer
370
13
48
1
60
0
100
AcDbLine
10
31.207676
20
-12.334465
30
0
11
31.221372
21
-12.05631
31
0
39
0
210
0
220
0
230
1
0
LINE
5
AB
100
AcDbEntity
8
1
62
256
6
ByLayer
370
13
48
1
60
0
100
AcDbLine
10
31.451055
20
-12.06762
30
0
11
31.221372
21
-12.05631
31
0
39
0
210
0
220
0
230
1
0
LINE
5
AC
100
AcDbEntity
8
1
62
256
6
ByLayer
370
13
48
1
60
0
100
AcDbLine
10
31.221372
20
-10.94369
30
0
11
31.451055
21
-10.93238
31
0
39
0
210
0
220
0
230
1
0
LINE
5
AD
100
AcDbEntity
8
1
62
256
6
ByLayer
370
13
48
1
60
0
100
AcDbLine
10
31.893328
20
-12.54953
30
0
11
31.915472
21
-12.866214
31
0
39
0
210
0
220
0
230
1
0
LINE
5
AE
100
AcDbEntity
8
1
62
256
6
ByLayer
370
13
48
1
60
0
100
AcDbLine
10
31.221372
20
-10.94369
30
0
11
31.207676
21
-10.665535
31
0
39
0
210
0
220
0
230
1
0
LINE
5
AF
100
AcDbEntity
8
1
62
256
6
ByLayer
370
13
48
1
60
0
100
AcDbLine
10
31.893328
20
-10.45047
30
0
11
31.915472
21
-10.133786
31
0
39
0
210
0
220
0
230
1
0
LINE
5
B0
100
AcDbEntity
8
1
62
256
6
ByLayer
370
13
48
1
60
0
100
AcDbLine
10
31.464379
20
-10.94369
30
0
11
31.221372
21
-10.94369
31
0
39
0
210
0
220
0
230
1
0
LINE
5
B1
100
AcDbEntity
8
1
62
256
6
ByLayer
370
13
48
1
60
0
100
AcDbLine
10
31.464379
20
-12.05631
30
0
11
31.221372
21
-12.05631
31
0
39
0
210
0
220
0
230
1
0
LINE
5
B2
100
AcDbEntity
8
1
62
256
6
ByLayer
370
13
48
1
60
0
100
AcDbLine
10
30.987574
20
-12.326756
30
0
11
31.055978
21
-12.326756
31
0
39
0
210
0
220
0
230
1
0
LINE
5
B3
100
AcDbEntity
8
1
62
256
6
ByLayer
370
13
48
1
60
0
100
AcDbLine
10
30.987574
20
-10.673244
30
0
11
31.055978
21
-10.673244
31
0
39
0
210
0
220
0
230
1
0
LINE
5
B4
100
AcDbEntity
8
1
62
256
6
ByLayer
370
13
48
1
60
0
100
AcDbLine
10
30.987574
20
-10.25
30
0
11
30.987574
21
-10.673244
31
0
39
0
210
0
220
0
230
1
0
LINE
5
B5
100
AcDbEntity
8
1
62
256
6
ByLayer
370
13
48
1
60
0
100
AcDbLine
10
30.987574
20
-12.326756
30
0
11
30.987574
21
-12.75
31
0
39
0
210
0
220
0
230
1
0
LINE
5
B6
100
AcDbEntity
8
1
62
256
6
ByLayer
370
13
48
1
60
0
100
AcDbLine
10
30.263912
20
-12.75
30
0
11
30.263912
21
-12.633917
31
0
39
0
210
0
220
0
230
1
0
LINE
5
B7
100
AcDbEntity
8
1
62
256
6
ByLayer
370
13
48
1
60
0
100
AcDbLine
10
30.263912
20
-10.366083
30
0
11
30.263912
21
-10.25
31
0
39
0
210
0
220
0
230
1
0
LINE
5
B8
100
AcDbEntity
8
1
62
256
6
ByLayer
370
13
48
1
60
0
100
AcDbLine
10
32.714687
20
-12.319384
30
0
11
32.811268
21
-12.015841
31
0
39
0
210
0
220
0
230
1
0
LINE
5
B9
100
AcDbEntity
8
1
62
256
6
ByLayer
370
13
48
1
60
0
100
AcDbLine
10
32.714687
20
-10.680616
30
0
11
32.811268
21
-10.984159
31
0
39
0
210
0
220
0
230
1
0
LINE
5
BA
100
AcDbEntity
8
1
62
256
6
ByLayer
370
13
48
1
60
0
100
AcDbLine
10
30.06942
20
-11.132002
30
0
11
30.379442
21
-11.132002
31
0
39
0
210
0
220
0
230
1
0
LINE
5
BB
100
AcDbEntity
8
1
62
256
6
ByLayer
370
13
48
1
60
0
100
AcDbLine
10
30.015611
20
-10.68149
30
0
11
30.06942
21
-11.132002
31
0
39
0
210
0
220
0
230
1
0
LINE
5
BC
100
AcDbEntity
8
1
62
256
6
ByLayer
370
13
48
1
60
0
100
AcDbLine
10
30.177267
20
-10.424016
30
0
11
29.984859
21
-10.424016
31
0
39
0
210
0
220
0
230
1
0
LINE
5
BD
100
AcDbEntity
8
1
62
256
6
ByLayer
370
13
48
1
60
0
100
AcDbLine
10
30.177267
20
-12.575984
30
0
11
29.984859
21
-12.575984
31
0
39
0
210
0
220
0
230
1
0
LINE
5
BE
100
AcDbEntity
8
1
62
256
6
ByLayer
370
13
48
1
60
0
100
AcDbLine
10
30.015611
20
-12.31851
30
0
11
30.06942
21
-11.867998
31
0
39
0
210
0
220
0
230
1
0
LINE
5
BF
100
AcDbEntity
8
1
62
256
6
ByLayer
370
13
48
1
60
0
100
AcDbLine
10
30.06942
20
-11.867998
30
0
11
30.379442
21
-11.867998
31
0
39
0
210
0
220
0
230
1
0
LINE
5
C0
100
AcDbEntity
8
1
62
256
6
ByLayer
370
13
48
1
60
0
100
AcDbLine
10
30.172358
20
-10.25
30
0
11
30.172358
21
-10.374098
31
0
39
0
210
0
220
0
230
1
0
LINE
5
C1
100
AcDbEntity
8
1
62
256
6
ByLayer
370
13
48
1
60
0
100
AcDbLine
10
30.172358
20
-12.625902
30
0
11
30.172358
21
-12.75
31
0
39
0
210
0
220
0
230
1
0
LINE
5
C2
100
AcDbEntity
8
1
62
256
6
ByLayer
370
13
48
1
60
0
100
AcDbLine
10
32.811268
20
-10.984159
30
0
11
32.811268
21
-12.015841
31
0
39
0
210
0
220
0
230
1
0
LINE
5
C3
100
AcDbEntity
8
1
62
256
6
ByLayer
370
13
48
1
60
0
100
AcDbLine
10
29.98199
20
-10.25
30
0
11
29.98199
21
-10.374562
31
0
39
0
210
0
220
0
230
1
0
LINE
5
C4
100
AcDbEntity
8
1
62
256
6
ByLayer
370
13
48
1
60
0
100
AcDbLine
10
29.98199
20
-10.374562
30
0
11
30.170595
21
-10.374562
31
0
39
0
210
0
220
0
230
1
0
LINE
5
C5
100
AcDbEntity
8
1
62
256
6
ByLayer
370
13
48
1
60
0
100
AcDbLine
10
29.98199
20
-12.75
30
0
11
29.98199
21
-12.625438
31
0
39
0
210
0
220
0
230
1
0
LINE
5
C6
100
AcDbEntity
8
1
62
256
6
ByLayer
370
13
48
1
60
0
100
AcDbLine
10
29.98199
20
-12.625438
30
0
11
30.170595
21
-12.625438
31
0
39
0
210
0
220
0
230
1
0
LINE
5
C7
100
AcDbEntity
8
1
62
256
6
ByLayer
370
13
48
1
60
0
100
AcDbLine
10
34.600117
20
-10.735234
30
0
11
34.525685
21
-10.735234
31
0
39
0
210
0
220
0
230
1
0
LINE
5
C8
100
AcDbEntity
8
1
62
256
6
ByLayer
370
13
48
1
60
0
100
AcDbLine
10
34.135516
20
-10.426294
30
0
11
34.135516
21
-10.007825
31
0
39
0
210
0
220
0
230
1
0
LINE
5
C9
100
AcDbEntity
8
1
62
256
6
ByLayer
370
13
48
1
60
0
100
AcDbLine
10
34.135516
20
-12.573706
30
0
11
34.135516
21
-12.992175
31
0
39
0
210
0
220
0
230
1
0
LINE
5
CA
100
AcDbEntity
8
1
62
256
6
ByLayer
370
13
48
1
60
0
100
AcDbLine
10
34.600117
20
-12.264766
30
0
11
34.525685
21
-12.264766
31
0
39
0
210
0
220
0
230
1
0
LINE
5
CB
100
AcDbEntity
8
1
62
256
6
ByLayer
370
13
48
1
60
0
100
AcDbLine
10
34.06476
20
-12.987072
30
0
11
34.06476
21
-12.626322
31
0
39
0
210
0
220
0
230
1
0
LINE
5
CC
100
AcDbEntity
8
1
62
256
6
ByLayer
370
13
48
1
60
0
100
AcDbLine
10
33.706077
20
-12.674869
30
0
11
33.706077
21
-12.957412
31
0
39
0
210
0
220
0
230
1
0
LINE
5
CD
100
AcDbEntity
8
1
62
256
6
ByLayer
370
13
48
1
60
0
100
AcDbLine
10
33.706077
20
-10.325131
30
0
11
33.706077
21
-10.042588
31
0
39
0
210
0
220
0
230
1
0
LINE
5
CE
100
AcDbEntity
8
1
62
256
6
ByLayer
370
13
48
1
60
0
100
AcDbLine
10
34.06476
20
-10.012928
30
0
11
34.06476
21
-10.373678
31
0
39
0
210
0
220
0
230
1
0
LINE
5
CF
100
AcDbEntity
8
1
62
256
6
ByLayer
370
13
48
1
60
0
100
AcDbLine
10
30.106333
20
-11.248976
30
0
11
30.466184
21
-11.248976
31
0
39
0
210
0
220
0
230
1
0
LINE
5
D0
100
AcDbEntity
8
1
62
256
6
ByLayer
370
13
48
1
60
0
100
AcDbLine
10
30.106333
20
-11.751024
30
0
11
30.466184
21
-11.751024
31
0
39
0
210
0
220
0
230
1
0
LINE
5
D1
100
AcDbEntity
8
1
62
256
6
ByLayer
370
13
48
1
60
0
100
AcDbLine
10
33.358781
20
-12.678409
30
0
11
33.358781
21
-12.930867
31
0
39
0
210
0
220
0
230
1
0
LINE
5
D2
100
AcDbEntity
8
1
62
256
6
ByLayer
370
13
48
1
60
0
100
AcDbLine
10
33.358781
20
-10.321591
30
0
11
33.358781
21
-10.069133
31
0
39
0
210
0
220
0
230
1
0
LINE
5
D3
100
AcDbEntity
8
1
62
256
6
ByLayer
370
13
48
1
60
0
100
AcDbLine
10
29.974468
20
-12.625438
30
0
11
29.98199
21
-12.625438
31
0
39
0
210
0
220
0
230
1
0
LINE
5
D4
100
AcDbEntity
8
1
62
256
6
ByLayer
370
13
48
1
60
0
100
AcDbLine
10
29.974468
20
-10.374562
30
0
11
29.98199
21
-10.374562
31
0
39
0
210
0
220
0
230
1
0
LINE
5
D5
100
AcDbEntity
8
1
62
256
6
ByLayer
370
13
48
1
60
0
100
AcDbLine
10
26.566112
20
-12.675001
30
0
11
26.566112
21
-12.75
31
0
39
0
210
0
220
0
230
1
0
LINE
5
D6
100
AcDbEntity
8
1
62
256
6
ByLayer
370
13
48
1
60
0
100
AcDbLine
10
26.566112
20
-10.324999
30
0
11
26.566112
21
-10.25
31
0
39
0
210
0
220
0
230
1
0
LINE
5
D7
100
AcDbEntity
8
1
62
256
6
ByLayer
370
13
48
1
60
0
100
AcDbLine
10
30.000093
20
-11.132002
30
0
11
30.06942
21
-11.132002
31
0
39
0
210
0
220
0
230
1
0
LINE
5
D8
100
AcDbEntity
8
1
62
256
6
ByLayer
370
13
48
1
60
0
100
AcDbLine
10
30.000093
20
-11.867998
30
0
11
30.06942
21
-11.867998
31
0
39
0
210
0
220
0
230
1
0
LINE
5
D9
100
AcDbEntity
8
1
62
256
6
ByLayer
370
13
48
1
60
0
100
AcDbLine
10
30.14904
20
-11.299244
30
0
11
30.587507
21
-11.299244
31
0
39
0
210
0
220
0
230
1
0
LINE
5
DA
100
AcDbEntity
8
1
62
256
6
ByLayer
370
13
48
1
60
0
100
AcDbLine
10
33.42193
20
-10.608704
30
0
11
33.411268
21
-10.911944
31
0
39
0
210
0
220
0
230
1
0
LINE
5
DB
100
AcDbEntity
8
1
62
256
6
ByLayer
370
13
48
1
60
0
100
AcDbLine
10
33.42193
20
-12.391296
30
0
11
33.411268
21
-12.088056
31
0
39
0
210
0
220
0
230
1
0
LINE
5
DC
100
AcDbEntity
8
1
62
256
6
ByLayer
370
13
48
1
60
0
100
AcDbLine
10
30.14904
20
-11.700756
30
0
11
30.587507
21
-11.700756
31
0
39
0
210
0
220
0
230
1
0
LINE
5
DD
100
AcDbEntity
8
1
62
256
6
ByLayer
370
13
48
1
60
0
100
AcDbLine
10
34.544165
20
-12.07839
30
0
11
34.597026
21
-12.07839
31
0
39
0
210
0
220
0
230
1
0
LINE
5
DE
100
AcDbEntity
8
1
62
256
6
ByLayer
370
13
48
1
60
0
100
AcDbLine
10
34.544165
20
-10.92161
30
0
11
34.597026
21
-10.92161
31
0
39
0
210
0
220
0
230
1
0
LINE
5
DF
100
AcDbEntity
8
1
62
256
6
ByLayer
370
13
48
1
60
0
100
AcDbLine
10
34.548049
20
-12.23707
30
0
11
34.6
21
-12.23707
31
0
39
0
210
0
220
0
230
1
0
LINE
5
E0
100
AcDbEntity
8
1
62
256
6
ByLayer
370
13
48
1
60
0
100
AcDbLine
10
34.597026
20
-12.07839
30
0
11
34.597026
21
-10.92161
31
0
39
0
210
0
220
0
230
1
0
LINE
5
E1
100
AcDbEntity
8
1
62
256
6
ByLayer
370
13
48
1
60
0
100
AcDbLine
10
34.548049
20
-10.76293
30
0
11
34.6
21
-10.76293
31
0
39
0
210
0
220
0
230
1
0
LINE
5
E2
100
AcDbEntity
8
1
62
256
6
ByLayer
370
13
48
1
60
0
100
AcDbLine
10
30.152254
20
-11.302665
30
0
11
30.596489
21
-11.302665
31
0
39
0
210
0
220
0
230
1
0
LINE
5
E3
100
AcDbEntity
8
1
62
256
6
ByLayer
370
13
48
1
60
0
100
AcDbLine
10
30.152254
20
-11.697335
30
0
11
30.596489
21
-11.697335
31
0
39
0
210
0
220
0
230
1
0
LINE
5
E4
100
AcDbEntity
8
1
62
256
6
ByLayer
370
13
48
1
60
0
100
AcDbLine
10
34.544165
20
-10.92161
30
0
11
34.544165
21
-12.07839
31
0
39
0
210
0
220
0
230
1
0
LINE
5
E5
100
AcDbEntity
8
1
62
256
6
ByLayer
370
13
48
1
60
0
100
AcDbLine
10
34.021373
20
-10.910924
30
0
11
34.021373
21
-12.089076
31
0
39
0
210
0
220
0
230
1
0
LINE
5
E6
100
AcDbEntity
8
1
62
256
6
ByLayer
370
13
48
1
60
0
100
AcDbLine
10
30.14904
20
-11.299244
30
0
11
30.152254
21
-11.302665
31
0
39
0
210
0
220
0
230
1
0
LINE
5
E7
100
AcDbEntity
8
1
62
256
6
ByLayer
370
13
48
1
60
0
100
AcDbLine
10
30.14904
20
-11.700756
30
0
11
30.152254
21
-11.697335
31
0
39
0
210
0
220
0
230
1
0
LINE
5
E8
100
AcDbEntity
8
1
62
256
6
ByLayer
370
13
48
1
60
0
100
AcDbLine
10
29.993871
20
-11.751024
30
0
11
30.106333
21
-11.751024
31
0
39
0
210
0
220
0
230
1
0
LINE
5
E9
100
AcDbEntity
8
1
62
256
6
ByLayer
370
13
48
1
60
0
100
AcDbLine
10
33.411268
20
-10.911944
30
0
11
33.411268
21
-12.088056
31
0
39
0
210
0
220
0
230
1
0
LINE
5
EA
100
AcDbEntity
8
1
62
256
6
ByLayer
370
13
48
1
60
0
100
AcDbLine
10
29.992089
20
-11.299244
30
0
11
30.14904
21
-11.299244
31
0
39
0
210
0
220
0
230
1
0
LINE
5
EB
100
AcDbEntity
8
1
62
256
6
ByLayer
370
13
48
1
60
0
100
AcDbLine
10
29.993871
20
-11.248976
30
0
11
30.106333
21
-11.248976
31
0
39
0
210
0
220
0
230
1
0
LINE
5
EC
100
AcDbEntity
8
1
62
256
6
ByLayer
370
13
48
1
60
0
100
AcDbLine
10
29.992089
20
-11.700756
30
0
11
30.14904
21
-11.700756
31
0
39
0
210
0
220
0
230
1
0
LINE
5
ED
100
AcDbEntity
8
1
62
256
6
ByLayer
370
13
48
1
60
0
100
AcDbLine
10
29.991978
20
-11.302665
30
0
11
30.152254
21
-11.302665
31
0
39
0
210
0
220
0
230
1
0
LINE
5
EE
100
AcDbEntity
8
1
62
256
6
ByLayer
370
13
48
1
60
0
100
AcDbLine
10
29.991978
20
-11.697335
30
0
11
30.152254
21
-11.697335
31
0
39
0
210
0
220
0
230
1
0
LINE
5
EF
100
AcDbEntity
8
1
62
256
6
ByLayer
370
13
48
1
60
0
100
AcDbLine
10
26.189581
20
-12.75
30
0
11
26.145758
21
-12.674998
31
0
39
0
210
0
220
0
230
1
0
LINE
5
F0
100
AcDbEntity
8
1
62
256
6
ByLayer
370
13
48
1
60
0
100
AcDbLine
10
26.189581
20
-10.25
30
0
11
26.145758
21
-10.325002
31
0
39
0
210
0
220
0
230
1
0
LINE
5
F1
100
AcDbEntity
8
1
62
256
6
ByLayer
370
13
48
1
60
0
100
AcDbLine
10
0
20
-8.725
30
0
11
14.836397
21
-8.725
31
0
39
0
210
0
220
0
230
1
0
LINE
5
F2
100
AcDbEntity
8
1
62
256
6
ByLayer
370
18
48
1
60
0
100
AcDbLine
10
20.890738
20
-12.675
30
0
11
-4.888118
21
-12.675
31
0
39
0
210
0
220
0
230
1
0
LINE
5
F3
100
AcDbEntity
8
1
62
256
6
ByLayer
370
18
48
1
60
0
100
AcDbLine
10
20.890738
20
-10.325
30
0
11
1.6
21
-10.325
31
0
39
0
210
0
220
0
230
1
0
LINE
5
F4
100
AcDbEntity
8
1
62
256
6
ByLayer
370
18
48
1
60
0
100
AcDbLine
10
29.95928
20
-12.675
30
0
11
25.890738
21
-12.675
31
0
39
0
210
0
220
0
230
1
0
LINE
5
F5
100
AcDbEntity
8
1
62
256
6
ByLayer
370
18
48
1
60
0
100
AcDbLine
10
29.95928
20
-10.325
30
0
11
25.890738
21
-10.325
31
0
39
0
210
0
220
0
230
1
0
LINE
5
F6
100
AcDbEntity
8
1
62
256
6
ByLayer
370
18
48
1
60
0
100
AcDbLine
10
0
20
12.5
30
0
11
0
21
-8.725
31
0
39
0
210
0
220
0
230
1
0
LINE
5
F7
100
AcDbEntity
8
1
62
256
6
ByLayer
370
18
48
1
60
0
100
AcDbLine
10
25.890738
20
-12.675
30
0
11
20.890738
21
-12.675
31
0
39
0
210
0
220
0
230
1
0
LINE
5
F8
100
AcDbEntity
8
1
62
256
6
ByLayer
370
18
48
1
60
0
100
AcDbLine
10
25.890738
20
-10.325
30
0
11
20.890738
21
-10.325
31
0
39
0
210
0
220
0
230
1
0
LINE
5
F9
100
AcDbEntity
8
1
62
256
6
ByLayer
370
18
48
1
60
0
100
AcDbLine
10
30.015611
20
-12.491569
30
0
11
29.95928
21
-12.675
31
0
39
0
210
0
220
0
230
1
0
LINE
5
FA
100
AcDbEntity
8
1
62
256
6
ByLayer
370
18
48
1
60
0
100
AcDbLine
10
29.95928
20
-10.325
30
0
11
30.015611
21
-10.508431
31
0
39
0
210
0
220
0
230
1
0
LINE
5
FB
100
AcDbEntity
8
1
62
256
6
ByLayer
370
18
48
1
60
0
100
AcDbLine
10
30.015611
20
-12.491569
30
0
11
30.015611
21
-12.021814
31
0
39
0
210
0
220
0
230
1
0
LINE
5
FC
100
AcDbEntity
8
1
62
256
6
ByLayer
370
18
48
1
60
0
100
AcDbLine
10
-4.888118
20
-12.675
30
0
11
-4.888118
21
12.5
31
0
39
0
210
0
220
0
230
1
0
LINE
5
FD
100
AcDbEntity
8
1
62
256
6
ByLayer
370
18
48
1
60
0
100
AcDbLine
10
-5.682242
20
-12.675
30
0
11
-6.368945
21
-12.675
31
0
39
0
210
0
220
0
230
1
0
LINE
5
FE
100
AcDbEntity
8
1
62
256
6
ByLayer
370
18
48
1
60
0
100
AcDbLine
10
-84
20
9.5
30
0
11
-84
21
-9.425
31
0
39
0
210
0
220
0
230
1
0
LINE
5
FF
100
AcDbEntity
8
1
62
256
6
ByLayer
370
18
48
1
60
0
100
AcDbLine
10
-4.888118
20
-12.675
30
0
11
-5.682242
21
-12.675
31
0
39
0
210
0
220
0
230
1
0
LINE
5
100
100
AcDbEntity
8
1
62
256
6
ByLayer
370
18
48
1
60
0
100
AcDbLine
10
-5.682242
20
12.5
30
0
11
-4.888118
21
12.5
31
0
39
0
210
0
220
0
230
1
0
LINE
5
101
100
AcDbEntity
8
1
62
256
6
ByLayer
370
18
48
1
60
0
100
AcDbLine
10
0
20
12.5
30
0
11
-4.888118
21
12.5
31
0
39
0
210
0
220
0
230
1
0
LINE
5
102
100
AcDbEntity
8
1
62
256
6
ByLayer
370
18
48
1
60
0
100
AcDbLine
10
-81
20
12.5
30
0
11
-7.227723
21
12.5
31
0
39
0
210
0
220
0
230
1
0
LINE
5
103
100
AcDbEntity
8
1
62
256
6
ByLayer
370
18
48
1
60
0
100
AcDbLine
10
-7.227723
20
12.5
30
0
11
-5.682242
21
12.5
31
0
39
0
210
0
220
0
230
1
0
LINE
5
104
100
AcDbEntity
8
1
62
256
6
ByLayer
370
18
48
1
60
0
100
AcDbLine
10
0
20
12.5
30
0
11
1
21
12.5
31
0
39
0
210
0
220
0
230
1
0
LINE
5
105
100
AcDbEntity
8
1
62
256
6
ByLayer
370
18
48
1
60
0
100
AcDbLine
10
-81
20
-12.425
30
0
11
-7.227723
21
-12.425
31
0
39
0
210
0
220
0
230
1
0
LINE
5
106
100
AcDbEntity
8
1
62
256
6
ByLayer
370
18
48
1
60
0
100
AcDbLine
10
14.836397
20
-8.725
30
0
11
14.836397
21
3.100721
31
0
39
0
210
0
220
0
230
1
0
LINE
5
107
100
AcDbEntity
8
1
62
256
6
ByLayer
370
18
48
1
60
0
100
AcDbLine
10
30.015611
20
-10.978186
30
0
11
30.015611
21
-10.508431
31
0
39
0
210
0
220
0
230
1
0
LINE
5
108
100
AcDbEntity
8
1
62
256
6
ByLayer
370
18
48
1
60
0
100
AcDbLine
10
-81
20
-12.425
30
0
11
-84
21
-9.425
31
0
39
0
210
0
220
0
230
1
0
LINE
5
109
100
AcDbEntity
8
1
62
256
6
ByLayer
370
18
48
1
60
0
100
AcDbLine
10
-81
20
12.5
30
0
11
-84
21
9.5
31
0
39
0
210
0
220
0
230
1
0
LINE
5
10A
100
AcDbEntity
8
1
62
256
6
ByLayer
370
18
48
1
60
0
100
AcDbLine
10
1
20
12.5
30
0
11
14.836397
21
3.100721
31
0
39
0
210
0
220
0
230
1
0
LINE
5
10B
100
AcDbEntity
8
1
62
256
6
ByLayer
370
18
48
1
60
0
100
AcDbLine
10
34.600117
20
-10.735234
30
0
11
34.604691
21
-10.194444
31
0
39
0
210
0
220
0
230
1
0
LINE
5
10C
100
AcDbEntity
8
1
62
256
6
ByLayer
370
18
48
1
60
0
100
AcDbLine
10
34.6
20
-12.23707
30
0
11
34.6
21
-10.76293
31
0
39
0
210
0
220
0
230
1
0
LINE
5
10D
100
AcDbEntity
8
1
62
256
6
ByLayer
370
18
48
1
60
0
100
AcDbLine
10
31.29752
20
-10.192091
30
0
11
31.24436
21
-10.222783
31
0
39
0
210
0
220
0
230
1
0
LINE
5
10E
100
AcDbEntity
8
1
62
256
6
ByLayer
370
18
48
1
60
0
100
AcDbLine
10
24.8
20
-12.75
30
0
11
25.265685
21
-12.75
31
0
39
0
210
0
220
0
230
1
0
LINE
5
10F
100
AcDbEntity
8
1
62
256
6
ByLayer
370
18
48
1
60
0
100
AcDbLine
10
26.189581
20
-10.25
30
0
11
25.265685
21
-10.25
31
0
39
0
210
0
220
0
230
1
0
LINE
5
110
100
AcDbEntity
8
1
62
256
6
ByLayer
370
18
48
1
60
0
100
AcDbLine
10
30.263912
20
-12.75
30
0
11
30.987574
21
-12.75
31
0
39
0
210
0
220
0
230
1
0
LINE
5
111
100
AcDbEntity
8
1
62
256
6
ByLayer
370
18
48
1
60
0
100
AcDbLine
10
25.265685
20
-12.75
30
0
11
26.189581
21
-12.75
31
0
39
0
210
0
220
0
230
1
0
LINE
5
112
100
AcDbEntity
8
1
62
256
6
ByLayer
370
18
48
1
60
0
100
AcDbLine
10
31.99812
20
-10.1338
30
0
11
31.915472
21
-10.133786
31
0
39
0
210
0
220
0
230
1
0
LINE
5
113
100
AcDbEntity
8
1
62
256
6
ByLayer
370
18
48
1
60
0
100
AcDbLine
10
31.395343
20
-12.834991
30
0
11
31.737538
21
-12.858919
31
0
39
0
210
0
220
0
230
1
0
LINE
5
114
100
AcDbEntity
8
1
62
256
6
ByLayer
370
18
48
1
60
0
100
AcDbLine
10
26.566112
20
-10.25
30
0
11
26.247775
21
-10.25
31
0
39
0
210
0
220
0
230
1
0
LINE
5
115
100
AcDbEntity
8
1
62
256
6
ByLayer
370
18
48
1
60
0
100
AcDbLine
10
34.135516
20
-12.992175
30
0
11
34.395632
21
-13.008204
31
0
39
0
210
0
220
0
230
1
0
LINE
5
116
100
AcDbEntity
8
1
62
256
6
ByLayer
370
18
48
1
60
0
100
AcDbLine
10
26.566112
20
-12.75
30
0
11
29.98199
21
-12.75
31
0
39
0
210
0
220
0
230
1
0
LINE
5
117
100
AcDbEntity
8
1
62
256
6
ByLayer
370
18
48
1
60
0
100
AcDbLine
10
30.987574
20
-10.25
30
0
11
30.263912
21
-10.25
31
0
39
0
210
0
220
0
230
1
0
LINE
5
118
100
AcDbEntity
8
1
62
256
6
ByLayer
370
18
48
1
60
0
100
AcDbLine
10
34.06476
20
-10.012928
30
0
11
33.706077
21
-10.042588
31
0
39
0
210
0
220
0
230
1
0
LINE
5
119
100
AcDbEntity
8
1
62
256
6
ByLayer
370
18
48
1
60
0
100
AcDbLine
10
29.98199
20
-10.25
30
0
11
26.566112
21
-10.25
31
0
39
0
210
0
220
0
230
1
0
LINE
5
11A
100
AcDbEntity
8
1
62
256
6
ByLayer
370
18
48
1
60
0
100
AcDbLine
10
31.153398
20
-12.75
30
0
11
31.055978
21
-12.75
31
0
39
0
210
0
220
0
230
1
0
LINE
5
11B
100
AcDbEntity
8
1
62
256
6
ByLayer
370
18
48
1
60
0
100
AcDbLine
10
26.247775
20
-12.75
30
0
11
26.566112
21
-12.75
31
0
39
0
210
0
220
0
230
1
0
LINE
5
11C
100
AcDbEntity
8
1
62
256
6
ByLayer
370
18
48
1
60
0
100
AcDbLine
10
31.055978
20
-10.25
30
0
11
30.987574
21
-10.25
31
0
39
0
210
0
220
0
230
1
0
LINE
5
11D
100
AcDbEntity
8
1
62
256
6
ByLayer
370
18
48
1
60
0
100
AcDbLine
10
34.395632
20
-9.991796
30
0
11
34.135516
21
-10.007825
31
0
39
0
210
0
220
0
230
1
0
LINE
5
11E
100
AcDbEntity
8
1
62
256
6
ByLayer
370
18
48
1
60
0
100
AcDbLine
10
33.058781
20
-12.909785
30
0
11
33.358781
21
-12.930867
31
0
39
0
210
0
220
0
230
1
0
LINE
5
11F
100
AcDbEntity
8
1
62
256
6
ByLayer
370
18
48
1
60
0
100
AcDbLine
10
31.254705
20
-12.777118
30
0
11
31.309449
21
-12.808724
31
0
39
0
210
0
220
0
230
1
0
LINE
5
120
100
AcDbEntity
8
1
62
256
6
ByLayer
370
18
48
1
60
0
100
AcDbLine
10
30.987574
20
-12.75
30
0
11
31.055978
21
-12.75
31
0
39
0
210
0
220
0
230
1
0
LINE
5
121
100
AcDbEntity
8
1
62
256
6
ByLayer
370
18
48
1
60
0
100
AcDbLine
10
33.706077
20
-12.957412
30
0
11
34.06476
21
-12.987072
31
0
39
0
210
0
220
0
230
1
0
LINE
5
122
100
AcDbEntity
8
1
62
256
6
ByLayer
370
18
48
1
60
0
100
AcDbLine
10
31.915472
20
-12.866214
30
0
11
31.99812
21
-12.8662
31
0
39
0
210
0
220
0
230
1
0
LINE
5
123
100
AcDbEntity
8
1
62
256
6
ByLayer
370
18
48
1
60
0
100
AcDbLine
10
30.172358
20
-10.25
30
0
11
29.98199
21
-10.25
31
0
39
0
210
0
220
0
230
1
0
LINE
5
124
100
AcDbEntity
8
1
62
256
6
ByLayer
370
18
48
1
60
0
100
AcDbLine
10
26.189581
20
-12.75
30
0
11
26.235194
21
-12.75
31
0
39
0
210
0
220
0
230
1
0
LINE
5
125
100
AcDbEntity
8
1
62
256
6
ByLayer
370
18
48
1
60
0
100
AcDbLine
10
33.358781
20
-10.069133
30
0
11
33.058781
21
-10.090215
31
0
39
0
210
0
220
0
230
1
0
LINE
5
126
100
AcDbEntity
8
1
62
256
6
ByLayer
370
18
48
1
60
0
100
AcDbLine
10
31.737538
20
-10.141081
30
0
11
31.38336
21
-10.165847
31
0
39
0
210
0
220
0
230
1
0
LINE
5
127
100
AcDbEntity
8
1
62
256
6
ByLayer
370
18
48
1
60
0
100
AcDbLine
10
30.263912
20
-10.25
30
0
11
30.172358
21
-10.25
31
0
39
0
210
0
220
0
230
1
0
LINE
5
128
100
AcDbEntity
8
1
62
256
6
ByLayer
370
18
48
1
60
0
100
AcDbLine
10
30.172358
20
-12.75
30
0
11
30.263912
21
-12.75
31
0
39
0
210
0
220
0
230
1
0
LINE
5
129
100
AcDbEntity
8
1
62
256
6
ByLayer
370
18
48
1
60
0
100
AcDbLine
10
26.235194
20
-10.25
30
0
11
26.189581
21
-10.25
31
0
39
0
210
0
220
0
230
1
0
LINE
5
12A
100
AcDbEntity
8
1
62
256
6
ByLayer
370
18
48
1
60
0
100
AcDbLine
10
34.604691
20
-12.805556
30
0
11
34.600117
21
-12.264766
31
0
39
0
210
0
220
0
230
1
0
LINE
5
12B
100
AcDbEntity
8
1
62
256
6
ByLayer
370
18
48
1
60
0
100
AcDbLine
10
31.055978
20
-10.25
30
0
11
31.142652
21
-10.25
31
0
39
0
210
0
220
0
230
1
0
LINE
5
12C
100
AcDbEntity
8
1
62
256
6
ByLayer
370
18
48
1
60
0
100
AcDbLine
10
29.98199
20
-12.75
30
0
11
30.172358
21
-12.75
31
0
39
0
210
0
220
0
230
1
0
LINE
5
12D
100
AcDbEntity
8
1
62
256
6
ByLayer
370
18
48
1
60
0
100
AcDbLine
10
25.265685
20
-10.25
30
0
11
24.8
21
-10.25
31
0
39
0
210
0
220
0
230
1
0
LINE
5
12E
100
AcDbEntity
8
SK2
62
256
6
ByLayer
370
13
48
1
60
0
100
AcDbLine
10
-93.60005
20
-12.5
30
0
11
-93.60005
21
12.5
31
0
39
0
210
0
220
0
230
1
0
LINE
5
130
100
AcDbEntity
8
SK2
62
256
6
ByLayer
370
13
48
1
60
0
100
AcDbLine
10
-2
20
12.5
30
0
11
-95.60005
21
12.5
31
0
39
0
210
0
220
0
230
1
0
LINE
5
131
100
AcDbEntity
8
SK2
62
256
6
ByLayer
370
13
48
1
60
0
100
AcDbLine
10
-2
20
-12.5
30
0
11
-95.60005
21
-12.5
31
0
39
0
210
0
220
0
230
1
0
LINE
5
132
100
AcDbEntity
8
SK2
62
256
6
ByLayer
370
18
48
1
60
0
100
AcDbLine
10
-93.60005
20
12.5
30
0
11
-93.182053
21
9.325002
31
0
39
0
210
0
220
0
230
1
0
LINE
5
133
100
AcDbEntity
8
SK2
62
256
6
ByLayer
370
18
48
1
60
0
100
AcDbLine
10
-93.60005
20
12.5
30
0
11
-94.018047
21
9.324998
31
0
39
0
210
0
220
0
230
1
0
LINE
5
134
100
AcDbEntity
8
SK2
62
256
6
ByLayer
370
18
48
1
60
0
100
AcDbLine
10
-93.182053
20
9.325002
30
0
11
-94.018047
21
9.324998
31
0
39
0
210
0
220
0
230
1
0
LINE
5
135
100
AcDbEntity
8
SK2
62
256
6
ByLayer
370
18
48
1
60
0
100
AcDbLine
10
-93.60005
20
-12.5
30
0
11
-94.018047
21
-9.325002
31
0
39
0
210
0
220
0
230
1
0
LINE
5
136
100
AcDbEntity
8
SK2
62
256
6
ByLayer
370
18
48
1
60
0
100
AcDbLine
10
-93.60005
20
-12.5
30
0
11
-93.182053
21
-9.324998
31
0
39
0
210
0
220
0
230
1
0
LINE
5
137
100
AcDbEntity
8
SK2
62
256
6
ByLayer
370
18
48
1
60
0
100
AcDbLine
10
-94.018047
20
-9.325002
30
0
11
-93.182053
21
-9.324998
31
0
39
0
210
0
220
0
230
1
0
MTEXT
5
225
100
AcDbEntity
8
SK6
62
256
6
ByLayer
370
18
48
1
60
0
100
AcDbMText
10
-56.325025
20
-51.12926
30
0
210
0
220
0
230
1
1
\W0.7896;QS-QD-LFG33C2525D
40
3.5
41
0
44
1.084337
50
0
71
7
72
5
7
iso_b_vert
0
MTEXT
5
229
100
AcDbEntity
8
SK2
62
256
6
ByLayer
370
18
48
1
60
0
100
AcDbMText
10
-94.47505
20
-1.169737
30
0
210
0
220
0
230
1
1
\W0.6740;25
40
3.5
41
0
44
1.084337
50
89.9999999999999
71
7
72
5
7
iso_b_vert
0
DIMENSION
5
238
100
AcDbEntity
8
2
62
256
6
ByLayer
370
13
48
1
60
0
100
AcDbDimension
2
DimnDraft3D1
10
34.6
20
29.10005
30
0
11
10.007895
21
29.10005
31
0
70
32
71
5
72
1
41
1
210
0
220
0
230
1
3
Standard
100
AcDbAlignedDimension
13
-6
23
14.5
33
0
14
34.6
24
-11
34
0
50
0
100
AcDbRotatedDimension
1001
ACAD
1000
DSTYLE
1002
{
1070
   279
1070
     0
1070
   172
1070
     1
1070
   173
1070
     1
1070
   340
1005
226
1070
   271
1070
     1
1070
    77
1070
     1
1070
    73
1070
     0
1070
   171
1070
     3
1070
   274
1070
     4
1070
   177
1070
     2
1070
   176
1070
     2
1070
   178
1070
     7
1070
    78
1070
     8
1070
    41
1041
3.175
1070
   147
1041
1.75
1070
    42
1041
2.0
1070
    44
1041
2.0
1070
   140
1041
3.5
1070
   343
1005
239
1070
   344
1005
239
1002
}
0
DIMENSION
5
24D
100
AcDbEntity
8
SK2
62
256
6
ByLayer
370
13
48
1
60
0
100
AcDbDimension
2
DimnDraft3D2
10
-81
20
-26.108569
30
0
11
-83.259868
21
-26.108569
31
0
70
32
71
5
72
1
41
1
210
0
220
0
230
1
3
Standard
100
AcDbAlignedDimension
13
-84
23
10.5
33
0
14
-81
24
-14.5
34
0
50
0
100
AcDbRotatedDimension
1001
ACAD
1000
DSTYLE
1002
{
1070
   279
1070
     0
1070
   172
1070
     1
1070
   173
1070
     1
1070
   340
1005
226
1070
    77
1070
     1
1070
    73
1070
     0
1070
   171
1070
     3
1070
   274
1070
     4
1070
   177
1070
     2
1070
   176
1070
     2
1070
   178
1070
     7
1070
    78
1070
     8
1070
    41
1041
3.175
1070
   147
1041
1.75
1070
    42
1041
2.0
1070
    44
1041
2.0
1070
   140
1041
3.5
1070
   343
1005
239
1070
   344
1005
239
1002
}
0
DIMENSION
5
25B
100
AcDbEntity
8
SK2
62
256
6
ByLayer
370
13
48
1
60
0
100
AcDbDimension
2
DimnDraft3D3
10
34.6
20
35.10005
30
0
11
-29.240789
21
35.10005
31
0
70
32
71
5
72
1
41
1
210
0
220
0
230
1
3
Standard
100
AcDbAlignedDimension
13
-84
23
14.5
33
0
14
34.6
24
-11
34
0
50
0
100
AcDbRotatedDimension
1001
ACAD
1000
DSTYLE
1002
{
1070
   279
1070
     0
1070
   172
1070
     1
1070
   173
1070
     1
1070
   340
1005
226
1070
   271
1070
     1
1070
    77
1070
     1
1070
    73
1070
     0
1070
   171
1070
     3
1070
   274
1070
     4
1070
   177
1070
     2
1070
   176
1070
     2
1070
   178
1070
     7
1070
    78
1070
     8
1070
    41
1041
3.175
1070
   147
1041
1.75
1070
    42
1041
2.0
1070
    44
1041
2.0
1070
   140
1041
3.5
1070
   343
1005
239
1070
   344
1005
239
1002
}
0
DIMENSION
5
269
100
AcDbEntity
8
2
62
256
6
ByLayer
370
13
48
1
60
0
100
AcDbDimension
2
DimnDraft3D4
10
1.6
20
-26.108569
30
0
11
16.009211
21
-26.108569
31
0
70
32
71
5
72
1
41
1
210
0
220
0
230
1
3
Standard
100
AcDbAlignedDimension
13
34.6
23
-15
33
0
14
1.6
24
-14.5
34
0
50
0
100
AcDbRotatedDimension
1001
ACAD
1000
DSTYLE
1002
{
1070
   279
1070
     0
1070
   172
1070
     1
1070
   173
1070
     1
1070
   340
1005
226
1070
   271
1070
     1
1070
    77
1070
     1
1070
    73
1070
     0
1070
   171
1070
     3
1070
   274
1070
     4
1070
   177
1070
     2
1070
   176
1070
     2
1070
   178
1070
     7
1070
    78
1070
     8
1070
    41
1041
3.175
1070
   147
1041
1.75
1070
    42
1041
2.0
1070
    44
1041
2.0
1070
   140
1041
3.5
1070
   343
1005
239
1070
   344
1005
239
1002
}
0
DIMENSION
5
277
100
AcDbEntity
8
2
62
256
6
ByLayer
370
13
48
1
60
0
100
AcDbDimension
2
DimnDraft3D5
10
59.7
20
-13
30
0
11
59.7
21
-4.357895
31
0
70
32
71
5
72
1
41
1
210
0
220
0
230
1
3
Standard
100
AcDbAlignedDimension
13
-4
23
12.5
33
0
14
36.6
24
-13
34
0
50
90
100
AcDbRotatedDimension
1001
ACAD
1000
DSTYLE
1002
{
1070
    74
1070
     0
1070
   279
1070
     0
1070
   172
1070
     1
1070
   173
1070
     1
1070
   340
1005
226
1070
   271
1070
     1
1070
    77
1070
     1
1070
    73
1070
     0
1070
   171
1070
     3
1070
   274
1070
     4
1070
   177
1070
     2
1070
   176
1070
     2
1070
   178
1070
     7
1070
    78
1070
     8
1070
    41
1041
3.175
1070
   147
1041
1.75
1070
    42
1041
2.0
1070
    44
1041
2.0
1070
   140
1041
3.5
1070
   343
1005
239
1070
   344
1005
239
1002
}
0
DIMENSION
5
285
100
AcDbEntity
8
2
62
256
6
ByLayer
370
13
48
1
60
0
100
AcDbDimension
2
DimnDraft3D6
10
52.7
20
-10
30
0
11
52.7
21
-24.820789
31
0
70
32
71
5
72
1
41
1
210
0
220
0
230
1
3
Standard
100
AcDbAlignedDimension
13
36.6
23
-13
33
0
14
36.6
24
-10
34
0
50
90
100
AcDbRotatedDimension
1001
ACAD
1000
DSTYLE
1002
{
1070
    74
1070
     0
1070
   279
1070
     0
1070
   172
1070
     1
1070
   173
1070
     1
1070
   340
1005
226
1070
   271
1070
     1
1070
    77
1070
     1
1070
    73
1070
     0
1070
   171
1070
     3
1070
   274
1070
     4
1070
   177
1070
     2
1070
   176
1070
     2
1070
   178
1070
     7
1070
    78
1070
     8
1070
    41
1041
3.175
1070
   147
1041
1.75
1070
    42
1041
2.0
1070
    44
1041
2.0
1070
   140
1041
3.5
1070
   343
1005
239
1070
   344
1005
239
1002
}
0
ENDSEC
0
SECTION
2
OBJECTS
0
DICTIONARY
5
2ef
330
0
100
AcDbDictionary
280
0
281
1
3
ACAD_GROUP
350
2f0
3
ACAD_MLINESTYLE
350
2f1
0
DICTIONARY
5
2f0
330
0
100
AcDbDictionary
280
0
281
1
0
DICTIONARY
5
2f1
330
0
100
AcDbDictionary
280
0
281
1
3
Standard
350
18
0
MLINESTYLE
5
18
330
2f1
100
AcDbMlineStyle
2
Standard
70
0
3

62
256
51
90
52
90
71
2
49
-0.5
62
256
6
ByLayer
49
0.5
62
256
6
ByLayer
0
RASTERVARIABLES
5
2de
330

100
AcDbRasterVariables
90
0
70
1
71
1
72
1
0
ENDSEC
0
EOF
