0
SECTION
2
HEADER
9
$ACADVER
1
AC1015
9
$DWGCODEPAGE
3
ANSI_1252
9
$HANDSEED
5
2fc
9
$ANGBASE
50
0
9
$ANGDIR
70
0
9
$ATTMODE
70
1
9
$AUNITS
70
0
9
$AUPREC
70
0
9
$CECOLOR
62
256
9
$CELTSCALE
40
1
9
$CELTYPE
6
ByLayer
9
$CELWEIGHT
370
18
9
$CLAYER
8
0
9
$CMLJUST
70
0
9
$CMLSCALE
40
1
9
$CMLSTYLE
2
Standard
9
$DIMSTYLE
2
Standard
9
$TEXTSIZE
40
0.2
9
$TEXTSTYLE
7
Standard
9
$LUNITS
70
2
9
$LUPREC
70
4
9
$EXTNAMES
290
1
9
$INSUNITS
70
4
9
$LTSCALE
40
1
9
$LWDISPLAY
290
1
9
$PDMODE
70
0
9
$PDSIZE
40
0
9
$PLINEGEN
70
0
0
ENDSEC
0
SECTION
2
CLASSES
0
CLASS
1
RASTERVARIABLES
2
AcDbRasterVariables
3
ISM
90
0
280
0
281
0
0
ENDSEC
0
SECTION
2
TABLES
0
TABLE
2
VPORT
5
2f2
100
AcDbSymbolTable
0
VPORT
5
1
100
AcDbSymbolTableRecord
100
AcDbViewportTableRecord
2
*Active
70
0
10
0
20
0
11
1
21
1
12
-1
22
1
13
0
23
0
14
0.5
24
0.5
15
10
25
10
16
0
26
0
36
1
17
0
27
0
37
0
0
ENDTAB
0
TABLE
2
LTYPE
5
2f3
100
AcDbSymbolTable
0
LTYPE
5
14
100
AcDbSymbolTableRecord
100
AcDbLinetypeTableRecord
70
0
2
ByBlock
3

72
65
73
0
40
0
0
LTYPE
5
15
100
AcDbSymbolTableRecord
100
AcDbLinetypeTableRecord
70
0
2
ByLayer
3

72
65
73
0
40
0
0
LTYPE
5
16
100
AcDbSymbolTableRecord
100
AcDbLinetypeTableRecord
70
0
2
CONTINUOUS
3
Solid line
72
65
73
0
40
0
0
LTYPE
5
6A
100
AcDbSymbolTableRecord
100
AcDbLinetypeTableRecord
70
0
2
CENTER
3
____ _ ____ _ ____ _ ____
72
65
73
4
40
47.5
49
22
74
0
49
-8.5
74
0
49
8.5
74
0
49
-8.5
74
0
0
LTYPE
5
6B
100
AcDbSymbolTableRecord
100
AcDbLinetypeTableRecord
70
0
2
DASHED
3
__ __ __ __ __ __ __ __ __
72
65
73
2
40
25.72
49
12.86
74
0
49
-12.86
74
0
0
ENDTAB
0
TABLE
2
LAYER
5
2f4
100
AcDbSymbolTable
0
LAYER
5
10
100
AcDbSymbolTableRecord
100
AcDbLayerTableRecord
2
0
70
0
62
7
6
CONTINUOUS
290
1
370
-3
390
0
0
LAYER
5
6D
100
AcDbSymbolTableRecord
100
AcDbLayerTableRecord
2
80
70
0
62
-6
6
CONTINUOUS
290
1
370
-3
390
0
0
LAYER
5
6F
100
AcDbSymbolTableRecord
100
AcDbLayerTableRecord
2
81
70
0
62
-3
6
CONTINUOUS
290
1
370
-3
390
0
0
LAYER
5
83
100
AcDbSymbolTableRecord
100
AcDbLayerTableRecord
2
1
70
0
62
4
6
CONTINUOUS
290
1
370
-3
390
0
0
LAYER
5
22C
100
AcDbSymbolTableRecord
100
AcDbLayerTableRecord
2
2
70
0
62
7
6
CONTINUOUS
290
1
370
-3
390
0
0
LAYER
5
2df
100
AcDbSymbolTableRecord
100
AcDbLayerTableRecord
2
SK1
70
0
62
4
6
CONTINUOUS
290
1
370
-3
390
0
0
LAYER
5
2e0
100
AcDbSymbolTableRecord
100
AcDbLayerTableRecord
2
SK2
70
0
62
7
6
CONTINUOUS
290
1
370
-3
390
0
0
LAYER
5
2e1
100
AcDbSymbolTableRecord
100
AcDbLayerTableRecord
2
SK6
70
0
62
5
6
CONTINUOUS
290
1
370
-3
390
0
0
ENDTAB
0
TABLE
2
STYLE
5
2f5
100
AcDbSymbolTable
0
STYLE
5
11
100
AcDbSymbolTableRecord
100
AcDbTextStyleTableRecord
2
Standard
3
txt
70
0
71
0
40
0
41
1
42
0
50
0
0
STYLE
5
226
100
AcDbSymbolTableRecord
100
AcDbTextStyleTableRecord
2
iso_b_vert
3
simplex.shx
70
0
71
0
40
0
41
1
42
0
50
0
0
STYLE
5
227
100
AcDbSymbolTableRecord
100
AcDbTextStyleTableRecord
2
DWGDirectTextStyle
3
simplex
70
0
71
0
40
0
41
1
42
0
50
0
0
ENDTAB
0
TABLE
2
DIMSTYLE
5
2f6
100
AcDbSymbolTable
100
AcDbDimStyleTable
0
DIMSTYLE
105
27
100
AcDbSymbolTableRecord
100
AcDbDimStyleTableRecord
2
Standard
70
0
3
<>
41
0.18
42
0.0625
44
0.18
140
0.18
147
0.09
73
0
74
0
77
1
271
2
275
0
278
52
280
0
340
11
0
ENDTAB
0
TABLE
2
VIEW
5
2f7
100
AcDbSymbolTable
0
ENDTAB
0
TABLE
2
UCS
5
2f8
100
AcDbSymbolTable
0
ENDTAB
0
TABLE
2
APPID
5
2f9
100
AcDbSymbolTable
0
APPID
5
12
100
AcDbSymbolTableRecord
100
AcDbRegAppTableRecord
2
ACAD
70
0
0
ENDTAB
0
TABLE
2
BLOCK_RECORD
5
2fa
100
AcDbSymbolTable
0
BLOCK_RECORD
5
1F
100
AcDbSymbolTableRecord
100
AcDbBlockTableRecord
2
*Model_Space
340
0
70
0
0
BLOCK_RECORD
5
1B
100
AcDbSymbolTableRecord
100
AcDbBlockTableRecord
2
*Paper_Space
340
0
70
0
0
BLOCK_RECORD
5
23
100
AcDbSymbolTableRecord
100
AcDbBlockTableRecord
2
*Paper_Space0
340
0
70
0
0
BLOCK_RECORD
5
22A
100
AcDbSymbolTableRecord
100
AcDbBlockTableRecord
2
DimnDraft3D1
340
0
70
0
0
BLOCK_RECORD
5
239
100
AcDbSymbolTableRecord
100
AcDbBlockTableRecord
2
_CLOSED
340
0
70
0
0
BLOCK_RECORD
5
240
100
AcDbSymbolTableRecord
100
AcDbBlockTableRecord
2
DimnDraft3D2
340
0
70
0
0
BLOCK_RECORD
5
24E
100
AcDbSymbolTableRecord
100
AcDbBlockTableRecord
2
DimnDraft3D3
340
0
70
0
0
BLOCK_RECORD
5
25C
100
AcDbSymbolTableRecord
100
AcDbBlockTableRecord
2
DimnDraft3D4
340
0
70
0
0
BLOCK_RECORD
5
26A
100
AcDbSymbolTableRecord
100
AcDbBlockTableRecord
2
DimnDraft3D5
340
0
70
0
0
BLOCK_RECORD
5
278
100
AcDbSymbolTableRecord
100
AcDbBlockTableRecord
2
DimnDraft3D6
340
0
70
0
0
ENDTAB
0
ENDSEC
0
SECTION
2
BLOCKS
0
BLOCK
5
20
100
AcDbEntity
8
0
100
AcDbBlockBegin
2
*Model_Space
70
0
10
0
20
0
30
0
3
*Model_Space
0
ENDBLK
5
21
100
AcDbEntity
8
0
100
AcDbBlockEnd
0
BLOCK
5
1C
100
AcDbEntity
8
0
100
AcDbBlockBegin
2
*Paper_Space
70
0
10
0
20
0
30
0
3
*Paper_Space
0
ENDBLK
5
1D
100
AcDbEntity
8
0
100
AcDbBlockEnd
0
BLOCK
5
24
100
AcDbEntity
8
0
100
AcDbBlockBegin
2
*Paper_Space0
70
0
10
0
20
0
30
0
3
*Paper_Space0
0
ENDBLK
5
25
100
AcDbEntity
8
0
100
AcDbBlockEnd
0
BLOCK
5
236
100
AcDbEntity
8
0
100
AcDbBlockBegin
2
DimnDraft3D1
70
0
10
0
20
0
30
0
3
DimnDraft3D1
0
MTEXT
5
22B
100
AcDbEntity
8
2
62
256
6
ByLayer
370
18
48
1
60
0
100
AcDbMText
10
7.567105
20
27.47505
30
0
210
0
220
0
230
1
1
\W0.7346;33.6
40
3.5
41
0
44
1.084337
50
0
71
7
72
5
7
iso_b_vert
0
LINE
5
22D
100
AcDbEntity
8
2
62
256
6
ByLayer
370
13
48
1
60
0
100
AcDbLine
10
-6
20
12
30
0
11
-6
21
28.60005
31
0
39
0
210
0
220
0
230
1
0
LINE
5
22E
100
AcDbEntity
8
2
62
256
6
ByLayer
370
13
48
1
60
0
100
AcDbLine
10
27.6
20
-8.5
30
0
11
27.6
21
28.60005
31
0
39
0
210
0
220
0
230
1
0
LINE
5
22F
100
AcDbEntity
8
2
62
256
6
ByLayer
370
13
48
1
60
0
100
AcDbLine
10
-6
20
26.60005
30
0
11
27.6
21
26.60005
31
0
39
0
210
0
220
0
230
1
0
LINE
5
230
100
AcDbEntity
8
2
62
256
6
ByLayer
370
13
48
1
60
0
100
AcDbLine
10
-6
20
26.60005
30
0
11
-2.825002
21
27.018047
31
0
39
0
210
0
220
0
230
1
0
LINE
5
231
100
AcDbEntity
8
2
62
256
6
ByLayer
370
13
48
1
60
0
100
AcDbLine
10
-6
20
26.60005
30
0
11
-2.824998
21
26.182053
31
0
39
0
210
0
220
0
230
1
0
LINE
5
232
100
AcDbEntity
8
2
62
256
6
ByLayer
370
13
48
1
60
0
100
AcDbLine
10
-2.825002
20
27.018047
30
0
11
-2.824998
21
26.182053
31
0
39
0
210
0
220
0
230
1
0
LINE
5
233
100
AcDbEntity
8
2
62
256
6
ByLayer
370
13
48
1
60
0
100
AcDbLine
10
27.6
20
26.60005
30
0
11
24.425002
21
26.182053
31
0
39
0
210
0
220
0
230
1
0
LINE
5
234
100
AcDbEntity
8
2
62
256
6
ByLayer
370
13
48
1
60
0
100
AcDbLine
10
27.6
20
26.60005
30
0
11
24.424998
21
27.018047
31
0
39
0
210
0
220
0
230
1
0
LINE
5
235
100
AcDbEntity
8
2
62
256
6
ByLayer
370
13
48
1
60
0
100
AcDbLine
10
24.425002
20
26.182053
30
0
11
24.424998
21
27.018047
31
0
39
0
210
0
220
0
230
1
0
ENDBLK
5
237
100
AcDbEntity
8
0
100
AcDbBlockEnd
0
BLOCK
5
23A
100
AcDbEntity
8
0
100
AcDbBlockBegin
2
_CLOSED
70
0
10
0
20
0
30
0
3
_CLOSED
0
LINE
5
23C
100
AcDbEntity
8
0
62
256
6
ByLayer
370
-2
48
1
60
0
100
AcDbLine
10
-1
20
0.166667
30
0
11
0
21
0
31
0
39
0
210
0
220
0
230
1
0
LINE
5
23D
100
AcDbEntity
8
0
62
256
6
ByLayer
370
-2
48
1
60
0
100
AcDbLine
10
0
20
0
30
0
11
-1
21
-0.166667
31
0
39
0
210
0
220
0
230
1
0
LINE
5
23E
100
AcDbEntity
8
0
62
256
6
ByLayer
370
-2
48
1
60
0
100
AcDbLine
10
-1
20
0.166667
30
0
11
-1
21
-0.166667
31
0
39
0
210
0
220
0
230
1
0
LINE
5
23F
100
AcDbEntity
8
0
62
256
6
ByLayer
370
-2
48
1
60
0
100
AcDbLine
10
0
20
0
30
0
11
-1
21
0
31
0
39
0
210
0
220
0
230
1
0
ENDBLK
5
23B
100
AcDbEntity
8
0
100
AcDbBlockEnd
0
BLOCK
5
24B
100
AcDbEntity
8
0
100
AcDbBlockBegin
2
DimnDraft3D2
70
0
10
0
20
0
30
0
3
DimnDraft3D2
0
MTEXT
5
241
100
AcDbEntity
8
SK2
62
256
6
ByLayer
370
18
48
1
60
0
100
AcDbMText
10
-67.384868
20
-22.733569
30
0
210
0
220
0
230
1
1
\W0.5404;3
40
3.5
41
0
44
1.084337
50
0
71
7
72
5
7
iso_b_vert
0
LINE
5
242
100
AcDbEntity
8
SK2
62
256
6
ByLayer
370
13
48
1
60
0
100
AcDbLine
10
-69
20
8
30
0
11
-69
21
-25.608569
31
0
39
0
210
0
220
0
230
1
0
LINE
5
243
100
AcDbEntity
8
SK2
62
256
6
ByLayer
370
13
48
1
60
0
100
AcDbLine
10
-66
20
-12
30
0
11
-66
21
-25.608569
31
0
39
0
210
0
220
0
230
1
0
LINE
5
244
100
AcDbEntity
8
SK2
62
256
6
ByLayer
370
13
48
1
60
0
100
AcDbLine
10
-77.75
20
-23.608569
30
0
11
-57.25
21
-23.608569
31
0
39
0
210
0
220
0
230
1
0
LINE
5
245
100
AcDbEntity
8
SK2
62
256
6
ByLayer
370
13
48
1
60
0
100
AcDbLine
10
-69
20
-23.608569
30
0
11
-72.174998
21
-24.026566
31
0
39
0
210
0
220
0
230
1
0
LINE
5
246
100
AcDbEntity
8
SK2
62
256
6
ByLayer
370
13
48
1
60
0
100
AcDbLine
10
-69
20
-23.608569
30
0
11
-72.175002
21
-23.190573
31
0
39
0
210
0
220
0
230
1
0
LINE
5
247
100
AcDbEntity
8
SK2
62
256
6
ByLayer
370
13
48
1
60
0
100
AcDbLine
10
-72.174998
20
-24.026566
30
0
11
-72.175002
21
-23.190573
31
0
39
0
210
0
220
0
230
1
0
LINE
5
248
100
AcDbEntity
8
SK2
62
256
6
ByLayer
370
13
48
1
60
0
100
AcDbLine
10
-66
20
-23.608569
30
0
11
-62.825002
21
-23.190573
31
0
39
0
210
0
220
0
230
1
0
LINE
5
249
100
AcDbEntity
8
SK2
62
256
6
ByLayer
370
13
48
1
60
0
100
AcDbLine
10
-66
20
-23.608569
30
0
11
-62.824998
21
-24.026566
31
0
39
0
210
0
220
0
230
1
0
LINE
5
24A
100
AcDbEntity
8
SK2
62
256
6
ByLayer
370
13
48
1
60
0
100
AcDbLine
10
-62.825002
20
-23.190573
30
0
11
-62.824998
21
-24.026566
31
0
39
0
210
0
220
0
230
1
0
ENDBLK
5
24C
100
AcDbEntity
8
0
100
AcDbBlockEnd
0
BLOCK
5
259
100
AcDbEntity
8
0
100
AcDbBlockBegin
2
DimnDraft3D3
70
0
10
0
20
0
30
0
3
DimnDraft3D3
0
MTEXT
5
24F
100
AcDbEntity
8
SK2
62
256
6
ByLayer
370
18
48
1
60
0
100
AcDbMText
10
-23.932895
20
33.47505
30
0
210
0
220
0
230
1
1
\W0.7346;96.6
40
3.5
41
0
44
1.084337
50
0
71
7
72
5
7
iso_b_vert
0
LINE
5
250
100
AcDbEntity
8
SK2
62
256
6
ByLayer
370
13
48
1
60
0
100
AcDbLine
10
-69
20
12
30
0
11
-69
21
34.60005
31
0
39
0
210
0
220
0
230
1
0
LINE
5
251
100
AcDbEntity
8
SK2
62
256
6
ByLayer
370
13
48
1
60
0
100
AcDbLine
10
27.6
20
-8.5
30
0
11
27.6
21
34.60005
31
0
39
0
210
0
220
0
230
1
0
LINE
5
252
100
AcDbEntity
8
SK2
62
256
6
ByLayer
370
13
48
1
60
0
100
AcDbLine
10
-69
20
32.60005
30
0
11
27.6
21
32.60005
31
0
39
0
210
0
220
0
230
1
0
LINE
5
253
100
AcDbEntity
8
SK2
62
256
6
ByLayer
370
13
48
1
60
0
100
AcDbLine
10
-69
20
32.60005
30
0
11
-65.825002
21
33.018047
31
0
39
0
210
0
220
0
230
1
0
LINE
5
254
100
AcDbEntity
8
SK2
62
256
6
ByLayer
370
13
48
1
60
0
100
AcDbLine
10
-69
20
32.60005
30
0
11
-65.824998
21
32.182053
31
0
39
0
210
0
220
0
230
1
0
LINE
5
255
100
AcDbEntity
8
SK2
62
256
6
ByLayer
370
13
48
1
60
0
100
AcDbLine
10
-65.825002
20
33.018047
30
0
11
-65.824998
21
32.182053
31
0
39
0
210
0
220
0
230
1
0
LINE
5
256
100
AcDbEntity
8
SK2
62
256
6
ByLayer
370
13
48
1
60
0
100
AcDbLine
10
27.6
20
32.60005
30
0
11
24.425002
21
32.182053
31
0
39
0
210
0
220
0
230
1
0
LINE
5
257
100
AcDbEntity
8
SK2
62
256
6
ByLayer
370
13
48
1
60
0
100
AcDbLine
10
27.6
20
32.60005
30
0
11
24.424998
21
33.018047
31
0
39
0
210
0
220
0
230
1
0
LINE
5
258
100
AcDbEntity
8
SK2
62
256
6
ByLayer
370
13
48
1
60
0
100
AcDbLine
10
24.425002
20
32.182053
30
0
11
24.424998
21
33.018047
31
0
39
0
210
0
220
0
230
1
0
ENDBLK
5
25A
100
AcDbEntity
8
0
100
AcDbBlockEnd
0
BLOCK
5
267
100
AcDbEntity
8
0
100
AcDbBlockBegin
2
DimnDraft3D4
70
0
10
0
20
0
30
0
3
DimnDraft3D4
0
MTEXT
5
25D
100
AcDbEntity
8
2
62
256
6
ByLayer
370
18
48
1
60
0
100
AcDbMText
10
13.384211
20
-22.733569
30
0
210
0
220
0
230
1
1
\W0.6740;26
40
3.5
41
0
44
1.084337
50
0
71
7
72
5
7
iso_b_vert
0
LINE
5
25E
100
AcDbEntity
8
2
62
256
6
ByLayer
370
13
48
1
60
0
100
AcDbLine
10
27.6
20
-12.5
30
0
11
27.6
21
-25.608569
31
0
39
0
210
0
220
0
230
1
0
LINE
5
25F
100
AcDbEntity
8
2
62
256
6
ByLayer
370
13
48
1
60
0
100
AcDbLine
10
1.6
20
-12
30
0
11
1.6
21
-25.608569
31
0
39
0
210
0
220
0
230
1
0
LINE
5
260
100
AcDbEntity
8
2
62
256
6
ByLayer
370
13
48
1
60
0
100
AcDbLine
10
27.6
20
-23.608569
30
0
11
1.6
21
-23.608569
31
0
39
0
210
0
220
0
230
1
0
LINE
5
261
100
AcDbEntity
8
2
62
256
6
ByLayer
370
13
48
1
60
0
100
AcDbLine
10
27.6
20
-23.608569
30
0
11
24.425002
21
-24.026566
31
0
39
0
210
0
220
0
230
1
0
LINE
5
262
100
AcDbEntity
8
2
62
256
6
ByLayer
370
13
48
1
60
0
100
AcDbLine
10
27.6
20
-23.608569
30
0
11
24.424998
21
-23.190573
31
0
39
0
210
0
220
0
230
1
0
LINE
5
263
100
AcDbEntity
8
2
62
256
6
ByLayer
370
13
48
1
60
0
100
AcDbLine
10
24.425002
20
-24.026566
30
0
11
24.424998
21
-23.190573
31
0
39
0
210
0
220
0
230
1
0
LINE
5
264
100
AcDbEntity
8
2
62
256
6
ByLayer
370
13
48
1
60
0
100
AcDbLine
10
1.6
20
-23.608569
30
0
11
4.774998
21
-23.190573
31
0
39
0
210
0
220
0
230
1
0
LINE
5
265
100
AcDbEntity
8
2
62
256
6
ByLayer
370
13
48
1
60
0
100
AcDbLine
10
1.6
20
-23.608569
30
0
11
4.775002
21
-24.026566
31
0
39
0
210
0
220
0
230
1
0
LINE
5
266
100
AcDbEntity
8
2
62
256
6
ByLayer
370
13
48
1
60
0
100
AcDbLine
10
4.774998
20
-23.190573
30
0
11
4.775002
21
-24.026566
31
0
39
0
210
0
220
0
230
1
0
ENDBLK
5
268
100
AcDbEntity
8
0
100
AcDbBlockEnd
0
BLOCK
5
275
100
AcDbEntity
8
0
100
AcDbBlockBegin
2
DimnDraft3D5
70
0
10
0
20
0
30
0
3
DimnDraft3D5
0
MTEXT
5
26B
100
AcDbEntity
8
2
62
256
6
ByLayer
370
18
48
1
60
0
100
AcDbMText
10
51.825
20
-3.482895
30
0
210
0
220
0
230
1
1
\W0.7346;20.5
40
3.5
41
0
44
1.084337
50
90
71
7
72
5
7
iso_b_vert
0
LINE
5
26C
100
AcDbEntity
8
2
62
256
6
ByLayer
370
13
48
1
60
0
100
AcDbLine
10
-4
20
10
30
0
11
54.7
21
10
31
0
39
0
210
0
220
0
230
1
0
LINE
5
26D
100
AcDbEntity
8
2
62
256
6
ByLayer
370
13
48
1
60
0
100
AcDbLine
10
29.6
20
-10.5
30
0
11
54.7
21
-10.5
31
0
39
0
210
0
220
0
230
1
0
LINE
5
26E
100
AcDbEntity
8
2
62
256
6
ByLayer
370
13
48
1
60
0
100
AcDbLine
10
52.7
20
10
30
0
11
52.7
21
-10.5
31
0
39
0
210
0
220
0
230
1
0
LINE
5
26F
100
AcDbEntity
8
2
62
256
6
ByLayer
370
13
48
1
60
0
100
AcDbLine
10
52.7
20
10
30
0
11
53.117997
21
6.825002
31
0
39
0
210
0
220
0
230
1
0
LINE
5
270
100
AcDbEntity
8
2
62
256
6
ByLayer
370
13
48
1
60
0
100
AcDbLine
10
52.7
20
10
30
0
11
52.282003
21
6.824998
31
0
39
0
210
0
220
0
230
1
0
LINE
5
271
100
AcDbEntity
8
2
62
256
6
ByLayer
370
13
48
1
60
0
100
AcDbLine
10
53.117997
20
6.825002
30
0
11
52.282003
21
6.824998
31
0
39
0
210
0
220
0
230
1
0
LINE
5
272
100
AcDbEntity
8
2
62
256
6
ByLayer
370
13
48
1
60
0
100
AcDbLine
10
52.7
20
-10.5
30
0
11
52.282003
21
-7.325002
31
0
39
0
210
0
220
0
230
1
0
LINE
5
273
100
AcDbEntity
8
2
62
256
6
ByLayer
370
13
48
1
60
0
100
AcDbLine
10
52.7
20
-10.5
30
0
11
53.117997
21
-7.324998
31
0
39
0
210
0
220
0
230
1
0
LINE
5
274
100
AcDbEntity
8
2
62
256
6
ByLayer
370
13
48
1
60
0
100
AcDbLine
10
52.282003
20
-7.325002
30
0
11
53.117997
21
-7.324998
31
0
39
0
210
0
220
0
230
1
0
ENDBLK
5
276
100
AcDbEntity
8
0
100
AcDbBlockEnd
0
BLOCK
5
283
100
AcDbEntity
8
0
100
AcDbBlockBegin
2
DimnDraft3D6
70
0
10
0
20
0
30
0
3
DimnDraft3D6
0
MTEXT
5
279
100
AcDbEntity
8
2
62
256
6
ByLayer
370
18
48
1
60
0
100
AcDbMText
10
44.825
20
-21.445789
30
0
210
0
220
0
230
1
1
\W0.5404;3
40
3.5
41
0
44
1.084337
50
90
71
7
72
5
7
iso_b_vert
0
LINE
5
27A
100
AcDbEntity
8
2
62
256
6
ByLayer
370
13
48
1
60
0
100
AcDbLine
10
29.6
20
-10.5
30
0
11
47.7
21
-10.5
31
0
39
0
210
0
220
0
230
1
0
LINE
5
27B
100
AcDbEntity
8
2
62
256
6
ByLayer
370
13
48
1
60
0
100
AcDbLine
10
29.6
20
-7.5
30
0
11
47.7
21
-7.5
31
0
39
0
210
0
220
0
230
1
0
LINE
5
27C
100
AcDbEntity
8
2
62
256
6
ByLayer
370
13
48
1
60
0
100
AcDbLine
10
45.7
20
1.25
30
0
11
45.7
21
-22.320789
31
0
39
0
210
0
220
0
230
1
0
LINE
5
27D
100
AcDbEntity
8
2
62
256
6
ByLayer
370
13
48
1
60
0
100
AcDbLine
10
45.7
20
-10.5
30
0
11
46.117997
21
-13.674998
31
0
39
0
210
0
220
0
230
1
0
LINE
5
27E
100
AcDbEntity
8
2
62
256
6
ByLayer
370
13
48
1
60
0
100
AcDbLine
10
45.7
20
-10.5
30
0
11
45.282003
21
-13.675002
31
0
39
0
210
0
220
0
230
1
0
LINE
5
27F
100
AcDbEntity
8
2
62
256
6
ByLayer
370
13
48
1
60
0
100
AcDbLine
10
46.117997
20
-13.674998
30
0
11
45.282003
21
-13.675002
31
0
39
0
210
0
220
0
230
1
0
LINE
5
280
100
AcDbEntity
8
2
62
256
6
ByLayer
370
13
48
1
60
0
100
AcDbLine
10
45.7
20
-7.5
30
0
11
45.282003
21
-4.325002
31
0
39
0
210
0
220
0
230
1
0
LINE
5
281
100
AcDbEntity
8
2
62
256
6
ByLayer
370
13
48
1
60
0
100
AcDbLine
10
45.7
20
-7.5
30
0
11
46.117997
21
-4.324998
31
0
39
0
210
0
220
0
230
1
0
LINE
5
282
100
AcDbEntity
8
2
62
256
6
ByLayer
370
13
48
1
60
0
100
AcDbLine
10
45.282003
20
-4.325002
30
0
11
46.117997
21
-4.324998
31
0
39
0
210
0
220
0
230
1
0
ENDBLK
5
284
100
AcDbEntity
8
0
100
AcDbBlockEnd
0
ENDSEC
0
SECTION
2
ENTITIES
0
ARC
5
138
100
AcDbEntity
8
SK1
62
256
6
ByLayer
370
18
48
1
60
0
100
AcDbCircle
39
0
10
7.227723
20
-11.525
30
0
40
1.60000000001786
210
0
220
0
230
-1
100
AcDbArc
50
90
51
122.461745
0
ARC
5
139
100
AcDbEntity
8
1
62
256
6
ByLayer
370
18
48
1
60
0
100
AcDbCircle
39
0
10
1.6
20
-6.225
30
0
40
1.6
210
0
220
0
230
1
100
AcDbArc
50
180
51
270
0
ARC
5
13A
100
AcDbEntity
8
1
62
256
6
ByLayer
370
18
48
1
60
0
100
AcDbCircle
39
0
10
17.8
20
-7.95
30
0
40
0.2
210
0
220
0
230
1
100
AcDbArc
50
120
51
141.318614
0
ARC
5
13B
100
AcDbEntity
8
1
62
256
6
ByLayer
370
18
48
1
60
0
100
AcDbCircle
39
0
10
17.8
20
-10.05
30
0
40
0.2
210
0
220
0
230
1
100
AcDbArc
50
218.681386
51
240
0
ARC
5
13C
100
AcDbEntity
8
1
62
256
6
ByLayer
370
18
48
1
60
0
100
AcDbCircle
39
0
10
1.6
20
-6.225
30
0
40
1.6
210
0
220
0
230
1
100
AcDbArc
50
180
51
270
0
ARC
5
13D
100
AcDbEntity
8
1
62
256
6
ByLayer
370
18
48
1
60
0
100
AcDbCircle
39
0
10
7.227723
20
-11.525
30
0
40
1.60000000001786
210
0
220
0
230
-1
100
AcDbArc
50
90
51
122.461745
0
ELLIPSE
5
13E
100
AcDbEntity
8
1
62
256
6
ByLayer
370
18
48
1
60
0
100
AcDbEllipse
10
22.382033
20
-9
30
0
11
1.28358760011049
21
1.2972437592911E-15
31
0
210
0
220
0
230
-1
40
0.46744
41
1.05457302640959
42
-1.05457302640956
0
ELLIPSE
5
13F
100
AcDbEntity
8
1
62
256
6
ByLayer
370
18
48
1
60
0
100
AcDbEllipse
10
23.041428
20
-9
30
0
11
9.64885723403666E-17
21
0.600000000000119
31
0
210
0
220
0
230
-1
40
0.087172
41
-2.62536935320423
42
-0.516223300385561
0
ELLIPSE
5
140
100
AcDbEntity
8
1
62
256
6
ByLayer
370
13
48
1
60
0
100
AcDbEllipse
10
26.97413
20
-9
30
0
11
-7.38495814331257
21
9.04366666501288E-16
31
0
210
0
220
0
230
1
40
0.121869
41
1.16456723893879
42
1.18682389135614
0
ELLIPSE
5
141
100
AcDbEntity
8
1
62
256
6
ByLayer
370
13
48
1
60
0
100
AcDbEllipse
10
26.97413
20
-9
30
0
11
-7.38495814331257
21
9.04366666501288E-16
31
0
210
0
220
0
230
1
40
0.121869
41
-1.18682389135615
42
-1.16456723893881
0
ELLIPSE
5
142
100
AcDbEntity
8
1
62
256
6
ByLayer
370
13
48
1
60
0
100
AcDbEllipse
10
24.828622
20
-10.059701
30
0
11
-0.0129780832447762
21
0.239648845929397
31
0
210
0
220
0
230
1
40
0.707925
41
-1.55967335367816
42
-0.87882172671198
0
ELLIPSE
5
143
100
AcDbEntity
8
1
62
256
6
ByLayer
370
13
48
1
60
0
100
AcDbEllipse
10
26.058781
20
-10.181166
30
0
11
0.0322705528359686
21
0.237820544570188
31
0
210
0
220
0
230
1
40
0.009402
41
0.684082575267941
42
1.50161815253484
0
ELLIPSE
5
144
100
AcDbEntity
8
1
62
256
6
ByLayer
370
13
48
1
60
0
100
AcDbEllipse
10
26.058781
20
-7.818834
30
0
11
0.0322705528359684
21
-0.237820544570188
31
0
210
0
220
0
230
1
40
0.009402
41
-1.50161815253472
42
-0.684082575265424
0
ELLIPSE
5
145
100
AcDbEntity
8
1
62
256
6
ByLayer
370
13
48
1
60
0
100
AcDbEllipse
10
24.828622
20
-7.940299
30
0
11
-0.0129780832447759
21
-0.239648845929397
31
0
210
0
220
0
230
1
40
0.707925
41
0.878821726711965
42
1.55967335367816
0
ELLIPSE
5
146
100
AcDbEntity
8
1
62
256
6
ByLayer
370
13
48
1
60
0
100
AcDbEllipse
10
26.974131
20
-9
30
0
11
7.34839775604842
21
2.13200123910056E-08
31
0
210
0
220
0
230
-1
40
0.08165
41
1.95476878095718
42
2.00162050834128
0
ELLIPSE
5
147
100
AcDbEntity
8
1
62
256
6
ByLayer
370
13
48
1
60
0
100
AcDbEllipse
10
24.586644
20
-9
30
0
11
1.63150680946089
21
1.64886450027399E-15
31
0
210
0
220
0
230
-1
40
0.367758
41
-2.17407423407941
42
-2.00162049192118
0
ELLIPSE
5
148
100
AcDbEntity
8
1
62
256
6
ByLayer
370
13
48
1
60
0
100
AcDbEllipse
10
26.974131
20
-9
30
0
11
7.3483976959839
21
-1.85207203519599E-08
31
0
210
0
220
0
230
-1
40
0.08165
41
-2.00162050672176
42
-1.95476877899024
0
ELLIPSE
5
149
100
AcDbEntity
8
1
62
256
6
ByLayer
370
13
48
1
60
0
100
AcDbEllipse
10
24.586644
20
-9
30
0
11
1.63150680975768
21
1.64886450057394E-15
31
0
210
0
220
0
230
-1
40
0.367758
41
2.00162049190898
42
2.17407423403136
0
ELLIPSE
5
14A
100
AcDbEntity
8
1
62
256
6
ByLayer
370
13
48
1
60
0
100
AcDbEllipse
10
24.723829
20
-7.938617
30
0
11
0.1082392992065
21
0.214206101937563
31
0
210
0
220
0
230
1
40
0.678671
41
-1.84879976311946
42
-1.29279293091362
0
ELLIPSE
5
14B
100
AcDbEntity
8
1
62
256
6
ByLayer
370
13
48
1
60
0
100
AcDbEllipse
10
24.723829
20
-10.061383
30
0
11
0.1082392992065
21
-0.214206101937563
31
0
210
0
220
0
230
1
40
0.678671
41
1.29279293091361
42
1.84879976311945
0
ELLIPSE
5
14C
100
AcDbEntity
8
1
62
256
6
ByLayer
370
13
48
1
60
0
100
AcDbEllipse
10
24.459452
20
-9.821836
30
0
11
0.219354463278089
21
0.119931728245622
31
0
210
0
220
0
230
1
40
0.441633
41
0.600579851753443
42
1.30662817391549
0
ELLIPSE
5
14D
100
AcDbEntity
8
1
62
256
6
ByLayer
370
13
48
1
60
0
100
AcDbEllipse
10
24.459452
20
-8.178164
30
0
11
-0.219354463278086
21
0.119931728245626
31
0
210
0
220
0
230
1
40
0.441633
41
1.83496447967432
42
2.54101280183641
0
ELLIPSE
5
14E
100
AcDbEntity
8
1
62
256
6
ByLayer
370
13
48
1
60
0
100
AcDbEllipse
10
23.895115
20
-9.726897
30
0
11
-0.0433548151255266
21
-0.195244359727577
31
0
210
0
220
0
230
1
40
0.334809
41
-2.68611088405471
42
-1.49658713340604
0
ELLIPSE
5
14F
100
AcDbEntity
8
1
62
256
6
ByLayer
370
13
48
1
60
0
100
AcDbEllipse
10
23.895115
20
-8.273103
30
0
11
-0.0433548151255279
21
0.195244359727577
31
0
210
0
220
0
230
1
40
0.334809
41
1.49658713340602
42
2.68611088405478
0
ELLIPSE
5
150
100
AcDbEntity
8
1
62
256
6
ByLayer
370
13
48
1
60
0
100
AcDbEllipse
10
24.51824
20
-9
30
0
11
1.65588067689161
21
-5.93679175995962E-10
31
0
210
0
220
0
230
-1
40
0.483127
41
2.00162049140478
42
2.17407423366282
0
ELLIPSE
5
151
100
AcDbEntity
8
1
62
256
6
ByLayer
370
13
48
1
60
0
100
AcDbEllipse
10
24.51824
20
-9
30
0
11
1.65588067671212
21
6.72671082126622E-10
31
0
210
0
220
0
230
-1
40
0.483127
41
-2.17407423361064
42
-2.00162049133577
0
ELLIPSE
5
152
100
AcDbEntity
8
1
62
256
6
ByLayer
370
13
48
1
60
0
100
AcDbEllipse
10
24.725564
20
-10.061022
30
0
11
0.00742724597932589
21
0.239885047506431
31
0
210
0
220
0
230
1
40
0.70617
41
-1.4995182195746
42
-0.846393084122536
0
ELLIPSE
5
153
100
AcDbEntity
8
1
62
256
6
ByLayer
370
13
48
1
60
0
100
AcDbEllipse
10
24.725564
20
-7.938978
30
0
11
0.00742724597932567
21
-0.239885047506431
31
0
210
0
220
0
230
1
40
0.70617
41
0.846393084122536
42
1.49951821957461
0
ELLIPSE
5
154
100
AcDbEntity
8
1
62
256
6
ByLayer
370
13
48
1
60
0
100
AcDbEllipse
10
23.647188
20
-9.658784
30
0
11
-0.0631638165780187
21
-0.189763885592856
31
0
210
0
220
0
230
1
40
0.326425
41
-2.50339446299677
42
-1.46256868006914
0
ELLIPSE
5
155
100
AcDbEntity
8
1
62
256
6
ByLayer
370
13
48
1
60
0
100
AcDbEllipse
10
23.647188
20
-8.341216
30
0
11
-0.0631638165785347
21
0.189763885592684
31
0
210
0
220
0
230
1
40
0.326425
41
1.46256868006825
42
2.50339446299227
0
ELLIPSE
5
156
100
AcDbEntity
8
1
62
256
6
ByLayer
370
13
48
1
60
0
100
AcDbEllipse
10
24.450683
20
-9.834465
30
0
11
0.195064510201759
21
-0.227925068519783
31
0
210
0
220
0
230
1
40
0.863833
41
1.64869430110507
42
2.31141389753818
0
ELLIPSE
5
157
100
AcDbEntity
8
1
62
256
6
ByLayer
370
13
48
1
60
0
100
AcDbEllipse
10
24.450683
20
-8.165535
30
0
11
-0.195064510201764
21
-0.227925068519779
31
0
210
0
220
0
230
1
40
0.863833
41
0.830178756051643
42
1.49289835248475
0
ELLIPSE
5
158
100
AcDbEntity
8
1
62
256
6
ByLayer
370
13
48
1
60
0
100
AcDbEllipse
10
23.550966
20
-9.697967
30
0
11
0.182866340278506
21
-0.0809932194269721
31
0
210
0
220
0
230
1
40
0.14582
41
-2.77286095187748
42
-1.88885149068672
0
ELLIPSE
5
159
100
AcDbEntity
8
1
62
256
6
ByLayer
370
13
48
1
60
0
100
AcDbEllipse
10
23.550966
20
-8.302033
30
0
11
0.182866340278443
21
0.0809932194271139
31
0
210
0
220
0
230
1
40
0.14582
41
1.88885149068653
42
2.7728609518752
0
ELLIPSE
5
15A
100
AcDbEntity
8
1
62
256
6
ByLayer
370
13
48
1
60
0
100
AcDbEllipse
10
24.502412
20
-8.293067
30
0
11
-0.299757884748935
21
0.0120503332254432
31
0
210
0
220
0
230
1
40
0.786325
41
1.67791435062301
42
2.25220990045423
0
ELLIPSE
5
15B
100
AcDbEntity
8
1
62
256
6
ByLayer
370
13
48
1
60
0
100
AcDbEllipse
10
24.502412
20
-9.706933
30
0
11
0.299757884748933
21
0.0120503332254948
31
0
210
0
220
0
230
1
40
0.786325
41
0.889382753135441
42
1.46367830296668
0
ELLIPSE
5
15C
100
AcDbEntity
8
1
62
256
6
ByLayer
370
13
48
1
60
0
100
AcDbEllipse
10
19.908132
20
-7.730414
30
0
11
0.998914191640101
21
-0.226032306469154
31
0
210
0
220
0
230
-1
40
0.206112
41
1.99506909477396
42
2.24548541565844
0
ELLIPSE
5
15D
100
AcDbEntity
8
1
62
256
6
ByLayer
370
13
48
1
60
0
100
AcDbEllipse
10
23.292326
20
-7.874098
30
0
11
0.0570319130279923
21
-0.138734858259803
31
0
210
0
220
0
230
1
40
0.776494
41
-1.87977830526729
42
-1.56980601158793
0
ELLIPSE
5
15E
100
AcDbEntity
8
1
62
256
6
ByLayer
370
13
48
1
60
0
100
AcDbEllipse
10
23.292326
20
-10.125902
30
0
11
-0.0570319130268966
21
-0.138734858260253
31
0
210
0
220
0
230
1
40
0.776494
41
-1.57178664200835
42
-1.26181434832865
0
ELLIPSE
5
15F
100
AcDbEntity
8
1
62
256
6
ByLayer
370
13
48
1
60
0
100
AcDbEllipse
10
23.68147
20
-9.479243
30
0
11
-0.105329348464612
21
0.280901634655301
31
0
210
0
220
0
230
1
40
0.319781
41
-1.09012327608119
42
-0.20369511439998
0
ELLIPSE
5
160
100
AcDbEntity
8
1
62
256
6
ByLayer
370
13
48
1
60
0
100
AcDbEllipse
10
23.68147
20
-8.520757
30
0
11
-0.105329348464631
21
-0.280901634655294
31
0
210
0
220
0
230
1
40
0.319781
41
0.203695114399998
42
1.09012327608123
0
ELLIPSE
5
161
100
AcDbEntity
8
1
62
256
6
ByLayer
370
13
48
1
60
0
100
AcDbEllipse
10
24.609329
20
-9.288572
30
0
11
-0.263738087060282
21
0.142976296755033
31
0
210
0
220
0
230
1
40
0.337339
41
-2.12742665195262
42
-1.51944467242794
0
ELLIPSE
5
162
100
AcDbEntity
8
1
62
256
6
ByLayer
370
13
48
1
60
0
100
AcDbEllipse
10
24.609329
20
-8.711428
30
0
11
-0.26373808706239
21
-0.142976296751144
31
0
210
0
220
0
230
1
40
0.337339
41
1.51944467242557
42
2.12742665190393
0
ELLIPSE
5
163
100
AcDbEntity
8
1
62
256
6
ByLayer
370
13
48
1
60
0
100
AcDbEllipse
10
23.289927
20
-10.125438
30
0
11
4.24912383924225E-17
21
0.15
31
0
210
0
220
0
230
1
40
0.795546
41
1.23482044578598
42
1.5707963267949
0
ELLIPSE
5
164
100
AcDbEntity
8
1
62
256
6
ByLayer
370
13
48
1
60
0
100
AcDbEllipse
10
19.908132
20
-10.269586
30
0
11
0.9795820524733
21
0.301726209252576
31
0
210
0
220
0
230
-1
40
0.270086
41
-2.24185105459499
42
-2.05273074519942
0
ELLIPSE
5
165
100
AcDbEntity
8
1
62
256
6
ByLayer
370
13
48
1
60
0
100
AcDbEllipse
10
23.289927
20
-7.874562
30
0
11
4.24912383924225E-17
21
0.15
31
0
210
0
220
0
230
1
40
0.795546
41
1.5707963267949
42
1.90677220780381
0
ELLIPSE
5
166
100
AcDbEntity
8
1
62
256
6
ByLayer
370
13
48
1
60
0
100
AcDbEllipse
10
19.908132
20
-10.269586
30
0
11
0.998914191484297
21
0.226032306457885
31
0
210
0
220
0
230
-1
40
0.206112
41
-2.24548541562022
42
-1.99506909470529
0
ELLIPSE
5
167
100
AcDbEntity
8
1
62
256
6
ByLayer
370
13
48
1
60
0
100
AcDbEllipse
10
23.033293
20
-10.125438
30
0
11
-2.75536429610035E-17
21
-0.15
31
0
210
0
220
0
230
1
40
0.34202
41
-1.75278811305915
42
-1.5707963267949
0
ELLIPSE
5
168
100
AcDbEntity
8
1
62
256
6
ByLayer
370
13
48
1
60
0
100
AcDbEllipse
10
23.033293
20
-7.874562
30
0
11
4.24912383924225E-17
21
0.15
31
0
210
0
220
0
230
1
40
0.34202
41
1.5707963267949
42
1.75278811305913
0
ELLIPSE
5
169
100
AcDbEntity
8
1
62
256
6
ByLayer
370
13
48
1
60
0
100
AcDbEllipse
10
23.539982
20
-8.566549
30
0
11
-0.0205626710087509
21
-0.198940133107892
31
0
210
0
220
0
230
1
40
0.702979
41
-1.10867675839076
42
-0.33705954463874
0
ELLIPSE
5
16A
100
AcDbEntity
8
1
62
256
6
ByLayer
370
13
48
1
60
0
100
AcDbEllipse
10
23.539982
20
-9.433451
30
0
11
-0.0205626710087514
21
0.198940133107892
31
0
210
0
220
0
230
1
40
0.702979
41
0.33705954463874
42
1.10867675839074
0
ELLIPSE
5
16B
100
AcDbEntity
8
1
62
256
6
ByLayer
370
13
48
1
60
0
100
AcDbEllipse
10
23.672352
20
-8.517337
30
0
11
0.1054031629799
21
0.280873945452106
31
0
210
0
220
0
230
1
40
0.321796
41
-2.93702761420035
42
-2.05551827773613
0
ELLIPSE
5
16C
100
AcDbEntity
8
1
62
256
6
ByLayer
370
13
48
1
60
0
100
AcDbEllipse
10
23.672352
20
-9.482663
30
0
11
-0.105403162979924
21
0.280873945452097
31
0
210
0
220
0
230
1
40
0.321796
41
-1.0860743758537
42
-0.204565039389478
0
ELLIPSE
5
16D
100
AcDbEntity
8
1
62
256
6
ByLayer
370
13
48
1
60
0
100
AcDbEllipse
10
26.747654
20
-10.191357
30
0
11
-0.00560126668057228
21
0.239934628204378
31
0
210
0
220
0
230
1
40
0.172043
41
0.732097455141176
42
1.49800588930575
0
ELLIPSE
5
16E
100
AcDbEntity
8
1
62
256
6
ByLayer
370
13
48
1
60
0
100
AcDbEllipse
10
26.747654
20
-7.808643
30
0
11
-0.00560126668057245
21
-0.239934628204378
31
0
210
0
220
0
230
1
40
0.172043
41
-1.49800588930574
42
-0.732097455141088
0
ELLIPSE
5
16F
100
AcDbEntity
8
1
62
256
6
ByLayer
370
13
48
1
60
0
100
AcDbEllipse
10
23.531197
20
-9.433936
30
0
11
5.665498452323E-17
21
0.2
31
0
210
0
220
0
230
1
40
0.803713
41
0.416381924289186
42
1.234820445786
0
ELLIPSE
5
170
100
AcDbEntity
8
1
62
256
6
ByLayer
370
13
48
1
60
0
100
AcDbEllipse
10
23.531197
20
-8.566064
30
0
11
5.665498452323E-17
21
0.2
31
0
210
0
220
0
230
1
40
0.803713
41
1.90677220780381
42
2.72521072930058
0
ELLIPSE
5
171
100
AcDbEntity
8
1
62
256
6
ByLayer
370
13
48
1
60
0
100
AcDbEllipse
10
23.133999
20
-8.566064
30
0
11
5.665498452323E-17
21
0.2
31
0
210
0
220
0
230
1
40
0.34202
41
1.90677220780381
42
2.72521072930059
0
ELLIPSE
5
172
100
AcDbEntity
8
1
62
256
6
ByLayer
370
13
48
1
60
0
100
AcDbEllipse
10
23.133999
20
-9.433936
30
0
11
-3.67381906146713E-17
21
-0.2
31
0
210
0
220
0
230
1
40
0.34202
41
-2.72521072930059
42
-1.90677220780381
0
ELLIPSE
5
173
100
AcDbEntity
8
1
62
256
6
ByLayer
370
13
48
1
60
0
100
AcDbEllipse
10
27.513527
20
-9.77169
30
0
11
-0.0833341889559589
21
0.0552757899179428
31
0
210
0
220
0
230
1
40
0.125151
41
-1.63388084261215
42
-1.00888984397345
0
ELLIPSE
5
174
100
AcDbEntity
8
1
62
256
6
ByLayer
370
13
48
1
60
0
100
AcDbEllipse
10
27.352853
20
-8.078833
30
0
11
-0.0533981556875966
21
-0.0845496124719871
31
0
210
0
220
0
230
1
40
0.139768
41
0.740023965275087
42
1.57717485146101
0
ELLIPSE
5
175
100
AcDbEntity
8
1
62
256
6
ByLayer
370
13
48
1
60
0
100
AcDbEllipse
10
27.352853
20
-9.921167
30
0
11
-0.0533981556875965
21
0.0845496124719871
31
0
210
0
220
0
230
1
40
0.139768
41
-1.57717485146101
42
-0.740023965275087
0
ELLIPSE
5
176
100
AcDbEntity
8
1
62
256
6
ByLayer
370
13
48
1
60
0
100
AcDbEllipse
10
27.513527
20
-8.22831
30
0
11
-0.0833341889559589
21
-0.0552757899179427
31
0
210
0
220
0
230
1
40
0.125151
41
1.00888984397365
42
1.63388084261211
0
ELLIPSE
5
177
100
AcDbEntity
8
1
62
256
6
ByLayer
370
13
48
1
60
0
100
AcDbEllipse
10
26.858678
20
-8.410924
30
0
11
0.014829333617164
21
-0.399725019062444
31
0
210
0
220
0
230
1
40
0.406503
41
1.55571667185631
42
2.33595515067487
0
ELLIPSE
5
178
100
AcDbEntity
8
1
62
256
6
ByLayer
370
13
48
1
60
0
100
AcDbEllipse
10
26.858678
20
-9.589076
30
0
11
0.0148293336171642
21
0.399725019062444
31
0
210
0
220
0
230
1
40
0.406503
41
-2.33595515067487
42
-1.5557166718563
0
ELLIPSE
5
179
100
AcDbEntity
8
1
62
256
6
ByLayer
370
13
48
1
60
0
100
AcDbEllipse
10
27.123358
20
-7.91937
30
0
11
-0.0777628762498878
21
-0.0628723713354653
31
0
210
0
220
0
230
1
40
0.13045
41
1.15581636427955
42
1.62182792903084
0
ELLIPSE
5
17A
100
AcDbEntity
8
1
62
256
6
ByLayer
370
13
48
1
60
0
100
AcDbEllipse
10
27.220403
20
-7.996743
30
0
11
-0.0518341759381039
21
-0.0855173561612945
31
0
210
0
220
0
230
1
40
0.13986
41
0.736311954700208
42
1.57460332353073
0
ELLIPSE
5
17B
100
AcDbEntity
8
1
62
256
6
ByLayer
370
13
48
1
60
0
100
AcDbEllipse
10
27.220403
20
-10.003257
30
0
11
-0.0518341759381039
21
0.0855173561612945
31
0
210
0
220
0
230
1
40
0.13986
41
-1.5746033235308
42
-0.736311954700113
0
ELLIPSE
5
17C
100
AcDbEntity
8
1
62
256
6
ByLayer
370
13
48
1
60
0
100
AcDbEllipse
10
27.123358
20
-10.08063
30
0
11
-0.0777628762498878
21
0.0628723713354654
31
0
210
0
220
0
230
1
40
0.13045
41
-1.62182792903084
42
-1.15581636427962
0
ELLIPSE
5
17D
100
AcDbEntity
8
1
62
256
6
ByLayer
370
13
48
1
60
0
100
AcDbEllipse
10
26.358781
20
-10.195151
30
0
11
-0.00824662055120453
21
0.239858277425409
31
0
210
0
220
0
230
1
40
0.002403
41
-1.50102444918784
42
-0.709373157670905
0
ELLIPSE
5
17E
100
AcDbEntity
8
1
62
256
6
ByLayer
370
13
48
1
60
0
100
AcDbEllipse
10
26.358781
20
-7.804849
30
0
11
-0.0082466205512047
21
-0.239858277425409
31
0
210
0
220
0
230
1
40
0.002403
41
0.709373157669168
42
1.50102444918781
0
ELLIPSE
5
17F
100
AcDbEntity
8
1
62
256
6
ByLayer
370
13
48
1
60
0
100
AcDbEllipse
10
23.382996
20
-6.919859
30
0
11
5.665498452323E-16
21
2
31
0
210
0
220
0
230
1
40
0.34202
41
2.7252107293006
42
2.79252680319093
0
ELLIPSE
5
180
100
AcDbEntity
8
1
62
256
6
ByLayer
370
13
48
1
60
0
100
AcDbEllipse
10
23.382996
20
-11.080141
30
0
11
-3.67381906146713E-16
21
-2
31
0
210
0
220
0
230
1
40
0.34202
41
-2.79252680319093
42
-2.7252107293006
0
ELLIPSE
5
181
100
AcDbEntity
8
1
62
256
6
ByLayer
370
13
48
1
60
0
100
AcDbEllipse
10
27.535862
20
-9.73707
30
0
11
-0.0846493904271157
21
0.0532398412874958
31
0
210
0
220
0
230
1
40
0.065231
41
-1.67414184501559
42
-1.04577954889649
0
ELLIPSE
5
182
100
AcDbEntity
8
1
62
256
6
ByLayer
370
13
48
1
60
0
100
AcDbEllipse
10
27.535862
20
-8.26293
30
0
11
-0.0846493904271157
21
-0.0532398412874957
31
0
210
0
220
0
230
1
40
0.065231
41
1.04577954889694
42
1.67414184501559
0
ELLIPSE
5
183
100
AcDbEntity
8
1
62
256
6
ByLayer
370
13
48
1
60
0
100
AcDbEllipse
10
23.127689
20
-9
30
0
11
5.94877337493915E-17
21
0.21
31
0
210
0
220
0
230
1
40
0.34202
41
-2.79252680319096
42
-0.349065850398837
0
ELLIPSE
5
184
100
AcDbEntity
8
1
62
256
6
ByLayer
370
13
48
1
60
0
100
AcDbEllipse
10
19.908132
20
-7.730414
30
0
11
0.979582052606382
21
-0.301726209266454
31
0
210
0
220
0
230
-1
40
0.270086
41
2.05273074524715
42
2.24185105462219
0
ELLIPSE
5
185
100
AcDbEntity
8
1
62
256
6
ByLayer
370
18
48
1
60
0
100
AcDbEllipse
10
22.382033
20
-9
30
0
11
1.28358760011049
21
1.2972437592911E-15
31
0
210
0
220
0
230
-1
40
0.46744
41
1.05457302640959
42
-1.05457302640956
0
ELLIPSE
5
186
100
AcDbEntity
8
1
62
256
6
ByLayer
370
18
48
1
60
0
100
AcDbEllipse
10
23.041428
20
-9
30
0
11
9.64885723403666E-17
21
0.600000000000119
31
0
210
0
220
0
230
-1
40
0.087172
41
-2.62536935320423
42
-0.516223300385561
0
ELLIPSE
5
187
100
AcDbEntity
8
1
62
256
6
ByLayer
370
18
48
1
60
0
100
AcDbEllipse
10
27.106337
20
-10.473303
30
0
11
0.239997046651334
21
-0.0169489931110667
31
0
210
0
220
0
230
-1
40
0.070266
41
1.44395567241872
42
1.73995037538274
0
ELLIPSE
5
188
100
AcDbEntity
8
1
62
256
6
ByLayer
370
18
48
1
60
0
100
AcDbEllipse
10
27.648748
20
-9.73707
30
0
11
1.1330996904646E-16
21
0.4
31
0
210
0
220
0
230
1
40
0.121869
41
1.5707963267949
42
1.64009079051254
0
ELLIPSE
5
189
100
AcDbEntity
8
1
62
256
6
ByLayer
370
18
48
1
60
0
100
AcDbEllipse
10
27.648748
20
-8.26293
30
0
11
1.1330996904646E-16
21
0.4
31
0
210
0
220
0
230
1
40
0.121869
41
1.50150186307726
42
1.5707963267949
0
ELLIPSE
5
18A
100
AcDbEntity
8
1
62
256
6
ByLayer
370
18
48
1
60
0
100
AcDbEllipse
10
24.142652
20
-7.55
30
0
11
0.201946432116473
21
0
31
0
210
0
220
0
230
1
40
0.990362
41
-1.5707963267949
42
-1.04299365512072
0
ELLIPSE
5
18B
100
AcDbEntity
8
1
62
256
6
ByLayer
370
18
48
1
60
0
100
AcDbEllipse
10
24.736306
20
-10.341309
30
0
11
0.251841921961506
21
-0.0177818623351896
31
0
210
0
220
0
230
-1
40
0.06924
41
0.774400198843772
42
1.56101782182516
0
ELLIPSE
5
18C
100
AcDbEntity
8
1
62
256
6
ByLayer
370
18
48
1
60
0
100
AcDbEllipse
10
24.153398
20
-10.45
30
0
11
-0.201490790302156
21
2.46746902040712E-17
31
0
210
0
220
0
230
1
40
0.992601
41
-2.09761674342106
42
-1.5707963267949
0
ELLIPSE
5
18D
100
AcDbEntity
8
1
62
256
6
ByLayer
370
18
48
1
60
0
100
AcDbEllipse
10
24.736306
20
-7.658691
30
0
11
0.251841921996605
21
0.0177818623393389
31
0
210
0
220
0
230
-1
40
0.06924
41
-1.56101782172803
42
-0.774400198846142
0
ELLIPSE
5
18E
100
AcDbEntity
8
1
62
256
6
ByLayer
370
18
48
1
60
0
100
AcDbEllipse
10
27.106337
20
-7.526697
30
0
11
0.239997046559858
21
0.0169489931051704
31
0
210
0
220
0
230
-1
40
0.070266
41
-1.73995037541426
42
-1.44395567233677
0
ELLIPSE
5
18F
100
AcDbEntity
8
1
62
256
6
ByLayer
370
18
48
1
60
0
100
AcDbEllipse
10
24.39757
20
-7.865831
30
0
11
0.058624730201206
21
-0.191752852286547
31
0
210
-1.59644179966719E-15
220
4.38574520942052E-19
230
1
40
0.997435
41
2.91526219766619
42
-2.91526219766617
0
ELLIPSE
5
190
100
AcDbEntity
8
1
62
256
6
ByLayer
370
18
48
1
60
0
100
AcDbEllipse
10
24.409275
20
-10.134987
30
0
11
0.00297293931671267
21
0.200467814146891
31
0
210
-1.59612295829283E-15
220
-1.26268957575375E-19
230
1
40
0.997557
41
2.63386280411414
42
3.08674247812914
0
POINT
5
6C
100
AcDbEntity
8
80
62
256
6
ByLayer
370
18
48
1
60
0
100
AcDbPoint
10
0
20
0
30
0
39
0
210
0
220
0
230
1
50
360
0
POINT
5
6E
100
AcDbEntity
8
81
62
256
6
ByLayer
370
18
48
1
60
0
100
AcDbPoint
10
27.6
20
-10.5
30
0
39
0
210
0
220
0
230
1
50
360
0
SPLINE
5
191
100
AcDbEntity
8
1
62
256
6
ByLayer
370
18
48
1
60
0
100
AcDbSpline
70
4
71
3
72
16
73
12
40
0
40
0
40
0
40
0
40
0.0032093793325141
40
0.0032093793325141
40
0.307563251004291
40
0.307563251004291
40
0.566628283641945
40
0.566628283641945
40
0.795257190191972
40
0.795257190191972
40
1
40
1
40
1
40
1
41
1
10
14.5644268988194
20
-7.82500000000053
30
0
41
1
10
14.56194295505
20
-7.82500000000053
30
0
41
1
10
14.559459065312
20
-7.8249942159068
30
0
41
1
10
14.3214124853528
20
-7.82388552929072
30
0
41
1
10
14.080621597992
20
-7.7692287033978
30
0
41
1
10
13.6769746594152
20
-7.57229535393588
30
0
41
1
10
13.5014363063554
20
-7.44052331282433
30
0
41
1
10
13.231894371802
20
-7.13129562585411
30
0
41
1
10
13.1267742014134
20
-6.95557349863407
30
0
41
1
10
12.9975576921751
20
-6.59591558494216
30
0
41
1
10
12.9644268988194
20
-6.40887123928374
30
0
41
1
10
12.9644268988194
20
-6.22500000000045
30
0
0
SPLINE
5
192
100
AcDbEntity
8
1
62
256
6
ByLayer
370
13
48
1
60
0
100
AcDbSpline
70
4
71
3
72
10
73
6
40
0
40
0
40
0
40
0
40
0.664993946719532
40
0.664993946719532
40
1
40
1
40
1
40
1
41
1
10
24.631795236158
20
-9.64873631095736
30
0
41
1
10
24.6544008183665
20
-9.62790972923818
30
0
41
1
10
24.671972629713
20
-9.60206539777391
30
0
41
1
10
24.6836688596485
20
-9.55378934754316
30
0
41
1
10
24.6849134160383
20
-9.53560891555264
30
0
41
1
10
24.6838678419132
20
-9.51627328434716
30
0
0
SPLINE
5
193
100
AcDbEntity
8
1
62
256
6
ByLayer
370
13
48
1
60
0
100
AcDbSpline
70
4
71
3
72
12
73
8
40
0
40
0
40
0
40
0
40
0.274450233641753
40
0.274450233641753
40
0.728710906931613
40
0.728710906931613
40
1
40
1
40
1
40
1
41
1
10
25.7146869282979
20
-9.81938421983543
30
0
41
1
10
25.6122143236957
20
-9.78890493442637
30
0
41
1
10
25.509497462749
20
-9.7585576137447
30
0
41
1
10
25.2439453836002
20
-9.68042241402216
30
0
41
1
10
25.0820473482734
20
-9.63312922823658
30
0
41
1
10
24.846079380226
20
-9.56405193177505
30
0
41
1
10
24.7617198878049
20
-9.53948409520461
30
0
41
1
10
24.6838678419132
20
-9.51627328434716
30
0
0
SPLINE
5
194
100
AcDbEntity
8
1
62
256
6
ByLayer
370
13
48
1
60
0
100
AcDbSpline
70
4
71
3
72
16
73
12
40
0
40
0
40
0
40
0
40
0.0442199247554627
40
0.0442199247554627
40
0.048439955548864
40
0.048439955548864
40
0.216895358525141
40
0.216895358525141
40
0.889245809546153
40
0.889245809546153
40
1
40
1
40
1
40
1
41
1
10
26.4219297662852
20
-9.89129551224909
30
0
41
1
10
26.4113300785451
20
-9.89166524527826
30
0
41
1
10
26.4007291289449
20
-9.89199656770478
30
0
41
1
10
26.3891179461187
20
-9.89240335750679
30
0
41
1
10
26.3881063966876
20
-9.89243892470984
30
0
41
1
10
26.3467182945273
20
-9.89389908341153
30
0
41
1
10
26.3063476610928
20
-9.89579527699601
30
0
41
1
10
26.1067119730517
20
-9.90253871303534
30
0
41
1
10
25.9453726295508
20
-9.88159252540535
30
0
41
1
10
25.7656324617667
20
-9.83411187239912
30
0
41
1
10
25.7400997197492
20
-9.82694295933163
30
0
41
1
10
25.7146869282979
20
-9.81938421983543
30
0
0
SPLINE
5
195
100
AcDbEntity
8
1
62
256
6
ByLayer
370
13
48
1
60
0
100
AcDbSpline
70
4
71
3
72
12
73
8
40
0
40
0
40
0
40
0
40
0.609383607480292
40
0.609383607480292
40
0.614539779329414
40
0.614539779329414
40
1
40
1
40
1
40
1
41
1
10
26.9656057053218
20
-9.87029373551343
30
0
41
1
10
26.8600213620049
20
-9.87464674766346
30
0
41
1
10
26.7496097970341
20
-9.87897620064172
30
0
41
1
10
26.6373081383666
20
-9.88324771277229
30
0
41
1
10
26.6363601843113
20
-9.88328376790906
30
0
41
1
10
26.5647049543389
20
-9.88600906692426
30
0
41
1
10
26.4932165299022
20
-9.88880892286085
30
0
41
1
10
26.4219297662852
20
-9.89129551224909
30
0
0
SPLINE
5
196
100
AcDbEntity
8
1
62
256
6
ByLayer
370
13
48
1
60
0
100
AcDbSpline
70
4
71
3
72
12
73
8
40
0
40
0
40
0
40
0
40
0.178891096392299
40
0.178891096392299
40
0.986291642516443
40
0.986291642516443
40
1
40
1
40
1
40
1
41
1
10
27.3213895076228
20
-9.85369877703786
30
0
41
1
10
27.3003115269679
20
-9.85453511808501
30
0
41
1
10
27.2792221384665
20
-9.85537813843496
30
0
41
1
10
27.1629014296376
20
-9.86006683050647
30
0
41
1
10
27.0679540502601
20
-9.86571049280036
30
0
41
1
10
26.9689156735317
20
-9.87015426893467
30
0
41
1
10
26.9672607449414
20
-9.87022550184028
30
0
41
1
10
26.9656057053218
20
-9.87029373551343
30
0
0
SPLINE
5
197
100
AcDbEntity
8
1
62
256
6
ByLayer
370
13
48
1
60
0
100
AcDbSpline
70
4
71
3
72
8
73
4
40
0
40
0
40
0
40
0
40
1
40
1
40
1
40
1
41
1
10
27.1900286630425
20
-9.93502396633576
30
0
41
1
10
27.234090020669
20
-9.90836099842892
30
0
41
1
10
27.2778395366007
20
-9.88118417988136
30
0
41
1
10
27.3213895076228
20
-9.85369877703786
30
0
0
SPLINE
5
198
100
AcDbEntity
8
1
62
256
6
ByLayer
370
13
48
1
60
0
100
AcDbSpline
70
4
71
3
72
8
73
4
40
0
40
0
40
0
40
0
40
1
40
1
40
1
40
1
41
1
10
26.7158957172693
20
-10.0135442121622
30
0
41
1
10
26.8755545267195
20
-10.0130277999442
30
0
41
1
10
27.0354150796997
20
-9.9788350507722
30
0
41
1
10
27.1900286630425
20
-9.93502396633576
30
0
0
SPLINE
5
199
100
AcDbEntity
8
1
62
256
6
ByLayer
370
13
48
1
60
0
100
AcDbSpline
70
4
71
3
72
8
73
4
40
0
40
0
40
0
40
0
40
1
40
1
40
1
40
1
41
1
10
26.3528986418119
20
-10.0131405318693
30
0
41
1
10
26.4744062234274
20
-10.0090903763065
30
0
41
1
10
26.5966210532665
20
-10.0139300029262
30
0
41
1
10
26.7158957172706
20
-10.013544212164
30
0
0
SPLINE
5
19A
100
AcDbEntity
8
1
62
256
6
ByLayer
370
13
48
1
60
0
100
AcDbSpline
70
4
71
3
72
8
73
4
40
0
40
0
40
0
40
0
40
1
40
1
40
1
40
1
41
1
10
26.0823771357602
20
-9.99666327692205
30
0
41
1
10
26.1716495580756
20
-10.0103648582547
30
0
41
1
10
26.2625883571386
20
-10.0161508024799
30
0
41
1
10
26.3528986418104
20
-10.0131405318698
30
0
0
SPLINE
5
19B
100
AcDbEntity
8
1
62
256
6
ByLayer
370
13
48
1
60
0
100
AcDbSpline
70
4
71
3
72
14
73
10
40
0
40
0
40
0
40
0
40
0.102691686735347
40
0.102691686735347
40
0.53816841361549
40
0.53816841361549
40
0.926474667639871
40
0.926474667639871
40
1
40
1
40
1
40
1
41
1
10
24.9509720530679
20
-9.89971618844982
30
0
41
1
10
24.980893999408
20
-9.89647330533109
30
0
41
1
10
25.0122711139629
20
-9.89426833866497
30
0
41
1
10
25.1807977171794
20
-9.88758561178835
30
0
41
1
10
25.342161843352
20
-9.8979002391703
30
0
41
1
10
25.6640413220708
20
-9.93246605465419
30
0
41
1
10
25.8272620626367
20
-9.95594504470958
30
0
41
1
10
26.0201021624027
20
-9.98704198800485
30
0
41
1
10
26.0512578164011
20
-9.99188706637275
30
0
41
1
10
26.0823771357602
20
-9.99666327692194
30
0
0
SPLINE
5
19C
100
AcDbEntity
8
1
62
256
6
ByLayer
370
13
48
1
60
0
100
AcDbSpline
70
4
71
3
72
8
73
4
40
0
40
0
40
0
40
0
40
1
40
1
40
1
40
1
41
1
10
24.8573483090604
20
-9.90598072546752
30
0
41
1
10
24.8886707932501
20
-9.90531437730633
30
0
41
1
10
24.9198681643654
20
-9.90308716821338
30
0
41
1
10
24.9509720530679
20
-9.89971618844982
30
0
0
SPLINE
5
19D
100
AcDbEntity
8
1
62
256
6
ByLayer
370
13
48
1
60
0
100
AcDbSpline
70
4
71
3
72
10
73
6
40
0
40
0
40
0
40
0
40
0.436659189793396
40
0.436659189793396
40
1
40
1
40
1
40
1
41
1
10
24.6305156049706
20
-9.69372882913754
30
0
41
1
10
24.6626760675876
20
-9.72551322201701
30
0
41
1
10
24.6951835994715
20
-9.75695131329471
30
0
41
1
10
24.7705662077347
20
-9.82796696046441
30
0
41
1
10
24.8138220700955
20
-9.86717453485724
30
0
41
1
10
24.8573483090634
20
-9.90598072546823
30
0
0
SPLINE
5
19E
100
AcDbEntity
8
1
62
256
6
ByLayer
370
13
48
1
60
0
100
AcDbSpline
70
4
71
3
72
10
73
6
40
0
40
0
40
0
40
0
40
0.73561768390405
40
0.73561768390405
40
1
40
1
40
1
40
1
41
1
10
24.6305156049706
20
-9.69372882913754
30
0
41
1
10
24.6246851208416
20
-9.68796652402273
30
0
41
1
10
24.6191348692197
20
-9.6816539877762
30
0
41
1
10
24.6131625911601
20
-9.67287701107085
30
0
41
1
10
24.6117118978094
20
-9.67049524638622
30
0
41
1
10
24.6104895579181
20
-9.66814594589198
30
0
0
SPLINE
5
19F
100
AcDbEntity
8
1
62
256
6
ByLayer
370
13
48
1
60
0
100
AcDbSpline
70
4
71
3
72
8
73
4
40
0
40
0
40
0
40
0
40
1
40
1
40
1
40
1
41
1
10
24.610489557921
20
-9.6681459458886
30
0
41
1
10
24.6176603296031
20
-9.66168335254324
30
0
41
1
10
24.6247646325939
20
-9.6552136243179
30
0
41
1
10
24.631795236158
20
-9.64873631095736
30
0
0
SPLINE
5
1A0
100
AcDbEntity
8
1
62
256
6
ByLayer
370
13
48
1
60
0
100
AcDbSpline
70
4
71
3
72
12
73
8
40
0
40
0
40
0
40
0
40
0.233793069268613
40
0.233793069268613
40
0.849542984529965
40
0.849542984529965
40
1
40
1
40
1
40
1
41
1
10
24.610489557929
20
-8.33185405410364
30
0
41
1
10
24.6115678802706
20
-8.32978155100605
30
0
41
1
10
24.6128235703367
20
-8.327684184861
30
0
41
1
10
24.6177801949082
20
-8.32021082787648
30
0
41
1
10
24.6222297367628
20
-8.31487055525417
30
0
41
1
10
24.6281198492317
20
-8.30867441669031
30
0
41
1
10
24.6293089587678
20
-8.30746370709682
30
0
41
1
10
24.6305156049706
20
-8.30627117086274
30
0
0
SPLINE
5
1A1
100
AcDbEntity
8
1
62
256
6
ByLayer
370
13
48
1
60
0
100
AcDbSpline
70
4
71
3
72
10
73
6
40
0
40
0
40
0
40
0
40
0.436659189793399
40
0.436659189793399
40
1
40
1
40
1
40
1
41
1
10
24.6305156049706
20
-8.30627117086271
30
0
41
1
10
24.6626760675876
20
-8.27448677798324
30
0
41
1
10
24.6951835994715
20
-8.24304868670555
30
0
41
1
10
24.7705662077347
20
-8.17203303953588
30
0
41
1
10
24.8138220700955
20
-8.13282546514301
30
0
41
1
10
24.8573483090634
20
-8.09401927453203
30
0
0
SPLINE
5
1A2
100
AcDbEntity
8
1
62
256
6
ByLayer
370
13
48
1
60
0
100
AcDbSpline
70
4
71
3
72
8
73
4
40
0
40
0
40
0
40
0
40
1
40
1
40
1
40
1
41
1
10
24.8573483090604
20
-8.09401927453274
30
0
41
1
10
24.8886707932501
20
-8.09468562269393
30
0
41
1
10
24.9198681643654
20
-8.09691283178688
30
0
41
1
10
24.9509720530679
20
-8.10028381155047
30
0
0
SPLINE
5
1A3
100
AcDbEntity
8
1
62
256
6
ByLayer
370
13
48
1
60
0
100
AcDbSpline
70
4
71
3
72
14
73
10
40
0
40
0
40
0
40
0
40
0.102691686735347
40
0.102691686735347
40
0.53816841361549
40
0.53816841361549
40
0.926474667639871
40
0.926474667639871
40
1
40
1
40
1
40
1
41
1
10
24.9509720530679
20
-8.10028381155047
30
0
41
1
10
24.980893999408
20
-8.10352669466917
30
0
41
1
10
25.0122711139629
20
-8.10573166133531
30
0
41
1
10
25.1807977171794
20
-8.1124143882119
30
0
41
1
10
25.342161843352
20
-8.10209976082999
30
0
41
1
10
25.6640413220708
20
-8.06753394534607
30
0
41
1
10
25.8272620626367
20
-8.04405495529068
30
0
41
1
10
26.0201021624027
20
-8.01295801199541
30
0
41
1
10
26.0512578164011
20
-8.0081129336275
30
0
41
1
10
26.0823771357602
20
-8.00333672307832
30
0
0
SPLINE
5
1A4
100
AcDbEntity
8
1
62
256
6
ByLayer
370
13
48
1
60
0
100
AcDbSpline
70
4
71
3
72
8
73
4
40
0
40
0
40
0
40
0
40
1
40
1
40
1
40
1
41
1
10
26.0823771357602
20
-8.00333672307821
30
0
41
1
10
26.1716495580756
20
-7.98963514174559
30
0
41
1
10
26.2625883571386
20
-7.98384919752039
30
0
41
1
10
26.3528986418104
20
-7.98685946813049
30
0
0
SPLINE
5
1A5
100
AcDbEntity
8
1
62
256
6
ByLayer
370
13
48
1
60
0
100
AcDbSpline
70
4
71
3
72
8
73
4
40
0
40
0
40
0
40
0
40
1
40
1
40
1
40
1
41
1
10
26.3528986418119
20
-7.98685946813094
30
0
41
1
10
26.4744062234274
20
-7.99090962369377
30
0
41
1
10
26.5966210532665
20
-7.98606999707408
30
0
41
1
10
26.7158957172706
20
-7.98645578783623
30
0
0
SPLINE
5
1A6
100
AcDbEntity
8
1
62
256
6
ByLayer
370
13
48
1
60
0
100
AcDbSpline
70
4
71
3
72
8
73
4
40
0
40
0
40
0
40
0
40
1
40
1
40
1
40
1
41
1
10
26.7158957172693
20
-7.98645578783808
30
0
41
1
10
26.8755545267195
20
-7.98697220005604
30
0
41
1
10
27.0354150796997
20
-8.02116494922808
30
0
41
1
10
27.1900286630425
20
-8.06497603366449
30
0
0
SPLINE
5
1A7
100
AcDbEntity
8
1
62
256
6
ByLayer
370
13
48
1
60
0
100
AcDbSpline
70
4
71
3
72
8
73
4
40
0
40
0
40
0
40
0
40
1
40
1
40
1
40
1
41
1
10
27.1900286630425
20
-8.06497603366449
30
0
41
1
10
27.234090020669
20
-8.09163900157134
30
0
41
1
10
27.2778395366007
20
-8.1188158201189
30
0
41
1
10
27.3213895076228
20
-8.14630122296239
30
0
0
SPLINE
5
1A8
100
AcDbEntity
8
1
62
256
6
ByLayer
370
13
48
1
60
0
100
AcDbSpline
70
4
71
3
72
12
73
8
40
0
40
0
40
0
40
0
40
0.178891096392299
40
0.178891096392299
40
0.986291642516443
40
0.986291642516443
40
1
40
1
40
1
40
1
41
1
10
27.3213895076228
20
-8.14630122296239
30
0
41
1
10
27.3003115269679
20
-8.14546488191525
30
0
41
1
10
27.2792221384665
20
-8.14462186156533
30
0
41
1
10
27.1629014296376
20
-8.13993316949379
30
0
41
1
10
27.0679540502601
20
-8.1342895071999
30
0
41
1
10
26.9689156735317
20
-8.12984573106559
30
0
41
1
10
26.9672607449414
20
-8.12977449815997
30
0
41
1
10
26.9656057053218
20
-8.12970626448683
30
0
0
SPLINE
5
1A9
100
AcDbEntity
8
1
62
256
6
ByLayer
370
13
48
1
60
0
100
AcDbSpline
70
4
71
3
72
12
73
8
40
0
40
0
40
0
40
0
40
0.609383607480292
40
0.609383607480292
40
0.614539779329414
40
0.614539779329414
40
1
40
1
40
1
40
1
41
1
10
26.9656057053218
20
-8.12970626448683
30
0
41
1
10
26.8600213620049
20
-8.12535325233679
30
0
41
1
10
26.7496097970341
20
-8.12102379935854
30
0
41
1
10
26.6373081383666
20
-8.11675228722797
30
0
41
1
10
26.6363601843113
20
-8.11671623209119
30
0
41
1
10
26.5647049543389
20
-8.113990933076
30
0
41
1
10
26.4932165299022
20
-8.11119107713941
30
0
41
1
10
26.4219297662852
20
-8.1087044877512
30
0
0
SPLINE
5
1AA
100
AcDbEntity
8
1
62
256
6
ByLayer
370
13
48
1
60
0
100
AcDbSpline
70
4
71
3
72
16
73
12
40
0
40
0
40
0
40
0
40
0.0442199247554627
40
0.0442199247554627
40
0.048439955548864
40
0.048439955548864
40
0.216895358525141
40
0.216895358525141
40
0.889245809546153
40
0.889245809546153
40
1
40
1
40
1
40
1
41
1
10
26.4219297662852
20
-8.1087044877512
30
0
41
1
10
26.4113300785451
20
-8.10833475472199
30
0
41
1
10
26.4007291289449
20
-8.1080034322955
30
0
41
1
10
26.3891179461187
20
-8.10759664249349
30
0
41
1
10
26.3881063966876
20
-8.10756107529042
30
0
41
1
10
26.3467182945273
20
-8.10610091658873
30
0
41
1
10
26.3063476610928
20
-8.10420472300424
30
0
41
1
10
26.1067119730517
20
-8.09746128696492
30
0
41
1
10
25.9453726295508
20
-8.1184074745949
30
0
41
1
10
25.7656324617667
20
-8.16588812760114
30
0
41
1
10
25.7400997197492
20
-8.17305704066862
30
0
41
1
10
25.7146869282979
20
-8.18061578016483
30
0
0
SPLINE
5
1AB
100
AcDbEntity
8
1
62
256
6
ByLayer
370
13
48
1
60
0
100
AcDbSpline
70
4
71
3
72
12
73
8
40
0
40
0
40
0
40
0
40
0.274450233641753
40
0.274450233641753
40
0.728710906931611
40
0.728710906931611
40
1
40
1
40
1
40
1
41
1
10
25.7146869282979
20
-8.18061578016483
30
0
41
1
10
25.6122143236957
20
-8.21109506557389
30
0
41
1
10
25.509497462749
20
-8.24144238625559
30
0
41
1
10
25.2439453836002
20
-8.3195775859781
30
0
41
1
10
25.0820473482734
20
-8.36687077176367
30
0
41
1
10
24.846079380226
20
-8.43594806822523
30
0
41
1
10
24.7617198878049
20
-8.46051590479564
30
0
41
1
10
24.6838678419132
20
-8.48372671565309
30
0
0
SPLINE
5
1AC
100
AcDbEntity
8
1
62
256
6
ByLayer
370
13
48
1
60
0
100
AcDbSpline
70
4
71
3
72
10
73
6
40
0
40
0
40
0
40
0
40
0.659159716151023
40
0.659159716151023
40
1
40
1
40
1
40
1
41
1
10
24.6838678419132
20
-8.48372671565309
30
0
41
1
10
24.6859020371366
20
-8.44610867624615
30
0
41
1
10
24.6777349617729
20
-8.41374083617444
30
0
41
1
10
24.6536893544428
20
-8.37422069365547
30
0
41
1
10
24.6434984870353
20
-8.36204592453362
30
0
41
1
10
24.631795236158
20
-8.3512636890429
30
0
0
SPLINE
5
1AD
100
AcDbEntity
8
1
62
256
6
ByLayer
370
13
48
1
60
0
100
AcDbSpline
70
4
71
3
72
8
73
4
40
0
40
0
40
0
40
0
40
1
40
1
40
1
40
1
41
1
10
24.631795236158
20
-8.3512636890429
30
0
41
1
10
24.6247646325939
20
-8.34478637568236
30
0
41
1
10
24.6176603296031
20
-8.33831664745702
30
0
41
1
10
24.610489557921
20
-8.33185405411166
30
0
0
SPLINE
5
1AE
100
AcDbEntity
8
1
62
256
6
ByLayer
370
13
48
1
60
0
100
AcDbSpline
70
4
71
3
72
8
73
4
40
0
40
0
40
0
40
0
40
1
40
1
40
1
40
1
41
1
10
24.7169741247547
20
-10.0648446992162
30
0
41
1
10
24.6355486668608
20
-9.99544931961611
30
0
41
1
10
24.5571073551695
20
-9.92252054199452
30
0
41
1
10
24.4804455603128
20
-9.84789619534794
30
0
0
SPLINE
5
1AF
100
AcDbEntity
8
1
62
256
6
ByLayer
370
13
48
1
60
0
100
AcDbSpline
70
4
71
3
72
8
73
4
40
0
40
0
40
0
40
0
40
1
40
1
40
1
40
1
41
1
10
24.7169741247547
20
-7.93515530078409
30
0
41
1
10
24.6355486668608
20
-8.00455068038414
30
0
41
1
10
24.5571073551695
20
-8.07747945800577
30
0
41
1
10
24.4804455603128
20
-8.15210380465231
30
0
0
SPLINE
5
1B0
100
AcDbEntity
8
1
62
256
6
ByLayer
370
13
48
1
60
0
100
AcDbSpline
70
4
71
3
72
12
73
8
40
0
40
0
40
0
40
0
40
0.46817896742225
40
0.46817896742225
40
0.899165978787896
40
0.899165978787896
40
1
40
1
40
1
40
1
41
1
10
26.0587805434613
20
-7.83557581464899
30
0
41
1
10
25.877506035505
20
-7.86409951175355
30
0
41
1
10
25.6936117660435
20
-7.89888172979616
30
0
41
1
10
25.3658158689767
20
-7.94253463727102
30
0
41
1
10
25.2153724323278
20
-7.9566016801374
30
0
41
1
10
25.0560286247614
20
-7.95534747787232
30
0
41
1
10
25.0264524991725
20
-7.95424790399076
30
0
41
1
10
24.9981203716814
20
-7.95215197156875
30
0
0
SPLINE
5
1B1
100
AcDbEntity
8
1
62
256
6
ByLayer
370
13
48
1
60
0
100
AcDbSpline
70
4
71
3
72
12
73
8
40
0
40
0
40
0
40
0
40
0.46817896742225
40
0.46817896742225
40
0.899165978787896
40
0.899165978787896
40
1
40
1
40
1
40
1
41
1
10
26.0587805434613
20
-10.1644241853513
30
0
41
1
10
25.877506035505
20
-10.1359004882467
30
0
41
1
10
25.6936117660435
20
-10.1011182702041
30
0
41
1
10
25.3658158689767
20
-10.0574653627292
30
0
41
1
10
25.2153724323278
20
-10.0433983198629
30
0
41
1
10
25.0560286247614
20
-10.0446525221279
30
0
41
1
10
25.0264524991725
20
-10.0457520960095
30
0
41
1
10
24.9981203716814
20
-10.0478480284315
30
0
0
SPLINE
5
1B2
100
AcDbEntity
8
1
62
256
6
ByLayer
370
13
48
1
60
0
100
AcDbSpline
70
4
71
3
72
10
73
6
40
0
40
0
40
0
40
0
40
0.132191617121101
40
0.132191617121101
40
1
40
1
40
1
40
1
41
1
10
24.8573483090604
20
-9.90598072546752
30
0
41
1
10
24.8564468305522
20
-9.90694594065798
30
0
41
1
10
24.85552642843
20
-9.90793663696309
30
0
41
1
10
24.8484541077129
20
-9.91558766048735
30
0
41
1
10
24.8414978788606
20
-9.92332919370688
30
0
41
1
10
24.8339180002563
20
-9.93195860899527
30
0
0
SPLINE
5
1B3
100
AcDbEntity
8
1
62
256
6
ByLayer
370
13
48
1
60
0
100
AcDbSpline
70
4
71
3
72
14
73
10
40
0
40
0
40
0
40
0
40
0.447953066725052
40
0.447953066725052
40
0.912809598186729
40
0.912809598186729
40
0.983423615312508
40
0.983423615312508
40
1
40
1
40
1
40
1
41
1
10
24.8339180002563
20
-9.93195860899587
30
0
41
1
10
24.8203040290404
20
-9.9474576186461
30
0
41
1
10
24.8040154112901
20
-9.96599075134193
30
0
41
1
10
24.7683740707567
20
-10.0065050797023
30
0
41
1
10
24.7483538761323
20
-10.0292431727846
30
0
41
1
10
24.7253006224606
20
-10.0553996929227
30
0
41
1
10
24.7222095971504
20
-10.0589062950436
30
0
41
1
10
24.7184037038145
20
-10.0632232403096
30
0
41
1
10
24.7176888999301
20
-10.0640339722497
30
0
41
1
10
24.7169741247485
20
-10.0648446992151
30
0
0
SPLINE
5
1B4
100
AcDbEntity
8
1
62
256
6
ByLayer
370
13
48
1
60
0
100
AcDbSpline
70
4
71
3
72
14
73
10
40
0
40
0
40
0
40
0
40
0.447953066725053
40
0.447953066725053
40
0.912809598186729
40
0.912809598186729
40
0.983423615312508
40
0.983423615312508
40
1
40
1
40
1
40
1
41
1
10
24.8339180002563
20
-8.06804139100439
30
0
41
1
10
24.8203040290404
20
-8.05254238135416
30
0
41
1
10
24.8040154112901
20
-8.03400924865832
30
0
41
1
10
24.7683740707567
20
-7.99349492029796
30
0
41
1
10
24.7483538761323
20
-7.97075682721569
30
0
41
1
10
24.7253006224606
20
-7.94460030707751
30
0
41
1
10
24.7222095971504
20
-7.94109370495661
30
0
41
1
10
24.7184037038145
20
-7.93677675969073
30
0
41
1
10
24.7176888999301
20
-7.93596602775054
30
0
41
1
10
24.7169741247485
20
-7.93515530078517
30
0
0
SPLINE
5
1B5
100
AcDbEntity
8
1
62
256
6
ByLayer
370
13
48
1
60
0
100
AcDbSpline
70
4
71
3
72
10
73
6
40
0
40
0
40
0
40
0
40
0.132191617121101
40
0.132191617121101
40
1
40
1
40
1
40
1
41
1
10
24.8573483090604
20
-8.09401927453274
30
0
41
1
10
24.8564468305522
20
-8.09305405934228
30
0
41
1
10
24.85552642843
20
-8.0920633630372
30
0
41
1
10
24.8484541077129
20
-8.08441233951291
30
0
41
1
10
24.8414978788606
20
-8.07667080629338
30
0
41
1
10
24.8339180002563
20
-8.06804139100498
30
0
0
SPLINE
5
1B6
100
AcDbEntity
8
1
62
256
6
ByLayer
370
13
48
1
60
0
100
AcDbSpline
70
4
71
3
72
12
73
8
40
0
40
0
40
0
40
0
40
0.559278359968975
40
0.559278359968975
40
0.982064699130975
40
0.982064699130975
40
1
40
1
40
1
40
1
41
1
10
24.4655988415542
20
-9.69700762342245
30
0
41
1
10
24.4639058993619
20
-9.66480806215463
30
0
41
1
10
24.4615176185074
20
-9.63563308751822
30
0
41
1
10
24.4565061637906
20
-9.59463504613535
30
0
41
1
10
24.4540306406306
20
-9.57989245971595
30
0
41
1
10
24.4512781291035
20
-9.56851921291189
30
0
41
1
10
24.4511665651818
20
-9.56806610520658
30
0
41
1
10
24.4510546870628
20
-9.56761951385394
30
0
0
SPLINE
5
1B7
100
AcDbEntity
8
1
62
256
6
ByLayer
370
13
48
1
60
0
100
AcDbSpline
70
4
71
3
72
10
73
6
40
0
40
0
40
0
40
0
40
0.709641074204652
40
0.709641074204652
40
1
40
1
40
1
40
1
41
1
10
24.4804455603128
20
-9.84789619534794
30
0
41
1
10
24.4753414889782
20
-9.81103198859216
30
0
41
1
10
24.4711861437205
20
-9.77339417655369
30
0
41
1
10
24.4672412502849
20
-9.72439290248531
30
0
41
1
10
24.4663022439904
20
-9.71038625498701
30
0
41
1
10
24.4655988415525
20
-9.69700762342239
30
0
0
SPLINE
5
1B8
100
AcDbEntity
8
1
62
256
6
ByLayer
370
13
48
1
60
0
100
AcDbSpline
70
4
71
3
72
12
73
8
40
0
40
0
40
0
40
0
40
0.135507654329451
40
0.135507654329451
40
0.742115377580087
40
0.742115377580087
40
1
40
1
40
1
40
1
41
1
10
24.4804455603128
20
-8.15210380465231
30
0
41
1
10
24.4794577311546
20
-8.15923841072299
30
0
41
1
10
24.4785068164279
20
-8.16638267298228
30
0
41
1
10
24.4735694178171
20
-8.20503504544055
30
0
41
1
10
24.4702919601627
20
-8.23670564906067
30
0
41
1
10
24.4670296012879
20
-8.27879948938775
30
0
41
1
10
24.4662219824782
20
-8.29114030955057
30
0
41
1
10
24.4655988415537
20
-8.30299237657781
30
0
0
SPLINE
5
1B9
100
AcDbEntity
8
1
62
256
6
ByLayer
370
13
48
1
60
0
100
AcDbSpline
70
4
71
3
72
14
73
10
40
0
40
0
40
0
40
0
40
0.0177509856471946
40
0.0177509856471946
40
0.340726860481444
40
0.340726860481444
40
0.792711195890233
40
0.792711195890233
40
1
40
1
40
1
40
1
41
1
10
24.4510546870628
20
-8.43238048614634
30
0
41
1
10
24.4511665651505
20
-8.43193389479393
30
0
41
1
10
24.4512781289784
20
-8.43148078708919
30
0
41
1
10
24.4534062656342
20
-8.42268743004462
30
0
41
1
10
24.455323964045
20
-8.41215262402409
30
0
41
1
10
24.4595178404373
20
-8.38254103823996
30
0
41
1
10
24.4616827821098
20
-8.36137062186296
30
0
41
1
10
24.4642384176627
20
-8.32665312227232
30
0
41
1
10
24.4649648606851
20
-8.31505061809898
30
0
41
1
10
24.4655988415542
20
-8.30299237657781
30
0
0
SPLINE
5
1BA
100
AcDbEntity
8
1
62
256
6
ByLayer
370
13
48
1
60
0
100
AcDbSpline
70
4
71
3
72
14
73
10
40
0
40
0
40
0
40
0
40
0.447954004797037
40
0.447954004797037
40
0.912810038934036
40
0.912810038934036
40
0.983423779130199
40
0.983423779130199
40
1
40
1
40
1
40
1
41
1
10
24.8933275812136
20
-10.0495304559494
30
0
41
1
10
24.8727755286919
20
-10.0513153960277
30
0
41
1
10
24.8481939779358
20
-10.0534502100755
30
0
41
1
10
24.7944355442363
20
-10.0581186183364
30
0
41
1
10
24.7642532997474
20
-10.0607395039346
30
0
41
1
10
24.7295181484127
20
-10.0637555302521
30
0
41
1
10
24.7248611889835
20
-10.0641598862852
30
0
41
1
10
24.7191276857054
20
-10.0646577116981
30
0
41
1
10
24.7180508939064
20
-10.0647512063293
30
0
41
1
10
24.7169741247543
20
-10.0648446992162
30
0
0
SPLINE
5
1BB
100
AcDbEntity
8
1
62
256
6
ByLayer
370
13
48
1
60
0
100
AcDbSpline
70
4
71
3
72
18
73
14
40
0
40
0
40
0
40
0
40
0.10212592206704
40
0.10212592206704
40
0.219798180864097
40
0.219798180864097
40
0.395678331134856
40
0.395678331134856
40
0.733655817510089
40
0.733655817510089
40
0.802063348489368
40
0.802063348489368
40
1
40
1
40
1
40
1
41
1
10
24.0559779585026
20
-9.82675567745125
30
0
41
1
10
24.0564416368178
20
-9.81347604721995
30
0
41
1
10
24.05608929913
20
-9.80011695257147
30
0
41
1
10
24.0536446728814
20
-9.77188463072216
30
0
41
1
10
24.0512850832915
20
-9.75695210644287
30
0
41
1
10
24.0431564052165
20
-9.72120155862473
30
0
41
1
10
24.0362096466949
20
-9.70077334525465
30
0
41
1
10
24.0118798067115
20
-9.64653355932182
30
0
41
1
10
23.9902866995539
20
-9.61615181986519
30
0
41
1
10
23.9616240935597
20
-9.58719393333288
30
0
41
1
10
23.9566229893451
20
-9.58249458645599
30
0
41
1
10
23.9368310070575
20
-9.56516411549688
30
0
41
1
10
23.9212866355731
20
-9.55421914629349
30
0
41
1
10
23.9052940680713
20
-9.54517312237905
30
0
0
SPLINE
5
1BC
100
AcDbEntity
8
1
62
256
6
ByLayer
370
13
48
1
60
0
100
AcDbSpline
70
4
71
3
72
14
73
10
40
0
40
0
40
0
40
0
40
0.447954004797037
40
0.447954004797037
40
0.912810038934036
40
0.912810038934036
40
0.983423779130199
40
0.983423779130199
40
1
40
1
40
1
40
1
41
1
10
24.8933275812136
20
-7.95046954405092
30
0
41
1
10
24.8727755286919
20
-7.94868460397257
30
0
41
1
10
24.8481939779358
20
-7.94654978992477
30
0
41
1
10
24.7944355442363
20
-7.94188138166382
30
0
41
1
10
24.7642532997474
20
-7.93926049606563
30
0
41
1
10
24.7295181484127
20
-7.93624446974812
30
0
41
1
10
24.7248611889835
20
-7.93584011371513
30
0
41
1
10
24.7191276857054
20
-7.93534228830211
30
0
41
1
10
24.7180508939064
20
-7.93524879367098
30
0
41
1
10
24.7169741247543
20
-7.93515530078403
30
0
0
SPLINE
5
1BD
100
AcDbEntity
8
1
62
256
6
ByLayer
370
13
48
1
60
0
100
AcDbSpline
70
4
71
3
72
12
73
8
40
0
40
0
40
0
40
0
40
0.356479833160399
40
0.356479833160399
40
0.824168720346733
40
0.824168720346733
40
1
40
1
40
1
40
1
41
1
10
24.464378753796
20
-8.44368968726005
30
0
41
1
10
24.4767763033464
20
-8.45020268645169
30
0
41
1
10
24.4880463981537
20
-8.45779876379075
30
0
41
1
10
24.5095864832785
20
-8.47831510883236
30
0
41
1
10
24.5185295226104
20
-8.49249489355708
30
0
41
1
10
24.52407326674
20
-8.51520044007529
30
0
41
1
10
24.5249217874923
20
-8.52181598235001
30
0
41
1
10
24.5250392603487
20
-8.52871104769542
30
0
0
SPLINE
5
1BE
100
AcDbEntity
8
1
62
256
6
ByLayer
370
13
48
1
60
0
100
AcDbSpline
70
4
71
3
72
12
73
8
40
0
40
0
40
0
40
0
40
0.443558069836982
40
0.443558069836982
40
0.507222026557664
40
0.507222026557664
40
1
40
1
40
1
40
1
41
1
10
24.5250392603487
20
-8.52871104769548
30
0
41
1
10
24.525625933741
20
-8.5631458226606
30
0
41
1
10
24.5334575781989
20
-8.6040741850548
30
0
41
1
10
24.5513800260717
20
-8.65261593058685
30
0
41
1
10
24.5538277204397
20
-8.6588406550523
30
0
41
1
10
24.576282853545
20
-8.71260346183053
30
0
41
1
10
24.606340828125
20
-8.76250087339685
30
0
41
1
10
24.6439598709927
20
-8.80761851578532
30
0
0
SPLINE
5
1BF
100
AcDbEntity
8
1
62
256
6
ByLayer
370
13
48
1
60
0
100
AcDbSpline
70
4
71
3
72
18
73
14
40
0
40
0
40
0
40
0
40
0.262962488711577
40
0.262962488711577
40
0.43136352889061
40
0.43136352889061
40
0.488169625072958
40
0.488169625072958
40
0.652801403480982
40
0.652801403480982
40
0.712254155913291
40
0.712254155913291
40
1
40
1
40
1
40
1
41
1
10
24.6439598709927
20
-8.80761851578532
30
0
41
1
10
24.6671201854563
20
-8.83539537308621
30
0
41
1
10
24.6885389915202
20
-8.86615665508268
30
0
41
1
10
24.713950371308
20
-8.92208948386354
30
0
41
1
10
24.7214580237961
20
-8.94579242783939
30
0
41
1
10
24.7259784141927
20
-8.97828783334072
30
0
41
1
10
24.7266641796623
20
-8.98665630033747
30
0
41
1
10
24.7274106952605
20
-9.01892150576464
30
0
41
1
10
24.72374714007
20
-9.04322934241915
30
0
41
1
10
24.7143596854291
20
-9.07416578823188
30
0
41
1
10
24.7114227244078
20
-9.08230438156448
30
0
41
1
10
24.6925277493289
20
-9.12811384248772
30
0
41
1
10
24.6692256559174
20
-9.16207947326518
30
0
41
1
10
24.6439598709999
20
-9.19238148420638
30
0
0
SPLINE
5
1C0
100
AcDbEntity
8
1
62
256
6
ByLayer
370
13
48
1
60
0
100
AcDbSpline
70
4
71
3
72
12
73
8
40
0
40
0
40
0
40
0
40
0.0695374380305743
40
0.0695374380305743
40
0.564718845075643
40
0.564718845075643
40
1
40
1
40
1
40
1
41
1
10
24.6439598709999
20
-9.19238148420638
30
0
41
1
10
24.6385610813285
20
-9.19885641400634
30
0
41
1
10
24.6333230650435
20
-9.20541096353043
30
0
41
1
10
24.5927993674551
20
-9.25832630815876
30
0
41
1
10
24.5653523725795
20
-9.30878885408765
30
0
41
1
10
24.5331669750442
20
-9.39741176718493
30
0
41
1
10
24.5256153955241
20
-9.43747271762228
30
0
41
1
10
24.5250392603487
20
-9.4712889523048
30
0
0
SPLINE
5
1C1
100
AcDbEntity
8
1
62
256
6
ByLayer
370
13
48
1
60
0
100
AcDbSpline
70
4
71
3
72
10
73
6
40
0
40
0
40
0
40
0
40
0.323499890762715
40
0.323499890762715
40
1
40
1
40
1
40
1
41
1
10
24.5250392603487
20
-9.4712889523048
30
0
41
1
10
24.5248229895013
20
-9.48398296239702
30
0
41
1
10
24.5221009308091
20
-9.49574652666698
30
0
41
1
10
24.5072698303882
20
-9.52768607451844
30
0
41
1
10
24.4876680100065
20
-9.54407540242536
30
0
41
1
10
24.464378753796
20
-9.55631031274021
30
0
0
SPLINE
5
1C2
100
AcDbEntity
8
1
62
256
6
ByLayer
370
13
48
1
60
0
100
AcDbSpline
70
4
71
3
72
12
73
8
40
0
40
0
40
0
40
0
40
0.833271550695841
40
0.833271550695841
40
0.924873187913958
40
0.924873187913958
40
1
40
1
40
1
40
1
41
1
10
23.6610166945645
20
-9.49408820314841
30
0
41
1
10
23.6544754484441
20
-9.45957089979649
30
0
41
1
10
23.6449923927373
20
-9.41689667933014
30
0
41
1
10
23.640181068922
20
-9.36356693418904
30
0
41
1
10
23.6397613475273
20
-9.35814730555879
30
0
41
1
10
23.6391308505303
20
-9.34816316617957
30
0
41
1
10
23.6388959908553
20
-9.34361889189293
30
0
41
1
10
23.6387159227923
20
-9.33903296324317
30
0
0
SPLINE
5
1C3
100
AcDbEntity
8
1
62
256
6
ByLayer
370
13
48
1
60
0
100
AcDbSpline
70
4
71
3
72
8
73
4
40
0
40
0
40
0
40
0
40
1
40
1
40
1
40
1
41
1
10
23.6387159227923
20
-9.33903296324317
30
0
41
1
10
23.659987312203
20
-9.33289424152974
30
0
41
1
10
23.6815114137464
20
-9.3271522119496
30
0
41
1
10
23.7032105368037
20
-9.32177562535784
30
0
0
SPLINE
5
1C4
100
AcDbEntity
8
1
62
256
6
ByLayer
370
13
48
1
60
0
100
AcDbSpline
70
4
71
3
72
8
73
4
40
0
40
0
40
0
40
0
40
1
40
1
40
1
40
1
41
1
10
23.7032105368034
20
-9.32177562535617
30
0
41
1
10
23.7062783445423
20
-9.32101548708187
30
0
41
1
10
23.7093468504694
20
-9.32025544275177
30
0
41
1
10
23.7124160421628
20
-9.31949549106733
30
0
0
SPLINE
5
1C5
100
AcDbEntity
8
1
62
256
6
ByLayer
370
13
48
1
60
0
100
AcDbSpline
70
4
71
3
72
26
73
22
40
0
40
0
40
0
40
0
40
0.0783346115779722
40
0.0783346115779722
40
0.229067417424992
40
0.229067417424992
40
0.361148737487712
40
0.361148737487712
40
0.451044286208709
40
0.451044286208709
40
0.480076288213215
40
0.480076288213215
40
0.580804987892491
40
0.580804987892491
40
0.598553408472289
40
0.598553408472289
40
0.721865021031447
40
0.721865021031447
40
0.852573440596253
40
0.852573440596253
40
1
40
1
40
1
40
1
41
1
10
23.7124160421628
20
-9.31949549106733
30
0
41
1
10
23.7363716105935
20
-9.31356393761618
30
0
41
1
10
23.7598327503349
20
-9.3061586706431
30
0
41
1
10
23.8253859658397
20
-9.27990082960812
30
0
41
1
10
23.8659116446279
20
-9.25630104982389
30
0
41
1
10
23.9301656555828
20
-9.19934843260839
30
0
41
1
10
23.9562012292316
20
-9.16662924968665
30
0
41
1
10
23.9871009177855
20
-9.10422694671473
30
0
41
1
10
23.9963228169934
20
-9.07621811581507
30
0
41
1
10
24.0026526489823
20
-9.03814761159447
30
0
41
1
10
24.0037565534503
20
-9.02864706678463
30
0
41
1
10
24.006535622122
20
-8.98664874241013
30
0
41
1
10
24.0029896944569
20
-8.95309945024897
30
0
41
1
10
23.9928135335291
20
-8.91656062366462
30
0
41
1
10
23.9911033398723
20
-8.91105846188307
30
0
41
1
10
23.9765578244499
20
-8.86867911819292
30
0
41
1
10
23.9563208175635
20
-8.83459999461087
30
0
41
1
10
23.9056247831178
20
-8.77569807805179
30
0
41
1
10
23.873851925294
20
-8.75041471414929
30
0
41
1
10
23.8004676930902
20
-8.70794412454606
30
0
41
1
10
23.7571805456305
20
-8.69158848908563
30
0
41
1
10
23.7124160421628
20
-8.68050450893293
30
0
0
SPLINE
5
1C6
100
AcDbEntity
8
1
62
256
6
ByLayer
370
13
48
1
60
0
100
AcDbSpline
70
4
71
3
72
8
73
4
40
0
40
0
40
0
40
0
40
1
40
1
40
1
40
1
41
1
10
23.7124160421628
20
-8.68050450893293
30
0
41
1
10
23.7093468504694
20
-8.67974455724848
30
0
41
1
10
23.7062783445422
20
-8.67898451291839
30
0
41
1
10
23.7032105368034
20
-8.67822437464409
30
0
0
SPLINE
5
1C7
100
AcDbEntity
8
1
62
256
6
ByLayer
370
13
48
1
60
0
100
AcDbSpline
70
4
71
3
72
8
73
4
40
0
40
0
40
0
40
0
40
1
40
1
40
1
40
1
41
1
10
23.7032105368034
20
-8.67822437464409
30
0
41
1
10
23.6815114137461
20
-8.67284778805231
30
0
41
1
10
23.6599873122031
20
-8.66710575846872
30
0
41
1
10
23.6387159227924
20
-8.66096703675532
30
0
0
SPLINE
5
1C8
100
AcDbEntity
8
1
62
256
6
ByLayer
370
13
48
1
60
0
100
AcDbSpline
70
4
71
3
72
10
73
6
40
0
40
0
40
0
40
0
40
0.0748872813144652
40
0.0748872813144652
40
1
40
1
40
1
40
1
41
1
10
23.6387159227923
20
-8.66096703675709
30
0
41
1
10
23.6388959908553
20
-8.65638110810733
30
0
41
1
10
23.6391308505303
20
-8.65183683382071
30
0
41
1
10
23.6428644178648
20
-8.59271449568746
30
0
41
1
10
23.6537561749332
20
-8.54422461278821
30
0
41
1
10
23.6610166945643
20
-8.5059117968533
30
0
0
SPLINE
5
1C9
100
AcDbEntity
8
1
62
256
6
ByLayer
370
13
48
1
60
0
100
AcDbSpline
70
4
71
3
72
20
73
16
40
0
40
0
40
0
40
0
40
0.114266316237489
40
0.114266316237489
40
0.331231960429442
40
0.331231960429442
40
0.599155656755157
40
0.599155656755157
40
0.722874848940947
40
0.722874848940947
40
0.871512516236653
40
0.871512516236653
40
0.967654963824484
40
0.967654963824484
40
1
40
1
40
1
40
1
41
1
10
23.9052940680729
20
-8.45482687762168
30
0
41
1
10
23.9145383163395
20
-8.44959796794976
30
0
41
1
10
23.9236231348746
20
-8.44374091757913
30
0
41
1
10
23.9492280670811
20
-8.42496821515172
30
0
41
1
10
23.965276744252
20
-8.41031630553638
30
0
41
1
10
23.9980286906964
20
-8.37242711839531
30
0
41
1
10
24.0143711478299
20
-8.3475318277622
30
0
41
1
10
24.0331414661541
20
-8.30623036215465
30
0
41
1
10
24.0383907764822
20
-8.2922856633347
30
0
41
1
10
24.047858461063
20
-8.2603462150166
30
0
41
1
10
24.0517121178798
20
-8.24188231462625
30
0
41
1
10
24.0553663096761
20
-8.21082058117585
30
0
41
1
10
24.0561297476895
20
-8.19834535713184
30
0
41
1
10
24.0561906263781
20
-8.18166750333086
30
0
41
1
10
24.0561249332387
20
-8.17745364198888
30
0
41
1
10
24.0559779585028
20
-8.17324432254901
30
0
0
SPLINE
5
1CA
100
AcDbEntity
8
1
62
256
6
ByLayer
370
13
48
1
60
0
100
AcDbSpline
70
4
71
3
72
16
73
12
40
0
40
0
40
0
40
0
40
0.249954056036558
40
0.249954056036558
40
0.699484194384015
40
0.699484194384015
40
0.851133931227642
40
0.851133931227642
40
0.935108677236773
40
0.935108677236773
40
1
40
1
40
1
40
1
41
1
10
23.8267110292774
20
-9.72689749650473
30
0
41
1
10
23.8427048966234
20
-9.73044900069542
30
0
41
1
10
23.8585947536486
20
-9.73463190526925
30
0
41
1
10
23.9021970348682
20
-9.74856748659982
30
0
41
1
10
23.9302297071817
20
-9.75977140760477
30
0
41
1
10
23.9625570510524
20
-9.78321931948724
30
0
41
1
10
23.9704121947256
20
-9.79006506245148
30
0
41
1
10
23.9801629147231
20
-9.80282114922196
30
0
41
1
10
23.9831940821262
20
-9.8079077531612
30
0
41
1
10
23.9866841498694
20
-9.81762980670351
30
0
41
1
10
23.9875739298376
20
-9.8222200449417
30
0
41
1
10
23.9875739298376
20
-9.82675567745125
30
0
0
SPLINE
5
1CB
100
AcDbEntity
8
1
62
256
6
ByLayer
370
13
48
1
60
0
100
AcDbSpline
70
4
71
3
72
20
73
16
40
0
40
0
40
0
40
0
40
0.0199906994069362
40
0.0199906994069362
40
0.0825919577440876
40
0.0825919577440876
40
0.195169299288357
40
0.195169299288357
40
0.306011529795777
40
0.306011529795777
40
0.591177675589546
40
0.591177675589546
40
0.85412822131223
40
0.85412822131223
40
1
40
1
40
1
40
1
41
1
10
23.9875739298377
20
-8.17324432254901
30
0
41
1
10
23.9875739298377
20
-8.17465584735035
30
0
41
1
10
23.9874914943693
20
-8.17606987324555
30
0
41
1
10
23.9868329759386
20
-8.18180287022821
30
0
41
1
10
23.9855574593884
20
-8.18607184919043
30
0
41
1
10
23.9806296077618
20
-8.19703785888782
30
0
41
1
10
23.9758782533064
20
-8.20328635956278
30
0
41
1
10
23.9654630806491
20
-8.21414510416881
30
0
41
1
10
23.959676381482
20
-8.21891740982349
30
0
41
1
10
23.9382455610535
20
-8.23428307382179
30
0
41
1
10
23.9211325656859
20
-8.24266128671297
30
0
41
1
10
23.8877211729543
20
-8.25624756481474
30
0
41
1
10
23.8712362948113
20
-8.26161935064718
30
0
41
1
10
23.8453568251732
20
-8.26873580470465
30
0
41
1
10
23.8360536989462
20
-8.27102792517314
30
0
41
1
10
23.8267110292773
20
-8.27310250349561
30
0
0
SPLINE
5
1CC
100
AcDbEntity
8
1
62
256
6
ByLayer
370
13
48
1
60
0
100
AcDbSpline
70
4
71
3
72
12
73
8
40
0
40
0
40
0
40
0
40
0.559301985460886
40
0.559301985460886
40
0.982067221682947
40
0.982067221682947
40
1
40
1
40
1
40
1
41
1
10
24.610489557929
20
-9.66814594589664
30
0
41
1
10
24.5860762799805
20
-9.64045395441084
30
0
41
1
10
24.5571861880885
20
-9.6165461082719
30
0
41
1
10
24.5034740589433
20
-9.58525128859355
30
0
41
1
10
24.4788250511787
20
-9.57493421748595
30
0
41
1
10
24.4531321595027
20
-9.5681483436322
30
0
41
1
10
24.4520935591125
20
-9.56788068185881
30
0
41
1
10
24.4510546870628
20
-9.56761951385394
30
0
0
SPLINE
5
1CD
100
AcDbEntity
8
1
62
256
6
ByLayer
370
13
48
1
60
0
100
AcDbSpline
70
4
71
3
72
14
73
10
40
0
40
0
40
0
40
0
40
0.0177534078899156
40
0.0177534078899156
40
0.340744812432132
40
0.340744812432132
40
0.785966596962005
40
0.785966596962005
40
1
40
1
40
1
40
1
41
1
10
24.4510546870628
20
-8.43238048614634
30
0
41
1
10
24.4520935591131
20
-8.43211931814182
30
0
41
1
10
24.4531321595046
20
-8.43185165636925
30
0
41
1
10
24.4729966272014
20
-8.4266051557527
30
0
41
1
10
24.4917885884792
20
-8.41943994024507
30
0
41
1
10
24.5347600859257
20
-8.39782268969577
30
0
41
1
10
24.5587945413718
20
-8.38138510198013
30
0
41
1
10
24.5910000960522
20
-8.35267381370207
30
0
41
1
10
24.6010527060187
20
-8.34255827921024
30
0
41
1
10
24.610489557929
20
-8.33185405410364
30
0
0
SPLINE
5
1CE
100
AcDbEntity
8
1
62
256
6
ByLayer
370
13
48
1
60
0
100
AcDbSpline
70
4
71
3
72
8
73
4
40
0
40
0
40
0
40
0
40
1
40
1
40
1
40
1
41
1
10
23.2639115680548
20
-10.1339172375214
30
0
41
1
10
23.3472851478713
20
-9.99513446737862
30
0
41
1
10
23.416569163954
20
-9.84696592494379
30
0
41
1
10
23.4825621452742
20
-9.69796709438148
30
0
0
SPLINE
5
1CF
100
AcDbEntity
8
1
62
256
6
ByLayer
370
13
48
1
60
0
100
AcDbSpline
70
4
71
3
72
16
73
12
40
0
40
0
40
0
40
0
40
0.0745951303882249
40
0.0745951303882249
40
0.27553513169183
40
0.27553513169183
40
0.501427420118119
40
0.501427420118119
40
0.725494997757322
40
0.725494997757322
40
1
40
1
40
1
40
1
41
1
10
23.4825621452742
20
-9.69796709438148
30
0
41
1
10
23.4837736749442
20
-9.69523170494435
30
0
41
1
10
23.4851163296951
20
-9.69255720787515
30
0
41
1
10
23.4905147865576
20
-9.68307673582248
30
0
41
1
10
23.495461783055
20
-9.67671054247785
30
0
41
1
10
23.5076198241713
20
-9.66556313295504
30
0
41
1
10
23.515234293716
20
-9.66092416719442
30
0
41
1
10
23.531205119136
20
-9.65503101892457
30
0
41
1
10
23.5397662566659
20
-9.65364009913799
30
0
41
1
10
23.5585207140202
20
-9.65356420092243
30
0
41
1
10
23.5689309570329
20
-9.65550454585872
30
0
41
1
10
23.5787842780358
20
-9.65878427086335
30
0
0
SPLINE
5
1D0
100
AcDbEntity
8
1
62
256
6
ByLayer
370
13
48
1
60
0
100
AcDbSpline
70
4
71
3
72
16
73
12
40
0
40
0
40
0
40
0
40
0.108772443208259
40
0.108772443208259
40
0.369799377627614
40
0.369799377627614
40
0.571154122074464
40
0.571154122074464
40
0.786314444449857
40
0.786314444449857
40
1
40
1
40
1
40
1
41
1
10
23.5787842780347
20
-8.3412157291377
30
0
41
1
10
23.574842530994
20
-8.34252775848563
30
0
41
1
10
23.5708295616293
20
-8.34362271353106
30
0
41
1
10
23.5571495011343
20
-8.34645614102664
30
0
41
1
10
23.5470910912765
20
-8.34701608492108
30
0
41
1
10
23.5298590002818
20
-8.34450659509133
30
0
41
1
10
23.5223925092281
20
-8.34218599469676
30
0
41
1
10
23.5083165495633
20
-8.33486499514899
30
0
41
1
10
23.5016145563071
20
-8.32958017836918
30
0
41
1
10
23.4905405846473
20
-8.31710231391764
30
0
41
1
10
23.4859929686991
20
-8.30977901236548
30
0
41
1
10
23.4825621452759
20
-8.30203290561772
30
0
0
SPLINE
5
1D1
100
AcDbEntity
8
1
62
256
6
ByLayer
370
13
48
1
60
0
100
AcDbSpline
70
4
71
3
72
8
73
4
40
0
40
0
40
0
40
0
40
1
40
1
40
1
40
1
41
1
10
24.9981203716814
20
-7.95215197156875
30
0
41
1
10
24.9638409048776
20
-7.95029558134897
30
0
41
1
10
24.9294607622627
20
-7.94976551520284
30
0
41
1
10
24.8950622867787
20
-7.95083055006597
30
0
0
SPLINE
5
1D2
100
AcDbEntity
8
1
62
256
6
ByLayer
370
13
48
1
60
0
100
AcDbSpline
70
4
71
3
72
10
73
6
40
0
40
0
40
0
40
0
40
0.140418403423082
40
0.140418403423082
40
1
40
1
40
1
40
1
41
1
10
24.8950622867786
20
-7.95083055006597
30
0
41
1
10
24.8949786281127
20
-7.95083314027949
30
0
41
1
10
24.8948949964083
20
-7.95083334436515
30
0
41
1
10
24.8943060068435
20
-7.95081682801859
30
0
41
1
10
24.8937967459171
20
-7.95070661526356
30
0
41
1
10
24.8933275812036
20
-7.95046954425538
30
0
0
SPLINE
5
1D3
100
AcDbEntity
8
1
62
256
6
ByLayer
370
13
48
1
60
0
100
AcDbSpline
70
4
71
3
72
8
73
4
40
0
40
0
40
0
40
0
40
1
40
1
40
1
40
1
41
1
10
23.4825621452735
20
-8.30203290562022
30
0
41
1
10
23.4165691639541
20
-8.15303407506002
30
0
41
1
10
23.3472851478721
20
-8.00486553262749
30
0
41
1
10
23.2639115680571
20
-7.86608276248643
30
0
0
SPLINE
5
1D4
100
AcDbEntity
8
1
62
256
6
ByLayer
370
13
48
1
60
0
100
AcDbSpline
70
4
71
3
72
10
73
6
40
0
40
0
40
0
40
0
40
0.140418403423082
40
0.140418403423082
40
1
40
1
40
1
40
1
41
1
10
24.8950622867786
20
-10.0491694499343
30
0
41
1
10
24.8949786281127
20
-10.0491668597208
30
0
41
1
10
24.8948949964083
20
-10.0491666556351
30
0
41
1
10
24.8943060068435
20
-10.0491831719817
30
0
41
1
10
24.8937967459171
20
-10.0492933847367
30
0
41
1
10
24.8933275812036
20
-10.0495304557449
30
0
0
SPLINE
5
1D5
100
AcDbEntity
8
1
62
256
6
ByLayer
370
13
48
1
60
0
100
AcDbSpline
70
4
71
3
72
8
73
4
40
0
40
0
40
0
40
0
40
1
40
1
40
1
40
1
41
1
10
24.9981203716814
20
-10.0478480284315
30
0
41
1
10
24.9638409048776
20
-10.0497044186513
30
0
41
1
10
24.9294607622627
20
-10.0502344847974
30
0
41
1
10
24.8950622867787
20
-10.0491694499343
30
0
0
SPLINE
5
1D6
100
AcDbEntity
8
1
62
256
6
ByLayer
370
13
48
1
60
0
100
AcDbSpline
70
4
71
3
72
8
73
4
40
0
40
0
40
0
40
0
40
1
40
1
40
1
40
1
41
1
10
24.464378753796
20
-9.55631031274021
30
0
41
1
10
24.459967111299
20
-9.56008591710207
30
0
41
1
10
24.4555251065502
20
-9.56385555773767
30
0
41
1
10
24.4510546870628
20
-9.56761951385394
30
0
0
SPLINE
5
1D7
100
AcDbEntity
8
1
62
256
6
ByLayer
370
13
48
1
60
0
100
AcDbSpline
70
4
71
3
72
12
73
8
40
0
40
0
40
0
40
0
40
0.152393412067187
40
0.152393412067187
40
0.68049007519868
40
0.68049007519868
40
1
40
1
40
1
40
1
41
1
10
24.7896201413457
20
-8.71142777368567
30
0
41
1
10
24.8346105972805
20
-8.70247369544578
30
0
41
1
10
24.8812734171468
20
-8.69298342993659
30
0
41
1
10
25.0939294786754
20
-8.64891755517863
30
0
41
1
10
25.2774173301441
20
-8.60883190953658
30
0
41
1
10
25.578376870561
20
-8.5398993350048
30
0
41
1
10
25.6952214954585
20
-8.51239446652355
30
0
41
1
10
25.8112677608007
20
-8.48415892548937
30
0
0
SPLINE
5
1D8
100
AcDbEntity
8
1
62
256
6
ByLayer
370
13
48
1
60
0
100
AcDbSpline
70
4
71
3
72
12
73
8
40
0
40
0
40
0
40
0
40
0.453713856043948
40
0.453713856043948
40
0.935255270278036
40
0.935255270278036
40
1
40
1
40
1
40
1
41
1
10
24.6838678419132
20
-9.51627328434716
30
0
41
1
10
24.6902549278144
20
-9.48995324483164
30
0
41
1
10
24.6997841086873
20
-9.45768553855842
30
0
41
1
10
24.7293410835708
20
-9.38545999860551
30
0
41
1
10
24.7503116579037
20
-9.34418126823763
30
0
41
1
10
24.7817069341031
20
-9.29925808900083
30
0
41
1
10
24.7855997151618
20
-9.29389471855774
30
0
41
1
10
24.7896201413555
20
-9.28857222631228
30
0
0
SPLINE
5
1D9
100
AcDbEntity
8
1
62
256
6
ByLayer
370
13
48
1
60
0
100
AcDbSpline
70
4
71
3
72
8
73
4
40
0
40
0
40
0
40
0
40
1
40
1
40
1
40
1
41
1
10
24.4510546870628
20
-8.43238048614631
30
0
41
1
10
24.4555251065502
20
-8.43614444226259
30
0
41
1
10
24.459967111299
20
-8.43991408289821
30
0
41
1
10
24.464378753796
20
-8.44368968726005
30
0
0
SPLINE
5
1DA
100
AcDbEntity
8
1
62
256
6
ByLayer
370
13
48
1
60
0
100
AcDbSpline
70
4
71
3
72
12
73
8
40
0
40
0
40
0
40
0
40
0.473871515909109
40
0.473871515909109
40
0.928528687587425
40
0.928528687587425
40
1
40
1
40
1
40
1
41
1
10
24.78962014135
20
-8.7114277736807
30
0
41
1
10
24.7605769079864
20
-8.67297852056171
30
0
41
1
10
24.738076503972
20
-8.63207086376394
30
0
41
1
10
24.7054858788087
20
-8.55852838351348
30
0
41
1
10
24.6944900899473
20
-8.52481334861861
30
0
41
1
10
24.6859581625812
20
-8.49225944767988
30
0
41
1
10
24.684884631021
20
-8.48791672184862
30
0
41
1
10
24.6838678419132
20
-8.48372671565312
30
0
0
SPLINE
5
1DB
100
AcDbEntity
8
1
62
256
6
ByLayer
370
13
48
1
60
0
100
AcDbSpline
70
4
71
3
72
12
73
8
40
0
40
0
40
0
40
0
40
0.152393412053729
40
0.152393412053729
40
0.680490075193607
40
0.680490075193607
40
1
40
1
40
1
40
1
41
1
10
24.7896201413597
20
-9.28857222631737
30
0
41
1
10
24.8346105972902
20
-9.29752630455647
30
0
41
1
10
24.8812734171518
20
-9.30701657006472
30
0
41
1
10
25.0939294786754
20
-9.35108244482163
30
0
41
1
10
25.2774173301441
20
-9.39116809046368
30
0
41
1
10
25.578376870561
20
-9.46010066499545
30
0
41
1
10
25.6952214954585
20
-9.48760553347671
30
0
41
1
10
25.8112677608007
20
-9.51584107451089
30
0
0
SPLINE
5
1DC
100
AcDbEntity
8
1
62
256
6
ByLayer
370
13
48
1
60
0
100
AcDbSpline
70
4
71
3
72
16
73
12
40
0
40
0
40
0
40
0
40
0.257384746008501
40
0.257384746008501
40
0.483485531381172
40
0.483485531381172
40
0.71945910330869
40
0.71945910330869
40
0.925748185145375
40
0.925748185145375
40
1
40
1
40
1
40
1
41
1
10
23.6610166945645
20
-9.49408820314841
30
0
41
1
10
23.6316687367362
20
-9.49158615324544
30
0
41
1
10
23.6016686457385
20
-9.49303167351491
30
0
41
1
10
23.5476222628196
20
-9.50302558116547
30
0
41
1
10
23.5228412392242
20
-9.51077693620067
30
0
41
1
10
23.4759336807441
20
-9.53217801485539
30
0
41
1
10
23.4535298246701
20
-9.54627689981911
30
0
41
1
10
23.4168300974004
20
-9.5773137419919
30
0
41
1
10
23.4015959942174
20
-9.59390520913087
30
0
41
1
10
23.3843415664157
20
-9.61841502722544
30
0
41
1
10
23.3800684610182
20
-9.62513847809697
30
0
41
1
10
23.3761342837701
20
-9.63202896532891
30
0
0
SPLINE
5
1DD
100
AcDbEntity
8
1
62
256
6
ByLayer
370
13
48
1
60
0
100
AcDbSpline
70
4
71
3
72
16
73
12
40
0
40
0
40
0
40
0
40
0.215940694014332
40
0.215940694014332
40
0.440749342864023
40
0.440749342864023
40
0.6480631149087
40
0.6480631149087
40
0.900502256755734
40
0.900502256755734
40
1
40
1
40
1
40
1
41
1
10
23.3761342837701
20
-8.36797103467279
30
0
41
1
10
23.3874887091377
20
-8.38785766358865
30
0
41
1
10
23.4017703058923
20
-8.40643615981386
30
0
41
1
10
23.4355311178213
20
-8.43991939289694
30
0
41
1
10
23.4554935542142
20
-8.454935761489
30
0
41
1
10
23.4971485157203
20
-8.47847508705604
30
0
41
1
10
23.5188925805651
20
-8.48758964772122
30
0
41
1
10
23.5687388690062
20
-8.50214645152354
30
0
41
1
10
23.5977360562636
20
-8.50652212054371
30
0
41
1
10
23.6380565109324
20
-8.50727070339769
30
0
41
1
10
23.6495709364866
20
-8.50688760096392
30
0
41
1
10
23.6610166945642
20
-8.5059117968533
30
0
0
SPLINE
5
1DE
100
AcDbEntity
8
1
62
256
6
ByLayer
370
13
48
1
60
0
100
AcDbSpline
70
4
71
3
72
14
73
10
40
0
40
0
40
0
40
0
40
0.0140696667047013
40
0.0140696667047013
40
0.158297294424887
40
0.158297294424887
40
0.557403345933072
40
0.557403345933072
40
1
40
1
40
1
40
1
41
1
10
23.6387159227632
20
-8.66096703675905
30
0
41
1
10
23.6375460584102
20
-8.66113020680086
30
0
41
1
10
23.636375468005
20
-8.66128933700367
30
0
41
1
10
23.6230171191251
20
-8.66306567628183
30
0
41
1
10
23.6107456069811
20
-8.6642969270921
30
0
41
1
10
23.5650925286651
20
-8.6674390259891
30
0
41
1
10
23.5314247709742
20
-8.66681456587506
30
0
41
1
10
23.4656728605842
20
-8.65970355425102
30
0
41
1
10
23.4330791217041
20
-8.65247101094508
30
0
41
1
10
23.4056329534176
20
-8.64230644342663
30
0
0
SPLINE
5
1DF
100
AcDbEntity
8
1
62
256
6
ByLayer
370
13
48
1
60
0
100
AcDbSpline
70
4
71
3
72
8
73
4
40
0
40
0
40
0
40
0
40
1
40
1
40
1
40
1
41
1
10
23.4056329534175
20
-8.6423064434052
30
0
41
1
10
23.396339183532
20
-8.63886453666996
30
0
41
1
10
23.3875722949159
20
-8.635404826051
30
0
41
1
10
23.3794417210372
20
-8.63200211971886
30
0
0
SPLINE
5
1E0
100
AcDbEntity
8
1
62
256
6
ByLayer
370
13
48
1
60
0
100
AcDbSpline
70
4
71
3
72
10
73
6
40
0
40
0
40
0
40
0
40
0.782589980152529
40
0.782589980152529
40
1
40
1
40
1
40
1
41
1
10
23.3761342837701
20
-8.36797103467276
30
0
41
1
10
23.3750264075113
20
-8.42788680408705
30
0
41
1
10
23.3733409185196
20
-8.49722838836576
30
0
41
1
10
23.3768419616687
20
-8.5902982850528
30
0
41
1
10
23.3779402791544
20
-8.61102490278063
30
0
41
1
10
23.3794417210385
20
-8.63200211971679
30
0
0
SPLINE
5
1E1
100
AcDbEntity
8
1
62
256
6
ByLayer
370
13
48
1
60
0
100
AcDbSpline
70
4
71
3
72
10
73
6
40
0
40
0
40
0
40
0
40
0.217410019846355
40
0.217410019846355
40
1
40
1
40
1
40
1
41
1
10
23.3794417210371
20
-9.36799788028225
30
0
41
1
10
23.377940279153
20
-9.38897509721841
30
0
41
1
10
23.3768419616687
20
-9.40970171494746
30
0
41
1
10
23.3733409185196
20
-9.5027716116351
30
0
41
1
10
23.3750264075113
20
-9.57211319591431
30
0
41
1
10
23.3761342837701
20
-9.63202896532894
30
0
0
SPLINE
5
1E2
100
AcDbEntity
8
1
62
256
6
ByLayer
370
13
48
1
60
0
100
AcDbSpline
70
4
71
3
72
8
73
4
40
0
40
0
40
0
40
0
40
1
40
1
40
1
40
1
41
1
10
23.3794417210371
20
-9.36799788028225
30
0
41
1
10
23.3875722949159
20
-9.36459517395008
30
0
41
1
10
23.396339183532
20
-9.36113546333038
30
0
41
1
10
23.4056329534175
20
-9.35769355659514
30
0
0
SPLINE
5
1E3
100
AcDbEntity
8
1
62
256
6
ByLayer
370
13
48
1
60
0
100
AcDbSpline
70
4
71
3
72
14
73
10
40
0
40
0
40
0
40
0
40
0.362290872375782
40
0.362290872375782
40
0.75921727113372
40
0.75921727113372
40
0.985981513552925
40
0.985981513552925
40
1
40
1
40
1
40
1
41
1
10
23.4056329534176
20
-9.35769355657362
30
0
41
1
10
23.4281812464505
20
-9.34934289557913
30
0
41
1
10
23.4541207849953
20
-9.34297362412985
30
0
41
1
10
23.5118571823039
20
-9.33448301339166
30
0
41
1
10
23.5447419197083
20
-9.33270660086581
30
0
41
1
10
23.5968158183066
20
-9.33443563829377
30
0
41
1
10
23.6161285437686
20
-9.33601830874375
30
0
41
1
10
23.6363754679909
20
-9.33871066300901
30
0
41
1
10
23.6375460583942
20
-9.33886979319996
30
0
41
1
10
23.6387159227443
20
-9.33903296323732
30
0
0
SPLINE
5
1E4
100
AcDbEntity
8
1
62
256
6
ByLayer
370
13
48
1
60
0
100
AcDbSpline
70
4
71
3
72
12
73
8
40
0
40
0
40
0
40
0
40
0.027753964396557
40
0.027753964396557
40
0.667826589987148
40
0.667826589987148
40
1
40
1
40
1
40
1
41
1
10
23.2639115680571
20
-7.86608276248634
30
0
41
1
10
23.26302249383
20
-7.86659468711522
30
0
41
1
10
23.2621362973346
20
-7.86710653670877
30
0
41
1
10
23.241139438886
20
-7.87928009283311
30
0
41
1
10
23.2223677783528
20
-7.89114742471966
30
0
41
1
10
23.1985834198732
20
-7.90777830836851
30
0
41
1
10
23.1911418620728
20
-7.91332047332114
30
0
41
1
10
23.1846560826642
20
-7.91852006093558
30
0
0
SPLINE
5
1E5
100
AcDbEntity
8
1
62
256
6
ByLayer
370
13
48
1
60
0
100
AcDbSpline
70
4
71
3
72
10
73
6
40
0
40
0
40
0
40
0
40
0.820434354426583
40
0.820434354426583
40
1
40
1
40
1
40
1
41
1
10
23.1772670677278
20
-7.92401566865422
30
0
41
1
10
23.2373176229178
20
-8.0427324181907
30
0
41
1
10
23.2907218307757
20
-8.16481625051574
30
0
41
1
10
23.3537878651403
20
-8.31418770936745
30
0
41
1
10
23.3650067820629
20
-8.34106172250191
30
0
41
1
10
23.3761342837705
20
-8.36797103467245
30
0
0
SPLINE
5
1E6
100
AcDbEntity
8
1
62
256
6
ByLayer
370
13
48
1
60
0
100
AcDbSpline
70
4
71
3
72
8
73
4
40
0
40
0
40
0
40
0
40
1
40
1
40
1
40
1
41
1
10
23.1846560826642
20
-7.91852006093558
30
0
41
1
10
23.1821308679729
20
-7.92054450151568
30
0
41
1
10
23.1796628452491
20
-7.92238019853411
30
0
41
1
10
23.1772670677278
20
-7.92401566865422
30
0
0
SPLINE
5
1E7
100
AcDbEntity
8
1
62
256
6
ByLayer
370
13
48
1
60
0
100
AcDbSpline
70
4
71
3
72
12
73
8
40
0
40
0
40
0
40
0
40
0.0278313206712517
40
0.0278313206712517
40
0.611473023609022
40
0.611473023609022
40
1
40
1
40
1
40
1
41
1
10
23.2639115680654
20
-10.1339172375037
30
0
41
1
10
23.2630224938381
20
-10.1334053128778
30
0
41
1
10
23.2621362973421
20
-10.1328934632881
30
0
41
1
10
23.2428803330612
20
-10.1217292426225
30
0
41
1
10
23.2256423082254
20
-10.1109187529855
30
0
41
1
10
23.2010972420243
20
-10.0940822902435
30
0
41
1
10
23.1922210960019
20
-10.0875447382469
30
0
41
1
10
23.184656082664
20
-10.0814799390646
30
0
0
SPLINE
5
1E8
100
AcDbEntity
8
1
62
256
6
ByLayer
370
13
48
1
60
0
100
AcDbSpline
70
4
71
3
72
8
73
4
40
0
40
0
40
0
40
0
40
1
40
1
40
1
40
1
41
1
10
23.184656082664
20
-10.0814799390646
30
0
41
1
10
23.1821308679728
20
-10.0794554984845
30
0
41
1
10
23.1796628452491
20
-10.0776198014661
30
0
41
1
10
23.1772670677278
20
-10.075984331346
30
0
0
SPLINE
5
1E9
100
AcDbEntity
8
1
62
256
6
ByLayer
370
13
48
1
60
0
100
AcDbSpline
70
4
71
3
72
10
73
6
40
0
40
0
40
0
40
0
40
0.819881036339605
40
0.819881036339605
40
1
40
1
40
1
40
1
41
1
10
23.3761342837701
20
-9.63202896532894
30
0
41
1
10
23.3253430321445
20
-9.75485596472583
30
0
41
1
10
23.2729973133249
20
-9.8771935301975
30
0
41
1
10
23.2032770273131
20
-10.0236422096648
30
0
41
1
10
23.1904566776892
20
-10.0499091748832
30
0
41
1
10
23.1772670677279
20
-10.0759843313461
30
0
0
SPLINE
5
1EA
100
AcDbEntity
8
1
62
256
6
ByLayer
370
13
48
1
60
0
100
AcDbSpline
70
4
71
3
72
12
73
8
40
0
40
0
40
0
40
0
40
0.0277499781510944
40
0.0277499781510944
40
0.667808133384293
40
0.667808133384293
40
1
40
1
40
1
40
1
41
1
10
23.263911568057
20
-7.86608276248637
30
0
41
1
10
23.2629034320477
20
-7.86616117993015
30
0
41
1
10
23.2618982158727
20
-7.86623959514085
30
0
41
1
10
23.2380665525594
20
-7.86810436775176
30
0
41
1
10
23.21651808857
20
-7.86991934865961
30
0
41
1
10
23.1888224267558
20
-7.87245915286994
30
0
41
1
10
23.180073554872
20
-7.87330487126766
30
0
41
1
10
23.1723583203581
20
-7.87409777686838
30
0
0
SPLINE
5
1EB
100
AcDbEntity
8
1
62
256
6
ByLayer
370
13
48
1
60
0
100
AcDbSpline
70
4
71
3
72
12
73
8
40
0
40
0
40
0
40
0
40
0.0278272716373759
40
0.0278272716373759
40
0.611453167879501
40
0.611453167879501
40
1
40
1
40
1
40
1
41
1
10
23.2639115680571
20
-10.1339172375139
30
0
41
1
10
23.2629034319401
20
-10.1338388216494
30
0
41
1
10
23.2618982154425
20
-10.1337604111764
30
0
41
1
10
23.2400426145075
20
-10.1320502262534
30
0
41
1
10
23.2202762805606
20
-10.1303966595155
30
0
41
1
10
23.1917749645618
20
-10.1278247831713
30
0
41
1
10
23.1813573467759
20
-10.1268270658485
30
0
41
1
10
23.1723583203581
20
-10.1259022231319
30
0
0
SPLINE
5
1EC
100
AcDbEntity
8
1
62
256
6
ByLayer
370
13
48
1
60
0
100
AcDbSpline
70
4
71
3
72
26
73
22
40
0
40
0
40
0
40
0
40
0.102035501666901
40
0.102035501666901
40
0.129284389714829
40
0.129284389714829
40
0.254161410871578
40
0.254161410871578
40
0.386333886983898
40
0.386333886983898
40
0.523125606178389
40
0.523125606178389
40
0.658908540792033
40
0.658908540792033
40
0.795133361230144
40
0.795133361230144
40
0.895568684120736
40
0.895568684120736
40
0.931575554525879
40
0.931575554525879
40
1
40
1
40
1
40
1
41
1
10
23.5964890019636
20
-8.8026645496351
30
0
41
1
10
23.6131393767336
20
-8.80798412346971
30
0
41
1
10
23.6291034127914
20
-8.81565509327103
30
0
41
1
10
23.6463800184522
20
-8.82787203732414
30
0
41
1
10
23.64992822141
20
-8.83063104782553
30
0
41
1
10
23.6686371526018
20
-8.84657003765858
30
0
41
1
10
23.6810099307052
20
-8.86259829058727
30
0
41
1
10
23.7005417637305
20
-8.89887392098419
30
0
41
1
10
23.7077186636934
20
-8.91988611040856
30
0
41
1
10
23.716817379671
20
-8.96426495271979
30
0
41
1
10
23.7186673668159
20
-8.98832553433772
30
0
41
1
10
23.7168386014334
20
-9.0351292011228
30
0
41
1
10
23.7131780830524
20
-9.05852186077462
30
0
41
1
10
23.7002714091329
20
-9.10165924458991
30
0
41
1
10
23.6908281262292
20
-9.12202849752086
30
0
41
1
10
23.668731185536
20
-9.15250329662527
30
0
41
1
10
23.6572851116735
20
-9.16419679656676
30
0
41
1
10
23.6391386222023
20
-9.17731463733671
30
0
41
1
10
23.6340445533438
20
-9.18055662781103
30
0
41
1
10
23.6187059419968
20
-9.18910560254255
30
0
41
1
10
23.6077600338148
20
-9.19373450522409
30
0
41
1
10
23.5964890019636
20
-9.19733545036519
30
0
0
SPLINE
5
1ED
100
AcDbEntity
8
1
62
256
6
ByLayer
370
13
48
1
60
0
100
AcDbSpline
70
4
71
3
72
14
73
10
40
0
40
0
40
0
40
0
40
0.27475847941734
40
0.27475847941734
40
0.512436463803127
40
0.512436463803127
40
0.749993769781322
40
0.749993769781322
40
1
40
1
40
1
40
1
41
1
10
24.7896201413547
20
-9.28857222631171
30
0
41
1
10
24.8118015893238
20
-9.24043514272373
30
0
41
1
10
24.8306589366166
20
-9.18891044535945
30
0
41
1
10
24.853462576975
20
-9.08910401817838
30
0
41
1
10
24.8590594822313
20
-9.04055509005718
30
0
41
1
10
24.8578279543455
20
-8.94452522595432
30
0
41
1
10
24.8510126304754
20
-8.89624743598483
30
0
41
1
10
24.8272786525577
20
-8.80192459596199
30
0
41
1
10
24.8098376614737
20
-8.7553028379873
30
0
41
1
10
24.7896201413508
20
-8.7114277736801
30
0
0
SPLINE
5
1EE
100
AcDbEntity
8
1
62
256
6
ByLayer
370
13
48
1
60
0
100
AcDbSpline
70
4
71
3
72
8
73
4
40
0
40
0
40
0
40
0
40
1
40
1
40
1
40
1
41
1
10
23.1705951003268
20
-10.1254379281354
30
0
41
1
10
23.1711929686635
20
-10.1254379281354
30
0
41
1
10
23.1717967952489
20
-10.1255881269815
30
0
41
1
10
23.1723583203562
20
-10.1259022231172
30
0
0
SPLINE
5
1EF
100
AcDbEntity
8
1
62
256
6
ByLayer
370
13
48
1
60
0
100
AcDbSpline
70
4
71
3
72
8
73
4
40
0
40
0
40
0
40
0
40
1
40
1
40
1
40
1
41
1
10
23.1723583203562
20
-7.87409777686966
30
0
41
1
10
23.1717967952486
20
-7.8744118730061
30
0
41
1
10
23.1711929686639
20
-7.8745620718648
30
0
41
1
10
23.1705951003268
20
-7.8745620718648
30
0
0
SPLINE
5
1F0
100
AcDbEntity
8
1
62
256
6
ByLayer
370
13
48
1
60
0
100
AcDbSpline
70
4
71
3
72
10
73
6
40
0
40
0
40
0
40
0
40
0.84896187346875
40
0.84896187346875
40
1
40
1
40
1
40
1
41
1
10
27.5256851850747
20
-8.23523425288974
30
0
41
1
10
27.4912977154035
20
-8.18339144974649
30
0
41
1
10
27.443874742716
20
-8.13993580198135
30
0
41
1
10
27.3838155264513
20
-8.09793022786184
30
0
41
1
10
27.3744787017949
20
-8.09173629222232
30
0
41
1
10
27.3650107000385
20
-8.08575668076043
30
0
0
SPLINE
5
1F1
100
AcDbEntity
8
1
62
256
6
ByLayer
370
13
48
1
60
0
100
AcDbSpline
70
4
71
3
72
8
73
4
40
0
40
0
40
0
40
0
40
1
40
1
40
1
40
1
41
1
10
27.3650107000385
20
-8.08575668076043
30
0
41
1
10
27.3210937227593
20
-8.05802047332531
30
0
41
1
10
27.2769798114244
20
-8.03059082536652
30
0
41
1
10
27.232560747957
20
-8.00366733691772
30
0
0
SPLINE
5
1F2
100
AcDbEntity
8
1
62
256
6
ByLayer
370
13
48
1
60
0
100
AcDbSpline
70
4
71
3
72
10
73
6
40
0
40
0
40
0
40
0
40
0.657586553479613
40
0.657586553479613
40
1
40
1
40
1
40
1
41
1
10
27.232560747957
20
-8.00366733691772
30
0
41
1
10
27.2092305437702
20
-7.98952632551647
30
0
41
1
10
27.1864384919004
20
-7.97420290595673
30
0
41
1
10
27.1548281900598
20
-7.94729410541095
30
0
41
1
10
27.1444660370968
20
-7.93736466588945
30
0
41
1
10
27.135515563742
20
-7.92629438911945
30
0
0
SPLINE
5
1F3
100
AcDbEntity
8
1
62
256
6
ByLayer
370
13
48
1
60
0
100
AcDbSpline
70
4
71
3
72
10
73
6
40
0
40
0
40
0
40
0
40
0.657586553479614
40
0.657586553479614
40
1
40
1
40
1
40
1
41
1
10
27.232560747957
20
-9.99633266308254
30
0
41
1
10
27.2092305437702
20
-10.0104736744838
30
0
41
1
10
27.1864384919004
20
-10.0257970940435
30
0
41
1
10
27.1548281900598
20
-10.0527058945893
30
0
41
1
10
27.1444660370968
20
-10.0626353341108
30
0
41
1
10
27.135515563742
20
-10.0737056108808
30
0
0
SPLINE
5
1F4
100
AcDbEntity
8
1
62
256
6
ByLayer
370
13
48
1
60
0
100
AcDbSpline
70
4
71
3
72
8
73
4
40
0
40
0
40
0
40
0
40
1
40
1
40
1
40
1
41
1
10
27.3650107000385
20
-9.91424331923983
30
0
41
1
10
27.3210937227593
20
-9.94197952667494
30
0
41
1
10
27.2769798114244
20
-9.96940917463377
30
0
41
1
10
27.232560747957
20
-9.99633266308254
30
0
0
SPLINE
5
1F5
100
AcDbEntity
8
1
62
256
6
ByLayer
370
13
48
1
60
0
100
AcDbSpline
70
4
71
3
72
10
73
6
40
0
40
0
40
0
40
0
40
0.84896187346875
40
0.84896187346875
40
1
40
1
40
1
40
1
41
1
10
27.5256851850747
20
-9.76476574711052
30
0
41
1
10
27.4912977154035
20
-9.81660855025379
30
0
41
1
10
27.443874742716
20
-9.8600641980189
30
0
41
1
10
27.3838155264513
20
-9.90206977213842
30
0
41
1
10
27.3744787017949
20
-9.90826370777796
30
0
41
1
10
27.3650107000385
20
-9.91424331923983
30
0
0
SPLINE
5
1F6
100
AcDbEntity
8
1
62
256
6
ByLayer
370
13
48
1
60
0
100
AcDbSpline
70
4
71
3
72
14
73
10
40
0
40
0
40
0
40
0
40
0.0140322366304758
40
0.0140322366304758
40
0.158091565624719
40
0.158091565624719
40
0.557043656612004
40
0.557043656612004
40
1
40
1
40
1
40
1
41
1
10
23.6387159228241
20
-8.66096703674884
30
0
41
1
10
23.6379360645915
20
-8.66172776964112
30
0
41
1
10
23.6371559091054
20
-8.66248505377098
30
0
41
1
10
23.6282316685991
20
-8.67108356511363
30
0
41
1
10
23.6199670064645
20
-8.67850384598802
30
0
41
1
10
23.5889415558847
20
-8.70436739796119
30
0
41
1
10
23.5655368582111
20
-8.71980530701978
30
0
41
1
10
23.5187541033904
20
-8.74248914468211
30
0
41
1
10
23.4949133424734
20
-8.74900990703398
30
0
41
1
10
23.4743263124385
20
-8.74951413545256
30
0
0
SPLINE
5
1F7
100
AcDbEntity
8
1
62
256
6
ByLayer
370
13
48
1
60
0
100
AcDbSpline
70
4
71
3
72
14
73
10
40
0
40
0
40
0
40
0
40
0.362636115875106
40
0.362636115875106
40
0.759502173372961
40
0.759502173372961
40
0.986017775516147
40
0.986017775516147
40
1
40
1
40
1
40
1
41
1
10
23.4743263124385
20
-9.2504858645477
30
0
41
1
10
23.4912406290798
20
-9.25090013892913
30
0
41
1
10
23.5102969105352
20
-9.25533332875884
30
0
41
1
10
23.5517568775429
20
-9.27241211056995
30
0
41
1
10
23.5748386743135
20
-9.28601259474499
30
0
41
1
10
23.6105592323138
20
-9.31322635850606
30
0
41
1
10
23.623626747303
20
-9.32447959032027
30
0
41
1
10
23.6371559091053
20
-9.33751494622933
30
0
41
1
10
23.6379360645915
20
-9.33827223035919
30
0
41
1
10
23.6387159228241
20
-9.33903296325144
30
0
0
SPLINE
5
1F8
100
AcDbEntity
8
1
62
256
6
ByLayer
370
13
48
1
60
0
100
AcDbSpline
70
4
71
3
72
8
73
4
40
0
40
0
40
0
40
0
40
1
40
1
40
1
40
1
41
1
10
23.4743263124398
20
-8.749514135455
30
0
41
1
10
23.5107270135585
20
-8.76752867936705
30
0
41
1
10
23.5486103280918
20
-8.78411988411128
30
0
41
1
10
23.5875073723823
20
-8.79924434820182
30
0
0
SPLINE
5
1F9
100
AcDbEntity
8
1
62
256
6
ByLayer
370
13
48
1
60
0
100
AcDbSpline
70
4
71
3
72
8
73
4
40
0
40
0
40
0
40
0
40
1
40
1
40
1
40
1
41
1
10
23.5875073723823
20
-9.20075565179843
30
0
41
1
10
23.5486103280918
20
-9.21588011588898
30
0
41
1
10
23.5107270135585
20
-9.23247132063324
30
0
41
1
10
23.4743263124398
20
-9.25048586454525
30
0
0
SPLINE
5
1FA
100
AcDbEntity
8
1
62
256
6
ByLayer
370
13
48
1
60
0
100
AcDbSpline
70
4
71
3
72
10
73
6
40
0
40
0
40
0
40
0
40
0.638823417468865
40
0.638823417468865
40
1
40
1
40
1
40
1
41
1
10
27.1900286630425
20
-9.93502396633576
30
0
41
1
10
27.166841990865
20
-9.95471065792574
30
0
41
1
10
27.1449724664755
20
-9.97650228769888
30
0
41
1
10
27.1161775948407
20
-10.0150198729898
30
0
41
1
10
27.1068123576004
20
-10.0299982956351
30
0
41
1
10
27.0995116901682
20
-10.0459979598176
30
0
0
SPLINE
5
1FB
100
AcDbEntity
8
1
62
256
6
ByLayer
370
13
48
1
60
0
100
AcDbSpline
70
4
71
3
72
16
73
12
40
0
40
0
40
0
40
0
40
0.0355702320992689
40
0.0355702320992689
40
0.09050817101665
40
0.09050817101665
40
0.198049233530909
40
0.198049233530909
40
0.436780146594192
40
0.436780146594192
40
1
40
1
40
1
40
1
41
1
10
27.0647600217563
20
-10.1263220355866
30
0
41
1
10
27.0651586810189
20
-10.125355259624
30
0
41
1
10
27.0655584542086
20
-10.1243889211322
30
0
41
1
10
27.0665771815565
20
-10.1219268549544
30
0
41
1
10
27.0671970808021
20
-10.1204315089407
30
0
41
1
10
27.0690334070427
20
-10.1160112009546
30
0
41
1
10
27.0702528942053
20
-10.1130877962551
30
0
41
1
10
27.0741930527674
20
-10.103689838593
30
0
41
1
10
27.0769343827304
20
-10.0972280597345
30
0
41
1
10
27.0861946238307
20
-10.075659436056
30
0
41
1
10
27.0928248586496
20
-10.0606523814511
30
0
41
1
10
27.0995116901682
20
-10.0459979598176
30
0
0
SPLINE
5
1FC
100
AcDbEntity
8
1
62
256
6
ByLayer
370
13
48
1
60
0
100
AcDbSpline
70
4
71
3
72
8
73
4
40
0
40
0
40
0
40
0
40
1
40
1
40
1
40
1
41
1
10
27.0647600217523
20
-10.1263220355885
30
0
41
1
10
26.9478492133727
20
-10.1570735908762
30
0
41
1
10
26.8265101800571
20
-10.1720572868029
30
0
41
1
10
26.7060768987951
20
-10.1748687981325
30
0
0
SPLINE
5
1FD
100
AcDbEntity
8
1
62
256
6
ByLayer
370
13
48
1
60
0
100
AcDbSpline
70
4
71
3
72
16
73
12
40
0
40
0
40
0
40
0
40
0.0355702320992689
40
0.0355702320992689
40
0.09050817101665
40
0.09050817101665
40
0.198049233530909
40
0.198049233530909
40
0.436780146594192
40
0.436780146594192
40
1
40
1
40
1
40
1
41
1
10
27.0647600217563
20
-7.87367796441362
30
0
41
1
10
27.0651586810189
20
-7.87464474037626
30
0
41
1
10
27.0655584542086
20
-7.87561107886808
30
0
41
1
10
27.0665771815565
20
-7.87807314504582
30
0
41
1
10
27.0671970808021
20
-7.87956849105962
30
0
41
1
10
27.0690334070427
20
-7.88398879904562
30
0
41
1
10
27.0702528942053
20
-7.88691220374511
30
0
41
1
10
27.0741930527674
20
-7.89631016140723
30
0
41
1
10
27.0769343827304
20
-7.90277194026578
30
0
41
1
10
27.0861946238307
20
-7.92434056394427
30
0
41
1
10
27.0928248586496
20
-7.93934761854919
30
0
41
1
10
27.0995116901682
20
-7.95400204018267
30
0
0
SPLINE
5
1FE
100
AcDbEntity
8
1
62
256
6
ByLayer
370
13
48
1
60
0
100
AcDbSpline
70
4
71
3
72
10
73
6
40
0
40
0
40
0
40
0
40
0.638823417468865
40
0.638823417468865
40
1
40
1
40
1
40
1
41
1
10
27.1900286630425
20
-8.06497603366449
30
0
41
1
10
27.166841990865
20
-8.04528934207454
30
0
41
1
10
27.1449724664755
20
-8.02349771230138
30
0
41
1
10
27.1161775948407
20
-7.98498012701046
30
0
41
1
10
27.1068123576004
20
-7.97000170436516
30
0
41
1
10
27.0995116901682
20
-7.9540020401827
30
0
0
SPLINE
5
1FF
100
AcDbEntity
8
1
62
256
6
ByLayer
370
13
48
1
60
0
100
AcDbSpline
70
4
71
3
72
8
73
4
40
0
40
0
40
0
40
0
40
1
40
1
40
1
40
1
41
1
10
23.5875073723823
20
-8.79924434820182
30
0
41
1
10
23.590499776207
20
-8.80038443203571
30
0
41
1
10
23.5934936621595
20
-8.80152449963111
30
0
41
1
10
23.5964890019636
20
-8.8026645496351
30
0
0
SPLINE
5
200
100
AcDbEntity
8
1
62
256
6
ByLayer
370
13
48
1
60
0
100
AcDbSpline
70
4
71
3
72
8
73
4
40
0
40
0
40
0
40
0
40
1
40
1
40
1
40
1
41
1
10
27.0647600217523
20
-7.87367796441171
30
0
41
1
10
26.9478492133727
20
-7.84292640912412
30
0
41
1
10
26.8265101800571
20
-7.82794271319733
30
0
41
1
10
26.7060768987951
20
-7.82513120186772
30
0
0
SPLINE
5
201
100
AcDbEntity
8
1
62
256
6
ByLayer
370
13
48
1
60
0
100
AcDbSpline
70
4
71
3
72
8
73
4
40
0
40
0
40
0
40
0
40
1
40
1
40
1
40
1
41
1
10
23.5964890019636
20
-9.19733545036519
30
0
41
1
10
23.5934936621595
20
-9.19847550036914
30
0
41
1
10
23.590499776207
20
-9.19961556796454
30
0
41
1
10
23.5875073723823
20
-9.20075565179843
30
0
0
SPLINE
5
202
100
AcDbEntity
8
1
62
256
6
ByLayer
370
13
48
1
60
0
100
AcDbSpline
70
4
71
3
72
8
73
4
40
0
40
0
40
0
40
0
40
1
40
1
40
1
40
1
41
1
10
23.4743263124385
20
-9.2504858645477
30
0
41
1
10
23.471342816915
20
-9.25084835990208
30
0
41
1
10
23.4686096513474
20
-9.25102435555303
30
0
41
1
10
23.4661840397669
20
-9.25102435555303
30
0
0
SPLINE
5
203
100
AcDbEntity
8
1
62
256
6
ByLayer
370
13
48
1
60
0
100
AcDbSpline
70
4
71
3
72
8
73
4
40
0
40
0
40
0
40
0
40
1
40
1
40
1
40
1
41
1
10
23.4661840397672
20
-8.74897564444734
30
0
41
1
10
23.4686096513477
20
-8.74897564444734
30
0
41
1
10
23.4713428169147
20
-8.74915164009823
30
0
41
1
10
23.4743263124381
20
-8.74951413545261
30
0
0
SPLINE
5
204
100
AcDbEntity
8
1
62
256
6
ByLayer
370
13
48
1
60
0
100
AcDbSpline
70
4
71
3
72
16
73
12
40
0
40
0
40
0
40
0
40
0.0355303527441481
40
0.0355303527441481
40
0.0917680599187357
40
0.0917680599187357
40
0.200182520092063
40
0.200182520092063
40
0.439533504711995
40
0.439533504711995
40
1
40
1
40
1
40
1
41
1
10
27.0647600217524
20
-7.87367796441171
30
0
41
1
10
27.0655855998636
20
-7.87431169199368
30
0
41
1
10
27.0664120929671
20
-7.87494492601067
30
0
41
1
10
27.0685507889318
20
-7.87658284554419
30
0
41
1
10
27.0698640688781
20
-7.87758715931423
30
0
41
1
10
27.0737129338245
20
-7.88052602289974
30
0
41
1
10
27.0762525536656
20
-7.88245948159201
30
0
41
1
10
27.0844114693382
20
-7.88865073870966
30
0
41
1
10
27.0900517136001
20
-7.89289905948627
30
0
41
1
10
27.1089188273347
20
-7.90699552825618
30
0
41
1
10
27.1222466489562
20
-7.9167682610636
30
0
41
1
10
27.135515563742
20
-7.92629438911945
30
0
0
SPLINE
5
205
100
AcDbEntity
8
1
62
256
6
ByLayer
370
13
48
1
60
0
100
AcDbSpline
70
4
71
3
72
16
73
12
40
0
40
0
40
0
40
0
40
0.0355303527441481
40
0.0355303527441481
40
0.0917680599187357
40
0.0917680599187357
40
0.200182520092063
40
0.200182520092063
40
0.439533504711995
40
0.439533504711995
40
1
40
1
40
1
40
1
41
1
10
27.0647600217524
20
-10.1263220355885
30
0
41
1
10
27.0655855998636
20
-10.1256883080066
30
0
41
1
10
27.0664120929671
20
-10.1250550739896
30
0
41
1
10
27.0685507889318
20
-10.1234171544561
30
0
41
1
10
27.0698640688781
20
-10.122412840686
30
0
41
1
10
27.0737129338245
20
-10.1194739771005
30
0
41
1
10
27.0762525536656
20
-10.1175405184082
30
0
41
1
10
27.0844114693382
20
-10.1113492612906
30
0
41
1
10
27.0900517136001
20
-10.107100940514
30
0
41
1
10
27.1089188273347
20
-10.0930044717441
30
0
41
1
10
27.1222466489562
20
-10.0832317389367
30
0
41
1
10
27.135515563742
20
-10.0737056108808
30
0
0
SPLINE
5
206
100
AcDbEntity
8
1
62
256
6
ByLayer
370
13
48
1
60
0
100
AcDbSpline
70
4
71
3
72
10
73
6
40
0
40
0
40
0
40
0
40
0.155061591761428
40
0.155061591761428
40
1
40
1
40
1
40
1
41
1
10
27.3213895076228
20
-8.14630122296239
30
0
41
1
10
27.3304066184319
20
-8.15110706801809
30
0
41
1
10
27.3393274149503
20
-8.15609803032993
30
0
41
1
10
27.3954797246052
20
-8.18921922372752
30
0
41
1
10
27.4409287471059
20
-8.22348206069955
30
0
41
1
10
27.4749811562301
20
-8.26658708906058
30
0
0
SPLINE
5
207
100
AcDbEntity
8
1
62
256
6
ByLayer
370
13
48
1
60
0
100
AcDbSpline
70
4
71
3
72
8
73
4
40
0
40
0
40
0
40
0
40
1
40
1
40
1
40
1
41
1
10
26.7060768987951
20
-7.82513120186772
30
0
41
1
10
26.5916360304015
20
-7.82230782863687
30
0
41
1
10
26.4749005955276
20
-7.82606103672936
30
0
41
1
10
26.3587805434613
20
-7.82159077261781
30
0
0
SPLINE
5
208
100
AcDbEntity
8
1
62
256
6
ByLayer
370
13
48
1
60
0
100
AcDbSpline
70
4
71
3
72
8
73
4
40
0
40
0
40
0
40
0
40
1
40
1
40
1
40
1
41
1
10
26.7060768987951
20
-10.1748687981325
30
0
41
1
10
26.5916360304015
20
-10.1776921713634
30
0
41
1
10
26.4749005955276
20
-10.1739389632709
30
0
41
1
10
26.3587805434613
20
-10.1784092273825
30
0
0
SPLINE
5
209
100
AcDbEntity
8
1
62
256
6
ByLayer
370
13
48
1
60
0
100
AcDbSpline
70
4
71
3
72
10
73
6
40
0
40
0
40
0
40
0
40
0.155061591761428
40
0.155061591761428
40
1
40
1
40
1
40
1
41
1
10
27.3213895076228
20
-9.85369877703786
30
0
41
1
10
27.3304066184319
20
-9.84889293198216
30
0
41
1
10
27.3393274149503
20
-9.84390196967033
30
0
41
1
10
27.3954797246052
20
-9.81078077627274
30
0
41
1
10
27.4409287471059
20
-9.77651793930073
30
0
41
1
10
27.4749811562301
20
-9.73341291093971
30
0
0
SPLINE
5
20A
100
AcDbEntity
8
1
62
256
6
ByLayer
370
13
48
1
60
0
100
AcDbSpline
70
4
71
3
72
12
73
8
40
0
40
0
40
0
40
0
40
0.0075770979405842
40
0.0075770979405842
40
0.524912447401083
40
0.524912447401083
40
1
40
1
40
1
40
1
41
1
10
27.0213727254144
20
-9.58907562242314
30
0
41
1
10
27.0226938848631
20
-9.58912463590315
30
0
41
1
10
27.0240151186687
20
-9.58917130477397
30
0
41
1
10
27.1154638182289
20
-9.5922377930211
30
0
41
1
10
27.205673527038
20
-9.58747373960736
30
0
41
1
10
27.3786115881781
20
-9.58341741088964
30
0
41
1
10
27.4613940232687
20
-9.58109754987171
30
0
41
1
10
27.5441651422333
20
-9.57838961865573
30
0
0
SPLINE
5
20B
100
AcDbEntity
8
1
62
256
6
ByLayer
370
13
48
1
60
0
100
AcDbSpline
70
4
71
3
72
8
73
4
40
0
40
0
40
0
40
0
40
1
40
1
40
1
40
1
41
1
10
27.4749811562301
20
-8.26658708906058
30
0
41
1
10
27.4822263780105
20
-8.27575840757683
30
0
41
1
10
27.4893737130963
20
-8.28504466676219
30
0
41
1
10
27.4964383490931
20
-8.29439320953833
30
0
0
SPLINE
5
20C
100
AcDbEntity
8
1
62
256
6
ByLayer
370
13
48
1
60
0
100
AcDbSpline
70
4
71
3
72
12
73
8
40
0
40
0
40
0
40
0
40
0.0075770979405842
40
0.0075770979405842
40
0.524912447401083
40
0.524912447401083
40
1
40
1
40
1
40
1
41
1
10
27.0213727254144
20
-8.41092437757712
30
0
41
1
10
27.0226938848631
20
-8.41087536409714
30
0
41
1
10
27.0240151186687
20
-8.41082869522631
30
0
41
1
10
27.1154638182289
20
-8.40776220697916
30
0
41
1
10
27.205673527038
20
-8.41252626039289
30
0
41
1
10
27.3786115881781
20
-8.41658258911065
30
0
41
1
10
27.4613940232687
20
-8.41890245012857
30
0
41
1
10
27.5441651422333
20
-8.42161038134452
30
0
0
SPLINE
5
20D
100
AcDbEntity
8
1
62
256
6
ByLayer
370
13
48
1
60
0
100
AcDbSpline
70
4
71
3
72
10
73
6
40
0
40
0
40
0
40
0
40
0.596085739020476
40
0.596085739020476
40
1
40
1
40
1
40
1
41
1
10
27.4964383490931
20
-9.70560679046193
30
0
41
1
10
27.5128939358857
20
-9.68383132218486
30
0
41
1
10
27.5267245821227
20
-9.65940290059095
30
0
41
1
10
27.54081187438
20
-9.61573051995606
30
0
41
1
10
27.544038381206
20
-9.59698098525939
30
0
41
1
10
27.5441651422481
20
-9.57838961866045
30
0
0
SPLINE
5
20E
100
AcDbEntity
8
1
62
256
6
ByLayer
370
13
48
1
60
0
100
AcDbSpline
70
4
71
3
72
10
73
6
40
0
40
0
40
0
40
0
40
0.596085739020476
40
0.596085739020476
40
1
40
1
40
1
40
1
41
1
10
27.4964383490931
20
-8.29439320953833
30
0
41
1
10
27.5128939358857
20
-8.3161686778154
30
0
41
1
10
27.5267245821227
20
-8.34059709940931
30
0
41
1
10
27.54081187438
20
-8.3842694800442
30
0
41
1
10
27.544038381206
20
-8.40301901474086
30
0
41
1
10
27.5441651422481
20
-8.4216103813398
30
0
0
SPLINE
5
20F
100
AcDbEntity
8
1
62
256
6
ByLayer
370
13
48
1
60
0
100
AcDbSpline
70
4
71
3
72
8
73
4
40
0
40
0
40
0
40
0
40
1
40
1
40
1
40
1
41
1
10
27.4749811562301
20
-9.73341291093968
30
0
41
1
10
27.4822263780105
20
-9.72424159242343
30
0
41
1
10
27.4893737130963
20
-9.71495533323809
30
0
41
1
10
27.4964383490931
20
-9.70560679046193
30
0
0
SPLINE
5
210
100
AcDbEntity
8
1
62
256
6
ByLayer
370
13
48
1
60
0
100
AcDbSpline
70
4
71
3
72
8
73
4
40
0
40
0
40
0
40
0
40
1
40
1
40
1
40
1
41
1
10
26.3587805434613
20
-10.1784092273825
30
0
41
1
10
26.2587308196864
20
-10.1818490590909
30
0
41
1
10
26.1579761895169
20
-10.1778843275056
30
0
41
1
10
26.0587805434613
20
-10.1644241853513
30
0
0
SPLINE
5
211
100
AcDbEntity
8
1
62
256
6
ByLayer
370
13
48
1
60
0
100
AcDbSpline
70
4
71
3
72
8
73
4
40
0
40
0
40
0
40
0
40
1
40
1
40
1
40
1
41
1
10
26.3587805434613
20
-7.82159077261778
30
0
41
1
10
26.2587308196864
20
-7.81815094090933
30
0
41
1
10
26.1579761895169
20
-7.82211567249465
30
0
41
1
10
26.0587805434613
20
-7.83557581464899
30
0
0
SPLINE
5
212
100
AcDbEntity
8
1
62
256
6
ByLayer
370
13
48
1
60
0
100
AcDbSpline
70
4
71
3
72
16
73
12
40
0
40
0
40
0
40
0
40
0.113631665737173
40
0.113631665737173
40
0.758132216188134
40
0.758132216188134
40
0.942823120099093
40
0.942823120099093
40
0.947778003019258
40
0.947778003019258
40
1
40
1
40
1
40
1
41
1
10
25.8112677608007
20
-9.51584107451089
30
0
41
1
10
25.8332807942052
20
-9.52284514337182
30
0
41
1
10
25.8554088133189
20
-9.52949779114326
30
0
41
1
10
26.0026697940168
20
-9.57118556927975
30
0
41
1
10
26.1333481685156
20
-9.59392795874919
30
0
41
1
10
26.3009734748332
20
-9.59244342598387
30
0
41
1
10
26.3386296238166
20
-9.59063719054663
30
0
41
1
10
26.37730048355
20
-9.58925903577921
30
0
41
1
10
26.3783108496887
20
-9.58922301844578
30
0
41
1
10
26.3899699703881
20
-9.58880737523904
30
0
41
1
10
26.40061882194
20
-9.58843046187303
30
0
41
1
10
26.4112677608007
20
-9.58805604147108
30
0
0
SPLINE
5
213
100
AcDbEntity
8
1
62
256
6
ByLayer
370
13
48
1
60
0
100
AcDbSpline
70
4
71
3
72
10
73
6
40
0
40
0
40
0
40
0
40
0.411878619131049
40
0.411878619131049
40
1
40
1
40
1
40
1
41
1
10
27.5970257408783
20
-9.57838961865588
30
0
41
1
10
27.5970257408783
20
-9.60149812455975
30
0
41
1
10
27.5938567437525
20
-9.62478014248885
30
0
41
1
10
27.5795589487909
20
-9.67884755364446
30
0
41
1
10
27.5654981180154
20
-9.70932626905591
30
0
41
1
10
27.5480487400853
20
-9.73707013848514
30
0
0
SPLINE
5
214
100
AcDbEntity
8
1
62
256
6
ByLayer
370
13
48
1
60
0
100
AcDbSpline
70
4
71
3
72
16
73
12
40
0
40
0
40
0
40
0
40
0.113631665737173
40
0.113631665737173
40
0.758132216188134
40
0.758132216188134
40
0.942823120099093
40
0.942823120099093
40
0.947778003019258
40
0.947778003019258
40
1
40
1
40
1
40
1
41
1
10
25.8112677608007
20
-8.48415892548937
30
0
41
1
10
25.8332807942052
20
-8.47715485662843
30
0
41
1
10
25.8554088133189
20
-8.470502208857
30
0
41
1
10
26.0026697940168
20
-8.42881443072051
30
0
41
1
10
26.1333481685156
20
-8.40607204125106
30
0
41
1
10
26.3009734748332
20
-8.40755657401641
30
0
41
1
10
26.3386296238166
20
-8.40936280945363
30
0
41
1
10
26.37730048355
20
-8.41074096422105
30
0
41
1
10
26.3783108496887
20
-8.41077698155448
30
0
41
1
10
26.3899699703881
20
-8.41119262476121
30
0
41
1
10
26.40061882194
20
-8.41156953812722
30
0
41
1
10
26.4112677608007
20
-8.41194395852918
30
0
0
SPLINE
5
215
100
AcDbEntity
8
1
62
256
6
ByLayer
370
13
48
1
60
0
100
AcDbSpline
70
4
71
3
72
10
73
6
40
0
40
0
40
0
40
0
40
0.411878619131049
40
0.411878619131049
40
1
40
1
40
1
40
1
41
1
10
27.5970257408783
20
-8.42161038134438
30
0
41
1
10
27.5970257408783
20
-8.3985018754405
30
0
41
1
10
27.5938567437525
20
-8.37521985751141
30
0
41
1
10
27.5795589487909
20
-8.3211524463558
30
0
41
1
10
27.5654981180154
20
-8.29067373094435
30
0
41
1
10
27.5480487400853
20
-8.26292986151512
30
0
0
SPLINE
5
216
100
AcDbEntity
8
1
62
256
6
ByLayer
370
13
48
1
60
0
100
AcDbSpline
70
4
71
3
72
8
73
4
40
0
40
0
40
0
40
0
40
1
40
1
40
1
40
1
41
1
10
27.5480487400851
20
-8.26292986151518
30
0
41
1
10
27.5406964490065
20
-8.253577963493
30
0
41
1
10
27.5332455329699
20
-8.24432948551032
30
0
41
1
10
27.5256851850747
20
-8.23523425288974
30
0
0
SPLINE
5
217
100
AcDbEntity
8
1
62
256
6
ByLayer
370
13
48
1
60
0
100
AcDbSpline
70
4
71
3
72
8
73
4
40
0
40
0
40
0
40
0
40
1
40
1
40
1
40
1
41
1
10
27.5480487400851
20
-9.73707013848508
30
0
41
1
10
27.5406964490065
20
-9.74642203650725
30
0
41
1
10
27.5332455329699
20
-9.75567051448994
30
0
41
1
10
27.5256851850747
20
-9.76476574711054
30
0
0
SPLINE
5
218
100
AcDbEntity
8
1
62
256
6
ByLayer
370
13
48
1
60
0
100
AcDbSpline
70
4
71
3
72
12
73
8
40
0
40
0
40
0
40
0
40
0.390105015408732
40
0.390105015408732
40
0.395238792462735
40
0.395238792462735
40
1
40
1
40
1
40
1
41
1
10
26.4112677608007
20
-8.41194395852918
30
0
41
1
10
26.4930131894969
20
-8.41405170355665
30
0
41
1
10
26.575069491157
20
-8.41446245578183
30
0
41
1
10
26.6568134956408
20
-8.41474795757449
30
0
41
1
10
26.6578786372164
20
-8.41475156428359
30
0
41
1
10
26.7833815366521
20
-8.41516313616177
30
0
41
1
10
26.906145891386
20
-8.41405921742981
30
0
41
1
10
27.0213727254144
20
-8.41092437757712
30
0
0
SPLINE
5
219
100
AcDbEntity
8
1
62
256
6
ByLayer
370
13
48
1
60
0
100
AcDbSpline
70
4
71
3
72
12
73
8
40
0
40
0
40
0
40
0
40
0.390105015408732
40
0.390105015408732
40
0.395238792462735
40
0.395238792462735
40
1
40
1
40
1
40
1
41
1
10
26.4112677608007
20
-9.58805604147108
30
0
41
1
10
26.4930131894969
20
-9.58594829644363
30
0
41
1
10
26.575069491157
20
-9.58553754421843
30
0
41
1
10
26.6568134956408
20
-9.58525204242576
30
0
41
1
10
26.6578786372164
20
-9.58524843571666
30
0
41
1
10
26.7833815366521
20
-9.58483686383849
30
0
41
1
10
26.906145891386
20
-9.58594078257045
30
0
41
1
10
27.0213727254144
20
-9.58907562242314
30
0
0
SPLINE
5
21A
100
AcDbEntity
8
1
62
256
6
ByLayer
370
18
48
1
60
0
100
AcDbSpline
70
4
71
3
72
16
73
12
40
0
40
0
40
0
40
0
40
0.0032093793325141
40
0.0032093793325141
40
0.307563251004291
40
0.307563251004291
40
0.566628283641945
40
0.566628283641945
40
0.795257190191972
40
0.795257190191972
40
1
40
1
40
1
40
1
41
1
10
14.5644268988194
20
-7.82500000000053
30
0
41
1
10
14.56194295505
20
-7.82500000000053
30
0
41
1
10
14.559459065312
20
-7.8249942159068
30
0
41
1
10
14.3214124853528
20
-7.82388552929072
30
0
41
1
10
14.080621597992
20
-7.7692287033978
30
0
41
1
10
13.6769746594152
20
-7.57229535393588
30
0
41
1
10
13.5014363063554
20
-7.44052331282433
30
0
41
1
10
13.231894371802
20
-7.13129562585411
30
0
41
1
10
13.1267742014134
20
-6.95557349863407
30
0
41
1
10
12.9975576921751
20
-6.59591558494216
30
0
41
1
10
12.9644268988194
20
-6.40887123928374
30
0
41
1
10
12.9644268988194
20
-6.22500000000045
30
0
0
SPLINE
5
21B
100
AcDbEntity
8
1
62
256
6
ByLayer
370
18
48
1
60
0
100
AcDbSpline
70
4
71
3
72
16
73
12
40
0
40
0
40
0
40
0
40
0.210601603648632
40
0.210601603648632
40
0.421213120937357
40
0.421213120937357
40
0.631488126460197
40
0.631488126460197
40
0.839116239420829
40
0.839116239420829
40
1
40
1
40
1
40
1
41
1
10
27.6046912194301
20
-7.69444374614716
30
0
41
1
10
27.604885104101
20
-7.67152163764345
30
0
41
1
10
27.6011366843306
20
-7.64828471516034
30
0
41
1
10
27.5864049129777
20
-7.60502463529411
30
0
41
1
10
27.5752157349576
20
-7.58440026525318
30
0
41
1
10
27.5470242400575
20
-7.54865478777702
30
0
41
1
10
27.52963219728
20
-7.5330255938255
30
0
41
1
10
27.4913444393929
20
-7.50912365922056
30
0
41
1
10
27.469954321154
20
-7.50042996368632
30
0
41
1
10
27.4309045828753
20
-7.49205926946121
30
0
41
1
10
27.4131262908525
20
-7.49071814728021
30
0
41
1
10
27.3956316353027
20
-7.49179620233946
30
0
0
SPLINE
5
21C
100
AcDbEntity
8
1
62
256
6
ByLayer
370
18
48
1
60
0
100
AcDbSpline
70
4
71
3
72
10
73
6
40
0
40
0
40
0
40
0
40
0.584711417492912
40
0.584711417492912
40
1
40
1
40
1
40
1
41
1
10
19.2351939284819
20
-10.2500000000001
30
0
41
1
10
19.2376165600087
20
-10.2500000000001
30
0
41
1
10
19.2400566535847
20
-10.2500000000001
30
0
41
1
10
19.2442589248979
20
-10.2500000000001
30
0
41
1
10
19.2460127381757
20
-10.2500000000001
30
0
41
1
10
19.2477750315741
20
-10.2500000000001
30
0
0
SPLINE
5
21D
100
AcDbEntity
8
1
62
256
6
ByLayer
370
18
48
1
60
0
100
AcDbSpline
70
4
71
3
72
16
73
12
40
0
40
0
40
0
40
0
40
0.202092460849674
40
0.202092460849674
40
0.404032245588857
40
0.404032245588857
40
0.608298678109005
40
0.608298678109005
40
0.816163444624768
40
0.816163444624768
40
1
40
1
40
1
40
1
41
1
10
27.3956316353027
20
-10.5082037976608
30
0
41
1
10
27.4174897444444
20
-10.5095507373064
30
0
41
1
10
27.4398491383955
20
-10.5070859153377
30
0
41
1
10
27.4818390291393
20
-10.4950357473646
30
0
41
1
10
27.5020457535964
20
-10.4852960338304
30
0
41
1
10
27.5378824730738
20
-10.4599275820917
30
0
41
1
10
27.5539463831898
20
-10.4438922526711
30
0
41
1
10
27.5798894042432
20
-10.4075964874668
30
0
41
1
10
27.5900129368111
20
-10.3867713964391
30
0
41
1
10
27.6020260177163
20
-10.3459157034027
30
0
41
1
10
27.6048610089749
20
-10.3256297044809
30
0
41
1
10
27.6046912194301
20
-10.3055562538531
30
0
0
SPLINE
5
21E
100
AcDbEntity
8
1
62
256
6
ByLayer
370
18
48
1
60
0
100
AcDbSpline
70
4
71
3
72
10
73
6
40
0
40
0
40
0
40
0
40
0.629562107774395
40
0.629562107774395
40
1
40
1
40
1
40
1
41
1
10
17.8
20
-10.2500000000001
30
0
41
1
10
17.7782969300919
20
-10.2500000000001
30
0
41
1
10
17.756172793229
20
-10.2463589368068
30
0
41
1
10
17.7231987911384
20
-10.2351217868951
30
0
41
1
10
17.7112516429095
20
-10.22970121982
30
0
41
1
10
17.6999999999999
20
-10.2232050807573
30
0
0
SPLINE
5
21F
100
AcDbEntity
8
1
62
256
6
ByLayer
370
18
48
1
60
0
100
AcDbSpline
70
4
71
3
72
10
73
6
40
0
40
0
40
0
40
0
40
0.62956174027551
40
0.62956174027551
40
1
40
1
40
1
40
1
41
1
10
17.7
20
-7.77679491924323
30
0
41
1
10
17.718944038489
20
-7.76585757352208
30
0
41
1
10
17.7400004695306
20
-7.75796915888748
30
0
41
1
10
17.7741148019193
20
-7.75125947135578
30
0
41
1
10
17.7871096425299
20
-7.75000000000006
30
0
41
1
10
17.8
20
-7.75000000000006
30
0
0
SPLINE
5
220
100
AcDbEntity
8
1
62
256
6
ByLayer
370
18
48
1
60
0
100
AcDbSpline
70
4
71
3
72
10
73
6
40
0
40
0
40
0
40
0
40
0.76746257010027
40
0.76746257010027
40
1
40
1
40
1
40
1
41
1
10
19.2477750315741
20
-7.75000000000014
30
0
41
1
10
19.2445183560327
20
-7.75000000000014
30
0
41
1
10
19.2412905642182
20
-7.75000000000014
30
0
41
1
10
19.237123695827
20
-7.75000000000014
30
0
41
1
10
19.2361574346188
20
-7.75000000000014
30
0
41
1
10
19.2351939284819
20
-7.75000000000014
30
0
0
SPLINE
5
221
100
AcDbEntity
8
1
62
256
6
ByLayer
370
18
48
1
60
0
100
AcDbSpline
70
4
71
3
72
14
73
10
40
0
40
0
40
0
40
0
40
0.209562190252725
40
0.209562190252725
40
0.419048660097219
40
0.419048660097219
40
0.628042586344193
40
0.628042586344193
40
1
40
1
40
1
40
1
41
1
10
26.0587805434613
20
-7.59021468839165
30
0
41
1
10
25.9766126081606
20
-7.59598873278068
30
0
41
1
10
25.894096633241
20
-7.60130832428632
30
0
41
1
10
25.7317767669575
20
-7.61081490520499
30
0
41
1
10
25.6514176992139
20
-7.615034723018
30
0
41
1
10
25.49577107806
20
-7.62222349082339
30
0
41
1
10
25.4199400027966
20
-7.62521990686093
30
0
41
1
10
25.2197346270461
20
-7.63169387031215
30
0
41
1
10
25.1007351939601
20
-7.63381787171608
30
0
41
1
10
24.9981203716825
20
-7.63380026349935
30
0
0
SPLINE
5
222
100
AcDbEntity
8
1
62
256
6
ByLayer
370
18
48
1
60
0
100
AcDbSpline
70
4
71
3
72
8
73
4
40
0
40
0
40
0
40
0
40
1
40
1
40
1
40
1
41
1
10
26.7060768987951
20
-7.54258798703617
30
0
41
1
10
26.591741836253
20
-7.55204260908044
30
0
41
1
10
26.4750917668497
20
-7.56095997394988
30
0
41
1
10
26.3587805434613
20
-7.56913331023159
30
0
0
SPLINE
5
223
100
AcDbEntity
8
1
62
256
6
ByLayer
370
18
48
1
60
0
100
AcDbSpline
70
4
71
3
72
14
73
10
40
0
40
0
40
0
40
0
40
0.208995027535852
40
0.208995027535852
40
0.417850725206471
40
0.417850725206471
40
0.626704295977397
40
0.626704295977397
40
1
40
1
40
1
40
1
41
1
10
24.9981203716814
20
-10.3661997365019
30
0
41
1
10
25.0562077150717
20
-10.3661897689893
30
0
41
1
10
25.1193237323134
20
-10.3668559535973
30
0
41
1
10
25.2529850333382
20
-10.3695144526694
30
0
41
1
10
25.3239830856551
20
-10.3715149962074
30
0
41
1
10
25.4714347232615
20
-10.3767769876471
30
0
41
1
10
25.5483929364638
20
-10.3800564212271
30
0
41
1
10
25.7664550970089
20
-10.3907627880224
30
0
41
1
10
25.9134966889726
20
-10.399576032018
30
0
41
1
10
26.0587805434602
20
-10.409785311608
30
0
0
SPLINE
5
224
100
AcDbEntity
8
1
62
256
6
ByLayer
370
18
48
1
60
0
100
AcDbSpline
70
4
71
3
72
8
73
4
40
0
40
0
40
0
40
0
40
1
40
1
40
1
40
1
41
1
10
26.3587805434613
20
-10.4308666897687
30
0
41
1
10
26.4750917668497
20
-10.4390400260504
30
0
41
1
10
26.591741836253
20
-10.4479573909198
30
0
41
1
10
26.7060768987951
20
-10.4574120129641
30
0
0
LINE
5
70
100
AcDbEntity
8
80
62
256
6
ByLayer
370
18
48
1
60
0
100
AcDbLine
10
0
20
0
30
0
11
-5
21
0
31
0
39
0
210
0
220
0
230
1
0
LINE
5
71
100
AcDbEntity
8
81
62
256
6
ByLayer
370
18
48
1
60
0
100
AcDbLine
10
27.6
20
-10.5
30
0
11
32.6
21
-10.5
31
0
39
0
210
0
220
0
230
1
0
LINE
5
72
100
AcDbEntity
8
SK1
62
256
6
ByLayer
370
18
48
1
60
0
100
AcDbLine
10
-66
20
10
30
0
11
-7.227723
21
10
31
0
39
0
210
0
220
0
230
1
0
LINE
5
74
100
AcDbEntity
8
SK1
62
256
6
ByLayer
370
13
48
1
60
0
100
AcDbLine
10
-5.682242
20
-10.175
30
0
11
-5.682242
21
10
31
0
39
0
210
0
220
0
230
1
0
LINE
5
75
100
AcDbEntity
8
SK1
62
256
6
ByLayer
370
18
48
1
60
0
100
AcDbLine
10
-7.227723
20
10
30
0
11
-5.682242
21
10
31
0
39
0
210
0
220
0
230
1
0
LINE
5
76
100
AcDbEntity
8
SK1
62
256
6
ByLayer
370
13
48
1
60
0
100
AcDbLine
10
-7.227723
20
10
30
0
11
-7.227723
21
-9.925
31
0
39
0
210
0
220
0
230
1
0
LINE
5
77
100
AcDbEntity
8
SK1
62
256
6
ByLayer
370
18
48
1
60
0
100
AcDbLine
10
-5.682242
20
10
30
0
11
-4.888118
21
10
31
0
39
0
210
0
220
0
230
1
0
LINE
5
78
100
AcDbEntity
8
SK1
62
256
6
ByLayer
370
18
48
1
60
0
100
AcDbLine
10
-66
20
10
30
0
11
-69
21
7
31
0
39
0
210
0
220
0
230
1
0
LINE
5
79
100
AcDbEntity
8
SK1
62
256
6
ByLayer
370
18
48
1
60
0
100
AcDbLine
10
-0.1
20
-10.175
30
0
11
-4.888118
21
-10.175
31
0
39
0
210
0
220
0
230
1
0
LINE
5
7A
100
AcDbEntity
8
SK1
62
256
6
ByLayer
370
18
48
1
60
0
100
AcDbLine
10
-69
20
7
30
0
11
-69
21
-6.925
31
0
39
0
210
0
220
0
230
1
0
LINE
5
7B
100
AcDbEntity
8
SK1
62
256
6
ByLayer
370
18
48
1
60
0
100
AcDbLine
10
-66
20
-9.925
30
0
11
-7.227723
21
-9.925
31
0
39
0
210
0
220
0
230
1
0
LINE
5
7C
100
AcDbEntity
8
SK1
62
256
6
ByLayer
370
18
48
1
60
0
100
AcDbLine
10
-66
20
-9.925
30
0
11
-69
21
-6.925
31
0
39
0
210
0
220
0
230
1
0
LINE
5
7D
100
AcDbEntity
8
SK1
62
256
6
ByLayer
370
18
48
1
60
0
100
AcDbLine
10
-4.888118
20
-10.175
30
0
11
-5.682242
21
-10.175
31
0
39
0
210
0
220
0
230
1
0
LINE
5
7E
100
AcDbEntity
8
SK1
62
256
6
ByLayer
370
18
48
1
60
0
100
AcDbLine
10
-4.888118
20
-10.175
30
0
11
-4.888118
21
10
31
0
39
0
210
0
220
0
230
1
0
LINE
5
7F
100
AcDbEntity
8
SK1
62
256
6
ByLayer
370
18
48
1
60
0
100
AcDbLine
10
-0.1
20
10
30
0
11
-0.1
21
-10.175
31
0
39
0
210
0
220
0
230
1
0
LINE
5
80
100
AcDbEntity
8
SK1
62
256
6
ByLayer
370
18
48
1
60
0
100
AcDbLine
10
-5.682242
20
-10.175
30
0
11
-6.368945
21
-10.175
31
0
39
0
210
0
220
0
230
1
0
LINE
5
81
100
AcDbEntity
8
SK1
62
256
6
ByLayer
370
18
48
1
60
0
100
AcDbLine
10
-0.1
20
10
30
0
11
-4.888118
21
10
31
0
39
0
210
0
220
0
230
1
0
LINE
5
82
100
AcDbEntity
8
1
62
256
6
ByLayer
370
18
48
1
60
0
100
AcDbLine
10
13.890738
20
-10.175
30
0
11
-0.1
21
-10.175
31
0
39
0
210
0
220
0
230
1
0
LINE
5
84
100
AcDbEntity
8
1
62
256
6
ByLayer
370
18
48
1
60
0
100
AcDbLine
10
13.890738
20
-7.825
30
0
11
1.6
21
-7.825
31
0
39
0
210
0
220
0
230
1
0
LINE
5
85
100
AcDbEntity
8
1
62
256
6
ByLayer
370
13
48
1
60
0
100
AcDbLine
10
0
20
-6.225
30
0
11
12.964427
21
-6.225
31
0
39
0
210
0
220
0
230
1
0
LINE
5
86
100
AcDbEntity
8
1
62
256
6
ByLayer
370
13
48
1
60
0
100
AcDbLine
10
18.890738
20
-10.175
30
0
11
18.890738
21
-7.825
31
0
39
0
210
0
220
0
230
1
0
LINE
5
87
100
AcDbEntity
8
1
62
256
6
ByLayer
370
18
48
1
60
0
100
AcDbLine
10
1
20
10
30
0
11
12.964427
21
1.982485
31
0
39
0
210
0
220
0
230
1
0
LINE
5
88
100
AcDbEntity
8
1
62
256
6
ByLayer
370
18
48
1
60
0
100
AcDbLine
10
22.95928
20
-7.825
30
0
11
18.890738
21
-7.825
31
0
39
0
210
0
220
0
230
1
0
LINE
5
89
100
AcDbEntity
8
1
62
256
6
ByLayer
370
18
48
1
60
0
100
AcDbLine
10
22.95928
20
-10.175
30
0
11
18.890738
21
-10.175
31
0
39
0
210
0
220
0
230
1
0
LINE
5
8A
100
AcDbEntity
8
1
62
256
6
ByLayer
370
18
48
1
60
0
100
AcDbLine
10
23.015611
20
-9.991569
30
0
11
22.95928
21
-10.175
31
0
39
0
210
0
220
0
230
1
0
LINE
5
8B
100
AcDbEntity
8
1
62
256
6
ByLayer
370
18
48
1
60
0
100
AcDbLine
10
23.015611
20
-8.478186
30
0
11
23.015611
21
-8.008431
31
0
39
0
210
0
220
0
230
1
0
LINE
5
8C
100
AcDbEntity
8
1
62
256
6
ByLayer
370
18
48
1
60
0
100
AcDbLine
10
12.964427
20
-6.225
30
0
11
12.964427
21
1.982485
31
0
39
0
210
0
220
0
230
1
0
LINE
5
8D
100
AcDbEntity
8
1
62
256
6
ByLayer
370
18
48
1
60
0
100
AcDbLine
10
22.95928
20
-7.825
30
0
11
23.015611
21
-8.008431
31
0
39
0
210
0
220
0
230
1
0
LINE
5
8E
100
AcDbEntity
8
1
62
256
6
ByLayer
370
13
48
1
60
0
100
AcDbLine
10
13.890738
20
-7.825
30
0
11
13.890738
21
-10.175
31
0
39
0
210
0
220
0
230
1
0
LINE
5
8F
100
AcDbEntity
8
1
62
256
6
ByLayer
370
18
48
1
60
0
100
AcDbLine
10
0
20
10
30
0
11
0
21
-6.225
31
0
39
0
210
0
220
0
230
1
0
LINE
5
90
100
AcDbEntity
8
1
62
256
6
ByLayer
370
18
48
1
60
0
100
AcDbLine
10
18.890738
20
-10.175
30
0
11
13.890738
21
-10.175
31
0
39
0
210
0
220
0
230
1
0
LINE
5
91
100
AcDbEntity
8
1
62
256
6
ByLayer
370
18
48
1
60
0
100
AcDbLine
10
0
20
10
30
0
11
-0.1
21
10
31
0
39
0
210
0
220
0
230
1
0
LINE
5
92
100
AcDbEntity
8
1
62
256
6
ByLayer
370
18
48
1
60
0
100
AcDbLine
10
18.890738
20
-7.825
30
0
11
13.890738
21
-7.825
31
0
39
0
210
0
220
0
230
1
0
LINE
5
93
100
AcDbEntity
8
1
62
256
6
ByLayer
370
18
48
1
60
0
100
AcDbLine
10
23.015611
20
-9.991569
30
0
11
23.015611
21
-9.521814
31
0
39
0
210
0
220
0
230
1
0
LINE
5
94
100
AcDbEntity
8
1
62
256
6
ByLayer
370
18
48
1
60
0
100
AcDbLine
10
-0.1
20
10
30
0
11
-0.1
21
-10.175
31
0
39
0
210
0
220
0
230
1
0
LINE
5
95
100
AcDbEntity
8
1
62
256
6
ByLayer
370
18
48
1
60
0
100
AcDbLine
10
0
20
10
30
0
11
1
21
10
31
0
39
0
210
0
220
0
230
1
0
LINE
5
96
100
AcDbEntity
8
1
62
256
6
ByLayer
370
13
48
1
60
0
100
AcDbLine
10
18.265685
20
-7.825003
30
0
11
18.265685
21
-7.75
31
0
39
0
210
0
220
0
230
1
0
LINE
5
97
100
AcDbEntity
8
1
62
256
6
ByLayer
370
13
48
1
60
0
100
AcDbLine
10
17.7
20
-7.776795
30
0
11
17.7
21
-7.825035
31
0
39
0
210
0
220
0
230
1
0
LINE
5
98
100
AcDbEntity
8
1
62
256
6
ByLayer
370
13
48
1
60
0
100
AcDbLine
10
17.7
20
-10.174965
30
0
11
17.7
21
-10.223205
31
0
39
0
210
0
220
0
230
1
0
LINE
5
99
100
AcDbEntity
8
1
62
256
6
ByLayer
370
13
48
1
60
0
100
AcDbLine
10
18.265685
20
-10.174997
30
0
11
18.265685
21
-10.25
31
0
39
0
210
0
220
0
230
1
0
LINE
5
9A
100
AcDbEntity
8
1
62
256
6
ByLayer
370
13
48
1
60
0
100
AcDbLine
10
-5.682242
20
-10.175
30
0
11
-5.682242
21
10
31
0
39
0
210
0
220
0
230
1
0
LINE
5
9B
100
AcDbEntity
8
1
62
256
6
ByLayer
370
13
48
1
60
0
100
AcDbLine
10
13.890738
20
-7.825
30
0
11
13.890738
21
-10.175
31
0
39
0
210
0
220
0
230
1
0
LINE
5
9C
100
AcDbEntity
8
1
62
256
6
ByLayer
370
13
48
1
60
0
100
AcDbLine
10
18.890738
20
-10.175
30
0
11
18.890738
21
-7.825
31
0
39
0
210
0
220
0
230
1
0
LINE
5
9D
100
AcDbEntity
8
1
62
256
6
ByLayer
370
13
48
1
60
0
100
AcDbLine
10
-7.227723
20
10
30
0
11
-7.227723
21
-9.925
31
0
39
0
210
0
220
0
230
1
0
LINE
5
9E
100
AcDbEntity
8
1
62
256
6
ByLayer
370
13
48
1
60
0
100
AcDbLine
10
24.055978
20
-10.25
30
0
11
24.055978
21
-9.826756
31
0
39
0
210
0
220
0
230
1
0
LINE
5
9F
100
AcDbEntity
8
1
62
256
6
ByLayer
370
13
48
1
60
0
100
AcDbLine
10
24.207676
20
-9.834465
30
0
11
24.480446
21
-9.847896
31
0
39
0
210
0
220
0
230
1
0
LINE
5
A0
100
AcDbEntity
8
1
62
256
6
ByLayer
370
13
48
1
60
0
100
AcDbLine
10
24.737538
20
-10.358919
30
0
11
24.716974
21
-10.064845
31
0
39
0
210
0
220
0
230
1
0
LINE
5
A1
100
AcDbEntity
8
1
62
256
6
ByLayer
370
13
48
1
60
0
100
AcDbLine
10
24.737538
20
-7.641081
30
0
11
24.716974
21
-7.935155
31
0
39
0
210
0
220
0
230
1
0
LINE
5
A2
100
AcDbEntity
8
1
62
256
6
ByLayer
370
13
48
1
60
0
100
AcDbLine
10
24.055978
20
-8.173244
30
0
11
24.055978
21
-7.75
31
0
39
0
210
0
220
0
230
1
0
LINE
5
A3
100
AcDbEntity
8
1
62
256
6
ByLayer
370
13
48
1
60
0
100
AcDbLine
10
24.480446
20
-8.152104
30
0
11
24.207676
21
-8.165535
31
0
39
0
210
0
220
0
230
1
0
LINE
5
A4
100
AcDbEntity
8
1
62
256
6
ByLayer
370
13
48
1
60
0
100
AcDbLine
10
24.99812
20
-10.047848
30
0
11
24.99812
21
-10.3662
31
0
39
0
210
0
220
0
230
1
0
LINE
5
A5
100
AcDbEntity
8
1
62
256
6
ByLayer
370
13
48
1
60
0
100
AcDbLine
10
26.058781
20
-10.164424
30
0
11
26.058781
21
-10.409785
31
0
39
0
210
0
220
0
230
1
0
LINE
5
A6
100
AcDbEntity
8
1
62
256
6
ByLayer
370
13
48
1
60
0
100
AcDbLine
10
26.058781
20
-7.835576
30
0
11
26.058781
21
-7.590215
31
0
39
0
210
0
220
0
230
1
0
LINE
5
A7
100
AcDbEntity
8
1
62
256
6
ByLayer
370
13
48
1
60
0
100
AcDbLine
10
24.99812
20
-7.952152
30
0
11
24.99812
21
-7.6338
31
0
39
0
210
0
220
0
230
1
0
LINE
5
A8
100
AcDbEntity
8
1
62
256
6
ByLayer
370
13
48
1
60
0
100
AcDbLine
10
24.480446
20
-9.847896
30
0
11
24.630516
21
-9.693729
31
0
39
0
210
0
220
0
230
1
0
LINE
5
A9
100
AcDbEntity
8
1
62
256
6
ByLayer
370
13
48
1
60
0
100
AcDbLine
10
24.630516
20
-8.306271
30
0
11
24.480446
21
-8.152104
31
0
39
0
210
0
220
0
230
1
0
LINE
5
AA
100
AcDbEntity
8
1
62
256
6
ByLayer
370
13
48
1
60
0
100
AcDbLine
10
24.207676
20
-9.834465
30
0
11
24.221372
21
-9.55631
31
0
39
0
210
0
220
0
230
1
0
LINE
5
AB
100
AcDbEntity
8
1
62
256
6
ByLayer
370
13
48
1
60
0
100
AcDbLine
10
24.451055
20
-9.56762
30
0
11
24.221372
21
-9.55631
31
0
39
0
210
0
220
0
230
1
0
LINE
5
AC
100
AcDbEntity
8
1
62
256
6
ByLayer
370
13
48
1
60
0
100
AcDbLine
10
24.221372
20
-8.44369
30
0
11
24.451055
21
-8.43238
31
0
39
0
210
0
220
0
230
1
0
LINE
5
AD
100
AcDbEntity
8
1
62
256
6
ByLayer
370
13
48
1
60
0
100
AcDbLine
10
24.221372
20
-8.44369
30
0
11
24.207676
21
-8.165535
31
0
39
0
210
0
220
0
230
1
0
LINE
5
AE
100
AcDbEntity
8
1
62
256
6
ByLayer
370
13
48
1
60
0
100
AcDbLine
10
24.893328
20
-10.04953
30
0
11
24.915472
21
-10.366214
31
0
39
0
210
0
220
0
230
1
0
LINE
5
AF
100
AcDbEntity
8
1
62
256
6
ByLayer
370
13
48
1
60
0
100
AcDbLine
10
24.893328
20
-7.95047
30
0
11
24.915472
21
-7.633786
31
0
39
0
210
0
220
0
230
1
0
LINE
5
B0
100
AcDbEntity
8
1
62
256
6
ByLayer
370
13
48
1
60
0
100
AcDbLine
10
24.464379
20
-8.44369
30
0
11
24.221372
21
-8.44369
31
0
39
0
210
0
220
0
230
1
0
LINE
5
B1
100
AcDbEntity
8
1
62
256
6
ByLayer
370
13
48
1
60
0
100
AcDbLine
10
24.464379
20
-9.55631
30
0
11
24.221372
21
-9.55631
31
0
39
0
210
0
220
0
230
1
0
LINE
5
B2
100
AcDbEntity
8
1
62
256
6
ByLayer
370
13
48
1
60
0
100
AcDbLine
10
23.987574
20
-9.826756
30
0
11
24.055978
21
-9.826756
31
0
39
0
210
0
220
0
230
1
0
LINE
5
B3
100
AcDbEntity
8
1
62
256
6
ByLayer
370
13
48
1
60
0
100
AcDbLine
10
23.987574
20
-8.173244
30
0
11
24.055978
21
-8.173244
31
0
39
0
210
0
220
0
230
1
0
LINE
5
B4
100
AcDbEntity
8
1
62
256
6
ByLayer
370
13
48
1
60
0
100
AcDbLine
10
23.987574
20
-9.826756
30
0
11
23.987574
21
-10.25
31
0
39
0
210
0
220
0
230
1
0
LINE
5
B5
100
AcDbEntity
8
1
62
256
6
ByLayer
370
13
48
1
60
0
100
AcDbLine
10
23.987574
20
-7.75
30
0
11
23.987574
21
-8.173244
31
0
39
0
210
0
220
0
230
1
0
LINE
5
B6
100
AcDbEntity
8
1
62
256
6
ByLayer
370
13
48
1
60
0
100
AcDbLine
10
23.263912
20
-10.25
30
0
11
23.263912
21
-10.133917
31
0
39
0
210
0
220
0
230
1
0
LINE
5
B7
100
AcDbEntity
8
1
62
256
6
ByLayer
370
13
48
1
60
0
100
AcDbLine
10
23.263912
20
-7.866083
30
0
11
23.263912
21
-7.75
31
0
39
0
210
0
220
0
230
1
0
LINE
5
B8
100
AcDbEntity
8
1
62
256
6
ByLayer
370
13
48
1
60
0
100
AcDbLine
10
25.714687
20
-8.180616
30
0
11
25.811268
21
-8.484159
31
0
39
0
210
0
220
0
230
1
0
LINE
5
B9
100
AcDbEntity
8
1
62
256
6
ByLayer
370
13
48
1
60
0
100
AcDbLine
10
25.714687
20
-9.819384
30
0
11
25.811268
21
-9.515841
31
0
39
0
210
0
220
0
230
1
0
LINE
5
BA
100
AcDbEntity
8
1
62
256
6
ByLayer
370
13
48
1
60
0
100
AcDbLine
10
22.991978
20
-9.197335
30
0
11
23.152254
21
-9.197335
31
0
39
0
210
0
220
0
230
1
0
LINE
5
BB
100
AcDbEntity
8
1
62
256
6
ByLayer
370
13
48
1
60
0
100
AcDbLine
10
23.06942
20
-8.632002
30
0
11
23.379442
21
-8.632002
31
0
39
0
210
0
220
0
230
1
0
LINE
5
BC
100
AcDbEntity
8
1
62
256
6
ByLayer
370
13
48
1
60
0
100
AcDbLine
10
23.015611
20
-8.18149
30
0
11
23.06942
21
-8.632002
31
0
39
0
210
0
220
0
230
1
0
LINE
5
BD
100
AcDbEntity
8
1
62
256
6
ByLayer
370
13
48
1
60
0
100
AcDbLine
10
23.177267
20
-7.924016
30
0
11
22.984859
21
-7.924016
31
0
39
0
210
0
220
0
230
1
0
LINE
5
BE
100
AcDbEntity
8
1
62
256
6
ByLayer
370
13
48
1
60
0
100
AcDbLine
10
23.177267
20
-10.075984
30
0
11
22.984859
21
-10.075984
31
0
39
0
210
0
220
0
230
1
0
LINE
5
BF
100
AcDbEntity
8
1
62
256
6
ByLayer
370
13
48
1
60
0
100
AcDbLine
10
23.015611
20
-9.81851
30
0
11
23.06942
21
-9.367998
31
0
39
0
210
0
220
0
230
1
0
LINE
5
C0
100
AcDbEntity
8
1
62
256
6
ByLayer
370
13
48
1
60
0
100
AcDbLine
10
23.06942
20
-9.367998
30
0
11
23.379442
21
-9.367998
31
0
39
0
210
0
220
0
230
1
0
LINE
5
C1
100
AcDbEntity
8
1
62
256
6
ByLayer
370
13
48
1
60
0
100
AcDbLine
10
23.172358
20
-7.75
30
0
11
23.172358
21
-7.874098
31
0
39
0
210
0
220
0
230
1
0
LINE
5
C2
100
AcDbEntity
8
1
62
256
6
ByLayer
370
13
48
1
60
0
100
AcDbLine
10
23.172358
20
-10.125902
30
0
11
23.172358
21
-10.25
31
0
39
0
210
0
220
0
230
1
0
LINE
5
C3
100
AcDbEntity
8
1
62
256
6
ByLayer
370
13
48
1
60
0
100
AcDbLine
10
25.811268
20
-8.484159
30
0
11
25.811268
21
-9.515841
31
0
39
0
210
0
220
0
230
1
0
LINE
5
C4
100
AcDbEntity
8
1
62
256
6
ByLayer
370
13
48
1
60
0
100
AcDbLine
10
22.98199
20
-7.874562
30
0
11
23.170595
21
-7.874562
31
0
39
0
210
0
220
0
230
1
0
LINE
5
C5
100
AcDbEntity
8
1
62
256
6
ByLayer
370
13
48
1
60
0
100
AcDbLine
10
22.98199
20
-7.75
30
0
11
22.98199
21
-7.874562
31
0
39
0
210
0
220
0
230
1
0
LINE
5
C6
100
AcDbEntity
8
1
62
256
6
ByLayer
370
13
48
1
60
0
100
AcDbLine
10
22.98199
20
-10.25
30
0
11
22.98199
21
-10.125438
31
0
39
0
210
0
220
0
230
1
0
LINE
5
C7
100
AcDbEntity
8
1
62
256
6
ByLayer
370
13
48
1
60
0
100
AcDbLine
10
22.98199
20
-10.125438
30
0
11
23.170595
21
-10.125438
31
0
39
0
210
0
220
0
230
1
0
LINE
5
C8
100
AcDbEntity
8
1
62
256
6
ByLayer
370
13
48
1
60
0
100
AcDbLine
10
27.600117
20
-8.235234
30
0
11
27.525685
21
-8.235234
31
0
39
0
210
0
220
0
230
1
0
LINE
5
C9
100
AcDbEntity
8
1
62
256
6
ByLayer
370
13
48
1
60
0
100
AcDbLine
10
27.135516
20
-7.926294
30
0
11
27.135516
21
-7.507825
31
0
39
0
210
0
220
0
230
1
0
LINE
5
CA
100
AcDbEntity
8
1
62
256
6
ByLayer
370
13
48
1
60
0
100
AcDbLine
10
27.135516
20
-10.073706
30
0
11
27.135516
21
-10.492175
31
0
39
0
210
0
220
0
230
1
0
LINE
5
CB
100
AcDbEntity
8
1
62
256
6
ByLayer
370
13
48
1
60
0
100
AcDbLine
10
27.600117
20
-9.764766
30
0
11
27.525685
21
-9.764766
31
0
39
0
210
0
220
0
230
1
0
LINE
5
CC
100
AcDbEntity
8
1
62
256
6
ByLayer
370
13
48
1
60
0
100
AcDbLine
10
27.06476
20
-10.487072
30
0
11
27.06476
21
-10.126322
31
0
39
0
210
0
220
0
230
1
0
LINE
5
CD
100
AcDbEntity
8
1
62
256
6
ByLayer
370
13
48
1
60
0
100
AcDbLine
10
26.706077
20
-10.174869
30
0
11
26.706077
21
-10.457412
31
0
39
0
210
0
220
0
230
1
0
LINE
5
CE
100
AcDbEntity
8
1
62
256
6
ByLayer
370
13
48
1
60
0
100
AcDbLine
10
27.06476
20
-7.512928
30
0
11
27.06476
21
-7.873678
31
0
39
0
210
0
220
0
230
1
0
LINE
5
CF
100
AcDbEntity
8
1
62
256
6
ByLayer
370
13
48
1
60
0
100
AcDbLine
10
26.706077
20
-7.825131
30
0
11
26.706077
21
-7.542588
31
0
39
0
210
0
220
0
230
1
0
LINE
5
D0
100
AcDbEntity
8
1
62
256
6
ByLayer
370
13
48
1
60
0
100
AcDbLine
10
23.106333
20
-8.748976
30
0
11
23.466184
21
-8.748976
31
0
39
0
210
0
220
0
230
1
0
LINE
5
D1
100
AcDbEntity
8
1
62
256
6
ByLayer
370
13
48
1
60
0
100
AcDbLine
10
23.106333
20
-9.251024
30
0
11
23.466184
21
-9.251024
31
0
39
0
210
0
220
0
230
1
0
LINE
5
D2
100
AcDbEntity
8
1
62
256
6
ByLayer
370
13
48
1
60
0
100
AcDbLine
10
26.358781
20
-10.178409
30
0
11
26.358781
21
-10.430867
31
0
39
0
210
0
220
0
230
1
0
LINE
5
D3
100
AcDbEntity
8
1
62
256
6
ByLayer
370
13
48
1
60
0
100
AcDbLine
10
26.358781
20
-7.821591
30
0
11
26.358781
21
-7.569133
31
0
39
0
210
0
220
0
230
1
0
LINE
5
D4
100
AcDbEntity
8
1
62
256
6
ByLayer
370
13
48
1
60
0
100
AcDbLine
10
22.974468
20
-10.125438
30
0
11
22.98199
21
-10.125438
31
0
39
0
210
0
220
0
230
1
0
LINE
5
D5
100
AcDbEntity
8
1
62
256
6
ByLayer
370
13
48
1
60
0
100
AcDbLine
10
19.566112
20
-10.175001
30
0
11
19.566112
21
-10.25
31
0
39
0
210
0
220
0
230
1
0
LINE
5
D6
100
AcDbEntity
8
1
62
256
6
ByLayer
370
13
48
1
60
0
100
AcDbLine
10
22.974468
20
-7.874562
30
0
11
22.98199
21
-7.874562
31
0
39
0
210
0
220
0
230
1
0
LINE
5
D7
100
AcDbEntity
8
1
62
256
6
ByLayer
370
13
48
1
60
0
100
AcDbLine
10
19.566112
20
-7.824999
30
0
11
19.566112
21
-7.75
31
0
39
0
210
0
220
0
230
1
0
LINE
5
D8
100
AcDbEntity
8
1
62
256
6
ByLayer
370
13
48
1
60
0
100
AcDbLine
10
23.000093
20
-8.632002
30
0
11
23.06942
21
-8.632002
31
0
39
0
210
0
220
0
230
1
0
LINE
5
D9
100
AcDbEntity
8
1
62
256
6
ByLayer
370
13
48
1
60
0
100
AcDbLine
10
23.000093
20
-9.367998
30
0
11
23.06942
21
-9.367998
31
0
39
0
210
0
220
0
230
1
0
LINE
5
DA
100
AcDbEntity
8
1
62
256
6
ByLayer
370
13
48
1
60
0
100
AcDbLine
10
23.14904
20
-8.799244
30
0
11
23.587507
21
-8.799244
31
0
39
0
210
0
220
0
230
1
0
LINE
5
DB
100
AcDbEntity
8
1
62
256
6
ByLayer
370
13
48
1
60
0
100
AcDbLine
10
23.14904
20
-9.200756
30
0
11
23.587507
21
-9.200756
31
0
39
0
210
0
220
0
230
1
0
LINE
5
DC
100
AcDbEntity
8
1
62
256
6
ByLayer
370
13
48
1
60
0
100
AcDbLine
10
27.544165
20
-9.57839
30
0
11
27.597026
21
-9.57839
31
0
39
0
210
0
220
0
230
1
0
LINE
5
DD
100
AcDbEntity
8
1
62
256
6
ByLayer
370
13
48
1
60
0
100
AcDbLine
10
26.42193
20
-9.891296
30
0
11
26.411268
21
-9.588056
31
0
39
0
210
0
220
0
230
1
0
LINE
5
DE
100
AcDbEntity
8
1
62
256
6
ByLayer
370
13
48
1
60
0
100
AcDbLine
10
26.42193
20
-8.108704
30
0
11
26.411268
21
-8.411944
31
0
39
0
210
0
220
0
230
1
0
LINE
5
DF
100
AcDbEntity
8
1
62
256
6
ByLayer
370
13
48
1
60
0
100
AcDbLine
10
27.544165
20
-8.42161
30
0
11
27.597026
21
-8.42161
31
0
39
0
210
0
220
0
230
1
0
LINE
5
E0
100
AcDbEntity
8
1
62
256
6
ByLayer
370
13
48
1
60
0
100
AcDbLine
10
27.548049
20
-9.73707
30
0
11
27.6
21
-9.73707
31
0
39
0
210
0
220
0
230
1
0
LINE
5
E1
100
AcDbEntity
8
1
62
256
6
ByLayer
370
13
48
1
60
0
100
AcDbLine
10
27.597026
20
-9.57839
30
0
11
27.597026
21
-8.42161
31
0
39
0
210
0
220
0
230
1
0
LINE
5
E2
100
AcDbEntity
8
1
62
256
6
ByLayer
370
13
48
1
60
0
100
AcDbLine
10
27.548049
20
-8.26293
30
0
11
27.6
21
-8.26293
31
0
39
0
210
0
220
0
230
1
0
LINE
5
E3
100
AcDbEntity
8
1
62
256
6
ByLayer
370
13
48
1
60
0
100
AcDbLine
10
23.152254
20
-9.197335
30
0
11
23.596489
21
-9.197335
31
0
39
0
210
0
220
0
230
1
0
LINE
5
E4
100
AcDbEntity
8
1
62
256
6
ByLayer
370
13
48
1
60
0
100
AcDbLine
10
23.152254
20
-8.802665
30
0
11
23.596489
21
-8.802665
31
0
39
0
210
0
220
0
230
1
0
LINE
5
E5
100
AcDbEntity
8
1
62
256
6
ByLayer
370
13
48
1
60
0
100
AcDbLine
10
27.021373
20
-8.410924
30
0
11
27.021373
21
-9.589076
31
0
39
0
210
0
220
0
230
1
0
LINE
5
E6
100
AcDbEntity
8
1
62
256
6
ByLayer
370
13
48
1
60
0
100
AcDbLine
10
27.544165
20
-8.42161
30
0
11
27.544165
21
-9.57839
31
0
39
0
210
0
220
0
230
1
0
LINE
5
E7
100
AcDbEntity
8
1
62
256
6
ByLayer
370
13
48
1
60
0
100
AcDbLine
10
23.14904
20
-8.799244
30
0
11
23.152254
21
-8.802665
31
0
39
0
210
0
220
0
230
1
0
LINE
5
E8
100
AcDbEntity
8
1
62
256
6
ByLayer
370
13
48
1
60
0
100
AcDbLine
10
23.14904
20
-9.200756
30
0
11
23.152254
21
-9.197335
31
0
39
0
210
0
220
0
230
1
0
LINE
5
E9
100
AcDbEntity
8
1
62
256
6
ByLayer
370
13
48
1
60
0
100
AcDbLine
10
26.411268
20
-8.411944
30
0
11
26.411268
21
-9.588056
31
0
39
0
210
0
220
0
230
1
0
LINE
5
EA
100
AcDbEntity
8
1
62
256
6
ByLayer
370
13
48
1
60
0
100
AcDbLine
10
22.993871
20
-8.748976
30
0
11
23.106333
21
-8.748976
31
0
39
0
210
0
220
0
230
1
0
LINE
5
EB
100
AcDbEntity
8
1
62
256
6
ByLayer
370
13
48
1
60
0
100
AcDbLine
10
22.993871
20
-9.251024
30
0
11
23.106333
21
-9.251024
31
0
39
0
210
0
220
0
230
1
0
LINE
5
EC
100
AcDbEntity
8
1
62
256
6
ByLayer
370
13
48
1
60
0
100
AcDbLine
10
22.992089
20
-8.799244
30
0
11
23.14904
21
-8.799244
31
0
39
0
210
0
220
0
230
1
0
LINE
5
ED
100
AcDbEntity
8
1
62
256
6
ByLayer
370
13
48
1
60
0
100
AcDbLine
10
22.992089
20
-9.200756
30
0
11
23.14904
21
-9.200756
31
0
39
0
210
0
220
0
230
1
0
LINE
5
EE
100
AcDbEntity
8
1
62
256
6
ByLayer
370
13
48
1
60
0
100
AcDbLine
10
19.189581
20
-7.75
30
0
11
19.145758
21
-7.825002
31
0
39
0
210
0
220
0
230
1
0
LINE
5
EF
100
AcDbEntity
8
1
62
256
6
ByLayer
370
13
48
1
60
0
100
AcDbLine
10
22.991978
20
-8.802665
30
0
11
23.152254
21
-8.802665
31
0
39
0
210
0
220
0
230
1
0
LINE
5
F0
100
AcDbEntity
8
1
62
256
6
ByLayer
370
13
48
1
60
0
100
AcDbLine
10
19.189581
20
-10.25
30
0
11
19.145758
21
-10.174998
31
0
39
0
210
0
220
0
230
1
0
LINE
5
F1
100
AcDbEntity
8
1
62
256
6
ByLayer
370
13
48
1
60
0
100
AcDbLine
10
0
20
-6.225
30
0
11
12.964427
21
-6.225
31
0
39
0
210
0
220
0
230
1
0
LINE
5
F2
100
AcDbEntity
8
1
62
256
6
ByLayer
370
18
48
1
60
0
100
AcDbLine
10
13.890738
20
-10.175
30
0
11
-4.888118
21
-10.175
31
0
39
0
210
0
220
0
230
1
0
LINE
5
F3
100
AcDbEntity
8
1
62
256
6
ByLayer
370
18
48
1
60
0
100
AcDbLine
10
13.890738
20
-7.825
30
0
11
1.6
21
-7.825
31
0
39
0
210
0
220
0
230
1
0
LINE
5
F4
100
AcDbEntity
8
1
62
256
6
ByLayer
370
18
48
1
60
0
100
AcDbLine
10
22.95928
20
-10.175
30
0
11
18.890738
21
-10.175
31
0
39
0
210
0
220
0
230
1
0
LINE
5
F5
100
AcDbEntity
8
1
62
256
6
ByLayer
370
18
48
1
60
0
100
AcDbLine
10
22.95928
20
-7.825
30
0
11
18.890738
21
-7.825
31
0
39
0
210
0
220
0
230
1
0
LINE
5
F6
100
AcDbEntity
8
1
62
256
6
ByLayer
370
18
48
1
60
0
100
AcDbLine
10
0
20
10
30
0
11
0
21
-6.225
31
0
39
0
210
0
220
0
230
1
0
LINE
5
F7
100
AcDbEntity
8
1
62
256
6
ByLayer
370
18
48
1
60
0
100
AcDbLine
10
18.890738
20
-10.175
30
0
11
13.890738
21
-10.175
31
0
39
0
210
0
220
0
230
1
0
LINE
5
F8
100
AcDbEntity
8
1
62
256
6
ByLayer
370
18
48
1
60
0
100
AcDbLine
10
18.890738
20
-7.825
30
0
11
13.890738
21
-7.825
31
0
39
0
210
0
220
0
230
1
0
LINE
5
F9
100
AcDbEntity
8
1
62
256
6
ByLayer
370
18
48
1
60
0
100
AcDbLine
10
23.015611
20
-9.991569
30
0
11
22.95928
21
-10.175
31
0
39
0
210
0
220
0
230
1
0
LINE
5
FA
100
AcDbEntity
8
1
62
256
6
ByLayer
370
18
48
1
60
0
100
AcDbLine
10
22.95928
20
-7.825
30
0
11
23.015611
21
-8.008431
31
0
39
0
210
0
220
0
230
1
0
LINE
5
FB
100
AcDbEntity
8
1
62
256
6
ByLayer
370
18
48
1
60
0
100
AcDbLine
10
23.015611
20
-9.991569
30
0
11
23.015611
21
-9.521814
31
0
39
0
210
0
220
0
230
1
0
LINE
5
FC
100
AcDbEntity
8
1
62
256
6
ByLayer
370
18
48
1
60
0
100
AcDbLine
10
-5.682242
20
-10.175
30
0
11
-6.368945
21
-10.175
31
0
39
0
210
0
220
0
230
1
0
LINE
5
FD
100
AcDbEntity
8
1
62
256
6
ByLayer
370
18
48
1
60
0
100
AcDbLine
10
-4.888118
20
-10.175
30
0
11
-4.888118
21
10
31
0
39
0
210
0
220
0
230
1
0
LINE
5
FE
100
AcDbEntity
8
1
62
256
6
ByLayer
370
18
48
1
60
0
100
AcDbLine
10
-69
20
7
30
0
11
-69
21
-6.925
31
0
39
0
210
0
220
0
230
1
0
LINE
5
FF
100
AcDbEntity
8
1
62
256
6
ByLayer
370
18
48
1
60
0
100
AcDbLine
10
-4.888118
20
-10.175
30
0
11
-5.682242
21
-10.175
31
0
39
0
210
0
220
0
230
1
0
LINE
5
100
100
AcDbEntity
8
1
62
256
6
ByLayer
370
18
48
1
60
0
100
AcDbLine
10
-7.227723
20
10
30
0
11
-5.682242
21
10
31
0
39
0
210
0
220
0
230
1
0
LINE
5
101
100
AcDbEntity
8
1
62
256
6
ByLayer
370
18
48
1
60
0
100
AcDbLine
10
0
20
10
30
0
11
1
21
10
31
0
39
0
210
0
220
0
230
1
0
LINE
5
102
100
AcDbEntity
8
1
62
256
6
ByLayer
370
18
48
1
60
0
100
AcDbLine
10
-5.682242
20
10
30
0
11
-4.888118
21
10
31
0
39
0
210
0
220
0
230
1
0
LINE
5
103
100
AcDbEntity
8
1
62
256
6
ByLayer
370
18
48
1
60
0
100
AcDbLine
10
0
20
10
30
0
11
-4.888118
21
10
31
0
39
0
210
0
220
0
230
1
0
LINE
5
104
100
AcDbEntity
8
1
62
256
6
ByLayer
370
18
48
1
60
0
100
AcDbLine
10
-66
20
10
30
0
11
-7.227723
21
10
31
0
39
0
210
0
220
0
230
1
0
LINE
5
105
100
AcDbEntity
8
1
62
256
6
ByLayer
370
18
48
1
60
0
100
AcDbLine
10
-66
20
-9.925
30
0
11
-7.227723
21
-9.925
31
0
39
0
210
0
220
0
230
1
0
LINE
5
106
100
AcDbEntity
8
1
62
256
6
ByLayer
370
18
48
1
60
0
100
AcDbLine
10
12.964427
20
-6.225
30
0
11
12.964427
21
1.982485
31
0
39
0
210
0
220
0
230
1
0
LINE
5
107
100
AcDbEntity
8
1
62
256
6
ByLayer
370
18
48
1
60
0
100
AcDbLine
10
23.015611
20
-8.478186
30
0
11
23.015611
21
-8.008431
31
0
39
0
210
0
220
0
230
1
0
LINE
5
108
100
AcDbEntity
8
1
62
256
6
ByLayer
370
18
48
1
60
0
100
AcDbLine
10
-66
20
-9.925
30
0
11
-69
21
-6.925
31
0
39
0
210
0
220
0
230
1
0
LINE
5
109
100
AcDbEntity
8
1
62
256
6
ByLayer
370
18
48
1
60
0
100
AcDbLine
10
-66
20
10
30
0
11
-69
21
7
31
0
39
0
210
0
220
0
230
1
0
LINE
5
10A
100
AcDbEntity
8
1
62
256
6
ByLayer
370
18
48
1
60
0
100
AcDbLine
10
1
20
10
30
0
11
12.964427
21
1.982485
31
0
39
0
210
0
220
0
230
1
0
LINE
5
10B
100
AcDbEntity
8
1
62
256
6
ByLayer
370
18
48
1
60
0
100
AcDbLine
10
27.600117
20
-8.235234
30
0
11
27.604691
21
-7.694444
31
0
39
0
210
0
220
0
230
1
0
LINE
5
10C
100
AcDbEntity
8
1
62
256
6
ByLayer
370
18
48
1
60
0
100
AcDbLine
10
27.6
20
-9.73707
30
0
11
27.6
21
-8.26293
31
0
39
0
210
0
220
0
230
1
0
LINE
5
10D
100
AcDbEntity
8
1
62
256
6
ByLayer
370
18
48
1
60
0
100
AcDbLine
10
24.29752
20
-7.692091
30
0
11
24.24436
21
-7.722783
31
0
39
0
210
0
220
0
230
1
0
LINE
5
10E
100
AcDbEntity
8
1
62
256
6
ByLayer
370
18
48
1
60
0
100
AcDbLine
10
17.8
20
-10.25
30
0
11
18.265685
21
-10.25
31
0
39
0
210
0
220
0
230
1
0
LINE
5
10F
100
AcDbEntity
8
1
62
256
6
ByLayer
370
18
48
1
60
0
100
AcDbLine
10
19.189581
20
-7.75
30
0
11
18.265685
21
-7.75
31
0
39
0
210
0
220
0
230
1
0
LINE
5
110
100
AcDbEntity
8
1
62
256
6
ByLayer
370
18
48
1
60
0
100
AcDbLine
10
23.263912
20
-10.25
30
0
11
23.987574
21
-10.25
31
0
39
0
210
0
220
0
230
1
0
LINE
5
111
100
AcDbEntity
8
1
62
256
6
ByLayer
370
18
48
1
60
0
100
AcDbLine
10
18.265685
20
-10.25
30
0
11
19.189581
21
-10.25
31
0
39
0
210
0
220
0
230
1
0
LINE
5
112
100
AcDbEntity
8
1
62
256
6
ByLayer
370
18
48
1
60
0
100
AcDbLine
10
24.99812
20
-7.6338
30
0
11
24.915472
21
-7.633786
31
0
39
0
210
0
220
0
230
1
0
LINE
5
113
100
AcDbEntity
8
1
62
256
6
ByLayer
370
18
48
1
60
0
100
AcDbLine
10
24.395343
20
-10.334991
30
0
11
24.737538
21
-10.358919
31
0
39
0
210
0
220
0
230
1
0
LINE
5
114
100
AcDbEntity
8
1
62
256
6
ByLayer
370
18
48
1
60
0
100
AcDbLine
10
19.566112
20
-7.75
30
0
11
19.247775
21
-7.75
31
0
39
0
210
0
220
0
230
1
0
LINE
5
115
100
AcDbEntity
8
1
62
256
6
ByLayer
370
18
48
1
60
0
100
AcDbLine
10
27.135516
20
-10.492175
30
0
11
27.395632
21
-10.508204
31
0
39
0
210
0
220
0
230
1
0
LINE
5
116
100
AcDbEntity
8
1
62
256
6
ByLayer
370
18
48
1
60
0
100
AcDbLine
10
19.566112
20
-10.25
30
0
11
22.98199
21
-10.25
31
0
39
0
210
0
220
0
230
1
0
LINE
5
117
100
AcDbEntity
8
1
62
256
6
ByLayer
370
18
48
1
60
0
100
AcDbLine
10
23.987574
20
-7.75
30
0
11
23.263912
21
-7.75
31
0
39
0
210
0
220
0
230
1
0
LINE
5
118
100
AcDbEntity
8
1
62
256
6
ByLayer
370
18
48
1
60
0
100
AcDbLine
10
27.06476
20
-7.512928
30
0
11
26.706077
21
-7.542588
31
0
39
0
210
0
220
0
230
1
0
LINE
5
119
100
AcDbEntity
8
1
62
256
6
ByLayer
370
18
48
1
60
0
100
AcDbLine
10
22.98199
20
-7.75
30
0
11
19.566112
21
-7.75
31
0
39
0
210
0
220
0
230
1
0
LINE
5
11A
100
AcDbEntity
8
1
62
256
6
ByLayer
370
18
48
1
60
0
100
AcDbLine
10
24.153398
20
-10.25
30
0
11
24.055978
21
-10.25
31
0
39
0
210
0
220
0
230
1
0
LINE
5
11B
100
AcDbEntity
8
1
62
256
6
ByLayer
370
18
48
1
60
0
100
AcDbLine
10
19.247775
20
-10.25
30
0
11
19.566112
21
-10.25
31
0
39
0
210
0
220
0
230
1
0
LINE
5
11C
100
AcDbEntity
8
1
62
256
6
ByLayer
370
18
48
1
60
0
100
AcDbLine
10
24.055978
20
-7.75
30
0
11
23.987574
21
-7.75
31
0
39
0
210
0
220
0
230
1
0
LINE
5
11D
100
AcDbEntity
8
1
62
256
6
ByLayer
370
18
48
1
60
0
100
AcDbLine
10
27.395632
20
-7.491796
30
0
11
27.135516
21
-7.507825
31
0
39
0
210
0
220
0
230
1
0
LINE
5
11E
100
AcDbEntity
8
1
62
256
6
ByLayer
370
18
48
1
60
0
100
AcDbLine
10
26.058781
20
-10.409785
30
0
11
26.358781
21
-10.430867
31
0
39
0
210
0
220
0
230
1
0
LINE
5
11F
100
AcDbEntity
8
1
62
256
6
ByLayer
370
18
48
1
60
0
100
AcDbLine
10
24.254705
20
-10.277118
30
0
11
24.309449
21
-10.308724
31
0
39
0
210
0
220
0
230
1
0
LINE
5
120
100
AcDbEntity
8
1
62
256
6
ByLayer
370
18
48
1
60
0
100
AcDbLine
10
23.987574
20
-10.25
30
0
11
24.055978
21
-10.25
31
0
39
0
210
0
220
0
230
1
0
LINE
5
121
100
AcDbEntity
8
1
62
256
6
ByLayer
370
18
48
1
60
0
100
AcDbLine
10
26.706077
20
-10.457412
30
0
11
27.06476
21
-10.487072
31
0
39
0
210
0
220
0
230
1
0
LINE
5
122
100
AcDbEntity
8
1
62
256
6
ByLayer
370
18
48
1
60
0
100
AcDbLine
10
24.915472
20
-10.366214
30
0
11
24.99812
21
-10.3662
31
0
39
0
210
0
220
0
230
1
0
LINE
5
123
100
AcDbEntity
8
1
62
256
6
ByLayer
370
18
48
1
60
0
100
AcDbLine
10
23.172358
20
-7.75
30
0
11
22.98199
21
-7.75
31
0
39
0
210
0
220
0
230
1
0
LINE
5
124
100
AcDbEntity
8
1
62
256
6
ByLayer
370
18
48
1
60
0
100
AcDbLine
10
19.189581
20
-10.25
30
0
11
19.235194
21
-10.25
31
0
39
0
210
0
220
0
230
1
0
LINE
5
125
100
AcDbEntity
8
1
62
256
6
ByLayer
370
18
48
1
60
0
100
AcDbLine
10
26.358781
20
-7.569133
30
0
11
26.058781
21
-7.590215
31
0
39
0
210
0
220
0
230
1
0
LINE
5
126
100
AcDbEntity
8
1
62
256
6
ByLayer
370
18
48
1
60
0
100
AcDbLine
10
24.737538
20
-7.641081
30
0
11
24.38336
21
-7.665847
31
0
39
0
210
0
220
0
230
1
0
LINE
5
127
100
AcDbEntity
8
1
62
256
6
ByLayer
370
18
48
1
60
0
100
AcDbLine
10
23.263912
20
-7.75
30
0
11
23.172358
21
-7.75
31
0
39
0
210
0
220
0
230
1
0
LINE
5
128
100
AcDbEntity
8
1
62
256
6
ByLayer
370
18
48
1
60
0
100
AcDbLine
10
23.172358
20
-10.25
30
0
11
23.263912
21
-10.25
31
0
39
0
210
0
220
0
230
1
0
LINE
5
129
100
AcDbEntity
8
1
62
256
6
ByLayer
370
18
48
1
60
0
100
AcDbLine
10
19.235194
20
-7.75
30
0
11
19.189581
21
-7.75
31
0
39
0
210
0
220
0
230
1
0
LINE
5
12A
100
AcDbEntity
8
1
62
256
6
ByLayer
370
18
48
1
60
0
100
AcDbLine
10
27.604691
20
-10.305556
30
0
11
27.600117
21
-9.764766
31
0
39
0
210
0
220
0
230
1
0
LINE
5
12B
100
AcDbEntity
8
1
62
256
6
ByLayer
370
18
48
1
60
0
100
AcDbLine
10
24.055978
20
-7.75
30
0
11
24.142652
21
-7.75
31
0
39
0
210
0
220
0
230
1
0
LINE
5
12C
100
AcDbEntity
8
1
62
256
6
ByLayer
370
18
48
1
60
0
100
AcDbLine
10
22.98199
20
-10.25
30
0
11
23.172358
21
-10.25
31
0
39
0
210
0
220
0
230
1
0
LINE
5
12D
100
AcDbEntity
8
1
62
256
6
ByLayer
370
18
48
1
60
0
100
AcDbLine
10
18.265685
20
-7.75
30
0
11
17.8
21
-7.75
31
0
39
0
210
0
220
0
230
1
0
LINE
5
12E
100
AcDbEntity
8
SK2
62
256
6
ByLayer
370
13
48
1
60
0
100
AcDbLine
10
-78.60005
20
-10
30
0
11
-78.60005
21
10
31
0
39
0
210
0
220
0
230
1
0
LINE
5
130
100
AcDbEntity
8
SK2
62
256
6
ByLayer
370
13
48
1
60
0
100
AcDbLine
10
-2
20
10
30
0
11
-80.60005
21
10
31
0
39
0
210
0
220
0
230
1
0
LINE
5
131
100
AcDbEntity
8
SK2
62
256
6
ByLayer
370
13
48
1
60
0
100
AcDbLine
10
-2
20
-10
30
0
11
-80.60005
21
-10
31
0
39
0
210
0
220
0
230
1
0
LINE
5
132
100
AcDbEntity
8
SK2
62
256
6
ByLayer
370
18
48
1
60
0
100
AcDbLine
10
-78.60005
20
10
30
0
11
-78.182053
21
6.825002
31
0
39
0
210
0
220
0
230
1
0
LINE
5
133
100
AcDbEntity
8
SK2
62
256
6
ByLayer
370
18
48
1
60
0
100
AcDbLine
10
-78.60005
20
10
30
0
11
-79.018047
21
6.824998
31
0
39
0
210
0
220
0
230
1
0
LINE
5
134
100
AcDbEntity
8
SK2
62
256
6
ByLayer
370
18
48
1
60
0
100
AcDbLine
10
-78.182053
20
6.825002
30
0
11
-79.018047
21
6.824998
31
0
39
0
210
0
220
0
230
1
0
LINE
5
135
100
AcDbEntity
8
SK2
62
256
6
ByLayer
370
18
48
1
60
0
100
AcDbLine
10
-78.60005
20
-10
30
0
11
-79.018047
21
-6.825002
31
0
39
0
210
0
220
0
230
1
0
LINE
5
136
100
AcDbEntity
8
SK2
62
256
6
ByLayer
370
18
48
1
60
0
100
AcDbLine
10
-78.60005
20
-10
30
0
11
-78.182053
21
-6.824998
31
0
39
0
210
0
220
0
230
1
0
LINE
5
137
100
AcDbEntity
8
SK2
62
256
6
ByLayer
370
18
48
1
60
0
100
AcDbLine
10
-79.018047
20
-6.825002
30
0
11
-78.182053
21
-6.824998
31
0
39
0
210
0
220
0
230
1
0
MTEXT
5
225
100
AcDbEntity
8
SK6
62
256
6
ByLayer
370
18
48
1
60
0
100
AcDbMText
10
-52.325025
20
-51.12926
30
0
210
0
220
0
230
1
1
\W0.7896;QS-QD-LFG26C2020D
40
3.5
41
0
44
1.084337
50
0
71
7
72
5
7
iso_b_vert
0
MTEXT
5
229
100
AcDbEntity
8
SK2
62
256
6
ByLayer
370
18
48
1
60
0
100
AcDbMText
10
-79.47505
20
-1.169737
30
0
210
0
220
0
230
1
1
\W0.6740;20
40
3.5
41
0
44
1.084337
50
89.9999999999999
71
7
72
5
7
iso_b_vert
0
DIMENSION
5
238
100
AcDbEntity
8
2
62
256
6
ByLayer
370
13
48
1
60
0
100
AcDbDimension
2
DimnDraft3D1
10
27.6
20
26.60005
30
0
11
6.692105
21
26.60005
31
0
70
32
71
5
72
1
41
1
210
0
220
0
230
1
3
Standard
100
AcDbAlignedDimension
13
-6
23
12
33
0
14
27.6
24
-8.5
34
0
50
0
100
AcDbRotatedDimension
1001
ACAD
1000
DSTYLE
1002
{
1070
   279
1070
     0
1070
   172
1070
     1
1070
   173
1070
     1
1070
   340
1005
226
1070
   271
1070
     1
1070
    77
1070
     1
1070
    73
1070
     0
1070
   171
1070
     3
1070
   274
1070
     4
1070
   177
1070
     2
1070
   176
1070
     2
1070
   178
1070
     7
1070
    78
1070
     8
1070
    41
1041
3.175
1070
   147
1041
1.75
1070
    42
1041
2.0
1070
    44
1041
2.0
1070
   140
1041
3.5
1070
   343
1005
239
1070
   344
1005
239
1002
}
0
DIMENSION
5
24D
100
AcDbEntity
8
SK2
62
256
6
ByLayer
370
13
48
1
60
0
100
AcDbDimension
2
DimnDraft3D2
10
-66
20
-23.608569
30
0
11
-68.259868
21
-23.608569
31
0
70
32
71
5
72
1
41
1
210
0
220
0
230
1
3
Standard
100
AcDbAlignedDimension
13
-69
23
8
33
0
14
-66
24
-12
34
0
50
0
100
AcDbRotatedDimension
1001
ACAD
1000
DSTYLE
1002
{
1070
   279
1070
     0
1070
   172
1070
     1
1070
   173
1070
     1
1070
   340
1005
226
1070
    77
1070
     1
1070
    73
1070
     0
1070
   171
1070
     3
1070
   274
1070
     4
1070
   177
1070
     2
1070
   176
1070
     2
1070
   178
1070
     7
1070
    78
1070
     8
1070
    41
1041
3.175
1070
   147
1041
1.75
1070
    42
1041
2.0
1070
    44
1041
2.0
1070
   140
1041
3.5
1070
   343
1005
239
1070
   344
1005
239
1002
}
0
DIMENSION
5
25B
100
AcDbEntity
8
SK2
62
256
6
ByLayer
370
13
48
1
60
0
100
AcDbDimension
2
DimnDraft3D3
10
27.6
20
32.60005
30
0
11
-24.807895
21
32.60005
31
0
70
32
71
5
72
1
41
1
210
0
220
0
230
1
3
Standard
100
AcDbAlignedDimension
13
-69
23
12
33
0
14
27.6
24
-8.5
34
0
50
0
100
AcDbRotatedDimension
1001
ACAD
1000
DSTYLE
1002
{
1070
   279
1070
     0
1070
   172
1070
     1
1070
   173
1070
     1
1070
   340
1005
226
1070
   271
1070
     1
1070
    77
1070
     1
1070
    73
1070
     0
1070
   171
1070
     3
1070
   274
1070
     4
1070
   177
1070
     2
1070
   176
1070
     2
1070
   178
1070
     7
1070
    78
1070
     8
1070
    41
1041
3.175
1070
   147
1041
1.75
1070
    42
1041
2.0
1070
    44
1041
2.0
1070
   140
1041
3.5
1070
   343
1005
239
1070
   344
1005
239
1002
}
0
DIMENSION
5
269
100
AcDbEntity
8
2
62
256
6
ByLayer
370
13
48
1
60
0
100
AcDbDimension
2
DimnDraft3D4
10
1.6
20
-23.608569
30
0
11
12.509211
21
-23.608569
31
0
70
32
71
5
72
1
41
1
210
0
220
0
230
1
3
Standard
100
AcDbAlignedDimension
13
27.6
23
-12.5
33
0
14
1.6
24
-12
34
0
50
0
100
AcDbRotatedDimension
1001
ACAD
1000
DSTYLE
1002
{
1070
   279
1070
     0
1070
   172
1070
     1
1070
   173
1070
     1
1070
   340
1005
226
1070
   271
1070
     1
1070
    77
1070
     1
1070
    73
1070
     0
1070
   171
1070
     3
1070
   274
1070
     4
1070
   177
1070
     2
1070
   176
1070
     2
1070
   178
1070
     7
1070
    78
1070
     8
1070
    41
1041
3.175
1070
   147
1041
1.75
1070
    42
1041
2.0
1070
    44
1041
2.0
1070
   140
1041
3.5
1070
   343
1005
239
1070
   344
1005
239
1002
}
0
DIMENSION
5
277
100
AcDbEntity
8
2
62
256
6
ByLayer
370
13
48
1
60
0
100
AcDbDimension
2
DimnDraft3D5
10
52.7
20
-10.5
30
0
11
52.7
21
-4.357895
31
0
70
32
71
5
72
1
41
1
210
0
220
0
230
1
3
Standard
100
AcDbAlignedDimension
13
-4
23
10
33
0
14
29.6
24
-10.5
34
0
50
90
100
AcDbRotatedDimension
1001
ACAD
1000
DSTYLE
1002
{
1070
    74
1070
     0
1070
   279
1070
     0
1070
   172
1070
     1
1070
   173
1070
     1
1070
   340
1005
226
1070
   271
1070
     1
1070
    77
1070
     1
1070
    73
1070
     0
1070
   171
1070
     3
1070
   274
1070
     4
1070
   177
1070
     2
1070
   176
1070
     2
1070
   178
1070
     7
1070
    78
1070
     8
1070
    41
1041
3.175
1070
   147
1041
1.75
1070
    42
1041
2.0
1070
    44
1041
2.0
1070
   140
1041
3.5
1070
   343
1005
239
1070
   344
1005
239
1002
}
0
DIMENSION
5
285
100
AcDbEntity
8
2
62
256
6
ByLayer
370
13
48
1
60
0
100
AcDbDimension
2
DimnDraft3D6
10
45.7
20
-7.5
30
0
11
45.7
21
-22.320789
31
0
70
32
71
5
72
1
41
1
210
0
220
0
230
1
3
Standard
100
AcDbAlignedDimension
13
29.6
23
-10.5
33
0
14
29.6
24
-7.5
34
0
50
90
100
AcDbRotatedDimension
1001
ACAD
1000
DSTYLE
1002
{
1070
    74
1070
     0
1070
   279
1070
     0
1070
   172
1070
     1
1070
   173
1070
     1
1070
   340
1005
226
1070
   271
1070
     1
1070
    77
1070
     1
1070
    73
1070
     0
1070
   171
1070
     3
1070
   274
1070
     4
1070
   177
1070
     2
1070
   176
1070
     2
1070
   178
1070
     7
1070
    78
1070
     8
1070
    41
1041
3.175
1070
   147
1041
1.75
1070
    42
1041
2.0
1070
    44
1041
2.0
1070
   140
1041
3.5
1070
   343
1005
239
1070
   344
1005
239
1002
}
0
ENDSEC
0
SECTION
2
OBJECTS
0
DICTIONARY
5
2ef
330
0
100
AcDbDictionary
280
0
281
1
3
ACAD_GROUP
350
2f0
3
ACAD_MLINESTYLE
350
2f1
0
DICTIONARY
5
2f0
330
0
100
AcDbDictionary
280
0
281
1
0
DICTIONARY
5
2f1
330
0
100
AcDbDictionary
280
0
281
1
3
Standard
350
18
0
MLINESTYLE
5
18
330
2f1
100
AcDbMlineStyle
2
Standard
70
0
3

62
256
51
90
52
90
71
2
49
-0.5
62
256
6
ByLayer
49
0.5
62
256
6
ByLayer
0
RASTERVARIABLES
5
2de
330

100
AcDbRasterVariables
90
0
70
1
71
1
72
1
0
ENDSEC
0
EOF
