0
SECTION
2
HEADER
9
$ACADVER
1
AC1015
9
$DWGCODEPAGE
3
ANSI_1252
9
$HANDSEED
5
1d9
9
$ANGBASE
50
0
9
$ANGDIR
70
0
9
$ATTMODE
70
1
9
$AUNITS
70
0
9
$AUPREC
70
0
9
$CECOLOR
62
256
9
$CELTSCALE
40
1
9
$CELTYPE
6
ByLayer
9
$CELWEIGHT
370
18
9
$CLAYER
8
0
9
$CMLJUST
70
0
9
$CMLSCALE
40
1
9
$CMLSTYLE
2
Standard
9
$DIMSTYLE
2
Standard
9
$TEXTSIZE
40
0.2
9
$TEXTSTYLE
7
Standard
9
$LUNITS
70
2
9
$LUPREC
70
4
9
$EXTNAMES
290
1
9
$INSUNITS
70
4
9
$LTSCALE
40
1
9
$LWDISPLAY
290
1
9
$PDMODE
70
0
9
$PDSIZE
40
0
9
$PLINEGEN
70
0
0
ENDSEC
0
SECTION
2
CLASSES
0
CLASS
1
RASTERVARIABLES
2
AcDbRasterVariables
3
ISM
90
0
280
0
281
0
0
ENDSEC
0
SECTION
2
TABLES
0
TABLE
2
VPORT
5
1cf
100
AcDbSymbolTable
0
VPORT
5
1
100
AcDbSymbolTableRecord
100
AcDbViewportTableRecord
2
*Active
70
0
10
0
20
0
11
1
21
1
12
-1
22
1
13
0
23
0
14
0.5
24
0.5
15
10
25
10
16
0
26
0
36
1
17
0
27
0
37
0
0
ENDTAB
0
TABLE
2
LTYPE
5
1d0
100
AcDbSymbolTable
0
LTYPE
5
14
100
AcDbSymbolTableRecord
100
AcDbLinetypeTableRecord
70
0
2
ByBlock
3

72
65
73
0
40
0
0
LTYPE
5
15
100
AcDbSymbolTableRecord
100
AcDbLinetypeTableRecord
70
0
2
ByLayer
3

72
65
73
0
40
0
0
LTYPE
5
16
100
AcDbSymbolTableRecord
100
AcDbLinetypeTableRecord
70
0
2
CONTINUOUS
3
Solid line
72
65
73
0
40
0
0
LTYPE
5
6A
100
AcDbSymbolTableRecord
100
AcDbLinetypeTableRecord
70
0
2
CENTER
3
____ _ ____ _ ____ _ ____
72
65
73
4
40
47.5
49
22
74
0
49
-8.5
74
0
49
8.5
74
0
49
-8.5
74
0
0
LTYPE
5
6B
100
AcDbSymbolTableRecord
100
AcDbLinetypeTableRecord
70
0
2
DASHED
3
__ __ __ __ __ __ __ __ __
72
65
73
2
40
25.72
49
12.86
74
0
49
-12.86
74
0
0
ENDTAB
0
TABLE
2
LAYER
5
1d1
100
AcDbSymbolTable
0
LAYER
5
10
100
AcDbSymbolTableRecord
100
AcDbLayerTableRecord
2
0
70
0
62
7
6
CONTINUOUS
290
1
370
-3
390
0
0
LAYER
5
6D
100
AcDbSymbolTableRecord
100
AcDbLayerTableRecord
2
80
70
0
62
-6
6
CONTINUOUS
290
1
370
-3
390
0
0
LAYER
5
6F
100
AcDbSymbolTableRecord
100
AcDbLayerTableRecord
2
81
70
0
62
-3
6
CONTINUOUS
290
1
370
-3
390
0
0
LAYER
5
73
100
AcDbSymbolTableRecord
100
AcDbLayerTableRecord
2
1
70
0
62
4
6
CONTINUOUS
290
1
370
-3
390
0
0
LAYER
5
11E
100
AcDbSymbolTableRecord
100
AcDbLayerTableRecord
2
2
70
0
62
7
6
CONTINUOUS
290
1
370
-3
390
0
0
LAYER
5
1bc
100
AcDbSymbolTableRecord
100
AcDbLayerTableRecord
2
SK1
70
0
62
4
6
CONTINUOUS
290
1
370
-3
390
0
0
LAYER
5
1bd
100
AcDbSymbolTableRecord
100
AcDbLayerTableRecord
2
SK6
70
0
62
5
6
CONTINUOUS
290
1
370
-3
390
0
0
LAYER
5
1be
100
AcDbSymbolTableRecord
100
AcDbLayerTableRecord
2
SK2
70
0
62
7
6
CONTINUOUS
290
1
370
-3
390
0
0
ENDTAB
0
TABLE
2
STYLE
5
1d2
100
AcDbSymbolTable
0
STYLE
5
11
100
AcDbSymbolTableRecord
100
AcDbTextStyleTableRecord
2
Standard
3
txt
70
0
71
0
40
0
41
1
42
0
50
0
0
STYLE
5
103
100
AcDbSymbolTableRecord
100
AcDbTextStyleTableRecord
2
iso_b_vert
3
simplex.shx
70
0
71
0
40
0
41
1
42
0
50
0
0
STYLE
5
104
100
AcDbSymbolTableRecord
100
AcDbTextStyleTableRecord
2
DWGDirectTextStyle
3
simplex
70
0
71
0
40
0
41
1
42
0
50
0
0
ENDTAB
0
TABLE
2
DIMSTYLE
5
1d3
100
AcDbSymbolTable
100
AcDbDimStyleTable
0
DIMSTYLE
105
27
100
AcDbSymbolTableRecord
100
AcDbDimStyleTableRecord
2
Standard
70
0
3
<>
41
0.18
42
0.0625
44
0.18
140
0.18
147
0.09
73
0
74
0
77
1
271
2
275
0
278
52
280
0
340
11
0
ENDTAB
0
TABLE
2
VIEW
5
1d4
100
AcDbSymbolTable
0
ENDTAB
0
TABLE
2
UCS
5
1d5
100
AcDbSymbolTable
0
ENDTAB
0
TABLE
2
APPID
5
1d6
100
AcDbSymbolTable
0
APPID
5
12
100
AcDbSymbolTableRecord
100
AcDbRegAppTableRecord
2
ACAD
70
0
0
ENDTAB
0
TABLE
2
BLOCK_RECORD
5
1d7
100
AcDbSymbolTable
0
BLOCK_RECORD
5
1F
100
AcDbSymbolTableRecord
100
AcDbBlockTableRecord
2
*Model_Space
340
0
70
0
0
BLOCK_RECORD
5
1B
100
AcDbSymbolTableRecord
100
AcDbBlockTableRecord
2
*Paper_Space
340
0
70
0
0
BLOCK_RECORD
5
23
100
AcDbSymbolTableRecord
100
AcDbBlockTableRecord
2
*Paper_Space0
340
0
70
0
0
BLOCK_RECORD
5
106
100
AcDbSymbolTableRecord
100
AcDbBlockTableRecord
2
DimnDraft3D1
340
0
70
0
0
BLOCK_RECORD
5
115
100
AcDbSymbolTableRecord
100
AcDbBlockTableRecord
2
_CLOSED
340
0
70
0
0
BLOCK_RECORD
5
11C
100
AcDbSymbolTableRecord
100
AcDbBlockTableRecord
2
DimnDraft3D2
340
0
70
0
0
BLOCK_RECORD
5
12B
100
AcDbSymbolTableRecord
100
AcDbBlockTableRecord
2
DimnDraft3D3
340
0
70
0
0
BLOCK_RECORD
5
139
100
AcDbSymbolTableRecord
100
AcDbBlockTableRecord
2
DimnDraft3D4
340
0
70
0
0
BLOCK_RECORD
5
147
100
AcDbSymbolTableRecord
100
AcDbBlockTableRecord
2
DimnDraft3D5
340
0
70
0
0
BLOCK_RECORD
5
155
100
AcDbSymbolTableRecord
100
AcDbBlockTableRecord
2
DimnDraft3D6
340
0
70
0
0
ENDTAB
0
ENDSEC
0
SECTION
2
BLOCKS
0
BLOCK
5
20
100
AcDbEntity
8
0
100
AcDbBlockBegin
2
*Model_Space
70
0
10
0
20
0
30
0
3
*Model_Space
0
ENDBLK
5
21
100
AcDbEntity
8
0
100
AcDbBlockEnd
0
BLOCK
5
1C
100
AcDbEntity
8
0
100
AcDbBlockBegin
2
*Paper_Space
70
0
10
0
20
0
30
0
3
*Paper_Space
0
ENDBLK
5
1D
100
AcDbEntity
8
0
100
AcDbBlockEnd
0
BLOCK
5
24
100
AcDbEntity
8
0
100
AcDbBlockBegin
2
*Paper_Space0
70
0
10
0
20
0
30
0
3
*Paper_Space0
0
ENDBLK
5
25
100
AcDbEntity
8
0
100
AcDbBlockEnd
0
BLOCK
5
112
100
AcDbEntity
8
0
100
AcDbBlockBegin
2
DimnDraft3D1
70
0
10
0
20
0
30
0
3
DimnDraft3D1
0
MTEXT
5
107
100
AcDbEntity
8
SK2
62
256
6
ByLayer
370
18
48
1
60
0
100
AcDbMText
10
-49.223576
20
-3.594079
30
0
210
0
220
0
230
1
1
\W0.6563;16.0
40
4.5
41
0
44
1.084337
50
90
71
7
72
5
7
iso_b_vert
0
LINE
5
109
100
AcDbEntity
8
SK2
62
256
6
ByLayer
370
13
48
1
60
0
100
AcDbLine
10
-39.848576
20
8
30
0
11
-51.098576
21
8
31
0
39
0
210
0
220
0
230
1
0
LINE
5
10A
100
AcDbEntity
8
SK2
62
256
6
ByLayer
370
13
48
1
60
0
100
AcDbLine
10
-39.848576
20
-8
30
0
11
-51.098576
21
-8
31
0
39
0
210
0
220
0
230
1
0
LINE
5
10B
100
AcDbEntity
8
SK2
62
256
6
ByLayer
370
13
48
1
60
0
100
AcDbLine
10
-48.098576
20
19.25
30
0
11
-48.098576
21
-19.25
31
0
39
0
210
0
220
0
230
1
0
LINE
5
10C
100
AcDbEntity
8
SK2
62
256
6
ByLayer
370
13
48
1
60
0
100
AcDbLine
10
-48.098576
20
8
30
0
11
-48.493533
21
10.999999
31
0
39
0
210
0
220
0
230
1
0
LINE
5
10D
100
AcDbEntity
8
SK2
62
256
6
ByLayer
370
13
48
1
60
0
100
AcDbLine
10
-48.098576
20
8
30
0
11
-47.703618
21
11.000001
31
0
39
0
210
0
220
0
230
1
0
LINE
5
10E
100
AcDbEntity
8
SK2
62
256
6
ByLayer
370
13
48
1
60
0
100
AcDbLine
10
-48.493533
20
10.999999
30
0
11
-47.703618
21
11.000001
31
0
39
0
210
0
220
0
230
1
0
LINE
5
10F
100
AcDbEntity
8
SK2
62
256
6
ByLayer
370
13
48
1
60
0
100
AcDbLine
10
-48.098576
20
-8
30
0
11
-47.703618
21
-10.999999
31
0
39
0
210
0
220
0
230
1
0
LINE
5
110
100
AcDbEntity
8
SK2
62
256
6
ByLayer
370
13
48
1
60
0
100
AcDbLine
10
-48.098576
20
-8
30
0
11
-48.493533
21
-11.000001
31
0
39
0
210
0
220
0
230
1
0
LINE
5
111
100
AcDbEntity
8
SK2
62
256
6
ByLayer
370
13
48
1
60
0
100
AcDbLine
10
-47.703618
20
-10.999999
30
0
11
-48.493533
21
-11.000001
31
0
39
0
210
0
220
0
230
1
0
ENDBLK
5
113
100
AcDbEntity
8
0
100
AcDbBlockEnd
0
BLOCK
5
116
100
AcDbEntity
8
0
100
AcDbBlockBegin
2
_CLOSED
70
0
10
0
20
0
30
0
3
_CLOSED
0
LINE
5
118
100
AcDbEntity
8
0
62
256
6
ByLayer
370
-2
48
1
60
0
100
AcDbLine
10
-1
20
0.166667
30
0
11
0
21
0
31
0
39
0
210
0
220
0
230
1
0
LINE
5
119
100
AcDbEntity
8
0
62
256
6
ByLayer
370
-2
48
1
60
0
100
AcDbLine
10
0
20
0
30
0
11
-1
21
-0.166667
31
0
39
0
210
0
220
0
230
1
0
LINE
5
11A
100
AcDbEntity
8
0
62
256
6
ByLayer
370
-2
48
1
60
0
100
AcDbLine
10
-1
20
0.166667
30
0
11
-1
21
-0.166667
31
0
39
0
210
0
220
0
230
1
0
LINE
5
11B
100
AcDbEntity
8
0
62
256
6
ByLayer
370
-2
48
1
60
0
100
AcDbLine
10
0
20
0
30
0
11
-1
21
0
31
0
39
0
210
0
220
0
230
1
0
ENDBLK
5
117
100
AcDbEntity
8
0
100
AcDbBlockEnd
0
BLOCK
5
128
100
AcDbEntity
8
0
100
AcDbBlockBegin
2
DimnDraft3D2
70
0
10
0
20
0
30
0
3
DimnDraft3D2
0
MTEXT
5
11D
100
AcDbEntity
8
2
62
256
6
ByLayer
370
18
48
1
60
0
100
AcDbMText
10
44.776424
20
-23.45
30
0
210
0
220
0
230
1
1
\W0.6004;1.5
40
4.5
41
0
44
1.084337
50
90
71
7
72
5
7
iso_b_vert
0
LINE
5
11F
100
AcDbEntity
8
2
62
256
6
ByLayer
370
13
48
1
60
0
100
AcDbLine
10
33.151424
20
-8
30
0
11
48.901424
21
-8
31
0
39
0
210
0
220
0
230
1
0
LINE
5
120
100
AcDbEntity
8
2
62
256
6
ByLayer
370
13
48
1
60
0
100
AcDbLine
10
33.151424
20
-6.5
30
0
11
48.901424
21
-6.5
31
0
39
0
210
0
220
0
230
1
0
LINE
5
121
100
AcDbEntity
8
2
62
256
6
ByLayer
370
13
48
1
60
0
100
AcDbLine
10
45.901424
20
4.75
30
0
11
45.901424
21
-24.575
31
0
39
0
210
0
220
0
230
1
0
LINE
5
122
100
AcDbEntity
8
2
62
256
6
ByLayer
370
13
48
1
60
0
100
AcDbLine
10
45.901424
20
-8
30
0
11
46.296382
21
-10.999999
31
0
39
0
210
0
220
0
230
1
0
LINE
5
123
100
AcDbEntity
8
2
62
256
6
ByLayer
370
13
48
1
60
0
100
AcDbLine
10
45.901424
20
-8
30
0
11
45.506467
21
-11.000001
31
0
39
0
210
0
220
0
230
1
0
LINE
5
124
100
AcDbEntity
8
2
62
256
6
ByLayer
370
13
48
1
60
0
100
AcDbLine
10
46.296382
20
-10.999999
30
0
11
45.506467
21
-11.000001
31
0
39
0
210
0
220
0
230
1
0
LINE
5
125
100
AcDbEntity
8
2
62
256
6
ByLayer
370
13
48
1
60
0
100
AcDbLine
10
45.901424
20
-6.5
30
0
11
45.506467
21
-3.500001
31
0
39
0
210
0
220
0
230
1
0
LINE
5
126
100
AcDbEntity
8
2
62
256
6
ByLayer
370
13
48
1
60
0
100
AcDbLine
10
45.901424
20
-6.5
30
0
11
46.296382
21
-3.499999
31
0
39
0
210
0
220
0
230
1
0
LINE
5
127
100
AcDbEntity
8
2
62
256
6
ByLayer
370
13
48
1
60
0
100
AcDbLine
10
45.506467
20
-3.500001
30
0
11
46.296382
21
-3.499999
31
0
39
0
210
0
220
0
230
1
0
ENDBLK
5
129
100
AcDbEntity
8
0
100
AcDbBlockEnd
0
BLOCK
5
136
100
AcDbEntity
8
0
100
AcDbBlockBegin
2
DimnDraft3D3
70
0
10
0
20
0
30
0
3
DimnDraft3D3
0
MTEXT
5
12C
100
AcDbEntity
8
2
62
256
6
ByLayer
370
18
48
1
60
0
100
AcDbMText
10
54.776424
20
-3.594079
30
0
210
0
220
0
230
1
1
\W0.6563;16.0
40
4.5
41
0
44
1.084337
50
90
71
7
72
5
7
iso_b_vert
0
LINE
5
12D
100
AcDbEntity
8
2
62
256
6
ByLayer
370
13
48
1
60
0
100
AcDbLine
10
33.151424
20
-8
30
0
11
58.901424
21
-8
31
0
39
0
210
0
220
0
230
1
0
LINE
5
12E
100
AcDbEntity
8
2
62
256
6
ByLayer
370
13
48
1
60
0
100
AcDbLine
10
1.5
20
8
30
0
11
58.901424
21
8
31
0
39
0
210
0
220
0
230
1
0
LINE
5
12F
100
AcDbEntity
8
2
62
256
6
ByLayer
370
13
48
1
60
0
100
AcDbLine
10
55.901424
20
-19.25
30
0
11
55.901424
21
19.25
31
0
39
0
210
0
220
0
230
1
0
LINE
5
130
100
AcDbEntity
8
2
62
256
6
ByLayer
370
13
48
1
60
0
100
AcDbLine
10
55.901424
20
-8
30
0
11
56.296382
21
-10.999999
31
0
39
0
210
0
220
0
230
1
0
LINE
5
131
100
AcDbEntity
8
2
62
256
6
ByLayer
370
13
48
1
60
0
100
AcDbLine
10
55.901424
20
-8
30
0
11
55.506467
21
-11.000001
31
0
39
0
210
0
220
0
230
1
0
LINE
5
132
100
AcDbEntity
8
2
62
256
6
ByLayer
370
13
48
1
60
0
100
AcDbLine
10
56.296382
20
-10.999999
30
0
11
55.506467
21
-11.000001
31
0
39
0
210
0
220
0
230
1
0
LINE
5
133
100
AcDbEntity
8
2
62
256
6
ByLayer
370
13
48
1
60
0
100
AcDbLine
10
55.901424
20
8
30
0
11
55.506467
21
10.999999
31
0
39
0
210
0
220
0
230
1
0
LINE
5
134
100
AcDbEntity
8
2
62
256
6
ByLayer
370
13
48
1
60
0
100
AcDbLine
10
55.901424
20
8
30
0
11
56.296382
21
11.000001
31
0
39
0
210
0
220
0
230
1
0
LINE
5
135
100
AcDbEntity
8
2
62
256
6
ByLayer
370
13
48
1
60
0
100
AcDbLine
10
55.506467
20
10.999999
30
0
11
56.296382
21
11.000001
31
0
39
0
210
0
220
0
230
1
0
ENDBLK
5
137
100
AcDbEntity
8
0
100
AcDbBlockEnd
0
BLOCK
5
144
100
AcDbEntity
8
0
100
AcDbBlockBegin
2
DimnDraft3D4
70
0
10
0
20
0
30
0
3
DimnDraft3D4
0
MTEXT
5
13A
100
AcDbEntity
8
SK2
62
256
6
ByLayer
370
18
48
1
60
0
100
AcDbMText
10
-7.505155
20
-31.125
30
0
210
0
220
0
230
1
1
\W0.7346;70.0
40
4.5
41
0
44
1.084337
50
0
71
7
72
5
7
iso_b_vert
0
LINE
5
13B
100
AcDbEntity
8
SK2
62
256
6
ByLayer
370
13
48
1
60
0
100
AcDbLine
10
-38.348576
20
-9.5
30
0
11
-38.348576
21
-35.25
31
0
39
0
210
0
220
0
230
1
0
LINE
5
13C
100
AcDbEntity
8
SK2
62
256
6
ByLayer
370
13
48
1
60
0
100
AcDbLine
10
31.651424
20
-9.5
30
0
11
31.651424
21
-35.25
31
0
39
0
210
0
220
0
230
1
0
LINE
5
13D
100
AcDbEntity
8
SK2
62
256
6
ByLayer
370
13
48
1
60
0
100
AcDbLine
10
-38.348576
20
-32.25
30
0
11
31.651424
21
-32.25
31
0
39
0
210
0
220
0
230
1
0
LINE
5
13E
100
AcDbEntity
8
SK2
62
256
6
ByLayer
370
13
48
1
60
0
100
AcDbLine
10
-38.348576
20
-32.25
30
0
11
-35.348577
21
-31.855043
31
0
39
0
210
0
220
0
230
1
0
LINE
5
13F
100
AcDbEntity
8
SK2
62
256
6
ByLayer
370
13
48
1
60
0
100
AcDbLine
10
-38.348576
20
-32.25
30
0
11
-35.348574
21
-32.644957
31
0
39
0
210
0
220
0
230
1
0
LINE
5
140
100
AcDbEntity
8
SK2
62
256
6
ByLayer
370
13
48
1
60
0
100
AcDbLine
10
-35.348577
20
-31.855043
30
0
11
-35.348574
21
-32.644957
31
0
39
0
210
0
220
0
230
1
0
LINE
5
141
100
AcDbEntity
8
SK2
62
256
6
ByLayer
370
13
48
1
60
0
100
AcDbLine
10
31.651424
20
-32.25
30
0
11
28.651425
21
-32.644957
31
0
39
0
210
0
220
0
230
1
0
LINE
5
142
100
AcDbEntity
8
SK2
62
256
6
ByLayer
370
13
48
1
60
0
100
AcDbLine
10
31.651424
20
-32.25
30
0
11
28.651423
21
-31.855043
31
0
39
0
210
0
220
0
230
1
0
LINE
5
143
100
AcDbEntity
8
SK2
62
256
6
ByLayer
370
13
48
1
60
0
100
AcDbLine
10
28.651425
20
-32.644957
30
0
11
28.651423
21
-31.855043
31
0
39
0
210
0
220
0
230
1
0
ENDBLK
5
145
100
AcDbEntity
8
0
100
AcDbBlockEnd
0
BLOCK
5
152
100
AcDbEntity
8
0
100
AcDbBlockBegin
2
DimnDraft3D5
70
0
10
0
20
0
30
0
3
DimnDraft3D5
0
MTEXT
5
148
100
AcDbEntity
8
2
62
256
6
ByLayer
370
18
48
1
60
0
100
AcDbMText
10
12.231633
20
-21.125
30
0
210
0
220
0
230
1
1
\W0.6563;31.7
40
4.5
41
0
44
1.084337
50
0
71
7
72
5
7
iso_b_vert
0
LINE
5
149
100
AcDbEntity
8
2
62
256
6
ByLayer
370
13
48
1
60
0
100
AcDbLine
10
31.651424
20
-9.5
30
0
11
31.651424
21
-25.25
31
0
39
0
210
0
220
0
230
1
0
LINE
5
14A
100
AcDbEntity
8
2
62
256
6
ByLayer
370
13
48
1
60
0
100
AcDbLine
10
0
20
-9.5
30
0
11
0
21
-25.25
31
0
39
0
210
0
220
0
230
1
0
LINE
5
14B
100
AcDbEntity
8
2
62
256
6
ByLayer
370
13
48
1
60
0
100
AcDbLine
10
31.651424
20
-22.25
30
0
11
0
21
-22.25
31
0
39
0
210
0
220
0
230
1
0
LINE
5
14C
100
AcDbEntity
8
2
62
256
6
ByLayer
370
13
48
1
60
0
100
AcDbLine
10
31.651424
20
-22.25
30
0
11
28.651425
21
-22.644957
31
0
39
0
210
0
220
0
230
1
0
LINE
5
14D
100
AcDbEntity
8
2
62
256
6
ByLayer
370
13
48
1
60
0
100
AcDbLine
10
31.651424
20
-22.25
30
0
11
28.651423
21
-21.855043
31
0
39
0
210
0
220
0
230
1
0
LINE
5
14E
100
AcDbEntity
8
2
62
256
6
ByLayer
370
13
48
1
60
0
100
AcDbLine
10
28.651425
20
-22.644957
30
0
11
28.651423
21
-21.855043
31
0
39
0
210
0
220
0
230
1
0
LINE
5
14F
100
AcDbEntity
8
2
62
256
6
ByLayer
370
13
48
1
60
0
100
AcDbLine
10
0
20
-22.25
30
0
11
2.999999
21
-21.855043
31
0
39
0
210
0
220
0
230
1
0
LINE
5
150
100
AcDbEntity
8
2
62
256
6
ByLayer
370
13
48
1
60
0
100
AcDbLine
10
0
20
-22.25
30
0
11
3.000001
21
-22.644957
31
0
39
0
210
0
220
0
230
1
0
LINE
5
151
100
AcDbEntity
8
2
62
256
6
ByLayer
370
13
48
1
60
0
100
AcDbLine
10
2.999999
20
-21.855043
30
0
11
3.000001
21
-22.644957
31
0
39
0
210
0
220
0
230
1
0
ENDBLK
5
153
100
AcDbEntity
8
0
100
AcDbBlockEnd
0
BLOCK
5
160
100
AcDbEntity
8
0
100
AcDbBlockBegin
2
DimnDraft3D6
70
0
10
0
20
0
30
0
3
DimnDraft3D6
0
MTEXT
5
156
100
AcDbEntity
8
2
62
256
6
ByLayer
370
18
48
1
60
0
100
AcDbMText
10
43.276424
20
18.875
30
0
210
0
220
0
230
1
1
\W0.7121;6.0
40
4.5
41
0
44
1.084337
50
0
71
7
72
5
7
iso_b_vert
0
LINE
5
157
100
AcDbEntity
8
2
62
256
6
ByLayer
370
13
48
1
60
0
100
AcDbLine
10
31.651424
20
-5
30
0
11
31.651424
21
20.75
31
0
39
0
210
0
220
0
230
1
0
LINE
5
158
100
AcDbEntity
8
2
62
256
6
ByLayer
370
13
48
1
60
0
100
AcDbLine
10
25.651424
20
-5
30
0
11
25.651424
21
20.75
31
0
39
0
210
0
220
0
230
1
0
LINE
5
159
100
AcDbEntity
8
2
62
256
6
ByLayer
370
13
48
1
60
0
100
AcDbLine
10
14.401424
20
17.75
30
0
11
49.351424
21
17.75
31
0
39
0
210
0
220
0
230
1
0
LINE
5
15A
100
AcDbEntity
8
2
62
256
6
ByLayer
370
13
48
1
60
0
100
AcDbLine
10
31.651424
20
17.75
30
0
11
34.651423
21
18.144957
31
0
39
0
210
0
220
0
230
1
0
LINE
5
15B
100
AcDbEntity
8
2
62
256
6
ByLayer
370
13
48
1
60
0
100
AcDbLine
10
31.651424
20
17.75
30
0
11
34.651426
21
17.355043
31
0
39
0
210
0
220
0
230
1
0
LINE
5
15C
100
AcDbEntity
8
2
62
256
6
ByLayer
370
13
48
1
60
0
100
AcDbLine
10
34.651423
20
18.144957
30
0
11
34.651426
21
17.355043
31
0
39
0
210
0
220
0
230
1
0
LINE
5
15D
100
AcDbEntity
8
2
62
256
6
ByLayer
370
13
48
1
60
0
100
AcDbLine
10
25.651424
20
17.75
30
0
11
22.651425
21
17.355043
31
0
39
0
210
0
220
0
230
1
0
LINE
5
15E
100
AcDbEntity
8
2
62
256
6
ByLayer
370
13
48
1
60
0
100
AcDbLine
10
25.651424
20
17.75
30
0
11
22.651423
21
18.144957
31
0
39
0
210
0
220
0
230
1
0
LINE
5
15F
100
AcDbEntity
8
2
62
256
6
ByLayer
370
13
48
1
60
0
100
AcDbLine
10
22.651425
20
17.355043
30
0
11
22.651423
21
18.144957
31
0
39
0
210
0
220
0
230
1
0
ENDBLK
5
161
100
AcDbEntity
8
0
100
AcDbBlockEnd
0
ENDSEC
0
SECTION
2
ENTITIES
0
ELLIPSE
5
A7
100
AcDbEntity
8
1
62
256
6
ByLayer
370
18
48
1
60
0
100
AcDbEllipse
10
5.915065
20
-5.866095
30
0
11
1.84856465667816
21
-0.0174489932279056
31
0
210
0
220
0
230
-1
40
0.865498
41
-2.28646617864064
42
-1.5010680152432
0
ELLIPSE
5
A8
100
AcDbEntity
8
1
62
256
6
ByLayer
370
18
48
1
60
0
100
AcDbEllipse
10
20.691023
20
-7.249576
30
0
11
-2.44403192313657
21
0.17090336067311
31
0
210
0
220
0
230
1
40
0.034899
41
0.847514997381474
42
2.29402217806133
0
ELLIPSE
5
A9
100
AcDbEntity
8
1
62
256
6
ByLayer
370
18
48
1
60
0
100
AcDbEllipse
10
20.648767
20
-7.853866
30
0
11
-1.79561529046768
21
0.125561652739428
31
0
210
0
220
0
230
1
40
0.034899
41
0.0373717106162387
42
3.10405942800785
0
ELLIPSE
5
AA
100
AcDbEntity
8
1
62
256
6
ByLayer
370
13
48
1
60
0
100
AcDbEllipse
10
27.228596
20
-6.174108
30
0
11
-0.0349429162395014
21
-0.499708768125148
31
0
210
0
220
0
230
1
40
0.998145
41
-2.47769065784719E-07
42
0.070017819688951
0
ELLIPSE
5
AB
100
AcDbEntity
8
1
62
256
6
ByLayer
370
13
48
1
60
0
100
AcDbEllipse
10
28.229936
20
-6.173773
30
0
11
-0.0349466326757016
21
-0.499708331835363
31
0
210
0
220
0
230
1
40
0.998146
41
0.0700291630025568
42
0.104471004624219
0
ELLIPSE
5
AC
100
AcDbEntity
8
1
62
256
6
ByLayer
370
13
48
1
60
0
100
AcDbEllipse
10
29.455358
20
-6.649836
30
0
11
-0.498303873951165
21
-0.0173225497065575
31
0
210
0
220
0
230
1
40
0.035171
41
-2.29722309781889
42
-1.5666015594566
0
ELLIPSE
5
AD
100
AcDbEntity
8
1
62
256
6
ByLayer
370
13
48
1
60
0
100
AcDbEllipse
10
18.12274
20
-6.053079
30
0
11
-0.55598406821667
21
0.0388781928881873
31
0
210
0
220
0
230
1
40
0.896569
41
1.44500896222707
42
1.57079555970197
0
POINT
5
6C
100
AcDbEntity
8
80
62
256
6
ByLayer
370
18
48
1
60
0
100
AcDbPoint
10
0
20
0
30
0
39
0
210
0
220
0
230
1
50
360
0
POINT
5
6E
100
AcDbEntity
8
81
62
256
6
ByLayer
370
18
48
1
60
0
100
AcDbPoint
10
31.651424
20
-8
30
0
39
0
210
0
220
0
230
1
50
360
0
SPLINE
5
AE
100
AcDbEntity
8
1
62
256
6
ByLayer
370
13
48
1
60
0
100
AcDbSpline
70
4
71
3
72
11
73
7
40
0
40
0
40
0
40
0
40
0.221053036193523
40
0.471890923400042
40
0.739759047152852
40
1
40
1
40
1
40
1
41
1
10
24.9699238827346
20
-5.96263625688243
30
0
41
1
10
24.9726287649214
20
-5.95637555034759
30
0
41
1
10
24.9684255616807
20
-5.93770176851183
30
0
41
1
10
24.9345189940689
20
-5.88500379049273
30
0
41
1
10
24.8873368617255
20
-5.80232543762622
30
0
41
1
10
24.8607883425955
20
-5.73091444795355
30
0
41
1
10
24.8514878565438
20
-5.6940410455714
30
0
0
SPLINE
5
AF
100
AcDbEntity
8
1
62
256
6
ByLayer
370
13
48
1
60
0
100
AcDbSpline
70
4
71
2
72
6
73
3
40
0
40
0
40
0
40
1
40
1
40
1
41
1
10
17.9759519875922
20
-6.47434342839844
30
0
41
1
10
16.1265868743805
20
-6.10458693298963
30
0
41
1
10
14.0854328025859
20
-5.72593678013158
30
0
0
SPLINE
5
B0
100
AcDbEntity
8
1
62
256
6
ByLayer
370
13
48
1
60
0
100
AcDbSpline
70
4
71
1
72
4
73
2
40
0
40
0
40
1
40
1
41
1
10
17.6758783354972
20
-6.47158640454944
30
0
41
1
10
17.9754937909909
20
-6.47430963583665
30
0
0
SPLINE
5
B1
100
AcDbEntity
8
1
62
256
6
ByLayer
370
13
48
1
60
0
100
AcDbSpline
70
4
71
1
72
4
73
2
40
0
40
0
40
1
40
1
41
1
10
29.7858996484413
20
-6.62522740991818
30
0
41
1
10
29.8319712188855
20
-7.95182505169137
30
0
0
SPLINE
5
B2
100
AcDbEntity
8
1
62
256
6
ByLayer
370
13
48
1
60
0
100
AcDbSpline
70
4
71
3
72
10
73
6
40
0
40
0
40
0
40
0
40
0.499723436677194
40
0.75014095766374
40
1
40
1
40
1
40
1
41
1
10
13.3006496790817
20
-5.48678270144461
30
0
41
1
10
13.1750619485751
20
-5.46947969833511
30
0
41
1
10
12.9865406715674
20
-5.44350594891617
30
0
41
1
10
12.8232490766624
20
-5.39913603303111
30
0
41
1
10
12.7858441352799
20
-5.38790840119339
30
0
41
1
10
12.7671625429014
20
-5.38230085220081
30
0
0
SPLINE
5
B3
100
AcDbEntity
8
1
62
256
6
ByLayer
370
13
48
1
60
0
100
AcDbSpline
70
4
71
3
72
12
73
8
40
0
40
0
40
0
40
0
40
0.249605152093358
40
0.49972470673293
40
0.749888243525822
40
0.874966932404507
40
1
40
1
40
1
40
1
41
1
10
12.439622694998
20
-5.39532962635516
30
0
41
1
10
12.5785705701903
20
-5.41977117992104
30
0
41
1
10
12.8567526734013
20
-5.46870465779753
30
0
41
1
10
13.3037140093902
20
-5.54287326704028
30
0
41
1
10
13.6780951120324
20
-5.605201122593
30
0
41
1
10
13.9806361997401
20
-5.65458406362191
30
0
41
1
10
14.1318104219074
20
-5.67950102305775
30
0
41
1
10
14.2073837456304
20
-5.69195723030421
30
0
0
SPLINE
5
B4
100
AcDbEntity
8
1
62
256
6
ByLayer
370
13
48
1
60
0
100
AcDbSpline
70
4
71
5
72
12
73
6
40
0
40
0
40
0
40
0
40
0
40
0
40
1
40
1
40
1
40
1
40
1
40
1
41
1
10
25.4254099148206
20
-6.54967431627492
30
0
41
1
10
25.3975506393733
20
-6.48586953601759
30
0
41
1
10
25.4545626745866
20
-6.42802302742729
30
0
41
1
10
25.5967177557743
20
-6.37634816111617
30
0
41
1
10
25.8237290266146
20
-6.33102463465963
30
0
41
1
10
26.1347419251216
20
-6.29218589892628
30
0
0
SPLINE
5
B5
100
AcDbEntity
8
1
62
256
6
ByLayer
370
13
48
1
60
0
100
AcDbSpline
70
4
71
5
72
12
73
6
40
0
40
0
40
0
40
0
40
0
40
0
40
1
40
1
40
1
40
1
40
1
40
1
41
1
10
13.2962538884431
20
-4.95211142895056
30
0
41
1
10
13.2754246590309
20
-5.1006752090033
30
0
41
1
10
13.1990442213797
20
-5.24175802276923
30
0
41
1
10
13.0701601091299
20
-5.34654993428524
30
0
41
1
10
12.916607006882
20
-5.39241937358281
30
0
41
1
10
12.7671619193678
20
-5.38230067293165
30
0
0
SPLINE
5
B6
100
AcDbEntity
8
1
62
256
6
ByLayer
370
13
48
1
60
0
100
AcDbSpline
70
4
71
5
72
12
73
6
40
0
40
0
40
0
40
0
40
0
40
0
40
1
40
1
40
1
40
1
40
1
40
1
41
1
10
26.1347376006977
20
-6.29218025643951
30
0
41
1
10
26.2352876258555
20
-6.36121192277613
30
0
41
1
10
26.3358868097627
20
-6.43000320762852
30
0
41
1
10
26.4365357211337
20
-6.4985503001482
30
0
41
1
10
26.5372349814718
20
-6.56684929045977
30
0
41
1
10
26.6379852369569
20
-6.63489614515436
30
0
0
SPLINE
5
B7
100
AcDbEntity
8
1
62
256
6
ByLayer
370
13
48
1
60
0
100
AcDbSpline
70
4
71
1
72
4
73
2
40
0
40
0
40
1
40
1
41
1
10
17.7059003715745
20
-6.47664048416226
30
0
41
1
10
17.6758132956444
20
-6.47207488669449
30
0
0
SPLINE
5
B8
100
AcDbEntity
8
1
62
256
6
ByLayer
370
13
48
1
60
0
100
AcDbSpline
70
4
71
5
72
12
73
6
40
0
40
0
40
0
40
0
40
0
40
0
40
1
40
1
40
1
40
1
40
1
40
1
41
1
10
24.80782058247
20
-6.00488618692296
30
0
41
1
10
24.8031791890961
20
-6.13781158247798
30
0
41
1
10
24.8426773205149
20
-6.27236371067895
30
0
41
1
10
24.9275117463517
20
-6.38861019504716
30
0
41
1
10
25.0436227568374
20
-6.46727854671164
30
0
41
1
10
25.1716559960209
20
-6.50342020280311
30
0
0
SPLINE
5
B9
100
AcDbEntity
8
1
62
256
6
ByLayer
370
13
48
1
60
0
100
AcDbSpline
70
4
71
5
72
12
73
6
40
0
40
0
40
0
40
0
40
0
40
0
40
1
40
1
40
1
40
1
40
1
40
1
41
1
10
24.8277321821005
20
-6.46578830095783
30
0
41
1
10
24.8302469519657
20
-6.46700606825166
30
0
41
1
10
24.8327861369479
20
-6.46822546932603
30
0
41
1
10
24.8353497339
20
-6.46944650304721
30
0
41
1
10
24.8379377396295
20
-6.47066916827919
30
0
41
1
10
24.8405501508983
20
-6.47189346388348
30
0
0
SPLINE
5
BA
100
AcDbEntity
8
1
62
256
6
ByLayer
370
13
48
1
60
0
100
AcDbSpline
70
4
71
3
72
14
73
10
40
0
40
0
40
0
40
0
40
0.249444592126839
40
0.249444592126839
40
0.584774574577388
40
0.584774574577388
40
0.840106253871398
40
0.840106253871398
40
1
40
1
40
1
40
1
41
1
10
31.6619548051669
20
-6.5695451481721
30
0
41
1
10
31.4996738928838
20
-6.57598162676746
30
0
41
1
10
31.3373929806029
20
-6.58241810536327
30
0
41
1
10
30.9583603454965
20
-6.59745151505524
30
0
41
1
10
30.7341678319046
20
-6.6061187820261
30
0
41
1
10
30.3534256257755
20
-6.61695545182556
30
0
41
1
10
30.1910072093077
20
-6.62054605094383
30
0
41
1
10
29.9524711817296
20
-6.6241034916163
30
0
41
1
10
29.8651892919329
20
-6.62494675850994
30
0
41
1
10
29.785899653191
20
-6.62522740990138
30
0
0
SPLINE
5
BB
100
AcDbEntity
8
1
62
256
6
ByLayer
370
13
48
1
60
0
100
AcDbSpline
70
4
71
5
72
12
73
6
40
0
40
0
40
0
40
0
40
0
40
0
40
1
40
1
40
1
40
1
40
1
40
1
41
1
10
24.5856742443592
20
-5.96824597865518
30
0
41
1
10
24.5809794511075
20
-6.11821896733142
30
0
41
1
10
24.6073878956833
20
-6.26827953371773
30
0
41
1
10
24.6663508479889
20
-6.38947832150342
30
0
41
1
10
24.7451342700446
20
-6.45564042075259
30
0
41
1
10
24.8277275431914
20
-6.46578833793146
30
0
0
SPLINE
5
BC
100
AcDbEntity
8
1
62
256
6
ByLayer
370
13
48
1
60
0
100
AcDbSpline
70
4
71
1
72
4
73
2
40
0
40
0
40
1
40
1
41
1
10
17.6585103383228
20
-6.47026314813544
30
0
41
1
10
17.1724664019828
20
-6.38644027591025
30
0
0
SPLINE
5
BD
100
AcDbEntity
8
1
62
256
6
ByLayer
370
13
48
1
60
0
100
AcDbSpline
70
4
71
3
72
8
73
4
40
0
40
0
40
0
40
0
40
1
40
1
40
1
40
1
41
1
10
18.0673594262608
20
-6.54865293865799
30
0
41
1
10
18.0630183804713
20
-6.54842426615537
30
0
41
1
10
18.058682254497
20
-6.54812529705353
30
0
41
1
10
18.0543528691672
20
-6.54775625595718
30
0
0
SPLINE
5
BE
100
AcDbEntity
8
1
62
256
6
ByLayer
370
13
48
1
60
0
100
AcDbSpline
70
4
71
3
72
8
73
4
40
0
40
0
40
0
40
0
40
1
40
1
40
1
40
1
41
1
10
18.0321626577177
20
-6.54524261789567
30
0
41
1
10
18.0252237327986
20
-6.54426080117008
30
0
41
1
10
18.0183104755111
20
-6.54309759537284
30
0
41
1
10
18.0114305322652
20
-6.54175394371126
30
0
0
SPLINE
5
BF
100
AcDbEntity
8
1
62
256
6
ByLayer
370
13
48
1
60
0
100
AcDbSpline
70
4
71
3
72
8
73
4
40
0
40
0
40
0
40
0
40
1
40
1
40
1
40
1
41
1
10
13.2953282628762
20
-4.95101323985972
30
0
41
1
10
13.2953086654025
20
-4.95133375083509
30
0
41
1
10
13.2956174877965
20
-4.95170037594968
30
0
41
1
10
13.2962541288023
20
-4.95211229605573
30
0
0
SPLINE
5
C0
100
AcDbEntity
8
1
62
256
6
ByLayer
370
13
48
1
60
0
100
AcDbSpline
70
4
71
3
72
8
73
4
40
0
40
0
40
0
40
0
40
1
40
1
40
1
40
1
41
1
10
18.0054685043633
20
-6.47847813169909
30
0
41
1
10
17.995397298084
20
-6.4775696772827
30
0
41
1
10
17.985354610188
20
-6.47625344911583
30
0
41
1
10
17.9753650583929
20
-6.47453267367862
30
0
0
SPLINE
5
C1
100
AcDbEntity
8
1
62
256
6
ByLayer
370
13
48
1
60
0
100
AcDbSpline
70
4
71
3
72
8
73
4
40
0
40
0
40
0
40
0
40
1
40
1
40
1
40
1
41
1
10
24.8378245760902
20
-5.69375441839321
30
0
41
1
10
24.8826394378549
20
-5.90587882454867
30
0
41
1
10
25.0742285648708
20
-6.08612334876938
30
0
41
1
10
25.2930078289852
20
-6.10162356198339
30
0
0
SPLINE
5
C2
100
AcDbEntity
8
1
62
256
6
ByLayer
370
13
48
1
60
0
100
AcDbSpline
70
4
71
3
72
8
73
4
40
0
40
0
40
0
40
0
40
1
40
1
40
1
40
1
41
1
10
17.7060325723614
20
-6.47565169254079
30
0
41
1
10
17.6901059909671
20
-6.47468753607475
30
0
41
1
10
17.674236542817
20
-6.47290670371228
30
0
41
1
10
17.6585020482545
20
-6.47031792827033
30
0
0
SPLINE
5
C3
100
AcDbEntity
8
1
62
256
6
ByLayer
370
13
48
1
60
0
100
AcDbSpline
70
4
71
3
72
8
73
4
40
0
40
0
40
0
40
0
40
1
40
1
40
1
40
1
41
1
10
22.337251654932
20
-6.2636080301736
30
0
41
1
10
22.5205739599696
20
-6.28008879016605
30
0
41
1
10
22.7038962695916
20
-6.2965694837558
30
0
41
1
10
22.8872185838285
20
-6.31305011094315
30
0
0
SPLINE
5
C4
100
AcDbEntity
8
1
62
256
6
ByLayer
370
13
48
1
60
0
100
AcDbSpline
70
4
71
3
72
8
73
4
40
0
40
0
40
0
40
0
40
1
40
1
40
1
40
1
41
1
10
9.57210835441776
20
-5.005336355628
30
0
41
1
10
9.49200155804118
20
-5.49874893030244
30
0
41
1
10
9.41198053125405
20
-5.99217568896924
30
0
41
1
10
9.33202677751621
20
-6.4856135343264
30
0
0
SPLINE
5
C5
100
AcDbEntity
8
1
62
256
6
ByLayer
370
13
48
1
60
0
100
AcDbSpline
70
4
71
5
72
12
73
6
40
0
40
0
40
0
40
0
40
0
40
0
40
1
40
1
40
1
40
1
40
1
40
1
41
1
10
24.5589167270804
20
-5.96702449920846
30
0
41
1
10
24.5536727888073
20
-6.11695668120561
30
0
41
1
10
24.5765208227084
20
-6.26682367599309
30
0
41
1
10
24.6289650044641
20
-6.38768691517433
30
0
41
1
10
24.6996813717381
20
-6.45344922162525
30
0
41
1
10
24.7742172794968
20
-6.46320805774275
30
0
0
SPLINE
5
C6
100
AcDbEntity
8
1
62
256
6
ByLayer
370
13
48
1
60
0
100
AcDbSpline
70
4
71
5
72
12
73
6
40
0
40
0
40
0
40
0
40
0
40
0
40
1
40
1
40
1
40
1
40
1
40
1
41
1
10
25.1716559960209
20
-6.50342020280311
30
0
41
1
10
25.1691750854726
20
-6.49839705883747
30
0
41
1
10
25.1669377106182
20
-6.4932747327596
30
0
41
1
10
25.1649459934915
20
-6.48802315919363
30
0
41
1
10
25.1632016960826
20
-6.48261754483724
30
0
41
1
10
25.1617062268574
20
-6.47703826092544
30
0
0
SPLINE
5
C7
100
AcDbEntity
8
1
62
256
6
ByLayer
370
13
48
1
60
0
100
AcDbSpline
70
4
71
5
72
17
73
11
40
0
40
0
40
0
40
0
40
0
40
0
40
0.999980762800283
40
0.999980762800283
40
0.999980762800283
40
0.999980762800283
40
0.999980762800283
40
1
40
1
40
1
40
1
40
1
40
1
41
1
10
25.1616817174207
20
-6.47697521471125
30
0
41
1
10
25.1303152163089
20
-6.42075162414037
30
0
41
1
10
25.1279404024972
20
-6.3516016804661
30
0
41
1
10
25.1553000835854
20
-6.25840081282678
30
0
41
1
10
25.2111619430827
20
-6.16194516939197
30
0
41
1
10
25.2930339678253
20
-6.10131679078251
30
0
41
1
10
25.2930501073946
20
-6.10130496778223
30
0
41
1
10
25.2930339211767
20
-6.10131670920421
30
0
41
1
10
25.2930256732387
20
-6.10132236536626
30
0
41
1
10
25.2930173056235
20
-6.10132784288967
30
0
41
1
10
25.2930089405438
20
-6.1013333242621
30
0
0
SPLINE
5
C8
100
AcDbEntity
8
1
62
256
6
ByLayer
370
13
48
1
60
0
100
AcDbSpline
70
4
71
2
72
6
73
3
40
0
40
0
40
0
40
1
40
1
40
1
41
1
10
12.7671836742966
20
-5.38230154486786
30
0
41
1
10
12.7652802132971
20
-5.38106590735222
30
0
41
1
10
12.7653473727669
20
-5.37996855502919
30
0
0
SPLINE
5
C9
100
AcDbEntity
8
1
62
256
6
ByLayer
370
13
48
1
60
0
100
AcDbSpline
70
4
71
1
72
4
73
2
40
0
40
0
40
1
40
1
41
1
10
17.6758127979454
20
-6.47207484721332
30
0
41
1
10
17.6584512785627
20
-6.47069765858055
30
0
0
SPLINE
5
CA
100
AcDbEntity
8
1
62
256
6
ByLayer
370
13
48
1
60
0
100
AcDbSpline
70
4
71
5
72
12
73
6
40
0
40
0
40
0
40
0
40
0
40
0
40
1
40
1
40
1
40
1
40
1
40
1
41
1
10
24.8098723927337
20
-5.98224306842309
30
0
41
1
10
24.8094476901402
20
-5.98718401777467
30
0
41
1
10
24.8090311264469
20
-5.99189115657012
30
0
41
1
10
24.8086218440612
20
-5.99638895304966
30
0
41
1
10
24.8082187646051
20
-6.00070819773501
30
0
41
1
10
24.8078205843625
20
-6.00488613272285
30
0
0
SPLINE
5
CB
100
AcDbEntity
8
1
62
256
6
ByLayer
370
13
48
1
60
0
100
AcDbSpline
70
4
71
1
72
4
73
2
40
0
40
0
40
1
40
1
41
1
10
24.8544658837354
20
-6.47371484009614
30
0
41
1
10
24.8405562616288
20
-6.47189368200199
30
0
0
SPLINE
5
CC
100
AcDbEntity
8
1
62
256
6
ByLayer
370
13
48
1
60
0
100
AcDbSpline
70
4
71
3
72
8
73
4
40
0
40
0
40
0
40
0
40
1
40
1
40
1
40
1
41
1
10
29.788576506701
20
-7.94999455398846
30
0
41
1
10
29.8036469242407
20
-7.95067700951162
30
0
41
1
10
29.8181497967977
20
-7.95128964992756
30
0
41
1
10
29.8319491476994
20
-7.95182669161892
30
0
0
SPLINE
5
CD
100
AcDbEntity
8
1
62
256
6
ByLayer
370
13
48
1
60
0
100
AcDbSpline
70
4
71
2
72
6
73
3
40
0
40
0
40
0
40
1
40
1
40
1
41
1
10
24.8277006773598
20
-6.46578612458541
30
0
41
1
10
24.8014221340515
20
-6.46455995849365
30
0
41
1
10
24.7741744461837
20
-6.46320592822565
30
0
0
SPLINE
5
CE
100
AcDbEntity
8
1
62
256
6
ByLayer
370
13
48
1
60
0
100
AcDbSpline
70
4
71
5
72
12
73
6
40
0
40
0
40
0
40
0
40
0
40
0
40
1
40
1
40
1
40
1
40
1
40
1
41
1
10
14.4439607337187
20
-4.95533710313975
30
0
41
1
10
14.4412098971793
20
-4.9867802024236
30
0
41
1
10
14.4384590606398
20
-5.01822330170745
30
0
41
1
10
14.4357082241003
20
-5.04966640099127
30
0
41
1
10
14.4329573875608
20
-5.08110950027509
30
0
41
1
10
14.4302065510214
20
-5.11255259955894
30
0
0
SPLINE
5
CF
100
AcDbEntity
8
1
62
256
6
ByLayer
370
13
48
1
60
0
100
AcDbSpline
70
4
71
3
72
9
73
5
40
0
40
0
40
0
40
0
40
0.500015128630328
40
1
40
1
40
1
40
1
41
1
10
22.3212945168204
20
-6.4456824914958
30
0
41
1
10
22.5146154039376
20
-6.41569429574812
30
0
41
1
10
22.9012454798052
20
-6.35571971891923
30
0
41
1
10
23.2922253356853
20
-6.37066830573909
30
0
41
1
10
23.4877093486356
20
-6.37814237299736
30
0
0
SPLINE
5
D0
100
AcDbEntity
8
1
62
256
6
ByLayer
370
13
48
1
60
0
100
AcDbSpline
70
4
71
3
72
12
73
8
40
0
40
0
40
0
40
0
40
0.249997715236245
40
0.499996858553516
40
0.624998974739552
40
0.750001371230268
40
1
40
1
40
1
40
1
41
1
10
14.4302071061665
20
-5.11254618277729
30
0
41
1
10
15.1160953597375
20
-5.17815572958301
30
0
41
1
10
16.4878757849313
20
-5.30937519798087
30
0
41
1
10
18.1982948767672
20
-5.4434097794605
30
0
41
1
10
19.5640181274859
20
-5.54458718101429
30
0
41
1
10
20.9279054401426
20
-5.64299781245302
30
0
41
1
10
21.9465672670447
20
-5.72819188626556
30
0
41
1
10
22.6256695701084
20
-5.78498746867137
30
0
0
SPLINE
5
D1
100
AcDbEntity
8
1
62
256
6
ByLayer
370
13
48
1
60
0
100
AcDbSpline
70
4
71
5
72
12
73
6
40
0
40
0
40
0
40
0
40
0
40
0
40
1
40
1
40
1
40
1
40
1
40
1
41
1
10
14.4302058594847
20
-5.11255911939668
30
0
41
1
10
14.2519389034782
20
-5.09420593452853
30
0
41
1
10
14.0736775675455
20
-5.07561761246549
30
0
41
1
10
13.8954171346045
20
-5.05681821974449
30
0
41
1
10
13.7171522400724
20
-5.03783811618092
30
0
41
1
10
13.5388768126849
20
-5.01871407755701
30
0
0
SPLINE
5
D2
100
AcDbEntity
8
1
62
256
6
ByLayer
370
13
48
1
60
0
100
AcDbSpline
70
4
71
5
72
12
73
6
40
0
40
0
40
0
40
0
40
0
40
0
40
1
40
1
40
1
40
1
40
1
40
1
41
1
10
23.1936782856828
20
-5.57707910316563
30
0
41
1
10
23.189174500277
20
-5.62855906921629
30
0
41
1
10
23.1846707148712
20
-5.68003903526696
30
0
41
1
10
23.1801669294654
20
-5.73151900131765
30
0
41
1
10
23.1756631440596
20
-5.78299896736834
30
0
41
1
10
23.1711593586538
20
-5.83447893341901
30
0
0
SPLINE
5
D3
100
AcDbEntity
8
1
62
256
6
ByLayer
370
13
48
1
60
0
100
AcDbSpline
70
4
71
3
72
9
73
5
40
0
40
0
40
0
40
0
40
0.500127956009778
40
1
40
1
40
1
40
1
41
1
10
24.0609009216594
20
-5.9147366929009
30
0
41
1
10
24.1435450330229
20
-5.92661476852049
30
0
41
1
10
24.3087909673291
20
-5.95036484183041
30
0
41
1
10
24.4755479013072
20
-5.96147166839245
30
0
41
1
10
24.5589050307444
20
-5.96702366048822
30
0
0
SPLINE
5
D4
100
AcDbEntity
8
1
62
256
6
ByLayer
370
13
48
1
60
0
100
AcDbSpline
70
4
71
5
72
12
73
6
40
0
40
0
40
0
40
0
40
0
40
0
40
1
40
1
40
1
40
1
40
1
40
1
41
1
10
18.1156294430445
20
-6.4428946139613
30
0
41
1
10
18.0941913547842
20
-6.45735979877315
30
0
41
1
10
18.0721779805107
20
-6.46828878673605
30
0
41
1
10
18.0498622600851
20
-6.47549702768919
30
0
41
1
10
18.0275318915166
20
-6.47889159178015
30
0
41
1
10
18.0054678164945
20
-6.47847811889116
30
0
0
SPLINE
5
D5
100
AcDbEntity
8
1
62
256
6
ByLayer
370
13
48
1
60
0
100
AcDbSpline
70
4
71
5
72
12
73
6
40
0
40
0
40
0
40
0
40
0
40
0
40
1
40
1
40
1
40
1
40
1
40
1
41
1
10
24.8619955723648
20
-5.69478805707209
30
0
41
1
10
24.8978537014886
20
-5.80889679906855
30
0
41
1
10
24.9679052973858
20
-5.91227344676278
30
0
41
1
10
25.0678380267555
20
-5.99129389230083
30
0
41
1
10
25.1848337653963
20
-6.03522668611473
30
0
41
1
10
25.3041809071009
20
-6.04357225532306
30
0
0
SPLINE
5
D6
100
AcDbEntity
8
1
62
256
6
ByLayer
370
13
48
1
60
0
100
AcDbSpline
70
4
71
3
72
8
73
4
40
0
40
0
40
0
40
0
40
1
40
1
40
1
40
1
41
1
10
22.625685988588
20
-5.78498886835806
30
0
41
1
10
22.6033649320638
20
-6.04005846519539
30
0
41
1
10
22.4679164817584
20
-6.26489819958664
30
0
41
1
10
22.3372717702813
20
-6.26360979386075
30
0
0
SPLINE
5
D7
100
AcDbEntity
8
1
62
256
6
ByLayer
370
13
48
1
60
0
100
AcDbSpline
70
4
71
3
72
8
73
4
40
0
40
0
40
0
40
0
40
1
40
1
40
1
40
1
41
1
10
18.1155324371776
20
-6.4431741087482
30
0
41
1
10
18.0699529480238
20
-6.46642371459487
30
0
41
1
10
18.0221130130905
20
-6.47715328250041
30
0
41
1
10
17.9759286521405
20
-6.47456675013072
30
0
0
SPLINE
5
D8
100
AcDbEntity
8
1
62
256
6
ByLayer
370
13
48
1
60
0
100
AcDbSpline
70
4
71
1
72
4
73
2
40
0
40
0
40
1
40
1
41
1
10
12.6320843091766
20
-5.37065099603245
30
0
41
1
10
12.7671685147803
20
-5.38230145485605
30
0
0
SPLINE
5
D9
100
AcDbEntity
8
1
62
256
6
ByLayer
370
13
48
1
60
0
100
AcDbSpline
70
4
71
2
72
14
73
11
40
0
40
0
40
0
40
0.125
40
0.125
40
0.25
40
0.25
40
0.5
40
0.5
40
0.75
40
0.75
40
1
40
1
40
1
41
1
10
14.0854222228235
20
-5.72593479883659
30
0
41
1
10
14.0762805453624
20
-5.72423376666845
30
0
41
1
10
13.866627878387
20
-5.68527744590034
30
0
41
1
10
13.7411014622123
20
-5.66195292824017
30
0
41
1
10
13.648071217285
20
-5.64459623286132
30
0
41
1
10
13.417574007289
20
-5.60159226288684
30
0
41
1
10
13.2156747858474
20
-5.56339592437129
30
0
41
1
10
12.9701786204151
20
-5.51695169059883
30
0
41
1
10
12.7924402588316
20
-5.48246937780806
30
0
41
1
10
12.5480370288422
20
-5.435053678977
30
0
41
1
10
12.3928939192328
20
-5.40256559347276
30
0
0
SPLINE
5
DA
100
AcDbEntity
8
1
62
256
6
ByLayer
370
13
48
1
60
0
100
AcDbSpline
70
4
71
5
72
12
73
6
40
0
40
0
40
0
40
0
40
0
40
0
40
1
40
1
40
1
40
1
40
1
40
1
41
1
10
24.060900932608
20
-5.91473669465603
30
0
41
1
10
24.0475187888118
20
-6.06769964611138
30
0
41
1
10
24.0048340344368
20
-6.21856400316611
30
0
41
1
10
23.9350008191188
20
-6.33630453787362
30
0
41
1
10
23.8538786920614
20
-6.39418165652736
30
0
41
1
10
23.7769674090789
20
-6.3934556642271
30
0
0
SPLINE
5
DB
100
AcDbEntity
8
1
62
256
6
ByLayer
370
13
48
1
60
0
100
AcDbSpline
70
4
71
3
72
9
73
5
40
0
40
0
40
0
40
0
40
0.50186373367356
40
1
40
1
40
1
40
1
41
1
10
18.1156670580883
20
-6.44289857145304
30
0
41
1
10
18.5925368605801
20
-6.48800433862885
30
0
41
1
10
19.5427346343884
20
-6.57788086117742
30
0
41
1
10
20.4513418045314
20
-6.6667861183445
30
0
41
1
10
20.9039519878239
20
-6.71107305120648
30
0
0
SPLINE
5
DC
100
AcDbEntity
8
1
62
256
6
ByLayer
370
13
48
1
60
0
100
AcDbSpline
70
4
71
3
72
8
73
4
40
0
40
0
40
0
40
0
40
1
40
1
40
1
40
1
41
1
10
25.293008610964
20
-6.10162443201548
30
0
41
1
10
25.2959108859505
20
-6.09419389216527
30
0
41
1
10
25.2988131656152
20
-6.08676328592028
30
0
41
1
10
25.3017154498987
20
-6.07933261327636
30
0
0
SPLINE
5
DD
100
AcDbEntity
8
1
62
256
6
ByLayer
370
13
48
1
60
0
100
AcDbSpline
70
4
71
3
72
12
73
8
40
0
40
0
40
0
40
0
40
0.248870360971569
40
0.248870360971569
40
0.623686215928146
40
0.623686215928146
40
1
40
1
40
1
40
1
41
1
10
12.4396232758827
20
-5.39537589887297
30
0
41
1
10
12.4357369296594
20
-5.39661991379788
30
0
41
1
10
12.43184737513
20
-5.39770815079223
30
0
41
1
10
12.4221060180296
20
-5.40003662304718
30
0
41
1
10
12.4162517189699
20
-5.40107738905124
30
0
41
1
10
12.4045531547158
20
-5.4024346187141
30
0
41
1
10
12.3987031741076
20
-5.40274884350319
30
0
41
1
10
12.392881910558
20
-5.40269400284612
30
0
0
SPLINE
5
DE
100
AcDbEntity
8
1
62
256
6
ByLayer
370
13
48
1
60
0
100
AcDbSpline
70
4
71
3
72
8
73
4
40
0
40
0
40
0
40
0
40
1
40
1
40
1
40
1
41
1
10
14.4302068047655
20
-5.11255926663193
30
0
41
1
10
14.4097857783627
20
-5.32913049081847
30
0
41
1
10
14.3127349691607
20
-5.52994437533695
30
0
41
1
10
14.2049583213337
20
-5.57865725011865
30
0
0
SPLINE
5
DF
100
AcDbEntity
8
1
62
256
6
ByLayer
370
13
48
1
60
0
100
AcDbSpline
70
4
71
3
72
8
73
4
40
0
40
0
40
0
40
0
40
1
40
1
40
1
40
1
41
1
10
12.6320818849782
20
-5.37065145720456
30
0
41
1
10
12.6227766399117
20
-5.37000070002713
30
0
41
1
10
12.6134714881622
20
-5.36936157778078
30
0
41
1
10
12.6041664599715
20
-5.36873409377014
30
0
0
SPLINE
5
E0
100
AcDbEntity
8
1
62
256
6
ByLayer
370
13
48
1
60
0
100
AcDbSpline
70
4
71
3
72
10
73
6
40
0
40
0
40
0
40
0
40
0.499723436667701
40
0.750140957652739
40
1
40
1
40
1
40
1
41
1
10
25.1716586517412
20
-6.50337680045575
30
0
41
1
10
25.1576513492706
20
-6.50239176183001
30
0
41
1
10
25.1366248163557
20
-6.50091310831129
30
0
41
1
10
24.9924055065837
20
-6.47675484666527
30
0
41
1
10
24.882581357117
20
-6.46944120300702
30
0
41
1
10
24.8277305829181
20
-6.46578846343365
30
0
0
SPLINE
5
E1
100
AcDbEntity
8
1
62
256
6
ByLayer
370
13
48
1
60
0
100
AcDbSpline
70
4
71
2
72
9
73
6
40
0
40
0
40
0
40
0.25
40
0.5
40
0.75
40
1
40
1
40
1
41
1
10
24.8081400208432
20
-5.97858930559212
30
0
41
1
10
24.9220390587571
20
-5.98886728590694
30
0
41
1
10
25.1073095241188
20
-6.00834808206415
30
0
41
1
10
25.237514981546
20
-6.02542372176509
30
0
41
1
10
25.3042885679097
20
-6.03897062365832
30
0
41
1
10
25.304180907067
20
-6.04357225620998
30
0
0
SPLINE
5
E2
100
AcDbEntity
8
1
62
256
6
ByLayer
370
13
48
1
60
0
100
AcDbSpline
70
4
71
5
72
12
73
6
40
0
40
0
40
0
40
0
40
0
40
0
40
1
40
1
40
1
40
1
40
1
40
1
41
1
10
24.820043816798
20
-5.6907939465724
30
0
41
1
10
24.8180095777549
20
-5.74908246042818
30
0
41
1
10
24.8159753387118
20
-5.80737097428397
30
0
41
1
10
24.8139410996687
20
-5.86565948813976
30
0
41
1
10
24.8119068606256
20
-5.92394800199551
30
0
41
1
10
24.8098726215825
20
-5.9822365158513
30
0
0
SPLINE
5
E3
100
AcDbEntity
8
1
62
256
6
ByLayer
370
13
48
1
60
0
100
AcDbSpline
70
4
71
3
72
8
73
4
40
0
40
0
40
0
40
0
40
1
40
1
40
1
40
1
41
1
10
23.1713812460487
20
-5.83449603725134
30
0
41
1
10
22.9894798602404
20
-5.81799337820789
30
0
41
1
10
22.8075784378816
20
-5.80149071619527
30
0
41
1
10
22.6256769789666
20
-5.78498805128027
30
0
0
SPLINE
5
E4
100
AcDbEntity
8
1
62
256
6
ByLayer
370
13
48
1
60
0
100
AcDbSpline
70
4
71
5
72
12
73
6
40
0
40
0
40
0
40
0
40
0
40
0
40
1
40
1
40
1
40
1
40
1
40
1
41
1
10
22.321293965194
20
-6.44567960081417
30
0
41
1
10
22.03799305984
20
-6.49965312695312
30
0
41
1
10
21.7546089804454
20
-6.55318849227777
30
0
41
1
10
21.471140951666
20
-6.60627661593136
30
0
41
1
10
21.1875879384437
20
-6.65890807245873
30
0
41
1
10
20.9039488955232
20
-6.71107302414035
30
0
0
SPLINE
5
E5
100
AcDbEntity
8
1
62
256
6
ByLayer
370
13
48
1
60
0
100
AcDbSpline
70
4
71
3
72
8
73
4
40
0
40
0
40
0
40
0
40
1
40
1
40
1
40
1
41
1
10
24.8517257797931
20
-5.6943255954929
30
0
41
1
10
24.904816080727
20
-5.89657820722201
30
0
41
1
10
25.0906315692553
20
-6.06472825507447
30
0
41
1
10
25.301687652868
20
-6.07947929149725
30
0
0
SPLINE
5
E6
100
AcDbEntity
8
1
62
256
6
ByLayer
370
13
48
1
60
0
100
AcDbSpline
70
4
71
5
72
12
73
6
40
0
40
0
40
0
40
0
40
0
40
0
40
1
40
1
40
1
40
1
40
1
40
1
41
1
10
14.2074112588695
20
-5.691961063766
30
0
41
1
10
15.9443637959293
20
-5.84402608192485
30
0
41
1
10
17.6311958163541
20
-5.99605125915264
30
0
41
1
10
19.2607999396251
20
-6.14742228415048
30
0
41
1
10
20.8262382093508
20
-6.2975031375498
30
0
41
1
10
22.321288114168
20
-6.44568448397285
30
0
0
SPLINE
5
E7
100
AcDbEntity
8
1
62
256
6
ByLayer
370
13
48
1
60
0
100
AcDbSpline
70
4
71
3
72
8
73
4
40
0
40
0
40
0
40
0
40
1
40
1
40
1
40
1
41
1
10
25.1762595089457
20
-6.52452079038275
30
0
41
1
10
25.070710493622
20
-6.49899241612803
30
0
41
1
10
24.9627424952963
20
-6.48195852572181
30
0
41
1
10
24.8544590591198
20
-6.47374944418908
30
0
0
SPLINE
5
E8
100
AcDbEntity
8
1
62
256
6
ByLayer
370
13
48
1
60
0
100
AcDbSpline
70
4
71
3
72
8
73
4
40
0
40
0
40
0
40
0
40
1
40
1
40
1
40
1
41
1
10
25.1762582186273
20
-6.52452049102993
30
0
41
1
10
25.1963296341258
20
-6.52813699725058
30
0
41
1
10
25.2164010496244
20
-6.53175350347129
30
0
41
1
10
25.2351774162439
20
-6.53527061275239
30
0
0
SPLINE
5
E9
100
AcDbEntity
8
1
62
256
6
ByLayer
370
13
48
1
60
0
100
AcDbSpline
70
4
71
3
72
12
73
8
40
0
40
0
40
0
40
0
40
0.248870360971703
40
0.248870360971703
40
0.62368621592822
40
0.62368621592822
40
1
40
1
40
1
40
1
41
1
10
25.1762485105732
20
-6.52456620696637
30
0
41
1
10
25.1837207396043
20
-6.52637482923538
30
0
41
1
10
25.1912319193588
20
-6.52802976913551
30
0
41
1
10
25.2101266067042
20
-6.53178166969127
30
0
41
1
10
25.2215567830341
20
-6.53368160489651
30
0
41
1
10
25.2445485972816
20
-6.53676320855763
30
0
41
1
10
25.2561220746998
20
-6.53794351075447
30
0
41
1
10
25.2677155744641
20
-6.53875431517054
30
0
0
SPLINE
5
EA
100
AcDbEntity
8
1
62
256
6
ByLayer
370
13
48
1
60
0
100
AcDbSpline
70
4
71
1
72
4
73
2
40
0
40
0
40
1
40
1
41
1
10
29.4526587465837
20
-6.6323833757321
30
0
41
1
10
29.4527704577841
20
-6.63560001917563
30
0
0
SPLINE
5
EB
100
AcDbEntity
8
1
62
256
6
ByLayer
370
13
48
1
60
0
100
AcDbSpline
70
4
71
2
72
6
73
3
40
0
40
0
40
0
40
1
40
1
40
1
41
1
10
20.9039556533141
20
-6.71107384944935
30
0
41
1
10
20.7565699362565
20
-6.73809094438363
30
0
41
1
10
20.5991696564011
20
-6.72716325955253
30
0
0
SPLINE
5
EC
100
AcDbEntity
8
1
62
256
6
ByLayer
370
13
48
1
60
0
100
AcDbSpline
70
4
71
5
72
12
73
6
40
0
40
0
40
0
40
0
40
0
40
0
40
1
40
1
40
1
40
1
40
1
40
1
41
1
10
13.295336972951
20
-4.95101424375719
30
0
41
1
10
13.2744706913589
20
-5.09953724703087
30
0
41
1
10
13.1979622159345
20
-5.24044197489704
30
0
41
1
10
13.0688641670006
20
-5.34492953325341
30
0
41
1
10
12.9150519373706
20
-5.39043865171399
30
0
41
1
10
12.7653472428915
20
-5.37997027787478
30
0
0
SPLINE
5
ED
100
AcDbEntity
8
1
62
256
6
ByLayer
370
13
48
1
60
0
100
AcDbSpline
70
4
71
2
72
9
73
6
40
0
40
0
40
0
40
0.25
40
0.5
40
0.75
40
1
40
1
40
1
41
1
10
24.7741825348984
20
-6.46320633037473
30
0
41
1
10
24.6598650466449
20
-6.457519970611
30
0
41
1
10
24.4056978983067
20
-6.44212491936713
30
0
41
1
10
24.1434874685524
20
-6.42377538532139
30
0
41
1
10
23.8907330473681
20
-6.40370904121335
30
0
41
1
10
23.7769673871347
20
-6.39345566224878
30
0
0
SPLINE
5
EE
100
AcDbEntity
8
1
62
256
6
ByLayer
370
13
48
1
60
0
100
AcDbSpline
70
4
71
3
72
9
73
5
40
0
40
0
40
0
40
0
40
0.500015128633016
40
1
40
1
40
1
40
1
41
1
10
26.1347370287928
20
-6.29218304577546
30
0
41
1
10
26.043019861153
20
-6.23648353094799
30
0
41
1
10
25.8595910759269
20
-6.12508787182114
30
0
41
1
10
25.6662192617369
20
-6.08732608684113
30
0
41
1
10
25.5695362800931
20
-6.06844576563529
30
0
0
SPLINE
5
EF
100
AcDbEntity
8
1
62
256
6
ByLayer
370
13
48
1
60
0
100
AcDbSpline
70
4
71
3
72
8
73
4
40
0
40
0
40
0
40
0
40
1
40
1
40
1
40
1
41
1
10
24.5589050010381
20
-5.96702452386967
30
0
41
1
10
24.5680014379794
20
-5.96743074415556
30
0
41
1
10
24.5769319545067
20
-5.96783848686658
30
0
41
1
10
24.5856787998562
20
-5.96824685025601
30
0
0
SPLINE
5
F0
100
AcDbEntity
8
1
62
256
6
ByLayer
370
13
48
1
60
0
100
AcDbSpline
70
4
71
5
72
12
73
6
40
0
40
0
40
0
40
0
40
0
40
0
40
1
40
1
40
1
40
1
40
1
40
1
41
1
10
14.0854274373335
20
-5.72597826237063
30
0
41
1
10
14.1094323674823
20
-5.72689991986673
30
0
41
1
10
14.1339503739646
20
-5.72391969860303
30
0
41
1
10
14.1586657852208
20
-5.71702506715519
30
0
41
1
10
14.1832493693703
20
-5.70630786830384
30
0
41
1
10
14.2073837456288
20
-5.69195723030367
30
0
0
SPLINE
5
F1
100
AcDbEntity
8
1
62
256
6
ByLayer
370
13
48
1
60
0
100
AcDbSpline
70
4
71
3
72
8
73
4
40
0
40
0
40
0
40
0
40
1
40
1
40
1
40
1
41
1
10
31.6619960767761
20
-8.07031567505257
30
0
41
1
10
31.6619823195674
20
-7.57005883275929
30
0
41
1
10
31.6619685623589
20
-7.069801990466
30
0
41
1
10
31.6619548051503
20
-6.56954514817272
30
0
0
SPLINE
5
F2
100
AcDbEntity
8
1
62
256
6
ByLayer
370
13
48
1
60
0
100
AcDbSpline
70
4
71
5
72
12
73
6
40
0
40
0
40
0
40
0
40
0
40
0
40
1
40
1
40
1
40
1
40
1
40
1
41
1
10
18.0673594262608
20
-6.54865293865799
30
0
41
1
10
18.0578034766451
20
-6.54807444467562
30
0
41
1
10
18.0482646453401
20
-6.54725114764091
30
0
41
1
10
18.0387507538931
20
-6.54618352096114
30
0
41
1
10
18.0292695958134
20
-6.54487243919985
30
0
41
1
10
18.0198288983135
20
-6.54331917380884
30
0
0
SPLINE
5
F3
100
AcDbEntity
8
1
62
256
6
ByLayer
370
13
48
1
60
0
100
AcDbSpline
70
4
71
5
72
12
73
6
40
0
40
0
40
0
40
0
40
0
40
0
40
1
40
1
40
1
40
1
40
1
40
1
41
1
10
13.5388768072754
20
-5.01871413152719
30
0
41
1
10
13.5256102437485
20
-5.15107524513743
30
0
41
1
10
13.4903321640162
20
-5.28177480003981
30
0
41
1
10
13.4347842126722
20
-5.39092783701469
30
0
41
1
10
13.3681731097288
20
-5.46043750535114
30
0
41
1
10
13.3006464427065
20
-5.48682607381457
30
0
0
SPLINE
5
F4
100
AcDbEntity
8
1
62
256
6
ByLayer
370
13
48
1
60
0
100
AcDbSpline
70
4
71
3
72
8
73
4
40
0
40
0
40
0
40
0
40
1
40
1
40
1
40
1
41
1
10
24.8098723942586
20
-5.98224309171053
30
0
41
1
10
24.8023113016385
20
-6.19957097019682
30
0
41
1
10
24.9539030724522
20
-6.41272495486857
30
0
41
1
10
25.1617017815426
20
-6.47698139290063
30
0
0
SPLINE
5
F5
100
AcDbEntity
8
1
62
256
6
ByLayer
370
13
48
1
60
0
100
AcDbSpline
70
4
71
3
72
18
73
14
40
0
40
0
40
0
40
0
40
0.0089477727217393
40
0.0089477727217393
40
0.0205509304464286
40
0.0205509304464286
40
0.0415156227169657
40
0.0415156227169657
40
0.112513791209194
40
0.112513791209194
40
0.450146522201178
40
0.450146522201178
40
1
40
1
40
1
40
1
41
1
10
29.4527704577841
20
-6.63560001917563
30
0
41
1
10
29.4569421999628
20
-6.63536358228055
30
0
41
1
10
29.4612092143388
20
-6.6359183077503
30
0
41
1
10
29.4704052815935
20
-6.63864671085079
30
0
41
1
10
29.4753131875779
20
-6.64124551674743
30
0
41
1
10
29.487770998154
20
-6.64989584984741
30
0
41
1
10
29.4946371548727
20
-6.6571162745027
30
0
41
1
10
29.521284522842
20
-6.69023829370306
30
0
41
1
10
29.5353209820202
20
-6.72068024748509
30
0
41
1
10
29.6078628788427
20
-6.89409255059749
30
0
41
1
10
29.6382972830445
20
-7.04840435543355
30
0
41
1
10
29.7182003485311
20
-7.44868978892342
30
0
41
1
10
29.7551569052455
20
-7.69924143108915
30
0
41
1
10
29.788576506701
20
-7.94999455398809
30
0
0
SPLINE
5
F6
100
AcDbEntity
8
1
62
256
6
ByLayer
370
13
48
1
60
0
100
AcDbSpline
70
4
71
3
72
8
73
4
40
0
40
0
40
0
40
0
40
1
40
1
40
1
40
1
41
1
10
23.1711593259975
20
-5.83447923805542
30
0
41
1
10
23.1488493002242
20
-6.08948986760237
30
0
41
1
10
23.0154382133432
20
-6.31441738868
30
0
41
1
10
22.8872170667998
20
-6.31319810040705
30
0
0
SPLINE
5
F7
100
AcDbEntity
8
1
62
256
6
ByLayer
370
13
48
1
60
0
100
AcDbSpline
70
4
71
5
72
17
73
11
40
0
40
0
40
0
40
0
40
0
40
0
40
0.999980762800955
40
0.999980762800955
40
0.999980762800955
40
0.999980762800955
40
0.999980762800955
40
1
40
1
40
1
40
1
40
1
40
1
41
1
10
14.2049678086076
20
-5.57865245262468
30
0
41
1
10
15.8580572753493
20
-5.73868571807884
30
0
41
1
10
17.4986369993078
20
-5.88376903262494
30
0
41
1
10
19.1269303532681
20
-6.00270555565504
30
0
41
1
10
20.7407956378109
20
-6.11619931128462
30
0
41
1
10
22.337312156205
20
-6.26330725380524
30
0
41
1
10
22.3372975977975
20
-6.2633059110384
30
0
41
1
10
22.3372876391303
20
-6.26330499182743
30
0
41
1
10
22.3372776804975
20
-6.26330407224415
30
0
41
1
10
22.3372677218799
20
-6.26330315249601
30
0
41
1
10
22.3372577632623
20
-6.26330223274798
30
0
0
SPLINE
5
F8
100
AcDbEntity
8
1
62
256
6
ByLayer
370
13
48
1
60
0
100
AcDbSpline
70
4
71
5
72
12
73
6
40
0
40
0
40
0
40
0
40
0
40
0
40
1
40
1
40
1
40
1
40
1
40
1
41
1
10
18.1163088646492
20
-6.44254910512407
30
0
41
1
10
17.374357185376
20
-6.29450475664947
30
0
41
1
10
16.6116686872167
20
-6.14525891071722
30
0
41
1
10
15.8290344362362
20
-5.99497343706261
30
0
41
1
10
15.0273113533678
20
-5.84381700544302
30
0
41
1
10
14.2073804800389
20
-5.69195662481687
30
0
0
SPLINE
5
F9
100
AcDbEntity
8
1
62
256
6
ByLayer
370
13
48
1
60
0
100
AcDbSpline
70
4
71
3
72
12
73
8
40
0
40
0
40
0
40
0
40
0.260763522617879
40
0.260763522617879
40
0.521414228342392
40
0.521414228342392
40
1
40
1
40
1
40
1
41
1
10
29.8319713535811
20
-7.95182911981914
30
0
41
1
10
29.9573211800056
20
-7.95671125401
30
0
41
1
10
30.1035699022564
20
-7.96376322399345
30
0
41
1
10
30.4132889314984
20
-7.98100471094222
30
0
41
1
10
30.5809896663589
20
-7.99142821592861
30
0
41
1
10
31.0541558827745
20
-8.0236595043784
30
0
41
1
10
31.3584864706
20
-8.04756347951215
30
0
41
1
10
31.6619960767606
20
-8.07031567505098
30
0
0
SPLINE
5
FA
100
AcDbEntity
8
1
62
256
6
ByLayer
370
13
48
1
60
0
100
AcDbSpline
70
4
71
5
72
12
73
6
40
0
40
0
40
0
40
0
40
0
40
0
40
1
40
1
40
1
40
1
40
1
40
1
41
1
10
18.0054694328532
20
-6.47847827068179
30
0
41
1
10
18.5383041426961
20
-6.52851625107542
30
0
41
1
10
19.0643402976909
20
-6.57842696675928
30
0
41
1
10
19.5833262787665
20
-6.62818715834095
30
0
41
1
10
20.0950154897407
20
-6.67777355673755
30
0
41
1
10
20.5991696618113
20
-6.72716318219517
30
0
0
SPLINE
5
FB
100
AcDbEntity
8
1
62
256
6
ByLayer
370
13
48
1
60
0
100
AcDbSpline
70
4
71
5
72
12
73
6
40
0
40
0
40
0
40
0
40
0
40
0
40
1
40
1
40
1
40
1
40
1
40
1
41
1
10
13.3006464427065
20
-5.48682607381457
30
0
41
1
10
13.4816861109987
20
-5.50548705129575
30
0
41
1
10
13.6626361968776
20
-5.5240339574953
30
0
41
1
10
13.8434969395914
20
-5.54243648291597
30
0
41
1
10
14.0242679939613
20
-5.56066956179865
30
0
41
1
10
14.2049485071616
20
-5.57871327367047
30
0
0
SPLINE
5
FC
100
AcDbEntity
8
1
62
256
6
ByLayer
370
13
48
1
60
0
100
AcDbSpline
70
4
71
5
72
12
73
6
40
0
40
0
40
0
40
0
40
0
40
0
40
1
40
1
40
1
40
1
40
1
40
1
41
1
10
25.5695400442595
20
-6.06844626722369
30
0
41
1
10
25.5092389468145
20
-6.07463828344987
30
0
41
1
10
25.4514328045325
20
-6.08102232827366
30
0
41
1
10
25.39612660841
20
-6.08759777862434
30
0
41
1
10
25.3433248571882
20
-6.09436397042728
30
0
41
1
10
25.2930315585786
20
-6.10132020046132
30
0
0
SPLINE
5
FD
100
AcDbEntity
8
1
62
256
6
ByLayer
370
13
48
1
60
0
100
AcDbSpline
70
4
71
3
72
8
73
4
40
0
40
0
40
0
40
0
40
1
40
1
40
1
40
1
41
1
10
12.4396225813131
20
-5.39532990107978
30
0
41
1
10
12.4945171672168
20
-5.37777679075433
30
0
41
1
10
12.5497207333654
20
-5.36885376131366
30
0
41
1
10
12.604157908017
20
-5.36873312156857
30
0
0
SPLINE
5
FE
100
AcDbEntity
8
1
62
256
6
ByLayer
370
13
48
1
60
0
100
AcDbSpline
70
4
71
5
72
12
73
6
40
0
40
0
40
0
40
0
40
0
40
0
40
1
40
1
40
1
40
1
40
1
40
1
41
1
10
23.4877015723324
20
-6.37814182487617
30
0
41
1
10
23.2609451477629
20
-6.35527168635039
30
0
41
1
10
23.0325022347044
20
-6.33235064788931
30
0
41
1
10
22.8023943317671
20
-6.30938084839011
30
0
41
1
10
22.5706433472681
20
-6.286364443726
30
0
41
1
10
22.3372715548653
20
-6.26330360279894
30
0
0
SPLINE
5
FF
100
AcDbEntity
8
1
62
256
6
ByLayer
370
13
48
1
60
0
100
AcDbSpline
70
4
71
2
72
9
73
6
40
0
40
0
40
0
40
0.25
40
0.5
40
0.75
40
1
40
1
40
1
41
1
10
12.7653473480528
20
-5.37996888035744
30
0
41
1
10
12.7657657983855
20
-5.37537725980579
30
0
41
1
10
12.83466248137
20
-5.37129151489293
30
0
41
1
10
12.9666674537002
20
-5.37256540923809
30
0
41
1
10
13.1526482885251
20
-5.3790848514534
30
0
41
1
10
13.2665216095972
20
-5.38473659786618
30
0
0
SPLINE
5
100
100
AcDbEntity
8
1
62
256
6
ByLayer
370
13
48
1
60
0
100
AcDbSpline
70
4
71
5
72
12
73
6
40
0
40
0
40
0
40
0
40
0
40
0
40
1
40
1
40
1
40
1
40
1
40
1
41
1
10
24.8078224802536
20
-6.00483181833872
30
0
41
1
10
24.8075730224906
20
-6.01084430439957
30
0
41
1
10
24.7860996489082
20
-6.00599586058902
30
0
41
1
10
24.7443285074099
20
-5.98990759823718
30
0
41
1
10
24.6766810947219
20
-5.97204410741509
30
0
41
1
10
24.5856742402122
20
-5.96824597848209
30
0
0
SPLINE
5
101
100
AcDbEntity
8
1
62
256
6
ByLayer
370
13
48
1
60
0
100
AcDbSpline
70
4
71
5
72
12
73
6
40
0
40
0
40
0
40
0
40
0
40
0
40
1
40
1
40
1
40
1
40
1
40
1
41
1
10
13.5388811742556
20
-5.01865985506331
30
0
41
1
10
13.458938578707
20
-5.01425904116985
30
0
41
1
10
13.3904740141669
20
-5.00060992393355
30
0
41
1
10
13.3369092723146
20
-4.97776958982394
30
0
41
1
10
13.3029232968167
20
-4.95594868873002
30
0
41
1
10
13.2962538881392
20
-4.95211142877571
30
0
0
LINE
5
70
100
AcDbEntity
8
80
62
256
6
ByLayer
370
18
48
1
60
0
100
AcDbLine
10
0
20
0
30
0
11
-5
21
0
31
0
39
0
210
0
220
0
230
1
0
LINE
5
71
100
AcDbEntity
8
81
62
256
6
ByLayer
370
18
48
1
60
0
100
AcDbLine
10
26.651424
20
-8
30
0
11
36.651424
21
-8
31
0
39
0
210
0
220
0
230
1
0
LINE
5
72
100
AcDbEntity
8
1
62
256
6
ByLayer
370
13
48
1
60
0
100
AcDbLine
10
13.311415
20
-4.836501
30
0
11
13.295332
21
-4.950977
31
0
39
0
210
0
220
0
230
1
0
LINE
5
74
100
AcDbEntity
8
1
62
256
6
ByLayer
370
18
48
1
60
0
100
AcDbLine
10
18.309466
20
-7.147298
30
0
11
18.854247
21
-7.730739
31
0
39
0
210
0
220
0
230
1
0
LINE
5
75
100
AcDbEntity
8
1
62
256
6
ByLayer
370
18
48
1
60
0
100
AcDbLine
10
22.442959
20
-7.981686
30
0
11
23.063638
21
-7.479742
31
0
39
0
210
0
220
0
230
1
0
LINE
5
76
100
AcDbEntity
8
1
62
256
6
ByLayer
370
18
48
1
60
0
100
AcDbLine
10
24.951424
20
-3.69878
30
0
11
14.726424
21
6.53875
31
0
39
0
210
0
220
0
230
1
0
LINE
5
77
100
AcDbEntity
8
1
62
256
6
ByLayer
370
18
48
1
60
0
100
AcDbLine
10
0
20
-8.125
30
0
11
0
21
7.8
31
0
39
0
210
0
220
0
230
1
0
LINE
5
78
100
AcDbEntity
8
1
62
256
6
ByLayer
370
18
48
1
60
0
100
AcDbLine
10
0
20
7.8
30
0
11
11.651424
21
7.8
31
0
39
0
210
0
220
0
230
1
0
LINE
5
79
100
AcDbEntity
8
1
62
256
6
ByLayer
370
18
48
1
60
0
100
AcDbLine
10
13.128783
20
-5.325299
30
0
11
13.064013
21
-5.373087
31
0
39
0
210
0
220
0
230
1
0
LINE
5
7A
100
AcDbEntity
8
1
62
256
6
ByLayer
370
18
48
1
60
0
100
AcDbLine
10
11.32685
20
-6.654791
30
0
11
9.334198
21
-8.125
31
0
39
0
210
0
220
0
230
1
0
LINE
5
7B
100
AcDbEntity
8
1
62
256
6
ByLayer
370
18
48
1
60
0
100
AcDbLine
10
24.951424
20
3.274517
30
0
11
20.434008
21
7.791932
31
0
39
0
210
0
220
0
230
1
0
LINE
5
7C
100
AcDbEntity
8
1
62
256
6
ByLayer
370
18
48
1
60
0
100
AcDbLine
10
14.726424
20
6.53875
30
0
11
14.199848
21
7.81112
31
0
39
0
210
0
220
0
230
1
0
LINE
5
7D
100
AcDbEntity
8
1
62
256
6
ByLayer
370
18
48
1
60
0
100
AcDbLine
10
4.713576
20
-4.647254
30
0
11
12.179202
21
-4.717723
31
0
39
0
210
0
220
0
230
1
0
LINE
5
7E
100
AcDbEntity
8
1
62
256
6
ByLayer
370
18
48
1
60
0
100
AcDbLine
10
14.726424
20
-4.985004
30
0
11
11.651424
21
-4.662336
31
0
39
0
210
0
220
0
230
1
0
LINE
5
7F
100
AcDbEntity
8
1
62
256
6
ByLayer
370
18
48
1
60
0
100
AcDbLine
10
4.713576
20
-4.647254
30
0
11
0
21
-8.125
31
0
39
0
210
0
220
0
230
1
0
LINE
5
80
100
AcDbEntity
8
1
62
256
6
ByLayer
370
18
48
1
60
0
100
AcDbLine
10
11.651424
20
-4.662336
30
0
11
11.651424
21
7.8
31
0
39
0
210
0
220
0
230
1
0
LINE
5
81
100
AcDbEntity
8
1
62
256
6
ByLayer
370
18
48
1
60
0
100
AcDbLine
10
9.334198
20
-8.125
30
0
11
0
21
-8.125
31
0
39
0
210
0
220
0
230
1
0
LINE
5
82
100
AcDbEntity
8
1
62
256
6
ByLayer
370
18
48
1
60
0
100
AcDbLine
10
14.199848
20
7.81112
30
0
11
20.434008
21
7.791932
31
0
39
0
210
0
220
0
230
1
0
LINE
5
83
100
AcDbEntity
8
1
62
256
6
ByLayer
370
18
48
1
60
0
100
AcDbLine
10
14.726424
20
-4.985004
30
0
11
14.726424
21
6.53875
31
0
39
0
210
0
220
0
230
1
0
LINE
5
84
100
AcDbEntity
8
1
62
256
6
ByLayer
370
18
48
1
60
0
100
AcDbLine
10
24.951424
20
-5.700006
30
0
11
24.951424
21
-3.69878
31
0
39
0
210
0
220
0
230
1
0
LINE
5
85
100
AcDbEntity
8
1
62
256
6
ByLayer
370
18
48
1
60
0
100
AcDbLine
10
24.951424
20
-5.700006
30
0
11
14.726424
21
-4.985004
31
0
39
0
210
0
220
0
230
1
0
LINE
5
86
100
AcDbEntity
8
1
62
256
6
ByLayer
370
18
48
1
60
0
100
AcDbLine
10
24.951424
20
-3.69878
30
0
11
24.951424
21
3.274517
31
0
39
0
210
0
220
0
230
1
0
LINE
5
87
100
AcDbEntity
8
1
62
256
6
ByLayer
370
18
48
1
60
0
100
AcDbLine
10
11.651424
20
-4.662336
30
0
11
6.058923
21
-4.27127
31
0
39
0
210
0
220
0
230
1
0
LINE
5
88
100
AcDbEntity
8
1
62
256
6
ByLayer
370
18
48
1
60
0
100
AcDbLine
10
11.651424
20
7.8
30
0
11
14.199848
21
7.81112
31
0
39
0
210
0
220
0
230
1
0
LINE
5
89
100
AcDbEntity
8
SK1
62
256
6
ByLayer
370
18
48
1
60
0
100
AcDbLine
10
-38.348576
20
7.8
30
0
11
0
21
7.8
31
0
39
0
210
0
220
0
230
1
0
LINE
5
8B
100
AcDbEntity
8
SK1
62
256
6
ByLayer
370
18
48
1
60
0
100
AcDbLine
10
-38.348576
20
-5.125
30
0
11
-38.348576
21
7.8
31
0
39
0
210
0
220
0
230
1
0
LINE
5
8C
100
AcDbEntity
8
SK1
62
256
6
ByLayer
370
18
48
1
60
0
100
AcDbLine
10
0
20
-8.125
30
0
11
0
21
7.8
31
0
39
0
210
0
220
0
230
1
0
LINE
5
8D
100
AcDbEntity
8
SK1
62
256
6
ByLayer
370
18
48
1
60
0
100
AcDbLine
10
-35.374642
20
-8.125
30
0
11
-38.348576
21
-5.125
31
0
39
0
210
0
220
0
230
1
0
LINE
5
8E
100
AcDbEntity
8
1
62
256
6
ByLayer
370
13
48
1
60
0
100
AcDbLine
10
24.775754
20
-7.599464
30
0
11
11.608671
21
-6.678732
31
0
39
0
210
0
220
0
230
1
0
LINE
5
8F
100
AcDbEntity
8
1
62
256
6
ByLayer
370
13
48
1
60
0
100
AcDbLine
10
25.232091
20
-6.024265
30
0
11
25.56954
21
-6.068446
31
0
39
0
210
0
220
0
230
1
0
LINE
5
90
100
AcDbEntity
8
1
62
256
6
ByLayer
370
13
48
1
60
0
100
AcDbLine
10
18.018407
20
-6.542741
30
0
11
11.900183
21
-5.412298
31
0
39
0
210
0
220
0
230
1
0
LINE
5
91
100
AcDbEntity
8
1
62
256
6
ByLayer
370
13
48
1
60
0
100
AcDbLine
10
12.392891
20
-5.402565
30
0
11
11.814836
21
-5.397313
31
0
39
0
210
0
220
0
230
1
0
LINE
5
92
100
AcDbEntity
8
1
62
256
6
ByLayer
370
13
48
1
60
0
100
AcDbLine
10
24.775754
20
-7.599464
30
0
11
28.288148
21
-7.845075
31
0
39
0
210
0
220
0
230
1
0
LINE
5
93
100
AcDbEntity
8
1
62
256
6
ByLayer
370
13
48
1
60
0
100
AcDbLine
10
11.608681
20
-6.678603
30
0
11
11.90018
21
-5.412297
31
0
39
0
210
0
220
0
230
1
0
LINE
5
94
100
AcDbEntity
8
1
62
256
6
ByLayer
370
13
48
1
60
0
100
AcDbLine
10
24.060901
20
-5.914737
30
0
11
23.171159
21
-5.834479
31
0
39
0
210
0
220
0
230
1
0
LINE
5
95
100
AcDbEntity
8
1
62
256
6
ByLayer
370
13
48
1
60
0
100
AcDbLine
10
18.067359
20
-6.548653
30
0
11
18.087883
21
-6.551557
31
0
39
0
210
0
220
0
230
1
0
LINE
5
96
100
AcDbEntity
8
1
62
256
6
ByLayer
370
13
48
1
60
0
100
AcDbLine
10
24.060901
20
-5.914737
30
0
11
24.070565
21
-5.638395
31
0
39
0
210
0
220
0
230
1
0
LINE
5
97
100
AcDbEntity
8
1
62
256
6
ByLayer
370
13
48
1
60
0
100
AcDbLine
10
11.608669
20
-6.678732
30
0
11
9.332027
21
-6.485614
31
0
39
0
210
0
220
0
230
1
0
LINE
5
98
100
AcDbEntity
8
1
62
256
6
ByLayer
370
13
48
1
60
0
100
AcDbLine
10
9.572367
20
-5.003594
30
0
11
11.900183
21
-5.412298
31
0
39
0
210
0
220
0
230
1
0
LINE
5
99
100
AcDbEntity
8
1
62
256
6
ByLayer
370
13
48
1
60
0
100
AcDbLine
10
27.228634
20
-6.67484
30
0
11
28.229975
21
-6.674614
31
0
39
0
210
0
220
0
230
1
0
LINE
5
9A
100
AcDbEntity
8
1
62
256
6
ByLayer
370
13
48
1
60
0
100
AcDbLine
10
24.854462
20
-6.473715
30
0
11
23.487703
21
-6.378142
31
0
39
0
210
0
220
0
230
1
0
LINE
5
9B
100
AcDbEntity
8
1
62
256
6
ByLayer
370
13
48
1
60
0
100
AcDbLine
10
20.599169
20
-6.727163
30
0
11
18.087882
21
-6.551557
31
0
39
0
210
0
220
0
230
1
0
LINE
5
9C
100
AcDbEntity
8
1
62
256
6
ByLayer
370
13
48
1
60
0
100
AcDbLine
10
28.247193
20
-6.674395
30
0
11
29.452657
21
-6.632375
31
0
39
0
210
0
220
0
230
1
0
LINE
5
9D
100
AcDbEntity
8
1
62
256
6
ByLayer
370
13
48
1
60
0
100
AcDbLine
10
24.807822
20
-6.004852
30
0
11
24.818808
21
-5.690713
31
0
39
0
210
0
220
0
230
1
0
LINE
5
9E
100
AcDbEntity
8
1
62
256
6
ByLayer
370
13
48
1
60
0
100
AcDbLine
10
23.776968
20
-6.393456
30
0
11
22.887226
21
-6.313198
31
0
39
0
210
0
220
0
230
1
0
LINE
5
9F
100
AcDbEntity
8
1
62
256
6
ByLayer
370
13
48
1
60
0
100
AcDbLine
10
13.538878
20
-5.01868
30
0
11
13.560798
21
-4.862666
31
0
39
0
210
0
220
0
230
1
0
LINE
5
A0
100
AcDbEntity
8
1
62
256
6
ByLayer
370
13
48
1
60
0
100
AcDbLine
10
25.267725
20
-6.538625
30
0
11
27.193666
21
-6.673643
31
0
39
0
210
0
220
0
230
1
0
LINE
5
A1
100
AcDbEntity
8
1
62
256
6
ByLayer
370
13
48
1
60
0
100
AcDbLine
10
29.788577
20
-7.949995
30
0
11
28.288148
21
-7.845074
31
0
39
0
210
0
220
0
230
1
0
LINE
5
A2
100
AcDbEntity
8
1
62
256
6
ByLayer
370
13
48
1
60
0
100
AcDbLine
10
25.304181
20
-6.043572
30
0
11
25.30167
21
-6.079478
31
0
39
0
210
0
220
0
230
1
0
LINE
5
A3
100
AcDbEntity
8
1
62
256
6
ByLayer
370
13
48
1
60
0
100
AcDbLine
10
17.706033
20
-6.475652
30
0
11
18.067359
21
-6.548653
31
0
39
0
210
0
220
0
230
1
0
LINE
5
A4
100
AcDbEntity
8
1
62
256
6
ByLayer
370
13
48
1
60
0
100
AcDbLine
10
17.706033
20
-6.475652
30
0
11
18.005468
21
-6.478478
31
0
39
0
210
0
220
0
230
1
0
LINE
5
A5
100
AcDbEntity
8
1
62
256
6
ByLayer
370
13
48
1
60
0
100
AcDbLine
10
12.60416
20
-5.368699
30
0
11
12.841758
21
-5.370941
31
0
39
0
210
0
220
0
230
1
0
LINE
5
A6
100
AcDbEntity
8
SK1
62
256
6
ByLayer
370
18
48
1
60
0
100
AcDbLine
10
-35.374642
20
-8.125
30
0
11
0
21
-8.125
31
0
39
0
210
0
220
0
230
1
0
MTEXT
5
102
100
AcDbEntity
8
SK6
62
256
6
ByLayer
370
18
48
1
60
0
100
AcDbMText
10
-34.973576
20
16.920431
30
0
210
0
220
0
230
1
1
\W0.7324;QS-LF123U06-1616B
40
3.5
41
0
44
1.084337
50
0
71
7
72
5
7
iso_b_vert
0
DIMENSION
5
114
100
AcDbEntity
8
SK2
62
256
6
ByLayer
370
13
48
1
60
0
100
AcDbDimension
2
DimnDraft3D1
10
-48.098576
20
-8
30
0
11
-48.098576
21
-4.719079
31
0
70
32
71
5
72
1
41
1
210
0
220
0
230
1
3
Standard
100
AcDbAlignedDimension
13
-39.848576
23
8
33
0
14
-39.848576
24
-8
34
0
50
90
100
AcDbRotatedDimension
1001
ACAD
1000
DSTYLE
1002
{
1070
    74
1070
     0
1070
   279
1070
     0
1070
   172
1070
     1
1070
   173
1070
     1
1070
   340
1005
103
1070
   271
1070
     3
1070
   272
1070
     3
1070
    77
1070
     1
1070
    73
1070
     0
1070
   171
1070
     4
1070
   274
1070
     4
1070
   177
1070
     2
1070
   176
1070
     2
1070
   178
1070
     7
1070
    78
1070
     8
1070
    41
1041
3.0
1070
   147
1041
2.25
1070
    42
1041
1.5
1070
    44
1041
3.0
1070
   140
1041
4.5
1070
   343
1005
115
1070
   344
1005
115
1002
}
0
DIMENSION
5
12A
100
AcDbEntity
8
2
62
256
6
ByLayer
370
13
48
1
60
0
100
AcDbDimension
2
DimnDraft3D2
10
45.901424
20
-6.5
30
0
11
45.901424
21
-24.575
31
0
70
32
71
5
72
1
41
1
210
0
220
0
230
1
3
Standard
100
AcDbAlignedDimension
13
33.151424
23
-8
33
0
14
33.151424
24
-6.5
34
0
50
90
100
AcDbRotatedDimension
1001
ACAD
1000
DSTYLE
1002
{
1070
    74
1070
     0
1070
   279
1070
     0
1070
   172
1070
     1
1070
   173
1070
     1
1070
   340
1005
103
1070
   271
1070
     3
1070
   272
1070
     3
1070
    77
1070
     1
1070
    73
1070
     0
1070
   171
1070
     4
1070
   274
1070
     4
1070
   177
1070
     2
1070
   176
1070
     2
1070
   178
1070
     7
1070
    78
1070
     8
1070
    41
1041
3.0
1070
   147
1041
2.25
1070
    42
1041
1.5
1070
    44
1041
3.0
1070
   140
1041
4.5
1070
   343
1005
115
1070
   344
1005
115
1002
}
0
DIMENSION
5
138
100
AcDbEntity
8
2
62
256
6
ByLayer
370
13
48
1
60
0
100
AcDbDimension
2
DimnDraft3D3
10
55.901424
20
8
30
0
11
55.901424
21
-4.719079
31
0
70
32
71
5
72
1
41
1
210
0
220
0
230
1
3
Standard
100
AcDbAlignedDimension
13
33.151424
23
-8
33
0
14
1.5
24
8
34
0
50
90
100
AcDbRotatedDimension
1001
ACAD
1000
DSTYLE
1002
{
1070
    74
1070
     0
1070
   279
1070
     0
1070
   172
1070
     1
1070
   173
1070
     1
1070
   340
1005
103
1070
   271
1070
     3
1070
   272
1070
     3
1070
    77
1070
     1
1070
    73
1070
     0
1070
   171
1070
     4
1070
   274
1070
     4
1070
   177
1070
     2
1070
   176
1070
     2
1070
   178
1070
     7
1070
    78
1070
     8
1070
    41
1041
3.0
1070
   147
1041
2.25
1070
    42
1041
1.5
1070
    44
1041
3.0
1070
   140
1041
4.5
1070
   343
1005
115
1070
   344
1005
115
1002
}
0
DIMENSION
5
146
100
AcDbEntity
8
SK2
62
256
6
ByLayer
370
13
48
1
60
0
100
AcDbDimension
2
DimnDraft3D4
10
31.651424
20
-32.25
30
0
11
-8.630155
21
-32.25
31
0
70
32
71
5
72
1
41
1
210
0
220
0
230
1
3
Standard
100
AcDbAlignedDimension
13
-38.348576
23
-9.5
33
0
14
31.651424
24
-9.5
34
0
50
0
100
AcDbRotatedDimension
1001
ACAD
1000
DSTYLE
1002
{
1070
   279
1070
     0
1070
   172
1070
     1
1070
   173
1070
     1
1070
   340
1005
103
1070
   271
1070
     3
1070
   272
1070
     3
1070
    77
1070
     1
1070
    73
1070
     0
1070
   171
1070
     4
1070
   274
1070
     4
1070
   177
1070
     2
1070
   176
1070
     2
1070
   178
1070
     7
1070
    78
1070
     8
1070
    41
1041
3.0
1070
   147
1041
2.25
1070
    42
1041
1.5
1070
    44
1041
3.0
1070
   140
1041
4.5
1070
   343
1005
115
1070
   344
1005
115
1002
}
0
DIMENSION
5
154
100
AcDbEntity
8
2
62
256
6
ByLayer
370
13
48
1
60
0
100
AcDbDimension
2
DimnDraft3D5
10
0
20
-22.25
30
0
11
11.106633
21
-22.25
31
0
70
32
71
5
72
1
41
1
210
0
220
0
230
1
3
Standard
100
AcDbAlignedDimension
13
31.651424
23
-9.5
33
0
14
0
24
-9.5
34
0
50
0
100
AcDbRotatedDimension
1001
ACAD
1000
DSTYLE
1002
{
1070
   279
1070
     0
1070
   172
1070
     1
1070
   173
1070
     1
1070
   340
1005
103
1070
   271
1070
     3
1070
   272
1070
     3
1070
    77
1070
     1
1070
    73
1070
     0
1070
   171
1070
     4
1070
   274
1070
     4
1070
   177
1070
     2
1070
   176
1070
     2
1070
   178
1070
     7
1070
    78
1070
     8
1070
    41
1041
3.0
1070
   147
1041
2.25
1070
    42
1041
1.5
1070
    44
1041
3.0
1070
   140
1041
4.5
1070
   343
1005
115
1070
   344
1005
115
1002
}
0
DIMENSION
5
162
100
AcDbEntity
8
2
62
256
6
ByLayer
370
13
48
1
60
0
100
AcDbDimension
2
DimnDraft3D6
10
25.651424
20
17.75
30
0
11
42.151424
21
17.75
31
0
70
32
71
5
72
1
41
1
210
0
220
0
230
1
3
Standard
100
AcDbAlignedDimension
13
31.651424
23
-5
33
0
14
25.651424
24
-5
34
0
50
0
100
AcDbRotatedDimension
1001
ACAD
1000
DSTYLE
1002
{
1070
   279
1070
     0
1070
   172
1070
     1
1070
   173
1070
     1
1070
   340
1005
103
1070
   271
1070
     3
1070
   272
1070
     3
1070
    77
1070
     1
1070
    73
1070
     0
1070
   171
1070
     4
1070
   274
1070
     4
1070
   177
1070
     2
1070
   176
1070
     2
1070
   178
1070
     7
1070
    78
1070
     8
1070
    41
1041
3.0
1070
   147
1041
2.25
1070
    42
1041
1.5
1070
    44
1041
3.0
1070
   140
1041
4.5
1070
   343
1005
115
1070
   344
1005
115
1002
}
0
ENDSEC
0
SECTION
2
OBJECTS
0
DICTIONARY
5
1cc
330
0
100
AcDbDictionary
280
0
281
1
3
ACAD_GROUP
350
1cd
3
ACAD_MLINESTYLE
350
1ce
0
DICTIONARY
5
1cd
330
0
100
AcDbDictionary
280
0
281
1
0
DICTIONARY
5
1ce
330
0
100
AcDbDictionary
280
0
281
1
3
Standard
350
18
0
MLINESTYLE
5
18
330
1ce
100
AcDbMlineStyle
2
Standard
70
0
3

62
256
51
90
52
90
71
2
49
-0.5
62
256
6
ByLayer
49
0.5
62
256
6
ByLayer
0
RASTERVARIABLES
5
1bb
330

100
AcDbRasterVariables
90
0
70
1
71
1
72
1
0
ENDSEC
0
EOF
