0
SECTION
2
HEADER
9
$ACADVER
1
AC1015
9
$DWGCODEPAGE
3
ANSI_1252
9
$HANDSEED
5
1e0
9
$ANGBASE
50
0
9
$ANGDIR
70
0
9
$ATTMODE
70
1
9
$AUNITS
70
0
9
$AUPREC
70
0
9
$CECOLOR
62
256
9
$CELTSCALE
40
1
9
$CELTYPE
6
ByLayer
9
$CELWEIGHT
370
18
9
$CLAYER
8
0
9
$CMLJUST
70
0
9
$CMLSCALE
40
1
9
$CMLSTYLE
2
Standard
9
$DIMSTYLE
2
Standard
9
$TEXTSIZE
40
0.2
9
$TEXTSTYLE
7
Standard
9
$LUNITS
70
2
9
$LUPREC
70
4
9
$EXTNAMES
290
1
9
$INSUNITS
70
4
9
$LTSCALE
40
1
9
$LWDISPLAY
290
1
9
$PDMODE
70
0
9
$PDSIZE
40
0
9
$PLINEGEN
70
0
0
ENDSEC
0
SECTION
2
CLASSES
0
CLASS
1
RASTERVARIABLES
2
AcDbRasterVariables
3
ISM
90
0
280
0
281
0
0
ENDSEC
0
SECTION
2
TABLES
0
TABLE
2
VPORT
5
1d6
100
AcDbSymbolTable
0
VPORT
5
1
100
AcDbSymbolTableRecord
100
AcDbViewportTableRecord
2
*Active
70
0
10
0
20
0
11
1
21
1
12
-1
22
1
13
0
23
0
14
0.5
24
0.5
15
10
25
10
16
0
26
0
36
1
17
0
27
0
37
0
0
ENDTAB
0
TABLE
2
LTYPE
5
1d7
100
AcDbSymbolTable
0
LTYPE
5
14
100
AcDbSymbolTableRecord
100
AcDbLinetypeTableRecord
70
0
2
ByBlock
3

72
65
73
0
40
0
0
LTYPE
5
15
100
AcDbSymbolTableRecord
100
AcDbLinetypeTableRecord
70
0
2
ByLayer
3

72
65
73
0
40
0
0
LTYPE
5
16
100
AcDbSymbolTableRecord
100
AcDbLinetypeTableRecord
70
0
2
CONTINUOUS
3
Solid line
72
65
73
0
40
0
0
LTYPE
5
6A
100
AcDbSymbolTableRecord
100
AcDbLinetypeTableRecord
70
0
2
CENTER
3
____ _ ____ _ ____ _ ____
72
65
73
4
40
47.5
49
22
74
0
49
-8.5
74
0
49
8.5
74
0
49
-8.5
74
0
0
LTYPE
5
6B
100
AcDbSymbolTableRecord
100
AcDbLinetypeTableRecord
70
0
2
DASHED
3
__ __ __ __ __ __ __ __ __
72
65
73
2
40
25.72
49
12.86
74
0
49
-12.86
74
0
0
ENDTAB
0
TABLE
2
LAYER
5
1d8
100
AcDbSymbolTable
0
LAYER
5
10
100
AcDbSymbolTableRecord
100
AcDbLayerTableRecord
2
0
70
0
62
7
6
CONTINUOUS
290
1
370
-3
390
0
0
LAYER
5
6D
100
AcDbSymbolTableRecord
100
AcDbLayerTableRecord
2
80
70
0
62
-6
6
CONTINUOUS
290
1
370
-3
390
0
0
LAYER
5
6F
100
AcDbSymbolTableRecord
100
AcDbLayerTableRecord
2
81
70
0
62
-3
6
CONTINUOUS
290
1
370
-3
390
0
0
LAYER
5
73
100
AcDbSymbolTableRecord
100
AcDbLayerTableRecord
2
1
70
0
62
4
6
CONTINUOUS
290
1
370
-3
390
0
0
LAYER
5
125
100
AcDbSymbolTableRecord
100
AcDbLayerTableRecord
2
2
70
0
62
7
6
CONTINUOUS
290
1
370
-3
390
0
0
LAYER
5
1c3
100
AcDbSymbolTableRecord
100
AcDbLayerTableRecord
2
SK1
70
0
62
4
6
CONTINUOUS
290
1
370
-3
390
0
0
LAYER
5
1c4
100
AcDbSymbolTableRecord
100
AcDbLayerTableRecord
2
SK6
70
0
62
5
6
CONTINUOUS
290
1
370
-3
390
0
0
LAYER
5
1c5
100
AcDbSymbolTableRecord
100
AcDbLayerTableRecord
2
SK2
70
0
62
7
6
CONTINUOUS
290
1
370
-3
390
0
0
ENDTAB
0
TABLE
2
STYLE
5
1d9
100
AcDbSymbolTable
0
STYLE
5
11
100
AcDbSymbolTableRecord
100
AcDbTextStyleTableRecord
2
Standard
3
txt
70
0
71
0
40
0
41
1
42
0
50
0
0
STYLE
5
10A
100
AcDbSymbolTableRecord
100
AcDbTextStyleTableRecord
2
iso_b_vert
3
simplex.shx
70
0
71
0
40
0
41
1
42
0
50
0
0
STYLE
5
10B
100
AcDbSymbolTableRecord
100
AcDbTextStyleTableRecord
2
DWGDirectTextStyle
3
simplex
70
0
71
0
40
0
41
1
42
0
50
0
0
ENDTAB
0
TABLE
2
DIMSTYLE
5
1da
100
AcDbSymbolTable
100
AcDbDimStyleTable
0
DIMSTYLE
105
27
100
AcDbSymbolTableRecord
100
AcDbDimStyleTableRecord
2
Standard
70
0
3
<>
41
0.18
42
0.0625
44
0.18
140
0.18
147
0.09
73
0
74
0
77
1
271
2
275
0
278
52
280
0
340
11
0
ENDTAB
0
TABLE
2
VIEW
5
1db
100
AcDbSymbolTable
0
ENDTAB
0
TABLE
2
UCS
5
1dc
100
AcDbSymbolTable
0
ENDTAB
0
TABLE
2
APPID
5
1dd
100
AcDbSymbolTable
0
APPID
5
12
100
AcDbSymbolTableRecord
100
AcDbRegAppTableRecord
2
ACAD
70
0
0
ENDTAB
0
TABLE
2
BLOCK_RECORD
5
1de
100
AcDbSymbolTable
0
BLOCK_RECORD
5
1F
100
AcDbSymbolTableRecord
100
AcDbBlockTableRecord
2
*Model_Space
340
0
70
0
0
BLOCK_RECORD
5
1B
100
AcDbSymbolTableRecord
100
AcDbBlockTableRecord
2
*Paper_Space
340
0
70
0
0
BLOCK_RECORD
5
23
100
AcDbSymbolTableRecord
100
AcDbBlockTableRecord
2
*Paper_Space0
340
0
70
0
0
BLOCK_RECORD
5
10D
100
AcDbSymbolTableRecord
100
AcDbBlockTableRecord
2
DimnDraft3D1
340
0
70
0
0
BLOCK_RECORD
5
11C
100
AcDbSymbolTableRecord
100
AcDbBlockTableRecord
2
_CLOSED
340
0
70
0
0
BLOCK_RECORD
5
123
100
AcDbSymbolTableRecord
100
AcDbBlockTableRecord
2
DimnDraft3D2
340
0
70
0
0
BLOCK_RECORD
5
132
100
AcDbSymbolTableRecord
100
AcDbBlockTableRecord
2
DimnDraft3D3
340
0
70
0
0
BLOCK_RECORD
5
140
100
AcDbSymbolTableRecord
100
AcDbBlockTableRecord
2
DimnDraft3D4
340
0
70
0
0
BLOCK_RECORD
5
14E
100
AcDbSymbolTableRecord
100
AcDbBlockTableRecord
2
DimnDraft3D5
340
0
70
0
0
BLOCK_RECORD
5
15C
100
AcDbSymbolTableRecord
100
AcDbBlockTableRecord
2
DimnDraft3D6
340
0
70
0
0
ENDTAB
0
ENDSEC
0
SECTION
2
BLOCKS
0
BLOCK
5
20
100
AcDbEntity
8
0
100
AcDbBlockBegin
2
*Model_Space
70
0
10
0
20
0
30
0
3
*Model_Space
0
ENDBLK
5
21
100
AcDbEntity
8
0
100
AcDbBlockEnd
0
BLOCK
5
1C
100
AcDbEntity
8
0
100
AcDbBlockBegin
2
*Paper_Space
70
0
10
0
20
0
30
0
3
*Paper_Space
0
ENDBLK
5
1D
100
AcDbEntity
8
0
100
AcDbBlockEnd
0
BLOCK
5
24
100
AcDbEntity
8
0
100
AcDbBlockBegin
2
*Paper_Space0
70
0
10
0
20
0
30
0
3
*Paper_Space0
0
ENDBLK
5
25
100
AcDbEntity
8
0
100
AcDbBlockEnd
0
BLOCK
5
119
100
AcDbEntity
8
0
100
AcDbBlockBegin
2
DimnDraft3D1
70
0
10
0
20
0
30
0
3
DimnDraft3D1
0
MTEXT
5
10E
100
AcDbEntity
8
SK2
62
256
6
ByLayer
370
18
48
1
60
0
100
AcDbMText
10
-49.223576
20
16.625
30
0
210
0
220
0
230
1
1
\W0.6563;10.0
40
4.5
41
0
44
1.084337
50
90
71
7
72
5
7
iso_b_vert
0
LINE
5
110
100
AcDbEntity
8
SK2
62
256
6
ByLayer
370
13
48
1
60
0
100
AcDbLine
10
-39.848576
20
5
30
0
11
-51.098576
21
5
31
0
39
0
210
0
220
0
230
1
0
LINE
5
111
100
AcDbEntity
8
SK2
62
256
6
ByLayer
370
13
48
1
60
0
100
AcDbLine
10
-39.848576
20
-5
30
0
11
-51.098576
21
-5
31
0
39
0
210
0
220
0
230
1
0
LINE
5
112
100
AcDbEntity
8
SK2
62
256
6
ByLayer
370
13
48
1
60
0
100
AcDbLine
10
-48.098576
20
-5
30
0
11
-48.098576
21
24.938158
31
0
39
0
210
0
220
0
230
1
0
LINE
5
113
100
AcDbEntity
8
SK2
62
256
6
ByLayer
370
13
48
1
60
0
100
AcDbLine
10
-48.098576
20
5
30
0
11
-47.703618
21
2.000001
31
0
39
0
210
0
220
0
230
1
0
LINE
5
114
100
AcDbEntity
8
SK2
62
256
6
ByLayer
370
13
48
1
60
0
100
AcDbLine
10
-48.098576
20
5
30
0
11
-48.493533
21
1.999999
31
0
39
0
210
0
220
0
230
1
0
LINE
5
115
100
AcDbEntity
8
SK2
62
256
6
ByLayer
370
13
48
1
60
0
100
AcDbLine
10
-47.703618
20
2.000001
30
0
11
-48.493533
21
1.999999
31
0
39
0
210
0
220
0
230
1
0
LINE
5
116
100
AcDbEntity
8
SK2
62
256
6
ByLayer
370
13
48
1
60
0
100
AcDbLine
10
-48.098576
20
-5
30
0
11
-48.493533
21
-2.000001
31
0
39
0
210
0
220
0
230
1
0
LINE
5
117
100
AcDbEntity
8
SK2
62
256
6
ByLayer
370
13
48
1
60
0
100
AcDbLine
10
-48.098576
20
-5
30
0
11
-47.703618
21
-1.999999
31
0
39
0
210
0
220
0
230
1
0
LINE
5
118
100
AcDbEntity
8
SK2
62
256
6
ByLayer
370
13
48
1
60
0
100
AcDbLine
10
-48.493533
20
-2.000001
30
0
11
-47.703618
21
-1.999999
31
0
39
0
210
0
220
0
230
1
0
ENDBLK
5
11A
100
AcDbEntity
8
0
100
AcDbBlockEnd
0
BLOCK
5
11D
100
AcDbEntity
8
0
100
AcDbBlockBegin
2
_CLOSED
70
0
10
0
20
0
30
0
3
_CLOSED
0
LINE
5
11F
100
AcDbEntity
8
0
62
256
6
ByLayer
370
-2
48
1
60
0
100
AcDbLine
10
-1
20
0.166667
30
0
11
0
21
0
31
0
39
0
210
0
220
0
230
1
0
LINE
5
120
100
AcDbEntity
8
0
62
256
6
ByLayer
370
-2
48
1
60
0
100
AcDbLine
10
0
20
0
30
0
11
-1
21
-0.166667
31
0
39
0
210
0
220
0
230
1
0
LINE
5
121
100
AcDbEntity
8
0
62
256
6
ByLayer
370
-2
48
1
60
0
100
AcDbLine
10
-1
20
0.166667
30
0
11
-1
21
-0.166667
31
0
39
0
210
0
220
0
230
1
0
LINE
5
122
100
AcDbEntity
8
0
62
256
6
ByLayer
370
-2
48
1
60
0
100
AcDbLine
10
0
20
0
30
0
11
-1
21
0
31
0
39
0
210
0
220
0
230
1
0
ENDBLK
5
11E
100
AcDbEntity
8
0
100
AcDbBlockEnd
0
BLOCK
5
12F
100
AcDbEntity
8
0
100
AcDbBlockBegin
2
DimnDraft3D2
70
0
10
0
20
0
30
0
3
DimnDraft3D2
0
MTEXT
5
124
100
AcDbEntity
8
2
62
256
6
ByLayer
370
18
48
1
60
0
100
AcDbMText
10
44.776424
20
-20.45
30
0
210
0
220
0
230
1
1
\W0.6004;1.5
40
4.5
41
0
44
1.084337
50
90
71
7
72
5
7
iso_b_vert
0
LINE
5
126
100
AcDbEntity
8
2
62
256
6
ByLayer
370
13
48
1
60
0
100
AcDbLine
10
33.151424
20
-5
30
0
11
48.901424
21
-5
31
0
39
0
210
0
220
0
230
1
0
LINE
5
127
100
AcDbEntity
8
2
62
256
6
ByLayer
370
13
48
1
60
0
100
AcDbLine
10
33.151424
20
-3.5
30
0
11
48.901424
21
-3.5
31
0
39
0
210
0
220
0
230
1
0
LINE
5
128
100
AcDbEntity
8
2
62
256
6
ByLayer
370
13
48
1
60
0
100
AcDbLine
10
45.901424
20
7.75
30
0
11
45.901424
21
-21.575
31
0
39
0
210
0
220
0
230
1
0
LINE
5
129
100
AcDbEntity
8
2
62
256
6
ByLayer
370
13
48
1
60
0
100
AcDbLine
10
45.901424
20
-5
30
0
11
46.296382
21
-7.999999
31
0
39
0
210
0
220
0
230
1
0
LINE
5
12A
100
AcDbEntity
8
2
62
256
6
ByLayer
370
13
48
1
60
0
100
AcDbLine
10
45.901424
20
-5
30
0
11
45.506467
21
-8.000001
31
0
39
0
210
0
220
0
230
1
0
LINE
5
12B
100
AcDbEntity
8
2
62
256
6
ByLayer
370
13
48
1
60
0
100
AcDbLine
10
46.296382
20
-7.999999
30
0
11
45.506467
21
-8.000001
31
0
39
0
210
0
220
0
230
1
0
LINE
5
12C
100
AcDbEntity
8
2
62
256
6
ByLayer
370
13
48
1
60
0
100
AcDbLine
10
45.901424
20
-3.5
30
0
11
45.506467
21
-0.500001
31
0
39
0
210
0
220
0
230
1
0
LINE
5
12D
100
AcDbEntity
8
2
62
256
6
ByLayer
370
13
48
1
60
0
100
AcDbLine
10
45.901424
20
-3.5
30
0
11
46.296382
21
-0.499999
31
0
39
0
210
0
220
0
230
1
0
LINE
5
12E
100
AcDbEntity
8
2
62
256
6
ByLayer
370
13
48
1
60
0
100
AcDbLine
10
45.506467
20
-0.500001
30
0
11
46.296382
21
-0.499999
31
0
39
0
210
0
220
0
230
1
0
ENDBLK
5
130
100
AcDbEntity
8
0
100
AcDbBlockEnd
0
BLOCK
5
13D
100
AcDbEntity
8
0
100
AcDbBlockBegin
2
DimnDraft3D3
70
0
10
0
20
0
30
0
3
DimnDraft3D3
0
MTEXT
5
133
100
AcDbEntity
8
2
62
256
6
ByLayer
370
18
48
1
60
0
100
AcDbMText
10
54.776424
20
16.625
30
0
210
0
220
0
230
1
1
\W0.6563;10.0
40
4.5
41
0
44
1.084337
50
90
71
7
72
5
7
iso_b_vert
0
LINE
5
134
100
AcDbEntity
8
2
62
256
6
ByLayer
370
13
48
1
60
0
100
AcDbLine
10
33.151424
20
-5
30
0
11
58.901424
21
-5
31
0
39
0
210
0
220
0
230
1
0
LINE
5
135
100
AcDbEntity
8
2
62
256
6
ByLayer
370
13
48
1
60
0
100
AcDbLine
10
1.5
20
5
30
0
11
58.901424
21
5
31
0
39
0
210
0
220
0
230
1
0
LINE
5
136
100
AcDbEntity
8
2
62
256
6
ByLayer
370
13
48
1
60
0
100
AcDbLine
10
55.901424
20
-5
30
0
11
55.901424
21
24.938158
31
0
39
0
210
0
220
0
230
1
0
LINE
5
137
100
AcDbEntity
8
2
62
256
6
ByLayer
370
13
48
1
60
0
100
AcDbLine
10
55.901424
20
-5
30
0
11
55.506467
21
-2.000001
31
0
39
0
210
0
220
0
230
1
0
LINE
5
138
100
AcDbEntity
8
2
62
256
6
ByLayer
370
13
48
1
60
0
100
AcDbLine
10
55.901424
20
-5
30
0
11
56.296382
21
-1.999999
31
0
39
0
210
0
220
0
230
1
0
LINE
5
139
100
AcDbEntity
8
2
62
256
6
ByLayer
370
13
48
1
60
0
100
AcDbLine
10
55.506467
20
-2.000001
30
0
11
56.296382
21
-1.999999
31
0
39
0
210
0
220
0
230
1
0
LINE
5
13A
100
AcDbEntity
8
2
62
256
6
ByLayer
370
13
48
1
60
0
100
AcDbLine
10
55.901424
20
5
30
0
11
56.296382
21
2.000001
31
0
39
0
210
0
220
0
230
1
0
LINE
5
13B
100
AcDbEntity
8
2
62
256
6
ByLayer
370
13
48
1
60
0
100
AcDbLine
10
55.901424
20
5
30
0
11
55.506467
21
1.999999
31
0
39
0
210
0
220
0
230
1
0
LINE
5
13C
100
AcDbEntity
8
2
62
256
6
ByLayer
370
13
48
1
60
0
100
AcDbLine
10
56.296382
20
2.000001
30
0
11
55.506467
21
1.999999
31
0
39
0
210
0
220
0
230
1
0
ENDBLK
5
13E
100
AcDbEntity
8
0
100
AcDbBlockEnd
0
BLOCK
5
14B
100
AcDbEntity
8
0
100
AcDbBlockBegin
2
DimnDraft3D4
70
0
10
0
20
0
30
0
3
DimnDraft3D4
0
MTEXT
5
141
100
AcDbEntity
8
SK2
62
256
6
ByLayer
370
18
48
1
60
0
100
AcDbMText
10
-7.505155
20
-28.125
30
0
210
0
220
0
230
1
1
\W0.7346;70.0
40
4.5
41
0
44
1.084337
50
0
71
7
72
5
7
iso_b_vert
0
LINE
5
142
100
AcDbEntity
8
SK2
62
256
6
ByLayer
370
13
48
1
60
0
100
AcDbLine
10
-38.348576
20
-6.5
30
0
11
-38.348576
21
-32.25
31
0
39
0
210
0
220
0
230
1
0
LINE
5
143
100
AcDbEntity
8
SK2
62
256
6
ByLayer
370
13
48
1
60
0
100
AcDbLine
10
31.651424
20
-6.5
30
0
11
31.651424
21
-32.25
31
0
39
0
210
0
220
0
230
1
0
LINE
5
144
100
AcDbEntity
8
SK2
62
256
6
ByLayer
370
13
48
1
60
0
100
AcDbLine
10
-38.348576
20
-29.25
30
0
11
31.651424
21
-29.25
31
0
39
0
210
0
220
0
230
1
0
LINE
5
145
100
AcDbEntity
8
SK2
62
256
6
ByLayer
370
13
48
1
60
0
100
AcDbLine
10
-38.348576
20
-29.25
30
0
11
-35.348577
21
-28.855043
31
0
39
0
210
0
220
0
230
1
0
LINE
5
146
100
AcDbEntity
8
SK2
62
256
6
ByLayer
370
13
48
1
60
0
100
AcDbLine
10
-38.348576
20
-29.25
30
0
11
-35.348574
21
-29.644957
31
0
39
0
210
0
220
0
230
1
0
LINE
5
147
100
AcDbEntity
8
SK2
62
256
6
ByLayer
370
13
48
1
60
0
100
AcDbLine
10
-35.348577
20
-28.855043
30
0
11
-35.348574
21
-29.644957
31
0
39
0
210
0
220
0
230
1
0
LINE
5
148
100
AcDbEntity
8
SK2
62
256
6
ByLayer
370
13
48
1
60
0
100
AcDbLine
10
31.651424
20
-29.25
30
0
11
28.651425
21
-29.644957
31
0
39
0
210
0
220
0
230
1
0
LINE
5
149
100
AcDbEntity
8
SK2
62
256
6
ByLayer
370
13
48
1
60
0
100
AcDbLine
10
31.651424
20
-29.25
30
0
11
28.651423
21
-28.855043
31
0
39
0
210
0
220
0
230
1
0
LINE
5
14A
100
AcDbEntity
8
SK2
62
256
6
ByLayer
370
13
48
1
60
0
100
AcDbLine
10
28.651425
20
-29.644957
30
0
11
28.651423
21
-28.855043
31
0
39
0
210
0
220
0
230
1
0
ENDBLK
5
14C
100
AcDbEntity
8
0
100
AcDbBlockEnd
0
BLOCK
5
159
100
AcDbEntity
8
0
100
AcDbBlockBegin
2
DimnDraft3D5
70
0
10
0
20
0
30
0
3
DimnDraft3D5
0
MTEXT
5
14F
100
AcDbEntity
8
2
62
256
6
ByLayer
370
18
48
1
60
0
100
AcDbMText
10
12.231633
20
-18.125
30
0
210
0
220
0
230
1
1
\W0.6563;31.7
40
4.5
41
0
44
1.084337
50
0
71
7
72
5
7
iso_b_vert
0
LINE
5
150
100
AcDbEntity
8
2
62
256
6
ByLayer
370
13
48
1
60
0
100
AcDbLine
10
31.651424
20
-6.5
30
0
11
31.651424
21
-22.25
31
0
39
0
210
0
220
0
230
1
0
LINE
5
151
100
AcDbEntity
8
2
62
256
6
ByLayer
370
13
48
1
60
0
100
AcDbLine
10
0
20
-6.5
30
0
11
0
21
-22.25
31
0
39
0
210
0
220
0
230
1
0
LINE
5
152
100
AcDbEntity
8
2
62
256
6
ByLayer
370
13
48
1
60
0
100
AcDbLine
10
31.651424
20
-19.25
30
0
11
0
21
-19.25
31
0
39
0
210
0
220
0
230
1
0
LINE
5
153
100
AcDbEntity
8
2
62
256
6
ByLayer
370
13
48
1
60
0
100
AcDbLine
10
31.651424
20
-19.25
30
0
11
28.651425
21
-19.644957
31
0
39
0
210
0
220
0
230
1
0
LINE
5
154
100
AcDbEntity
8
2
62
256
6
ByLayer
370
13
48
1
60
0
100
AcDbLine
10
31.651424
20
-19.25
30
0
11
28.651423
21
-18.855043
31
0
39
0
210
0
220
0
230
1
0
LINE
5
155
100
AcDbEntity
8
2
62
256
6
ByLayer
370
13
48
1
60
0
100
AcDbLine
10
28.651425
20
-19.644957
30
0
11
28.651423
21
-18.855043
31
0
39
0
210
0
220
0
230
1
0
LINE
5
156
100
AcDbEntity
8
2
62
256
6
ByLayer
370
13
48
1
60
0
100
AcDbLine
10
0
20
-19.25
30
0
11
2.999999
21
-18.855043
31
0
39
0
210
0
220
0
230
1
0
LINE
5
157
100
AcDbEntity
8
2
62
256
6
ByLayer
370
13
48
1
60
0
100
AcDbLine
10
0
20
-19.25
30
0
11
3.000001
21
-19.644957
31
0
39
0
210
0
220
0
230
1
0
LINE
5
158
100
AcDbEntity
8
2
62
256
6
ByLayer
370
13
48
1
60
0
100
AcDbLine
10
2.999999
20
-18.855043
30
0
11
3.000001
21
-19.644957
31
0
39
0
210
0
220
0
230
1
0
ENDBLK
5
15A
100
AcDbEntity
8
0
100
AcDbBlockEnd
0
BLOCK
5
167
100
AcDbEntity
8
0
100
AcDbBlockBegin
2
DimnDraft3D6
70
0
10
0
20
0
30
0
3
DimnDraft3D6
0
MTEXT
5
15D
100
AcDbEntity
8
2
62
256
6
ByLayer
370
18
48
1
60
0
100
AcDbMText
10
43.276424
20
15.875
30
0
210
0
220
0
230
1
1
\W0.7121;6.0
40
4.5
41
0
44
1.084337
50
0
71
7
72
5
7
iso_b_vert
0
LINE
5
15E
100
AcDbEntity
8
2
62
256
6
ByLayer
370
13
48
1
60
0
100
AcDbLine
10
31.651424
20
-2
30
0
11
31.651424
21
17.75
31
0
39
0
210
0
220
0
230
1
0
LINE
5
15F
100
AcDbEntity
8
2
62
256
6
ByLayer
370
13
48
1
60
0
100
AcDbLine
10
25.651424
20
-2
30
0
11
25.651424
21
17.75
31
0
39
0
210
0
220
0
230
1
0
LINE
5
160
100
AcDbEntity
8
2
62
256
6
ByLayer
370
13
48
1
60
0
100
AcDbLine
10
14.401424
20
14.75
30
0
11
49.351424
21
14.75
31
0
39
0
210
0
220
0
230
1
0
LINE
5
161
100
AcDbEntity
8
2
62
256
6
ByLayer
370
13
48
1
60
0
100
AcDbLine
10
31.651424
20
14.75
30
0
11
34.651423
21
15.144957
31
0
39
0
210
0
220
0
230
1
0
LINE
5
162
100
AcDbEntity
8
2
62
256
6
ByLayer
370
13
48
1
60
0
100
AcDbLine
10
31.651424
20
14.75
30
0
11
34.651426
21
14.355043
31
0
39
0
210
0
220
0
230
1
0
LINE
5
163
100
AcDbEntity
8
2
62
256
6
ByLayer
370
13
48
1
60
0
100
AcDbLine
10
34.651423
20
15.144957
30
0
11
34.651426
21
14.355043
31
0
39
0
210
0
220
0
230
1
0
LINE
5
164
100
AcDbEntity
8
2
62
256
6
ByLayer
370
13
48
1
60
0
100
AcDbLine
10
25.651424
20
14.75
30
0
11
22.651425
21
14.355043
31
0
39
0
210
0
220
0
230
1
0
LINE
5
165
100
AcDbEntity
8
2
62
256
6
ByLayer
370
13
48
1
60
0
100
AcDbLine
10
25.651424
20
14.75
30
0
11
22.651423
21
15.144957
31
0
39
0
210
0
220
0
230
1
0
LINE
5
166
100
AcDbEntity
8
2
62
256
6
ByLayer
370
13
48
1
60
0
100
AcDbLine
10
22.651425
20
14.355043
30
0
11
22.651423
21
15.144957
31
0
39
0
210
0
220
0
230
1
0
ENDBLK
5
168
100
AcDbEntity
8
0
100
AcDbBlockEnd
0
ENDSEC
0
SECTION
2
ENTITIES
0
ARC
5
A8
100
AcDbEntity
8
1
62
256
6
ByLayer
370
18
48
1
60
0
100
AcDbCircle
39
0
10
21.123624
20
1.936907
30
0
40
7
210
0
220
0
230
1
100
AcDbArc
50
280.768777
51
287.937816
0
ARC
5
A9
100
AcDbEntity
8
1
62
256
6
ByLayer
370
18
48
1
60
0
100
AcDbCircle
39
0
10
21.123624
20
1.936907
30
0
40
7
210
0
220
0
230
1
100
AcDbArc
50
244.062184
51
251.231223
0
ELLIPSE
5
AA
100
AcDbEntity
8
1
62
256
6
ByLayer
370
18
48
1
60
0
100
AcDbEllipse
10
11.658969
20
-2.920313
30
0
11
1.84856465667816
21
-0.0174489932279089
31
-1.20029224889464E-16
210
-6.49310395802733E-17
220
0
230
-1
40
0.865498
41
-2.28646617864064
42
-2.17155581056838
0
ELLIPSE
5
AB
100
AcDbEntity
8
1
62
256
6
ByLayer
370
18
48
1
60
0
100
AcDbEllipse
10
20.671238
20
-4.532516
30
0
11
2.61860563193204
21
-0.183110743578332
31
0
210
0
220
0
230
1
40
0.034899
41
3.1415648078679
42
-1.56835585789513
0
ELLIPSE
5
AC
100
AcDbEntity
8
1
62
256
6
ByLayer
370
18
48
1
60
0
100
AcDbEllipse
10
20.671238
20
-4.532516
30
0
11
2.61860563193204
21
-0.183110743578332
31
0
210
0
220
0
230
1
40
0.034899
41
-1.56835585789516
42
-9.69522575704993E-15
0
ELLIPSE
5
AD
100
AcDbEntity
8
1
62
256
6
ByLayer
370
18
48
1
60
0
100
AcDbEllipse
10
20.652036
20
-4.807118
30
0
11
1.79561529046768
21
-0.125561652739429
31
0
210
0
220
0
230
1
40
0.034899
41
3.0321134522586
42
-1.56835612773719
0
ELLIPSE
5
AE
100
AcDbEntity
8
1
62
256
6
ByLayer
370
18
48
1
60
0
100
AcDbEllipse
10
20.652036
20
-4.807118
30
0
11
1.79561529046768
21
-0.125561652739429
31
0
210
0
220
0
230
1
40
0.034899
41
-1.56835612773724
42
-0.131569554765022
0
ELLIPSE
5
AF
100
AcDbEntity
8
1
62
256
6
ByLayer
370
13
48
1
60
0
100
AcDbEllipse
10
27.228596
20
-3.174108
30
0
11
-0.0349430926804363
21
-0.499708736847999
31
0
210
0
220
0
230
1
40
0.998145
41
1.07295830138289E-07
42
0.0700181760750951
0
ELLIPSE
5
B0
100
AcDbEntity
8
1
62
256
6
ByLayer
370
13
48
1
60
0
100
AcDbEllipse
10
29.455358
20
-3.649836
30
0
11
-0.498303873950953
21
-0.0173225497065548
31
0
210
0
220
0
230
1
40
0.035171
41
-2.29722309781994
42
-1.5666015594571
0
ELLIPSE
5
B1
100
AcDbEntity
8
1
62
256
6
ByLayer
370
13
48
1
60
0
100
AcDbEllipse
10
18.12274
20
-3.053079
30
0
11
-0.555984067676727
21
0.0388781931375343
31
0
210
0
220
0
230
1
40
0.896569
41
1.4450089626829
42
1.57079556027516
0
ELLIPSE
5
B2
100
AcDbEntity
8
1
62
256
6
ByLayer
370
13
48
1
60
0
100
AcDbEllipse
10
28.229936
20
-3.173774
30
0
11
-0.034954410273602
21
-0.499707463778453
31
0
210
0
220
0
230
1
40
0.998146
41
0.0700447660248168
42
0.104486618805353
0
ELLIPSE
5
B3
100
AcDbEntity
8
1
62
256
6
ByLayer
370
18
48
1
60
0
100
AcDbEllipse
10
5.915065
20
-2.866095
30
0
11
1.84856465667816
21
-0.0174489932279089
31
-1.20029224889464E-16
210
-6.49310395802733E-17
220
0
230
-1
40
0.865498
41
-2.28646617864064
42
-1.50106801524319
0
POINT
5
6C
100
AcDbEntity
8
80
62
256
6
ByLayer
370
18
48
1
60
0
100
AcDbPoint
10
0
20
0
30
0
39
0
210
0
220
0
230
1
50
360
0
POINT
5
6E
100
AcDbEntity
8
81
62
256
6
ByLayer
370
18
48
1
60
0
100
AcDbPoint
10
31.651424
20
-5
30
0
39
0
210
0
220
0
230
1
50
360
0
SPLINE
5
B4
100
AcDbEntity
8
1
62
256
6
ByLayer
370
13
48
1
60
0
100
AcDbSpline
70
4
71
3
72
13
73
9
40
0
40
0
40
0
40
0
40
0.185655580576815
40
0.360552209474053
40
0.530962105130763
40
0.706758823172382
40
0.900370349625289
40
1
40
1
40
1
40
1
41
1
10
13.2998464224857
20
-1.94873484757582
30
0
41
1
10
13.2941026964833
20
-1.98688189719528
30
0
41
1
10
13.2774994362524
20
-2.05677161655845
30
0
41
1
10
13.2333514214785
20
-2.15090227464555
30
0
41
1
10
13.1833492742944
20
-2.22580678578646
30
0
41
1
10
13.1400705792499
20
-2.28201111008212
30
0
41
1
10
13.123155047485
20
-2.31312615807545
30
0
41
1
10
13.124326964122
20
-2.32702079059049
30
0
41
1
10
13.1260138618751
20
-2.33123744157714
30
0
0
SPLINE
5
B5
100
AcDbEntity
8
1
62
256
6
ByLayer
370
13
48
1
60
0
100
AcDbSpline
70
4
71
3
72
11
73
7
40
0
40
0
40
0
40
0
40
0.221053036201647
40
0.47189092340588
40
0.739759047156205
40
1
40
1
40
1
40
1
41
1
10
24.9699238827338
20
-2.96263625688334
30
0
41
1
10
24.9726287649212
20
-2.9563755503485
30
0
41
1
10
24.9684255616809
20
-2.93770176851263
30
0
41
1
10
24.9345189940685
20
-2.88500379049282
30
0
41
1
10
24.8873368617253
20
-2.80232543762634
30
0
41
1
10
24.8607883425952
20
-2.73091444795384
30
0
41
1
10
24.8514878565435
20
-2.69404104557182
30
0
0
SPLINE
5
B6
100
AcDbEntity
8
1
62
256
6
ByLayer
370
13
48
1
60
0
100
AcDbSpline
70
4
71
5
72
12
73
6
40
0
40
0
40
0
40
0
40
0
40
0
40
1
40
1
40
1
40
1
40
1
40
1
41
1
10
25.4254099148203
20
-3.549674316275
30
0
41
1
10
25.3975506393729
20
-3.48586953601767
30
0
41
1
10
25.4545626745862
20
-3.42802302742737
30
0
41
1
10
25.5967177557739
20
-3.37634816111626
30
0
41
1
10
25.8237290266142
20
-3.33102463465968
30
0
41
1
10
26.1347419251212
20
-3.29218589892633
30
0
0
SPLINE
5
B7
100
AcDbEntity
8
1
62
256
6
ByLayer
370
13
48
1
60
0
100
AcDbSpline
70
4
71
3
72
8
73
4
40
0
40
0
40
0
40
0
40
1
40
1
40
1
40
1
41
1
10
25.1762582186269
20
-3.52452049102996
30
0
41
1
10
25.1963296341255
20
-3.52813699725067
30
0
41
1
10
25.2164010496241
20
-3.53175350347135
30
0
41
1
10
25.2351774162436
20
-3.53527061275241
30
0
0
SPLINE
5
B8
100
AcDbEntity
8
1
62
256
6
ByLayer
370
13
48
1
60
0
100
AcDbSpline
70
4
71
3
72
8
73
4
40
0
40
0
40
0
40
0
40
1
40
1
40
1
40
1
41
1
10
18.0673594262604
20
-3.54865293865802
30
0
41
1
10
18.063018380471
20
-3.54842426615539
30
0
41
1
10
18.0586822544967
20
-3.54812529705356
30
0
41
1
10
18.0543528691668
20
-3.54775625595721
30
0
0
SPLINE
5
B9
100
AcDbEntity
8
1
62
256
6
ByLayer
370
13
48
1
60
0
100
AcDbSpline
70
4
71
3
72
8
73
4
40
0
40
0
40
0
40
0
40
1
40
1
40
1
40
1
41
1
10
18.0321626577173
20
-3.54524261789572
30
0
41
1
10
18.0252237327982
20
-3.54426080117011
30
0
41
1
10
18.0183104755108
20
-3.54309759537287
30
0
41
1
10
18.0114305322648
20
-3.54175394371131
30
0
0
SPLINE
5
BA
100
AcDbEntity
8
1
62
256
6
ByLayer
370
13
48
1
60
0
100
AcDbSpline
70
4
71
1
72
4
73
2
40
0
40
0
40
1
40
1
41
1
10
17.6585103383225
20
-3.4702631481355
30
0
41
1
10
17.1724664019824
20
-3.3864402759103
30
0
0
SPLINE
5
BB
100
AcDbEntity
8
1
62
256
6
ByLayer
370
13
48
1
60
0
100
AcDbSpline
70
4
71
5
72
12
73
6
40
0
40
0
40
0
40
0
40
0
40
0
40
1
40
1
40
1
40
1
40
1
40
1
41
1
10
23.1936782856824
20
-2.57707910316569
30
0
41
1
10
23.1891745002766
20
-2.62855906921635
30
0
41
1
10
23.1846707148708
20
-2.68003903526704
30
0
41
1
10
23.1801669294651
20
-2.73151900131771
30
0
41
1
10
23.1756631440593
20
-2.78299896736837
30
0
41
1
10
23.1711593586535
20
-2.83447893341906
30
0
0
SPLINE
5
BC
100
AcDbEntity
8
1
62
256
6
ByLayer
370
13
48
1
60
0
100
AcDbSpline
70
4
71
5
72
12
73
6
40
0
40
0
40
0
40
0
40
0
40
0
40
1
40
1
40
1
40
1
40
1
40
1
41
1
10
24.8200438167976
20
-2.69079394657245
30
0
41
1
10
24.8180095777545
20
-2.74908246042827
30
0
41
1
10
24.8159753387114
20
-2.80737097428405
30
0
41
1
10
24.8139410996683
20
-2.86565948813981
30
0
41
1
10
24.8119068606252
20
-2.9239480019956
30
0
41
1
10
24.8098726215821
20
-2.98223651585135
30
0
0
SPLINE
5
BD
100
AcDbEntity
8
1
62
256
6
ByLayer
370
13
48
1
60
0
100
AcDbSpline
70
4
71
5
72
12
73
6
40
0
40
0
40
0
40
0
40
0
40
0
40
1
40
1
40
1
40
1
40
1
40
1
41
1
10
14.4439607337184
20
-1.95533710313981
30
0
41
1
10
14.4412098971789
20
-1.98678020242363
30
0
41
1
10
14.4384590606395
20
-2.01822330170748
30
0
41
1
10
14.4357082241
20
-2.04966640099133
30
0
41
1
10
14.4329573875605
20
-2.08110950027518
30
0
41
1
10
14.430206551021
20
-2.11255259955899
30
0
0
SPLINE
5
BE
100
AcDbEntity
8
1
62
256
6
ByLayer
370
13
48
1
60
0
100
AcDbSpline
70
4
71
3
72
8
73
4
40
0
40
0
40
0
40
0
40
1
40
1
40
1
40
1
41
1
10
24.8378245760899
20
-2.6937544183933
30
0
41
1
10
24.8826394378545
20
-2.90587882454869
30
0
41
1
10
25.0742285648704
20
-3.08612334876943
30
0
41
1
10
25.2930078289848
20
-3.10162356198345
30
0
0
SPLINE
5
BF
100
AcDbEntity
8
1
62
256
6
ByLayer
370
13
48
1
60
0
100
AcDbSpline
70
4
71
5
72
12
73
6
40
0
40
0
40
0
40
0
40
0
40
0
40
1
40
1
40
1
40
1
40
1
40
1
41
1
10
26.1347376006974
20
-3.29218025643956
30
0
41
1
10
26.2352876258552
20
-3.36121192277622
30
0
41
1
10
26.3358868097623
20
-3.43000320762857
30
0
41
1
10
26.4365357211334
20
-3.49855030014822
30
0
41
1
10
26.5372349814715
20
-3.5668492904598
30
0
41
1
10
26.6379852369566
20
-3.63489614515439
30
0
0
SPLINE
5
C0
100
AcDbEntity
8
1
62
256
6
ByLayer
370
13
48
1
60
0
100
AcDbSpline
70
4
71
3
72
8
73
4
40
0
40
0
40
0
40
0
40
1
40
1
40
1
40
1
41
1
10
24.8517257797928
20
-2.69432559549298
30
0
41
1
10
24.9048160807267
20
-2.89657820722212
30
0
41
1
10
25.090631569255
20
-3.06472825507453
30
0
41
1
10
25.3016876528677
20
-3.07947929149731
30
0
0
SPLINE
5
C1
100
AcDbEntity
8
1
62
256
6
ByLayer
370
13
48
1
60
0
100
AcDbSpline
70
4
71
5
72
12
73
6
40
0
40
0
40
0
40
0
40
0
40
0
40
1
40
1
40
1
40
1
40
1
40
1
41
1
10
24.8619955723645
20
-2.69478805707212
30
0
41
1
10
24.8978537014883
20
-2.80889679906861
30
0
41
1
10
24.9679052973855
20
-2.91227344676281
30
0
41
1
10
25.0678380267552
20
-2.99129389230089
30
0
41
1
10
25.1848337653959
20
-3.03522668611475
30
0
41
1
10
25.3041809071006
20
-3.04357225532309
30
0
0
SPLINE
5
C2
100
AcDbEntity
8
1
62
256
6
ByLayer
370
13
48
1
60
0
100
AcDbSpline
70
4
71
3
72
8
73
4
40
0
40
0
40
0
40
0
40
1
40
1
40
1
40
1
41
1
10
29.7885765067006
20
-4.94999455398852
30
0
41
1
10
29.8036469242404
20
-4.95067700951168
30
0
41
1
10
29.8181497967974
20
-4.95128964992762
30
0
41
1
10
29.831949147699
20
-4.95182669161898
30
0
0
SPLINE
5
C3
100
AcDbEntity
8
1
62
256
6
ByLayer
370
13
48
1
60
0
100
AcDbSpline
70
4
71
5
72
17
73
11
40
0
40
0
40
0
40
0
40
0
40
0
40
0.999980762800283
40
0.999980762800283
40
0.999980762800283
40
0.999980762800283
40
0.999980762800283
40
1
40
1
40
1
40
1
40
1
40
1
41
1
10
25.1616817174204
20
-3.4769752147113
30
0
41
1
10
25.1303152163086
20
-3.42075162414042
30
0
41
1
10
25.1279404024969
20
-3.35160168046616
30
0
41
1
10
25.155300083585
20
-3.25840081282684
30
0
41
1
10
25.2111619430823
20
-3.16194516939203
30
0
41
1
10
25.2930339678248
20
-3.10131679078248
30
0
41
1
10
25.2930501073942
20
-3.10130496778217
30
0
41
1
10
25.2930339211763
20
-3.10131670920424
30
0
41
1
10
25.2930256732383
20
-3.10132236536629
30
0
41
1
10
25.2930173056231
20
-3.10132784288973
30
0
41
1
10
25.2930089405435
20
-3.10133332426216
30
0
0
SPLINE
5
C4
100
AcDbEntity
8
1
62
256
6
ByLayer
370
13
48
1
60
0
100
AcDbSpline
70
4
71
2
72
9
73
6
40
0
40
0
40
0
40
0.25
40
0.5
40
0.75
40
1
40
1
40
1
41
1
10
12.7653473480524
20
-2.3799688803575
30
0
41
1
10
12.7657657983851
20
-2.37537725980585
30
0
41
1
10
12.8346624813697
20
-2.37129151489299
30
0
41
1
10
12.9666674536998
20
-2.37256540923815
30
0
41
1
10
13.1526482885247
20
-2.37908485145346
30
0
41
1
10
13.2665216095969
20
-2.38473659786624
30
0
0
SPLINE
5
C5
100
AcDbEntity
8
1
62
256
6
ByLayer
370
13
48
1
60
0
100
AcDbSpline
70
4
71
3
72
12
73
8
40
0
40
0
40
0
40
0
40
0.260763522617879
40
0.260763522617879
40
0.521414228342379
40
0.521414228342379
40
1
40
1
40
1
40
1
41
1
10
29.8319713535807
20
-4.95182911981919
30
0
41
1
10
29.9573211800052
20
-4.95671125401006
30
0
41
1
10
30.103569902256
20
-4.96376322399348
30
0
41
1
10
30.4132889314981
20
-4.98100471094227
30
0
41
1
10
30.5809896663585
20
-4.99142821592866
30
0
41
1
10
31.0541558827742
20
-5.02365950437846
30
0
41
1
10
31.3584864705998
20
-5.04756347951221
30
0
41
1
10
31.6619960767604
20
-5.07031567505104
30
0
0
SPLINE
5
C6
100
AcDbEntity
8
1
62
256
6
ByLayer
370
13
48
1
60
0
100
AcDbSpline
70
4
71
5
72
12
73
6
40
0
40
0
40
0
40
0
40
0
40
0
40
1
40
1
40
1
40
1
40
1
40
1
41
1
10
24.8078205824696
20
-3.00488618692299
30
0
41
1
10
24.8031791890957
20
-3.13781158247804
30
0
41
1
10
24.8426773205146
20
-3.272363710679
30
0
41
1
10
24.9275117463514
20
-3.38861019504722
30
0
41
1
10
25.0436227568371
20
-3.46727854671167
30
0
41
1
10
25.1716559960206
20
-3.50342020280317
30
0
0
SPLINE
5
C7
100
AcDbEntity
8
1
62
256
6
ByLayer
370
13
48
1
60
0
100
AcDbSpline
70
4
71
5
72
12
73
6
40
0
40
0
40
0
40
0
40
0
40
0
40
1
40
1
40
1
40
1
40
1
40
1
41
1
10
18.0673594262604
20
-3.54865293865802
30
0
41
1
10
18.0578034766448
20
-3.54807444467568
30
0
41
1
10
18.0482646453398
20
-3.54725114764094
30
0
41
1
10
18.0387507538928
20
-3.54618352096119
30
0
41
1
10
18.0292695958131
20
-3.54487243919991
30
0
41
1
10
18.0198288983132
20
-3.5433191738089
30
0
0
SPLINE
5
C8
100
AcDbEntity
8
1
62
256
6
ByLayer
370
13
48
1
60
0
100
AcDbSpline
70
4
71
3
72
12
73
8
40
0
40
0
40
0
40
0
40
0.248870360971559
40
0.248870360971559
40
0.623686215928145
40
0.623686215928145
40
1
40
1
40
1
40
1
41
1
10
12.4396232758823
20
-2.39537589887303
30
0
41
1
10
12.435736929659
20
-2.39661991379793
30
0
41
1
10
12.4318473751296
20
-2.39770815079228
30
0
41
1
10
12.4221060180293
20
-2.40003662304721
30
0
41
1
10
12.4162517189696
20
-2.4010773890513
30
0
41
1
10
12.4045531547154
20
-2.40243461871415
30
0
41
1
10
12.3987031741072
20
-2.40274884350325
30
0
41
1
10
12.3928819105577
20
-2.40269400284618
30
0
0
SPLINE
5
C9
100
AcDbEntity
8
1
62
256
6
ByLayer
370
13
48
1
60
0
100
AcDbSpline
70
4
71
5
72
12
73
6
40
0
40
0
40
0
40
0
40
0
40
0
40
1
40
1
40
1
40
1
40
1
40
1
41
1
10
13.2962538884428
20
-1.95211142895062
30
0
41
1
10
13.2754246590305
20
-2.10067520900336
30
0
41
1
10
13.1990442213793
20
-2.24175802276929
30
0
41
1
10
13.0701601091296
20
-2.34654993428529
30
0
41
1
10
12.9166070068817
20
-2.39241937358287
30
0
41
1
10
12.7671619193675
20
-2.38230067293168
30
0
0
SPLINE
5
CA
100
AcDbEntity
8
1
62
256
6
ByLayer
370
13
48
1
60
0
100
AcDbSpline
70
4
71
5
72
12
73
6
40
0
40
0
40
0
40
0
40
0
40
0
40
1
40
1
40
1
40
1
40
1
40
1
41
1
10
13.3006464427061
20
-2.48682607381463
30
0
41
1
10
13.4816861109983
20
-2.50548705129577
30
0
41
1
10
13.6626361968773
20
-2.52403395749536
30
0
41
1
10
13.843496939591
20
-2.54243648291603
30
0
41
1
10
14.024267993961
20
-2.5606695617987
30
0
41
1
10
14.2049485071612
20
-2.57871327367053
30
0
0
SPLINE
5
CB
100
AcDbEntity
8
1
62
256
6
ByLayer
370
13
48
1
60
0
100
AcDbSpline
70
4
71
5
72
12
73
6
40
0
40
0
40
0
40
0
40
0
40
0
40
1
40
1
40
1
40
1
40
1
40
1
41
1
10
24.8277321821001
20
-3.46578830095788
30
0
41
1
10
24.8302469519653
20
-3.46700606825172
30
0
41
1
10
24.8327861369476
20
-3.46822546932609
30
0
41
1
10
24.8353497338997
20
-3.46944650304727
30
0
41
1
10
24.8379377396292
20
-3.47066916827924
30
0
41
1
10
24.8405501508981
20
-3.47189346388353
30
0
0
SPLINE
5
CC
100
AcDbEntity
8
1
62
256
6
ByLayer
370
13
48
1
60
0
100
AcDbSpline
70
4
71
3
72
8
73
4
40
0
40
0
40
0
40
0
40
1
40
1
40
1
40
1
41
1
10
12.6320818849779
20
-2.37065145720462
30
0
41
1
10
12.6227766399114
20
-2.37000070002719
30
0
41
1
10
12.6134714881618
20
-2.36936157778084
30
0
41
1
10
12.6041664599711
20
-2.3687340937702
30
0
0
SPLINE
5
CD
100
AcDbEntity
8
1
62
256
6
ByLayer
370
13
48
1
60
0
100
AcDbSpline
70
4
71
5
72
12
73
6
40
0
40
0
40
0
40
0
40
0
40
0
40
1
40
1
40
1
40
1
40
1
40
1
41
1
10
14.0854274373332
20
-2.72597826237066
30
0
41
1
10
14.109432367482
20
-2.72689991986678
30
0
41
1
10
14.1339503739643
20
-2.72391969860308
30
0
41
1
10
14.1586657852204
20
-2.71702506715525
30
0
41
1
10
14.1832493693699
20
-2.70630786830389
30
0
41
1
10
14.2073837456285
20
-2.69195723030373
30
0
0
SPLINE
5
CE
100
AcDbEntity
8
1
62
256
6
ByLayer
370
13
48
1
60
0
100
AcDbSpline
70
4
71
3
72
18
73
14
40
0
40
0
40
0
40
0
40
0.0089477727217393
40
0.0089477727217393
40
0.0205509304464286
40
0.0205509304464286
40
0.0415156227169656
40
0.0415156227169656
40
0.112513791209194
40
0.112513791209194
40
0.450146522201178
40
0.450146522201178
40
1
40
1
40
1
40
1
41
1
10
29.4527704577837
20
-3.63560001917568
30
0
41
1
10
29.4569421999624
20
-3.6353635822806
30
0
41
1
10
29.4612092143385
20
-3.63591830775036
30
0
41
1
10
29.4704052815932
20
-3.63864671085085
30
0
41
1
10
29.4753131875776
20
-3.64124551674749
30
0
41
1
10
29.4877709981536
20
-3.64989584984747
30
0
41
1
10
29.4946371548724
20
-3.65711627450276
30
0
41
1
10
29.5212845228417
20
-3.69023829370312
30
0
41
1
10
29.5353209820199
20
-3.72068024748515
30
0
41
1
10
29.6078628788424
20
-3.89409255059755
30
0
41
1
10
29.6382972830442
20
-4.0484043554336
30
0
41
1
10
29.7182003485308
20
-4.44868978892347
30
0
41
1
10
29.7551569052452
20
-4.69924143108921
30
0
41
1
10
29.7885765067006
20
-4.94999455398815
30
0
0
SPLINE
5
CF
100
AcDbEntity
8
1
62
256
6
ByLayer
370
13
48
1
60
0
100
AcDbSpline
70
4
71
3
72
8
73
4
40
0
40
0
40
0
40
0
40
1
40
1
40
1
40
1
41
1
10
18.1155324371772
20
-3.44317410874825
30
0
41
1
10
18.0699529480235
20
-3.46642371459492
30
0
41
1
10
18.0221130130901
20
-3.47715328250047
30
0
41
1
10
17.9759286521401
20
-3.47456675013078
30
0
0
SPLINE
5
D0
100
AcDbEntity
8
1
62
256
6
ByLayer
370
13
48
1
60
0
100
AcDbSpline
70
4
71
5
72
12
73
6
40
0
40
0
40
0
40
0
40
0
40
0
40
1
40
1
40
1
40
1
40
1
40
1
41
1
10
13.5388768072751
20
-2.01871413152728
30
0
41
1
10
13.5256102437482
20
-2.15107524513749
30
0
41
1
10
13.4903321640159
20
-2.28177480003987
30
0
41
1
10
13.4347842126718
20
-2.39092783701474
30
0
41
1
10
13.3681731097285
20
-2.46043750535119
30
0
41
1
10
13.3006464427061
20
-2.48682607381463
30
0
0
SPLINE
5
D1
100
AcDbEntity
8
1
62
256
6
ByLayer
370
13
48
1
60
0
100
AcDbSpline
70
4
71
3
72
9
73
5
40
0
40
0
40
0
40
0
40
0.501863733673559
40
1
40
1
40
1
40
1
41
1
10
18.115667058088
20
-3.4428985714531
30
0
41
1
10
18.5925368605797
20
-3.48800433862891
30
0
41
1
10
19.542734634388
20
-3.57788086117748
30
0
41
1
10
20.451341804531
20
-3.66678611834456
30
0
41
1
10
20.9039519878235
20
-3.71107305120654
30
0
0
SPLINE
5
D2
100
AcDbEntity
8
1
62
256
6
ByLayer
370
13
48
1
60
0
100
AcDbSpline
70
4
71
3
72
8
73
4
40
0
40
0
40
0
40
0
40
1
40
1
40
1
40
1
41
1
10
12.4396225813128
20
-2.39532990107983
30
0
41
1
10
12.4945171672165
20
-2.37777679075438
30
0
41
1
10
12.549720733365
20
-2.36885376131369
30
0
41
1
10
12.6041579080166
20
-2.36873312156862
30
0
0
SPLINE
5
D3
100
AcDbEntity
8
1
62
256
6
ByLayer
370
13
48
1
60
0
100
AcDbSpline
70
4
71
3
72
12
73
8
40
0
40
0
40
0
40
0
40
0.249605152093356
40
0.49972470673293
40
0.749888243525822
40
0.874966932404507
40
1
40
1
40
1
40
1
41
1
10
12.4396226949976
20
-2.39532962635522
30
0
41
1
10
12.5785705701899
20
-2.4197711799211
30
0
41
1
10
12.856752673401
20
-2.46870465779756
30
0
41
1
10
13.3037140093899
20
-2.54287326704033
30
0
41
1
10
13.678095112032
20
-2.60520112259306
30
0
41
1
10
13.9806361997397
20
-2.65458406362197
30
0
41
1
10
14.1318104219071
20
-2.67950102305781
30
0
41
1
10
14.2073837456301
20
-2.69195723030427
30
0
0
SPLINE
5
D4
100
AcDbEntity
8
1
62
256
6
ByLayer
370
13
48
1
60
0
100
AcDbSpline
70
4
71
5
72
17
73
11
40
0
40
0
40
0
40
0
40
0
40
0
40
0.999980762800955
40
0.999980762800955
40
0.999980762800955
40
0.999980762800955
40
0.999980762800955
40
1
40
1
40
1
40
1
40
1
40
1
41
1
10
14.2049678086072
20
-2.57865245262474
30
0
41
1
10
15.8580572753489
20
-2.7386857180789
30
0
41
1
10
17.4986369993075
20
-2.883769032625
30
0
41
1
10
19.1269303532678
20
-3.0027055556551
30
0
41
1
10
20.7407956378105
20
-3.11619931128467
30
0
41
1
10
22.3373121562047
20
-3.26330725380529
30
0
41
1
10
22.3372975977972
20
-3.26330591103846
30
0
41
1
10
22.33728763913
20
-3.26330499182748
30
0
41
1
10
22.3372776804971
20
-3.26330407224424
30
0
41
1
10
22.3372677218796
20
-3.26330315249606
30
0
41
1
10
22.3372577632619
20
-3.263302232748
30
0
0
SPLINE
5
D5
100
AcDbEntity
8
1
62
256
6
ByLayer
370
13
48
1
60
0
100
AcDbSpline
70
4
71
3
72
8
73
4
40
0
40
0
40
0
40
0
40
1
40
1
40
1
40
1
41
1
10
22.3372516549316
20
-3.26360803017366
30
0
41
1
10
22.5205739599692
20
-3.2800887901661
30
0
41
1
10
22.7038962695913
20
-3.29656948375586
30
0
41
1
10
22.8872185838281
20
-3.31305011094321
30
0
0
SPLINE
5
D6
100
AcDbEntity
8
1
62
256
6
ByLayer
370
13
48
1
60
0
100
AcDbSpline
70
4
71
5
72
12
73
6
40
0
40
0
40
0
40
0
40
0
40
0
40
1
40
1
40
1
40
1
40
1
40
1
41
1
10
24.5856742443588
20
-2.9682459786552
30
0
41
1
10
24.5809794511072
20
-3.11821896733147
30
0
41
1
10
24.607387895683
20
-3.26827953371776
30
0
41
1
10
24.6663508479886
20
-3.38947832150347
30
0
41
1
10
24.7451342700443
20
-3.45564042075264
30
0
41
1
10
24.8277275431911
20
-3.46578833793151
30
0
0
SPLINE
5
D7
100
AcDbEntity
8
1
62
256
6
ByLayer
370
13
48
1
60
0
100
AcDbSpline
70
4
71
5
72
12
73
6
40
0
40
0
40
0
40
0
40
0
40
0
40
1
40
1
40
1
40
1
40
1
40
1
41
1
10
14.4302058594843
20
-2.11255911939671
30
0
41
1
10
14.2519389034778
20
-2.09420593452859
30
0
41
1
10
14.0736775675451
20
-2.07561761246552
30
0
41
1
10
13.8954171346042
20
-2.05681821974454
30
0
41
1
10
13.7171522400721
20
-2.03783811618098
30
0
41
1
10
13.5388768126845
20
-2.01871407755706
30
0
0
SPLINE
5
D8
100
AcDbEntity
8
1
62
256
6
ByLayer
370
13
48
1
60
0
100
AcDbSpline
70
4
71
3
72
8
73
4
40
0
40
0
40
0
40
0
40
1
40
1
40
1
40
1
41
1
10
9.57210835441742
20
-2.00533635562806
30
0
41
1
10
9.49200155804084
20
-2.4987489303025
30
0
41
1
10
9.41198053125373
20
-2.9921756889693
30
0
41
1
10
9.33202677751586
20
-3.48561353432646
30
0
0
SPLINE
5
D9
100
AcDbEntity
8
1
62
256
6
ByLayer
370
13
48
1
60
0
100
AcDbSpline
70
4
71
2
72
9
73
6
40
0
40
0
40
0
40
0.25
40
0.5
40
0.75
40
1
40
1
40
1
41
1
10
24.7741825348981
20
-3.46320633037479
30
0
41
1
10
24.6598650466446
20
-3.45751997061106
30
0
41
1
10
24.4056978983064
20
-3.44212491936719
30
0
41
1
10
24.143487468552
20
-3.42377538532145
30
0
41
1
10
23.8907330473677
20
-3.40370904121338
30
0
41
1
10
23.7769673871343
20
-3.39345566224884
30
0
0
SPLINE
5
DA
100
AcDbEntity
8
1
62
256
6
ByLayer
370
13
48
1
60
0
100
AcDbSpline
70
4
71
5
72
12
73
6
40
0
40
0
40
0
40
0
40
0
40
0
40
1
40
1
40
1
40
1
40
1
40
1
41
1
10
18.0054694328529
20
-3.47847827068185
30
0
41
1
10
18.5383041426957
20
-3.52851625107547
30
0
41
1
10
19.0643402976905
20
-3.57842696675934
30
0
41
1
10
19.5833262787661
20
-3.62818715834101
30
0
41
1
10
20.0950154897404
20
-3.67777355673761
30
0
41
1
10
20.5991696618109
20
-3.72716318219523
30
0
0
SPLINE
5
DB
100
AcDbEntity
8
1
62
256
6
ByLayer
370
13
48
1
60
0
100
AcDbSpline
70
4
71
3
72
8
73
4
40
0
40
0
40
0
40
0
40
1
40
1
40
1
40
1
41
1
10
25.1762595089454
20
-3.52452079038281
30
0
41
1
10
25.0707104936217
20
-3.49899241612809
30
0
41
1
10
24.9627424952959
20
-3.48195852572186
30
0
41
1
10
24.8544590591194
20
-3.47374944418914
30
0
0
SPLINE
5
DC
100
AcDbEntity
8
1
62
256
6
ByLayer
370
13
48
1
60
0
100
AcDbSpline
70
4
71
5
72
12
73
6
40
0
40
0
40
0
40
0
40
0
40
0
40
1
40
1
40
1
40
1
40
1
40
1
41
1
10
13.2953369729506
20
-1.95101424375721
30
0
41
1
10
13.2744706913585
20
-2.09953724703092
30
0
41
1
10
13.1979622159342
20
-2.2404419748971
30
0
41
1
10
13.0688641670002
20
-2.34492953325346
30
0
41
1
10
12.9150519373702
20
-2.39043865171405
30
0
41
1
10
12.7653472428911
20
-2.37997027787483
30
0
0
SPLINE
5
DD
100
AcDbEntity
8
1
62
256
6
ByLayer
370
13
48
1
60
0
100
AcDbSpline
70
4
71
3
72
12
73
8
40
0
40
0
40
0
40
0
40
0.248870360971697
40
0.248870360971697
40
0.623686215928218
40
0.623686215928218
40
1
40
1
40
1
40
1
41
1
10
25.1762485105728
20
-3.52456620696643
30
0
41
1
10
25.1837207396039
20
-3.52637482923541
30
0
41
1
10
25.1912319193584
20
-3.52802976913557
30
0
41
1
10
25.2101266067039
20
-3.53178166969133
30
0
41
1
10
25.2215567830338
20
-3.53368160489657
30
0
41
1
10
25.2445485972813
20
-3.53676320855769
30
0
41
1
10
25.2561220746995
20
-3.53794351075453
30
0
41
1
10
25.2677155744638
20
-3.53875431517059
30
0
0
SPLINE
5
DE
100
AcDbEntity
8
1
62
256
6
ByLayer
370
13
48
1
60
0
100
AcDbSpline
70
4
71
3
72
8
73
4
40
0
40
0
40
0
40
0
40
1
40
1
40
1
40
1
41
1
10
23.1713812460484
20
-2.8344960372514
30
0
41
1
10
22.98947986024
20
-2.81799337820794
30
0
41
1
10
22.8075784378813
20
-2.80149071619533
30
0
41
1
10
22.6256769789663
20
-2.78498805128032
30
0
0
SPLINE
5
DF
100
AcDbEntity
8
1
62
256
6
ByLayer
370
13
48
1
60
0
100
AcDbSpline
70
4
71
3
72
8
73
4
40
0
40
0
40
0
40
0
40
1
40
1
40
1
40
1
41
1
10
13.2953282628758
20
-1.95101323985975
30
0
41
1
10
13.2953086654021
20
-1.95133375083515
30
0
41
1
10
13.2956174877961
20
-1.95170037594974
30
0
41
1
10
13.296254128802
20
-1.95211229605579
30
0
0
SPLINE
5
E0
100
AcDbEntity
8
1
62
256
6
ByLayer
370
13
48
1
60
0
100
AcDbSpline
70
4
71
3
72
9
73
5
40
0
40
0
40
0
40
0
40
0.500015128633004
40
1
40
1
40
1
40
1
41
1
10
26.1347370287924
20
-3.29218304577552
30
0
41
1
10
26.0430198611527
20
-3.23648353094805
30
0
41
1
10
25.8595910759266
20
-3.12508787182119
30
0
41
1
10
25.6662192617366
20
-3.08732608684119
30
0
41
1
10
25.5695362800927
20
-3.06844576563535
30
0
0
SPLINE
5
E1
100
AcDbEntity
8
1
62
256
6
ByLayer
370
13
48
1
60
0
100
AcDbSpline
70
4
71
3
72
8
73
4
40
0
40
0
40
0
40
0
40
1
40
1
40
1
40
1
41
1
10
25.2930086109636
20
-3.10162443201554
30
0
41
1
10
25.2959108859502
20
-3.09419389216532
30
0
41
1
10
25.2988131656149
20
-3.08676328592034
30
0
41
1
10
25.3017154498984
20
-3.07933261327642
30
0
0
SPLINE
5
E2
100
AcDbEntity
8
1
62
256
6
ByLayer
370
13
48
1
60
0
100
AcDbSpline
70
4
71
5
72
12
73
6
40
0
40
0
40
0
40
0
40
0
40
0
40
1
40
1
40
1
40
1
40
1
40
1
41
1
10
13.5388811742553
20
-2.01865985506336
30
0
41
1
10
13.4589385787066
20
-2.01425904116991
30
0
41
1
10
13.3904740141666
20
-2.00060992393361
30
0
41
1
10
13.3369092723143
20
-1.97776958982399
30
0
41
1
10
13.3029232968164
20
-1.95594868873005
30
0
41
1
10
13.2962538881388
20
-1.95211142877577
30
0
0
SPLINE
5
E3
100
AcDbEntity
8
1
62
256
6
ByLayer
370
13
48
1
60
0
100
AcDbSpline
70
4
71
3
72
8
73
4
40
0
40
0
40
0
40
0
40
1
40
1
40
1
40
1
41
1
10
14.4302068047651
20
-2.11255926663196
30
0
41
1
10
14.4097857783624
20
-2.32913049081853
30
0
41
1
10
14.3127349691603
20
-2.52994437533701
30
0
41
1
10
14.2049583213334
20
-2.57865725011871
30
0
0
SPLINE
5
E4
100
AcDbEntity
8
1
62
256
6
ByLayer
370
13
48
1
60
0
100
AcDbSpline
70
4
71
3
72
9
73
5
40
0
40
0
40
0
40
0
40
0.500015128630319
40
1
40
1
40
1
40
1
41
1
10
22.32129451682
20
-3.44568249149586
30
0
41
1
10
22.5146154039373
20
-3.41569429574818
30
0
41
1
10
22.9012454798048
20
-3.35571971891929
30
0
41
1
10
23.292225335685
20
-3.37066830573914
30
0
41
1
10
23.4877093486353
20
-3.37814237299742
30
0
0
SPLINE
5
E5
100
AcDbEntity
8
1
62
256
6
ByLayer
370
13
48
1
60
0
100
AcDbSpline
70
4
71
2
72
6
73
3
40
0
40
0
40
0
40
1
40
1
40
1
41
1
10
20.9039556533138
20
-3.71107384944941
30
0
41
1
10
20.7565699362561
20
-3.73809094438369
30
0
41
1
10
20.5991696564008
20
-3.72716325955258
30
0
0
SPLINE
5
E6
100
AcDbEntity
8
1
62
256
6
ByLayer
370
13
48
1
60
0
100
AcDbSpline
70
4
71
3
72
8
73
4
40
0
40
0
40
0
40
0
40
1
40
1
40
1
40
1
41
1
10
31.6619960767758
20
-5.07031567505263
30
0
41
1
10
31.6619823195671
20
-4.57005883275934
30
0
41
1
10
31.6619685623585
20
-4.06980199046606
30
0
41
1
10
31.66195480515
20
-3.56954514817278
30
0
0
SPLINE
5
E7
100
AcDbEntity
8
1
62
256
6
ByLayer
370
13
48
1
60
0
100
AcDbSpline
70
4
71
2
72
14
73
11
40
0
40
0
40
0
40
0.125
40
0.125
40
0.25
40
0.25
40
0.5
40
0.5
40
0.75
40
0.75
40
1
40
1
40
1
41
1
10
14.0854222228232
20
-2.72593479883665
30
0
41
1
10
14.0762805453621
20
-2.72423376666851
30
0
41
1
10
13.8666278783866
20
-2.6852774459004
30
0
41
1
10
13.7411014622119
20
-2.66195292824023
30
0
41
1
10
13.6480712172846
20
-2.64459623286138
30
0
41
1
10
13.4175740072887
20
-2.6015922628869
30
0
41
1
10
13.215674785847
20
-2.56339592437135
30
0
41
1
10
12.9701786204148
20
-2.51695169059889
30
0
41
1
10
12.7924402588313
20
-2.48246937780812
30
0
41
1
10
12.5480370288419
20
-2.43505367897703
30
0
41
1
10
12.3928939192324
20
-2.40256559347282
30
0
0
SPLINE
5
E8
100
AcDbEntity
8
1
62
256
6
ByLayer
370
13
48
1
60
0
100
AcDbSpline
70
4
71
5
72
12
73
6
40
0
40
0
40
0
40
0
40
0
40
0
40
1
40
1
40
1
40
1
40
1
40
1
41
1
10
18.1156294430442
20
-3.44289461396136
30
0
41
1
10
18.0941913547838
20
-3.45735979877321
30
0
41
1
10
18.0721779805104
20
-3.46828878673611
30
0
41
1
10
18.0498622600848
20
-3.47549702768924
30
0
41
1
10
18.0275318915162
20
-3.47889159178021
30
0
41
1
10
18.0054678164941
20
-3.47847811889119
30
0
0
SPLINE
5
E9
100
AcDbEntity
8
1
62
256
6
ByLayer
370
13
48
1
60
0
100
AcDbSpline
70
4
71
1
72
4
73
2
40
0
40
0
40
1
40
1
41
1
10
12.6320843091763
20
-2.37065099603251
30
0
41
1
10
12.7671685147799
20
-2.3823014548561
30
0
0
SPLINE
5
EA
100
AcDbEntity
8
1
62
256
6
ByLayer
370
13
48
1
60
0
100
AcDbSpline
70
4
71
5
72
12
73
6
40
0
40
0
40
0
40
0
40
0
40
0
40
1
40
1
40
1
40
1
40
1
40
1
41
1
10
25.1716559960206
20
-3.50342020280317
30
0
41
1
10
25.1691750854723
20
-3.49839705883753
30
0
41
1
10
25.1669377106178
20
-3.49327473275966
30
0
41
1
10
25.1649459934911
20
-3.48802315919369
30
0
41
1
10
25.1632016960823
20
-3.4826175448373
30
0
41
1
10
25.161706226857
20
-3.4770382609255
30
0
0
SPLINE
5
EB
100
AcDbEntity
8
1
62
256
6
ByLayer
370
13
48
1
60
0
100
AcDbSpline
70
4
71
3
72
10
73
6
40
0
40
0
40
0
40
0
40
0.499723436667697
40
0.750140957652741
40
1
40
1
40
1
40
1
41
1
10
25.1716586517409
20
-3.50337680045578
30
0
41
1
10
25.1576513492703
20
-3.50239176183007
30
0
41
1
10
25.1366248163553
20
-3.50091310831135
30
0
41
1
10
24.9924055065834
20
-3.47675484666533
30
0
41
1
10
24.8825813571167
20
-3.46944120300708
30
0
41
1
10
24.8277305829178
20
-3.46578846343371
30
0
0
SPLINE
5
EC
100
AcDbEntity
8
1
62
256
6
ByLayer
370
13
48
1
60
0
100
AcDbSpline
70
4
71
1
72
4
73
2
40
0
40
0
40
1
40
1
41
1
10
29.7858996484409
20
-3.62522740991824
30
0
41
1
10
29.8319712188851
20
-4.95182505169143
30
0
0
SPLINE
5
ED
100
AcDbEntity
8
1
62
256
6
ByLayer
370
13
48
1
60
0
100
AcDbSpline
70
4
71
3
72
10
73
6
40
0
40
0
40
0
40
0
40
0.499723436677181
40
0.750140957663736
40
1
40
1
40
1
40
1
41
1
10
13.3006496790813
20
-2.48678270144467
30
0
41
1
10
13.1750619485747
20
-2.46947969833516
30
0
41
1
10
12.9865406715671
20
-2.44350594891623
30
0
41
1
10
12.8232490766621
20
-2.39913603303114
30
0
41
1
10
12.7858441352795
20
-2.38790840119344
30
0
41
1
10
12.767162542901
20
-2.38230085220087
30
0
0
SPLINE
5
EE
100
AcDbEntity
8
1
62
256
6
ByLayer
370
13
48
1
60
0
100
AcDbSpline
70
4
71
5
72
12
73
6
40
0
40
0
40
0
40
0
40
0
40
0
40
1
40
1
40
1
40
1
40
1
40
1
41
1
10
25.5695400442591
20
-3.06844626722375
30
0
41
1
10
25.5092389468142
20
-3.07463828344993
30
0
41
1
10
25.4514328045322
20
-3.08102232827372
30
0
41
1
10
25.3961266084097
20
-3.0875977786244
30
0
41
1
10
25.3433248571878
20
-3.09436397042734
30
0
41
1
10
25.2930315585783
20
-3.10132020046137
30
0
0
SPLINE
5
EF
100
AcDbEntity
8
1
62
256
6
ByLayer
370
13
48
1
60
0
100
AcDbSpline
70
4
71
3
72
8
73
4
40
0
40
0
40
0
40
0
40
1
40
1
40
1
40
1
41
1
10
23.1711593259972
20
-2.83447923805548
30
0
41
1
10
23.1488493002239
20
-3.08948986760242
30
0
41
1
10
23.0154382133429
20
-3.31441738868006
30
0
41
1
10
22.8872170667995
20
-3.31319810040711
30
0
0
SPLINE
5
F0
100
AcDbEntity
8
1
62
256
6
ByLayer
370
13
48
1
60
0
100
AcDbSpline
70
4
71
1
72
4
73
2
40
0
40
0
40
1
40
1
41
1
10
24.8544658837351
20
-3.47371484009619
30
0
41
1
10
24.8405562616285
20
-3.47189368200205
30
0
0
SPLINE
5
F1
100
AcDbEntity
8
1
62
256
6
ByLayer
370
13
48
1
60
0
100
AcDbSpline
70
4
71
3
72
8
73
4
40
0
40
0
40
0
40
0
40
1
40
1
40
1
40
1
41
1
10
24.5589050010378
20
-2.96702452386972
30
0
41
1
10
24.568001437979
20
-2.96743074415562
30
0
41
1
10
24.5769319545064
20
-2.96783848686664
30
0
41
1
10
24.5856787998558
20
-2.96824685025606
30
0
0
SPLINE
5
F2
100
AcDbEntity
8
1
62
256
6
ByLayer
370
13
48
1
60
0
100
AcDbSpline
70
4
71
2
72
6
73
3
40
0
40
0
40
0
40
1
40
1
40
1
41
1
10
24.8277006773594
20
-3.46578612458546
30
0
41
1
10
24.8014221340512
20
-3.46455995849371
30
0
41
1
10
24.7741744461834
20
-3.46320592822571
30
0
0
SPLINE
5
F3
100
AcDbEntity
8
1
62
256
6
ByLayer
370
13
48
1
60
0
100
AcDbSpline
70
4
71
5
72
12
73
6
40
0
40
0
40
0
40
0
40
0
40
0
40
1
40
1
40
1
40
1
40
1
40
1
41
1
10
23.4877015723321
20
-3.37814182487622
30
0
41
1
10
23.2609451477626
20
-3.35527168635045
30
0
41
1
10
23.0325022347041
20
-3.33235064788937
30
0
41
1
10
22.8023943317667
20
-3.30938084839016
30
0
41
1
10
22.5706433472678
20
-3.28636444372606
30
0
41
1
10
22.337271554865
20
-3.26330360279897
30
0
0
SPLINE
5
F4
100
AcDbEntity
8
1
62
256
6
ByLayer
370
13
48
1
60
0
100
AcDbSpline
70
4
71
3
72
8
73
4
40
0
40
0
40
0
40
0
40
1
40
1
40
1
40
1
41
1
10
24.8098723942582
20
-2.98224309171059
30
0
41
1
10
24.8023113016382
20
-3.19957097019687
30
0
41
1
10
24.9539030724519
20
-3.41272495486862
30
0
41
1
10
25.1617017815423
20
-3.47698139290068
30
0
0
SPLINE
5
F5
100
AcDbEntity
8
1
62
256
6
ByLayer
370
13
48
1
60
0
100
AcDbSpline
70
4
71
2
72
6
73
3
40
0
40
0
40
0
40
1
40
1
40
1
41
1
10
12.7671836742963
20
-2.38230154486791
30
0
41
1
10
12.7652802132967
20
-2.38106590735228
30
0
41
1
10
12.7653473727666
20
-2.37996855502925
30
0
0
SPLINE
5
F6
100
AcDbEntity
8
1
62
256
6
ByLayer
370
13
48
1
60
0
100
AcDbSpline
70
4
71
5
72
12
73
6
40
0
40
0
40
0
40
0
40
0
40
0
40
1
40
1
40
1
40
1
40
1
40
1
41
1
10
24.8078224802533
20
-3.00483181833877
30
0
41
1
10
24.8075730224903
20
-3.01084430439963
30
0
41
1
10
24.7860996489079
20
-3.00599586058905
30
0
41
1
10
24.7443285074095
20
-2.98990759823724
30
0
41
1
10
24.6766810947216
20
-2.97204410741514
30
0
41
1
10
24.5856742402119
20
-2.96824597848215
30
0
0
SPLINE
5
F7
100
AcDbEntity
8
1
62
256
6
ByLayer
370
13
48
1
60
0
100
AcDbSpline
70
4
71
3
72
8
73
4
40
0
40
0
40
0
40
0
40
1
40
1
40
1
40
1
41
1
10
22.6256859885876
20
-2.78498886835811
30
0
41
1
10
22.6033649320635
20
-3.04005846519544
30
0
41
1
10
22.4679164817581
20
-3.2648981995867
30
0
41
1
10
22.3372717702809
20
-3.26360979386081
30
0
0
SPLINE
5
F8
100
AcDbEntity
8
1
62
256
6
ByLayer
370
13
48
1
60
0
100
AcDbSpline
70
4
71
3
72
8
73
4
40
0
40
0
40
0
40
0
40
1
40
1
40
1
40
1
41
1
10
18.0054685043629
20
-3.47847813169915
30
0
41
1
10
17.9953972980836
20
-3.47756967728276
30
0
41
1
10
17.9853546101876
20
-3.47625344911589
30
0
41
1
10
17.9753650583925
20
-3.47453267367868
30
0
0
SPLINE
5
F9
100
AcDbEntity
8
1
62
256
6
ByLayer
370
13
48
1
60
0
100
AcDbSpline
70
4
71
5
72
12
73
6
40
0
40
0
40
0
40
0
40
0
40
0
40
1
40
1
40
1
40
1
40
1
40
1
41
1
10
18.1163088646489
20
-3.44254910512413
30
0
41
1
10
17.3743571853756
20
-3.29450475664953
30
0
41
1
10
16.6116686872164
20
-3.14525891071727
30
0
41
1
10
15.8290344362358
20
-2.99497343706267
30
0
41
1
10
15.0273113533675
20
-2.84381700544307
30
0
41
1
10
14.2073804800386
20
-2.69195662481693
30
0
0
SPLINE
5
FA
100
AcDbEntity
8
1
62
256
6
ByLayer
370
13
48
1
60
0
100
AcDbSpline
70
4
71
3
72
14
73
10
40
0
40
0
40
0
40
0
40
0.24944459212684
40
0.24944459212684
40
0.58477457457739
40
0.58477457457739
40
0.8401062538714
40
0.8401062538714
40
1
40
1
40
1
40
1
41
1
10
31.6619548051666
20
-3.56954514817215
30
0
41
1
10
31.4996738928835
20
-3.57598162676751
30
0
41
1
10
31.3373929806025
20
-3.58241810536333
30
0
41
1
10
30.9583603454962
20
-3.5974515150553
30
0
41
1
10
30.7341678319042
20
-3.60611878202616
30
0
41
1
10
30.3534256257752
20
-3.61695545182562
30
0
41
1
10
30.1910072093073
20
-3.62054605094389
30
0
41
1
10
29.9524711817293
20
-3.62410349161635
30
0
41
1
10
29.8651892919325
20
-3.62494675850999
30
0
41
1
10
29.7858996531906
20
-3.62522740990144
30
0
0
SPLINE
5
FB
100
AcDbEntity
8
1
62
256
6
ByLayer
370
13
48
1
60
0
100
AcDbSpline
70
4
71
3
72
8
73
4
40
0
40
0
40
0
40
0
40
1
40
1
40
1
40
1
41
1
10
17.706032572361
20
-3.47565169254085
30
0
41
1
10
17.6901059909667
20
-3.47468753607481
30
0
41
1
10
17.6742365428167
20
-3.47290670371234
30
0
41
1
10
17.6585020482541
20
-3.47031792827039
30
0
0
SPLINE
5
FC
100
AcDbEntity
8
1
62
256
6
ByLayer
370
13
48
1
60
0
100
AcDbSpline
70
4
71
5
72
12
73
6
40
0
40
0
40
0
40
0
40
0
40
0
40
1
40
1
40
1
40
1
40
1
40
1
41
1
10
14.2074112588691
20
-2.69196106376603
30
0
41
1
10
15.944363795929
20
-2.84402608192491
30
0
41
1
10
17.6311958163537
20
-2.99605125915267
30
0
41
1
10
19.2607999396248
20
-3.14742228415054
30
0
41
1
10
20.8262382093505
20
-3.29750313754985
30
0
41
1
10
22.3212881141677
20
-3.44568448397291
30
0
0
SPLINE
5
FD
100
AcDbEntity
8
1
62
256
6
ByLayer
370
13
48
1
60
0
100
AcDbSpline
70
4
71
1
72
4
73
2
40
0
40
0
40
1
40
1
41
1
10
17.675812797945
20
-3.47207484721335
30
0
41
1
10
17.6584512785624
20
-3.47069765858061
30
0
0
SPLINE
5
FE
100
AcDbEntity
8
1
62
256
6
ByLayer
370
13
48
1
60
0
100
AcDbSpline
70
4
71
1
72
4
73
2
40
0
40
0
40
1
40
1
41
1
10
17.6758783354969
20
-3.47158640454947
30
0
41
1
10
17.9754937909906
20
-3.4743096358367
30
0
0
SPLINE
5
FF
100
AcDbEntity
8
1
62
256
6
ByLayer
370
13
48
1
60
0
100
AcDbSpline
70
4
71
5
72
12
73
6
40
0
40
0
40
0
40
0
40
0
40
0
40
1
40
1
40
1
40
1
40
1
40
1
41
1
10
24.5589167270801
20
-2.96702449920849
30
0
41
1
10
24.5536727888069
20
-3.11695668120566
30
0
41
1
10
24.576520822708
20
-3.26682367599315
30
0
41
1
10
24.6289650044638
20
-3.38768691517439
30
0
41
1
10
24.6996813717377
20
-3.45344922162531
30
0
41
1
10
24.7742172794965
20
-3.4632080577428
30
0
0
SPLINE
5
100
100
AcDbEntity
8
1
62
256
6
ByLayer
370
13
48
1
60
0
100
AcDbSpline
70
4
71
3
72
9
73
5
40
0
40
0
40
0
40
0
40
0.500127956009778
40
1
40
1
40
1
40
1
41
1
10
24.0609009216591
20
-2.91473669290096
30
0
41
1
10
24.1435450330226
20
-2.92661476852055
30
0
41
1
10
24.3087909673287
20
-2.95036484183046
30
0
41
1
10
24.4755479013068
20
-2.96147166839248
30
0
41
1
10
24.558905030744
20
-2.96702366048828
30
0
0
SPLINE
5
101
100
AcDbEntity
8
1
62
256
6
ByLayer
370
13
48
1
60
0
100
AcDbSpline
70
4
71
5
72
12
73
6
40
0
40
0
40
0
40
0
40
0
40
0
40
1
40
1
40
1
40
1
40
1
40
1
41
1
10
22.3212939651937
20
-3.44567960081423
30
0
41
1
10
22.0379930598396
20
-3.49965312695318
30
0
41
1
10
21.754608980445
20
-3.55318849227783
30
0
41
1
10
21.4711409516657
20
-3.60627661593142
30
0
41
1
10
21.1875879384433
20
-3.65890807245879
30
0
41
1
10
20.9039488955229
20
-3.7110730241404
30
0
0
SPLINE
5
102
100
AcDbEntity
8
1
62
256
6
ByLayer
370
13
48
1
60
0
100
AcDbSpline
70
4
71
1
72
4
73
2
40
0
40
0
40
1
40
1
41
1
10
29.4526587465833
20
-3.63238337573216
30
0
41
1
10
29.4527704577837
20
-3.63560001917568
30
0
0
SPLINE
5
103
100
AcDbEntity
8
1
62
256
6
ByLayer
370
13
48
1
60
0
100
AcDbSpline
70
4
71
3
72
12
73
8
40
0
40
0
40
0
40
0
40
0.249997715236245
40
0.499996858553516
40
0.624998974739552
40
0.750001371230268
40
1
40
1
40
1
40
1
41
1
10
14.4302071061661
20
-2.11254618368679
30
0
41
1
10
15.1160953597371
20
-2.17815573049251
30
0
41
1
10
16.4878757849309
20
-2.30937519889036
30
0
41
1
10
18.1982948767668
20
-2.44340978036999
30
0
41
1
10
19.5640181274855
20
-2.54458718192379
30
0
41
1
10
20.9279054401423
20
-2.64299781336251
30
0
41
1
10
21.9465672670444
20
-2.72819188717506
30
0
41
1
10
22.625669570108
20
-2.78498746958087
30
0
0
SPLINE
5
104
100
AcDbEntity
8
1
62
256
6
ByLayer
370
13
48
1
60
0
100
AcDbSpline
70
4
71
2
72
6
73
3
40
0
40
0
40
0
40
1
40
1
40
1
41
1
10
17.9759519875918
20
-3.47434342839847
30
0
41
1
10
16.1265868743802
20
-3.10458693298969
30
0
41
1
10
14.0854328025855
20
-2.72593678013163
30
0
0
SPLINE
5
105
100
AcDbEntity
8
1
62
256
6
ByLayer
370
13
48
1
60
0
100
AcDbSpline
70
4
71
5
72
12
73
6
40
0
40
0
40
0
40
0
40
0
40
0
40
1
40
1
40
1
40
1
40
1
40
1
41
1
10
24.8098723927334
20
-2.98224306842314
30
0
41
1
10
24.8094476901399
20
-2.98718401777472
30
0
41
1
10
24.8090311264465
20
-2.99189115657018
30
0
41
1
10
24.8086218440608
20
-2.99638895304972
30
0
41
1
10
24.8082187646048
20
-3.00070819773507
30
0
41
1
10
24.8078205843622
20
-3.0048861327229
30
0
0
SPLINE
5
106
100
AcDbEntity
8
1
62
256
6
ByLayer
370
13
48
1
60
0
100
AcDbSpline
70
4
71
5
72
12
73
6
40
0
40
0
40
0
40
0
40
0
40
0
40
1
40
1
40
1
40
1
40
1
40
1
41
1
10
24.0609009326077
20
-2.91473669465609
30
0
41
1
10
24.0475187888115
20
-3.06769964611144
30
0
41
1
10
24.0048340344364
20
-3.21856400316616
30
0
41
1
10
23.9350008191185
20
-3.33630453787367
30
0
41
1
10
23.8538786920611
20
-3.39418165652742
30
0
41
1
10
23.7769674090786
20
-3.39345566422713
30
0
0
SPLINE
5
107
100
AcDbEntity
8
1
62
256
6
ByLayer
370
13
48
1
60
0
100
AcDbSpline
70
4
71
2
72
9
73
6
40
0
40
0
40
0
40
0.25
40
0.5
40
0.75
40
1
40
1
40
1
41
1
10
24.8081400208429
20
-2.97858930559218
30
0
41
1
10
24.9220390587567
20
-2.98886728590699
30
0
41
1
10
25.1073095241185
20
-3.0083480820642
30
0
41
1
10
25.2375149815456
20
-3.02542372176515
30
0
41
1
10
25.3042885679093
20
-3.03897062365837
30
0
41
1
10
25.3041809070666
20
-3.04357225621004
30
0
0
SPLINE
5
108
100
AcDbEntity
8
1
62
256
6
ByLayer
370
13
48
1
60
0
100
AcDbSpline
70
4
71
1
72
4
73
2
40
0
40
0
40
1
40
1
41
1
10
17.7059003715742
20
-3.47664048416232
30
0
41
1
10
17.6758132956441
20
-3.47207488669454
30
0
0
LINE
5
70
100
AcDbEntity
8
80
62
256
6
ByLayer
370
18
48
1
60
0
100
AcDbLine
10
0
20
0
30
0
11
-5
21
0
31
0
39
0
210
0
220
0
230
1
0
LINE
5
71
100
AcDbEntity
8
81
62
256
6
ByLayer
370
18
48
1
60
0
100
AcDbLine
10
26.651424
20
-5
30
0
11
36.651424
21
-5
31
0
39
0
210
0
220
0
230
1
0
LINE
5
72
100
AcDbEntity
8
1
62
256
6
ByLayer
370
18
48
1
60
0
100
AcDbLine
10
18.067947
20
-4.130398
30
0
11
18.052633
21
-4.349405
31
0
39
0
210
0
220
0
230
1
0
LINE
5
74
100
AcDbEntity
8
1
62
256
6
ByLayer
370
18
48
1
60
0
100
AcDbLine
10
23.289844
20
-4.715627
30
0
11
23.305158
21
-4.49662
31
0
39
0
210
0
220
0
230
1
0
LINE
5
75
100
AcDbEntity
8
1
62
256
6
ByLayer
370
13
48
1
60
0
100
AcDbLine
10
13.311415
20
-1.836501
30
0
11
13.295332
21
-1.950977
31
0
39
0
210
0
220
0
230
1
0
LINE
5
76
100
AcDbEntity
8
1
62
256
6
ByLayer
370
18
48
1
60
0
100
AcDbLine
10
10.45748
20
-1.701472
30
0
11
9.956567
21
-2.071052
31
0
39
0
210
0
220
0
230
1
0
LINE
5
77
100
AcDbEntity
8
1
62
256
6
ByLayer
370
18
48
1
60
0
100
AcDbLine
10
9.507711
20
-2.402225
30
0
11
5.817389
21
-5.125
31
0
39
0
210
0
220
0
230
1
0
LINE
5
78
100
AcDbEntity
8
1
62
256
6
ByLayer
370
18
48
1
60
0
100
AcDbLine
10
23.289844
20
-4.715627
30
0
11
23.289844
21
-4.71562
31
0
39
0
210
0
220
0
230
1
0
LINE
5
79
100
AcDbEntity
8
1
62
256
6
ByLayer
370
13
48
1
60
0
100
AcDbLine
10
24.807822
20
-3.004852
30
0
11
24.818808
21
-2.690713
31
0
39
0
210
0
220
0
230
1
0
LINE
5
7A
100
AcDbEntity
8
1
62
256
6
ByLayer
370
13
48
1
60
0
100
AcDbLine
10
24.060901
20
-2.914737
30
0
11
24.070565
21
-2.638395
31
0
39
0
210
0
220
0
230
1
0
LINE
5
7B
100
AcDbEntity
8
1
62
256
6
ByLayer
370
13
48
1
60
0
100
AcDbLine
10
12.392891
20
-2.402565
30
0
11
11.814836
21
-2.397313
31
0
39
0
210
0
220
0
230
1
0
LINE
5
7C
100
AcDbEntity
8
1
62
256
6
ByLayer
370
13
48
1
60
0
100
AcDbLine
10
13.538878
20
-2.01868
30
0
11
13.560798
21
-1.862666
31
0
39
0
210
0
220
0
230
1
0
LINE
5
7D
100
AcDbEntity
8
1
62
256
6
ByLayer
370
13
48
1
60
0
100
AcDbLine
10
12.60416
20
-2.368699
30
0
11
12.841758
21
-2.370941
31
0
39
0
210
0
220
0
230
1
0
LINE
5
7E
100
AcDbEntity
8
1
62
256
6
ByLayer
370
13
48
1
60
0
100
AcDbLine
10
25.232091
20
-3.024265
30
0
11
25.56954
21
-3.068446
31
0
39
0
210
0
220
0
230
1
0
LINE
5
7F
100
AcDbEntity
8
1
62
256
6
ByLayer
370
13
48
1
60
0
100
AcDbLine
10
29.788577
20
-4.949995
30
0
11
28.288148
21
-4.845074
31
0
39
0
210
0
220
0
230
1
0
LINE
5
80
100
AcDbEntity
8
1
62
256
6
ByLayer
370
13
48
1
60
0
100
AcDbLine
10
24.060901
20
-2.914737
30
0
11
23.171159
21
-2.834479
31
0
39
0
210
0
220
0
230
1
0
LINE
5
81
100
AcDbEntity
8
1
62
256
6
ByLayer
370
13
48
1
60
0
100
AcDbLine
10
11.608669
20
-3.678732
30
0
11
9.332027
21
-3.485614
31
0
39
0
210
0
220
0
230
1
0
LINE
5
82
100
AcDbEntity
8
1
62
256
6
ByLayer
370
13
48
1
60
0
100
AcDbLine
10
24.775754
20
-4.599464
30
0
11
11.608671
21
-3.678732
31
0
39
0
210
0
220
0
230
1
0
LINE
5
83
100
AcDbEntity
8
1
62
256
6
ByLayer
370
13
48
1
60
0
100
AcDbLine
10
20.599169
20
-3.727163
30
0
11
18.087882
21
-3.551557
31
0
39
0
210
0
220
0
230
1
0
LINE
5
84
100
AcDbEntity
8
1
62
256
6
ByLayer
370
13
48
1
60
0
100
AcDbLine
10
24.775754
20
-4.599464
30
0
11
28.288148
21
-4.845075
31
0
39
0
210
0
220
0
230
1
0
LINE
5
85
100
AcDbEntity
8
1
62
256
6
ByLayer
370
13
48
1
60
0
100
AcDbLine
10
11.608681
20
-3.678603
30
0
11
11.90018
21
-2.412297
31
0
39
0
210
0
220
0
230
1
0
LINE
5
86
100
AcDbEntity
8
1
62
256
6
ByLayer
370
13
48
1
60
0
100
AcDbLine
10
25.304181
20
-3.043572
30
0
11
25.30167
21
-3.079478
31
0
39
0
210
0
220
0
230
1
0
LINE
5
87
100
AcDbEntity
8
1
62
256
6
ByLayer
370
13
48
1
60
0
100
AcDbLine
10
23.776968
20
-3.393456
30
0
11
22.887226
21
-3.313198
31
0
39
0
210
0
220
0
230
1
0
LINE
5
88
100
AcDbEntity
8
1
62
256
6
ByLayer
370
13
48
1
60
0
100
AcDbLine
10
18.067359
20
-3.548653
30
0
11
18.087883
21
-3.551557
31
0
39
0
210
0
220
0
230
1
0
LINE
5
89
100
AcDbEntity
8
1
62
256
6
ByLayer
370
13
48
1
60
0
100
AcDbLine
10
24.854462
20
-3.473715
30
0
11
23.487703
21
-3.378142
31
0
39
0
210
0
220
0
230
1
0
LINE
5
8A
100
AcDbEntity
8
1
62
256
6
ByLayer
370
13
48
1
60
0
100
AcDbLine
10
27.228634
20
-3.67484
30
0
11
28.229975
21
-3.674614
31
0
39
0
210
0
220
0
230
1
0
LINE
5
8B
100
AcDbEntity
8
1
62
256
6
ByLayer
370
13
48
1
60
0
100
AcDbLine
10
25.267725
20
-3.538625
30
0
11
27.193666
21
-3.673643
31
0
39
0
210
0
220
0
230
1
0
LINE
5
8C
100
AcDbEntity
8
1
62
256
6
ByLayer
370
13
48
1
60
0
100
AcDbLine
10
18.018407
20
-3.542741
30
0
11
11.900183
21
-2.412298
31
0
39
0
210
0
220
0
230
1
0
LINE
5
8D
100
AcDbEntity
8
1
62
256
6
ByLayer
370
13
48
1
60
0
100
AcDbLine
10
17.706033
20
-3.475652
30
0
11
18.067359
21
-3.548653
31
0
39
0
210
0
220
0
230
1
0
LINE
5
8E
100
AcDbEntity
8
1
62
256
6
ByLayer
370
13
48
1
60
0
100
AcDbLine
10
28.247193
20
-3.674395
30
0
11
29.452657
21
-3.632375
31
0
39
0
210
0
220
0
230
1
0
LINE
5
8F
100
AcDbEntity
8
1
62
256
6
ByLayer
370
13
48
1
60
0
100
AcDbLine
10
17.706033
20
-3.475652
30
0
11
18.005468
21
-3.478478
31
0
39
0
210
0
220
0
230
1
0
LINE
5
90
100
AcDbEntity
8
1
62
256
6
ByLayer
370
13
48
1
60
0
100
AcDbLine
10
9.572367
20
-2.003594
30
0
11
11.900183
21
-2.412298
31
0
39
0
210
0
220
0
230
1
0
LINE
5
91
100
AcDbEntity
8
1
62
256
6
ByLayer
370
18
48
1
60
0
100
AcDbLine
10
0
20
4.8
30
0
11
11.651424
21
4.8
31
0
39
0
210
0
220
0
230
1
0
LINE
5
92
100
AcDbEntity
8
1
62
256
6
ByLayer
370
18
48
1
60
0
100
AcDbLine
10
0
20
-5.125
30
0
11
0
21
4.8
31
0
39
0
210
0
220
0
230
1
0
LINE
5
93
100
AcDbEntity
8
1
62
256
6
ByLayer
370
18
48
1
60
0
100
AcDbLine
10
24.951424
20
-1.655875
30
0
11
24.951424
21
2.962927
31
0
39
0
210
0
220
0
230
1
0
LINE
5
94
100
AcDbEntity
8
1
62
256
6
ByLayer
370
18
48
1
60
0
100
AcDbLine
10
11.651424
20
-1.662336
30
0
11
6.058923
21
-1.27127
31
0
39
0
210
0
220
0
230
1
0
LINE
5
95
100
AcDbEntity
8
1
62
256
6
ByLayer
370
18
48
1
60
0
100
AcDbLine
10
21.216376
20
4.813417
30
0
11
23.89312
21
4.795964
31
0
39
0
210
0
220
0
230
1
0
LINE
5
96
100
AcDbEntity
8
1
62
256
6
ByLayer
370
18
48
1
60
0
100
AcDbLine
10
24.951424
20
-2.700006
30
0
11
14.726424
21
-1.985004
31
0
39
0
210
0
220
0
230
1
0
LINE
5
97
100
AcDbEntity
8
1
62
256
6
ByLayer
370
18
48
1
60
0
100
AcDbLine
10
4.713576
20
-1.647254
30
0
11
0
21
-5.125
31
0
39
0
210
0
220
0
230
1
0
LINE
5
98
100
AcDbEntity
8
1
62
256
6
ByLayer
370
18
48
1
60
0
100
AcDbLine
10
4.713576
20
-1.647254
30
0
11
10.45748
21
-1.701472
31
0
39
0
210
0
220
0
230
1
0
LINE
5
99
100
AcDbEntity
8
1
62
256
6
ByLayer
370
18
48
1
60
0
100
AcDbLine
10
14.726424
20
-1.985004
30
0
11
14.726424
21
4.813417
31
0
39
0
210
0
220
0
230
1
0
LINE
5
9A
100
AcDbEntity
8
1
62
256
6
ByLayer
370
18
48
1
60
0
100
AcDbLine
10
11.651424
20
4.8
30
0
11
14.726424
21
4.813417
31
0
39
0
210
0
220
0
230
1
0
LINE
5
9B
100
AcDbEntity
8
1
62
256
6
ByLayer
370
18
48
1
60
0
100
AcDbLine
10
24.951424
20
-2.700006
30
0
11
24.951424
21
-1.655875
31
0
39
0
210
0
220
0
230
1
0
LINE
5
9C
100
AcDbEntity
8
1
62
256
6
ByLayer
370
18
48
1
60
0
100
AcDbLine
10
11.651424
20
-1.662336
30
0
11
11.651424
21
4.8
31
0
39
0
210
0
220
0
230
1
0
LINE
5
9D
100
AcDbEntity
8
1
62
256
6
ByLayer
370
18
48
1
60
0
100
AcDbLine
10
14.726424
20
4.813417
30
0
11
21.216376
21
4.813417
31
0
39
0
210
0
220
0
230
1
0
LINE
5
9E
100
AcDbEntity
8
1
62
256
6
ByLayer
370
18
48
1
60
0
100
AcDbLine
10
24.951424
20
-1.655875
30
0
11
21.216376
21
4.813417
31
0
39
0
210
0
220
0
230
1
0
LINE
5
9F
100
AcDbEntity
8
1
62
256
6
ByLayer
370
18
48
1
60
0
100
AcDbLine
10
14.726424
20
-1.985004
30
0
11
11.651424
21
-1.662336
31
0
39
0
210
0
220
0
230
1
0
LINE
5
A0
100
AcDbEntity
8
1
62
256
6
ByLayer
370
18
48
1
60
0
100
AcDbLine
10
5.817389
20
-5.125
30
0
11
0
21
-5.125
31
0
39
0
210
0
220
0
230
1
0
LINE
5
A1
100
AcDbEntity
8
1
62
256
6
ByLayer
370
18
48
1
60
0
100
AcDbLine
10
24.951424
20
2.962927
30
0
11
23.89312
21
4.795964
31
0
39
0
210
0
220
0
230
1
0
LINE
5
A2
100
AcDbEntity
8
SK1
62
256
6
ByLayer
370
18
48
1
60
0
100
AcDbLine
10
-35.448991
20
-5.125
30
0
11
0
21
-5.125
31
0
39
0
210
0
220
0
230
1
0
LINE
5
A4
100
AcDbEntity
8
SK1
62
256
6
ByLayer
370
18
48
1
60
0
100
AcDbLine
10
-38.348576
20
4.8
30
0
11
0
21
4.8
31
0
39
0
210
0
220
0
230
1
0
LINE
5
A5
100
AcDbEntity
8
SK1
62
256
6
ByLayer
370
18
48
1
60
0
100
AcDbLine
10
-38.348576
20
-2.2
30
0
11
-38.348576
21
4.8
31
0
39
0
210
0
220
0
230
1
0
LINE
5
A6
100
AcDbEntity
8
SK1
62
256
6
ByLayer
370
18
48
1
60
0
100
AcDbLine
10
-35.448991
20
-5.125
30
0
11
-38.348576
21
-2.2
31
0
39
0
210
0
220
0
230
1
0
LINE
5
A7
100
AcDbEntity
8
SK1
62
256
6
ByLayer
370
18
48
1
60
0
100
AcDbLine
10
0
20
-5.125
30
0
11
0
21
4.8
31
0
39
0
210
0
220
0
230
1
0
MTEXT
5
109
100
AcDbEntity
8
SK6
62
256
6
ByLayer
370
18
48
1
60
0
100
AcDbMText
10
-34.973576
20
13.92158
30
0
210
0
220
0
230
1
1
\W0.7324;QS-LF123U06-1010B
40
3.5
41
0
44
1.084337
50
0
71
7
72
5
7
iso_b_vert
0
DIMENSION
5
11B
100
AcDbEntity
8
SK2
62
256
6
ByLayer
370
13
48
1
60
0
100
AcDbDimension
2
DimnDraft3D1
10
-48.098576
20
-5
30
0
11
-48.098576
21
15.5
31
0
70
32
71
5
72
1
41
1
210
0
220
0
230
1
3
Standard
100
AcDbAlignedDimension
13
-39.848576
23
5
33
0
14
-39.848576
24
-5
34
0
50
90
100
AcDbRotatedDimension
1001
ACAD
1000
DSTYLE
1002
{
1070
    74
1070
     0
1070
   279
1070
     0
1070
   172
1070
     1
1070
   173
1070
     1
1070
   340
1005
10A
1070
   271
1070
     3
1070
   272
1070
     3
1070
    77
1070
     1
1070
    73
1070
     0
1070
   171
1070
     4
1070
   274
1070
     4
1070
   177
1070
     2
1070
   176
1070
     2
1070
   178
1070
     7
1070
    78
1070
     8
1070
    41
1041
3.0
1070
   147
1041
2.25
1070
    42
1041
1.5
1070
    44
1041
3.0
1070
   140
1041
4.5
1070
   343
1005
11C
1070
   344
1005
11C
1002
}
0
DIMENSION
5
131
100
AcDbEntity
8
2
62
256
6
ByLayer
370
13
48
1
60
0
100
AcDbDimension
2
DimnDraft3D2
10
45.901424
20
-3.5
30
0
11
45.901424
21
-21.575
31
0
70
32
71
5
72
1
41
1
210
0
220
0
230
1
3
Standard
100
AcDbAlignedDimension
13
33.151424
23
-5
33
0
14
33.151424
24
-3.5
34
0
50
90
100
AcDbRotatedDimension
1001
ACAD
1000
DSTYLE
1002
{
1070
    74
1070
     0
1070
   279
1070
     0
1070
   172
1070
     1
1070
   173
1070
     1
1070
   340
1005
10A
1070
   271
1070
     3
1070
   272
1070
     3
1070
    77
1070
     1
1070
    73
1070
     0
1070
   171
1070
     4
1070
   274
1070
     4
1070
   177
1070
     2
1070
   176
1070
     2
1070
   178
1070
     7
1070
    78
1070
     8
1070
    41
1041
3.0
1070
   147
1041
2.25
1070
    42
1041
1.5
1070
    44
1041
3.0
1070
   140
1041
4.5
1070
   343
1005
11C
1070
   344
1005
11C
1002
}
0
DIMENSION
5
13F
100
AcDbEntity
8
2
62
256
6
ByLayer
370
13
48
1
60
0
100
AcDbDimension
2
DimnDraft3D3
10
55.901424
20
5
30
0
11
55.901424
21
15.5
31
0
70
32
71
5
72
1
41
1
210
0
220
0
230
1
3
Standard
100
AcDbAlignedDimension
13
33.151424
23
-5
33
0
14
1.5
24
5
34
0
50
90
100
AcDbRotatedDimension
1001
ACAD
1000
DSTYLE
1002
{
1070
    74
1070
     0
1070
   279
1070
     0
1070
   172
1070
     1
1070
   173
1070
     1
1070
   340
1005
10A
1070
   271
1070
     3
1070
   272
1070
     3
1070
    77
1070
     1
1070
    73
1070
     0
1070
   171
1070
     4
1070
   274
1070
     4
1070
   177
1070
     2
1070
   176
1070
     2
1070
   178
1070
     7
1070
    78
1070
     8
1070
    41
1041
3.0
1070
   147
1041
2.25
1070
    42
1041
1.5
1070
    44
1041
3.0
1070
   140
1041
4.5
1070
   343
1005
11C
1070
   344
1005
11C
1002
}
0
DIMENSION
5
14D
100
AcDbEntity
8
SK2
62
256
6
ByLayer
370
13
48
1
60
0
100
AcDbDimension
2
DimnDraft3D4
10
31.651424
20
-29.25
30
0
11
-8.630155
21
-29.25
31
0
70
32
71
5
72
1
41
1
210
0
220
0
230
1
3
Standard
100
AcDbAlignedDimension
13
-38.348576
23
-6.5
33
0
14
31.651424
24
-6.5
34
0
50
0
100
AcDbRotatedDimension
1001
ACAD
1000
DSTYLE
1002
{
1070
   279
1070
     0
1070
   172
1070
     1
1070
   173
1070
     1
1070
   340
1005
10A
1070
   271
1070
     3
1070
   272
1070
     3
1070
    77
1070
     1
1070
    73
1070
     0
1070
   171
1070
     4
1070
   274
1070
     4
1070
   177
1070
     2
1070
   176
1070
     2
1070
   178
1070
     7
1070
    78
1070
     8
1070
    41
1041
3.0
1070
   147
1041
2.25
1070
    42
1041
1.5
1070
    44
1041
3.0
1070
   140
1041
4.5
1070
   343
1005
11C
1070
   344
1005
11C
1002
}
0
DIMENSION
5
15B
100
AcDbEntity
8
2
62
256
6
ByLayer
370
13
48
1
60
0
100
AcDbDimension
2
DimnDraft3D5
10
0
20
-19.25
30
0
11
11.106633
21
-19.25
31
0
70
32
71
5
72
1
41
1
210
0
220
0
230
1
3
Standard
100
AcDbAlignedDimension
13
31.651424
23
-6.5
33
0
14
0
24
-6.5
34
0
50
0
100
AcDbRotatedDimension
1001
ACAD
1000
DSTYLE
1002
{
1070
   279
1070
     0
1070
   172
1070
     1
1070
   173
1070
     1
1070
   340
1005
10A
1070
   271
1070
     3
1070
   272
1070
     3
1070
    77
1070
     1
1070
    73
1070
     0
1070
   171
1070
     4
1070
   274
1070
     4
1070
   177
1070
     2
1070
   176
1070
     2
1070
   178
1070
     7
1070
    78
1070
     8
1070
    41
1041
3.0
1070
   147
1041
2.25
1070
    42
1041
1.5
1070
    44
1041
3.0
1070
   140
1041
4.5
1070
   343
1005
11C
1070
   344
1005
11C
1002
}
0
DIMENSION
5
169
100
AcDbEntity
8
2
62
256
6
ByLayer
370
13
48
1
60
0
100
AcDbDimension
2
DimnDraft3D6
10
25.651424
20
14.75
30
0
11
42.151424
21
14.75
31
0
70
32
71
5
72
1
41
1
210
0
220
0
230
1
3
Standard
100
AcDbAlignedDimension
13
31.651424
23
-2
33
0
14
25.651424
24
-2
34
0
50
0
100
AcDbRotatedDimension
1001
ACAD
1000
DSTYLE
1002
{
1070
   279
1070
     0
1070
   172
1070
     1
1070
   173
1070
     1
1070
   340
1005
10A
1070
   271
1070
     3
1070
   272
1070
     3
1070
    77
1070
     1
1070
    73
1070
     0
1070
   171
1070
     4
1070
   274
1070
     4
1070
   177
1070
     2
1070
   176
1070
     2
1070
   178
1070
     7
1070
    78
1070
     8
1070
    41
1041
3.0
1070
   147
1041
2.25
1070
    42
1041
1.5
1070
    44
1041
3.0
1070
   140
1041
4.5
1070
   343
1005
11C
1070
   344
1005
11C
1002
}
0
ENDSEC
0
SECTION
2
OBJECTS
0
DICTIONARY
5
1d3
330
0
100
AcDbDictionary
280
0
281
1
3
ACAD_GROUP
350
1d4
3
ACAD_MLINESTYLE
350
1d5
0
DICTIONARY
5
1d4
330
0
100
AcDbDictionary
280
0
281
1
0
DICTIONARY
5
1d5
330
0
100
AcDbDictionary
280
0
281
1
3
Standard
350
18
0
MLINESTYLE
5
18
330
1d5
100
AcDbMlineStyle
2
Standard
70
0
3

62
256
51
90
52
90
71
2
49
-0.5
62
256
6
ByLayer
49
0.5
62
256
6
ByLayer
0
RASTERVARIABLES
5
1c2
330

100
AcDbRasterVariables
90
0
70
1
71
1
72
1
0
ENDSEC
0
EOF
