0
SECTION
2
HEADER
9
$ACADVER
1
AC1015
9
$DWGCODEPAGE
3
ANSI_1252
9
$HANDSEED
5
1f9
9
$ANGBASE
50
0
9
$ANGDIR
70
0
9
$ATTMODE
70
1
9
$AUNITS
70
0
9
$AUPREC
70
0
9
$CECOLOR
62
256
9
$CELTSCALE
40
1
9
$CELTYPE
6
ByLayer
9
$CELWEIGHT
370
18
9
$CLAYER
8
0
9
$CMLJUST
70
0
9
$CMLSCALE
40
1
9
$CMLSTYLE
2
Standard
9
$DIMSTYLE
2
Standard
9
$TEXTSIZE
40
0.2
9
$TEXTSTYLE
7
Standard
9
$LUNITS
70
2
9
$LUPREC
70
4
9
$EXTNAMES
290
1
9
$INSUNITS
70
4
9
$LTSCALE
40
1
9
$LWDISPLAY
290
1
9
$PDMODE
70
0
9
$PDSIZE
40
0
9
$PLINEGEN
70
0
0
ENDSEC
0
SECTION
2
CLASSES
0
CLASS
1
RASTERVARIABLES
2
AcDbRasterVariables
3
ISM
90
0
280
0
281
0
0
ENDSEC
0
SECTION
2
TABLES
0
TABLE
2
VPORT
5
1ef
100
AcDbSymbolTable
0
VPORT
5
1
100
AcDbSymbolTableRecord
100
AcDbViewportTableRecord
2
*Active
70
0
10
0
20
0
11
1
21
1
12
-1
22
1
13
0
23
0
14
0.5
24
0.5
15
10
25
10
16
0
26
0
36
1
17
0
27
0
37
0
0
ENDTAB
0
TABLE
2
LTYPE
5
1f0
100
AcDbSymbolTable
0
LTYPE
5
14
100
AcDbSymbolTableRecord
100
AcDbLinetypeTableRecord
70
0
2
ByBlock
3

72
65
73
0
40
0
0
LTYPE
5
15
100
AcDbSymbolTableRecord
100
AcDbLinetypeTableRecord
70
0
2
ByLayer
3

72
65
73
0
40
0
0
LTYPE
5
16
100
AcDbSymbolTableRecord
100
AcDbLinetypeTableRecord
70
0
2
CONTINUOUS
3
Solid line
72
65
73
0
40
0
0
LTYPE
5
6A
100
AcDbSymbolTableRecord
100
AcDbLinetypeTableRecord
70
0
2
CENTER
3
____ _ ____ _ ____ _ ____
72
65
73
4
40
47.5
49
22
74
0
49
-8.5
74
0
49
8.5
74
0
49
-8.5
74
0
0
LTYPE
5
6B
100
AcDbSymbolTableRecord
100
AcDbLinetypeTableRecord
70
0
2
DASHED
3
__ __ __ __ __ __ __ __ __
72
65
73
2
40
25.72
49
12.86
74
0
49
-12.86
74
0
0
ENDTAB
0
TABLE
2
LAYER
5
1f1
100
AcDbSymbolTable
0
LAYER
5
10
100
AcDbSymbolTableRecord
100
AcDbLayerTableRecord
2
0
70
0
62
7
6
CONTINUOUS
290
1
370
-3
390
0
0
LAYER
5
6D
100
AcDbSymbolTableRecord
100
AcDbLayerTableRecord
2
81
70
0
62
-3
6
CONTINUOUS
290
1
370
-3
390
0
0
LAYER
5
6F
100
AcDbSymbolTableRecord
100
AcDbLayerTableRecord
2
80
70
0
62
-6
6
CONTINUOUS
290
1
370
-3
390
0
0
LAYER
5
71
100
AcDbSymbolTableRecord
100
AcDbLayerTableRecord
2
2
70
0
62
7
6
CONTINUOUS
290
1
370
-3
390
0
0
LAYER
5
73
100
AcDbSymbolTableRecord
100
AcDbLayerTableRecord
2
4
70
0
62
-2
6
CENTER
290
1
370
-3
390
0
0
LAYER
5
77
100
AcDbSymbolTableRecord
100
AcDbLayerTableRecord
2
1
70
0
62
4
6
CONTINUOUS
290
1
370
-3
390
0
0
LAYER
5
1dc
100
AcDbSymbolTableRecord
100
AcDbLayerTableRecord
2
SK1
70
0
62
4
6
CONTINUOUS
290
1
370
-3
390
0
0
LAYER
5
1dd
100
AcDbSymbolTableRecord
100
AcDbLayerTableRecord
2
SK6
70
0
62
5
6
CONTINUOUS
290
1
370
-3
390
0
0
LAYER
5
1de
100
AcDbSymbolTableRecord
100
AcDbLayerTableRecord
2
SK2
70
0
62
7
6
CONTINUOUS
290
1
370
-3
390
0
0
ENDTAB
0
TABLE
2
STYLE
5
1f2
100
AcDbSymbolTable
0
STYLE
5
11
100
AcDbSymbolTableRecord
100
AcDbTextStyleTableRecord
2
Standard
3
txt
70
0
71
0
40
0
41
1
42
0
50
0
0
STYLE
5
124
100
AcDbSymbolTableRecord
100
AcDbTextStyleTableRecord
2
iso_b_vert
3
simplex.shx
70
0
71
0
40
0
41
1
42
0
50
0
0
STYLE
5
125
100
AcDbSymbolTableRecord
100
AcDbTextStyleTableRecord
2
DWGDirectTextStyle
3
simplex
70
0
71
0
40
0
41
1
42
0
50
0
0
ENDTAB
0
TABLE
2
DIMSTYLE
5
1f3
100
AcDbSymbolTable
100
AcDbDimStyleTable
0
DIMSTYLE
105
27
100
AcDbSymbolTableRecord
100
AcDbDimStyleTableRecord
2
Standard
70
0
3
<>
41
0.18
42
0.0625
44
0.18
140
0.18
147
0.09
73
0
74
0
77
1
271
2
275
0
278
52
280
0
340
11
0
ENDTAB
0
TABLE
2
VIEW
5
1f4
100
AcDbSymbolTable
0
ENDTAB
0
TABLE
2
UCS
5
1f5
100
AcDbSymbolTable
0
ENDTAB
0
TABLE
2
APPID
5
1f6
100
AcDbSymbolTable
0
APPID
5
12
100
AcDbSymbolTableRecord
100
AcDbRegAppTableRecord
2
ACAD
70
0
0
ENDTAB
0
TABLE
2
BLOCK_RECORD
5
1f7
100
AcDbSymbolTable
0
BLOCK_RECORD
5
1F
100
AcDbSymbolTableRecord
100
AcDbBlockTableRecord
2
*Model_Space
340
0
70
0
0
BLOCK_RECORD
5
1B
100
AcDbSymbolTableRecord
100
AcDbBlockTableRecord
2
*Paper_Space
340
0
70
0
0
BLOCK_RECORD
5
23
100
AcDbSymbolTableRecord
100
AcDbBlockTableRecord
2
*Paper_Space0
340
0
70
0
0
BLOCK_RECORD
5
127
100
AcDbSymbolTableRecord
100
AcDbBlockTableRecord
2
DimnDraft3D1
340
0
70
0
0
BLOCK_RECORD
5
136
100
AcDbSymbolTableRecord
100
AcDbBlockTableRecord
2
_CLOSED
340
0
70
0
0
BLOCK_RECORD
5
13D
100
AcDbSymbolTableRecord
100
AcDbBlockTableRecord
2
DimnDraft3D2
340
0
70
0
0
BLOCK_RECORD
5
14B
100
AcDbSymbolTableRecord
100
AcDbBlockTableRecord
2
DimnDraft3D3
340
0
70
0
0
BLOCK_RECORD
5
159
100
AcDbSymbolTableRecord
100
AcDbBlockTableRecord
2
DimnDraft3D4
340
0
70
0
0
BLOCK_RECORD
5
167
100
AcDbSymbolTableRecord
100
AcDbBlockTableRecord
2
DimnDraft3D5
340
0
70
0
0
BLOCK_RECORD
5
175
100
AcDbSymbolTableRecord
100
AcDbBlockTableRecord
2
DimnDraft3D6
340
0
70
0
0
ENDTAB
0
ENDSEC
0
SECTION
2
BLOCKS
0
BLOCK
5
20
100
AcDbEntity
8
0
100
AcDbBlockBegin
2
*Model_Space
70
0
10
0
20
0
30
0
3
*Model_Space
0
ENDBLK
5
21
100
AcDbEntity
8
0
100
AcDbBlockEnd
0
BLOCK
5
1C
100
AcDbEntity
8
0
100
AcDbBlockBegin
2
*Paper_Space
70
0
10
0
20
0
30
0
3
*Paper_Space
0
ENDBLK
5
1D
100
AcDbEntity
8
0
100
AcDbBlockEnd
0
BLOCK
5
24
100
AcDbEntity
8
0
100
AcDbBlockBegin
2
*Paper_Space0
70
0
10
0
20
0
30
0
3
*Paper_Space0
0
ENDBLK
5
25
100
AcDbEntity
8
0
100
AcDbBlockEnd
0
BLOCK
5
133
100
AcDbEntity
8
0
100
AcDbBlockBegin
2
DimnDraft3D1
70
0
10
0
20
0
30
0
3
DimnDraft3D1
0
MTEXT
5
128
100
AcDbEntity
8
SK2
62
256
6
ByLayer
370
18
48
1
60
0
100
AcDbMText
10
-52.275
20
-3.519079
30
0
210
0
220
0
230
1
1
\W0.6563;16.0
40
4.5
41
0
44
1.084337
50
90
71
7
72
5
7
iso_b_vert
0
LINE
5
12A
100
AcDbEntity
8
SK2
62
256
6
ByLayer
370
13
48
1
60
0
100
AcDbLine
10
-42.9
20
8.075
30
0
11
-54.15
21
8.075
31
0
39
0
210
0
220
0
230
1
0
LINE
5
12B
100
AcDbEntity
8
SK2
62
256
6
ByLayer
370
13
48
1
60
0
100
AcDbLine
10
-42.9
20
-7.925
30
0
11
-54.15
21
-7.925
31
0
39
0
210
0
220
0
230
1
0
LINE
5
12C
100
AcDbEntity
8
SK2
62
256
6
ByLayer
370
13
48
1
60
0
100
AcDbLine
10
-51.15
20
19.325
30
0
11
-51.15
21
-19.175
31
0
39
0
210
0
220
0
230
1
0
LINE
5
12D
100
AcDbEntity
8
SK2
62
256
6
ByLayer
370
13
48
1
60
0
100
AcDbLine
10
-51.15
20
8.075
30
0
11
-51.544957
21
11.074999
31
0
39
0
210
0
220
0
230
1
0
LINE
5
12E
100
AcDbEntity
8
SK2
62
256
6
ByLayer
370
13
48
1
60
0
100
AcDbLine
10
-51.15
20
8.075
30
0
11
-50.755043
21
11.075001
31
0
39
0
210
0
220
0
230
1
0
LINE
5
12F
100
AcDbEntity
8
SK2
62
256
6
ByLayer
370
13
48
1
60
0
100
AcDbLine
10
-51.544957
20
11.074999
30
0
11
-50.755043
21
11.075001
31
0
39
0
210
0
220
0
230
1
0
LINE
5
130
100
AcDbEntity
8
SK2
62
256
6
ByLayer
370
13
48
1
60
0
100
AcDbLine
10
-51.15
20
-7.925
30
0
11
-50.755043
21
-10.924999
31
0
39
0
210
0
220
0
230
1
0
LINE
5
131
100
AcDbEntity
8
SK2
62
256
6
ByLayer
370
13
48
1
60
0
100
AcDbLine
10
-51.15
20
-7.925
30
0
11
-51.544957
21
-10.925001
31
0
39
0
210
0
220
0
230
1
0
LINE
5
132
100
AcDbEntity
8
SK2
62
256
6
ByLayer
370
13
48
1
60
0
100
AcDbLine
10
-50.755043
20
-10.924999
30
0
11
-51.544957
21
-10.925001
31
0
39
0
210
0
220
0
230
1
0
ENDBLK
5
134
100
AcDbEntity
8
0
100
AcDbBlockEnd
0
BLOCK
5
137
100
AcDbEntity
8
0
100
AcDbBlockBegin
2
_CLOSED
70
0
10
0
20
0
30
0
3
_CLOSED
0
LINE
5
139
100
AcDbEntity
8
0
62
256
6
ByLayer
370
-2
48
1
60
0
100
AcDbLine
10
-1
20
0.166667
30
0
11
0
21
0
31
0
39
0
210
0
220
0
230
1
0
LINE
5
13A
100
AcDbEntity
8
0
62
256
6
ByLayer
370
-2
48
1
60
0
100
AcDbLine
10
0
20
0
30
0
11
-1
21
-0.166667
31
0
39
0
210
0
220
0
230
1
0
LINE
5
13B
100
AcDbEntity
8
0
62
256
6
ByLayer
370
-2
48
1
60
0
100
AcDbLine
10
-1
20
0.166667
30
0
11
-1
21
-0.166667
31
0
39
0
210
0
220
0
230
1
0
LINE
5
13C
100
AcDbEntity
8
0
62
256
6
ByLayer
370
-2
48
1
60
0
100
AcDbLine
10
0
20
0
30
0
11
-1
21
0
31
0
39
0
210
0
220
0
230
1
0
ENDBLK
5
138
100
AcDbEntity
8
0
100
AcDbBlockEnd
0
BLOCK
5
148
100
AcDbEntity
8
0
100
AcDbBlockBegin
2
DimnDraft3D2
70
0
10
0
20
0
30
0
3
DimnDraft3D2
0
MTEXT
5
13E
100
AcDbEntity
8
2
62
256
6
ByLayer
370
18
48
1
60
0
100
AcDbMText
10
41.725
20
-24.5
30
0
210
0
220
0
230
1
1
\W0.7121;3.0
40
4.5
41
0
44
1.084337
50
90
71
7
72
5
7
iso_b_vert
0
LINE
5
13F
100
AcDbEntity
8
2
62
256
6
ByLayer
370
13
48
1
60
0
100
AcDbLine
10
30.1
20
-7.925
30
0
11
45.85
21
-7.925
31
0
39
0
210
0
220
0
230
1
0
LINE
5
140
100
AcDbEntity
8
2
62
256
6
ByLayer
370
13
48
1
60
0
100
AcDbLine
10
30.1
20
-4.925
30
0
11
45.85
21
-4.925
31
0
39
0
210
0
220
0
230
1
0
LINE
5
141
100
AcDbEntity
8
2
62
256
6
ByLayer
370
13
48
1
60
0
100
AcDbLine
10
42.85
20
6.325
30
0
11
42.85
21
-25.625
31
0
39
0
210
0
220
0
230
1
0
LINE
5
142
100
AcDbEntity
8
2
62
256
6
ByLayer
370
13
48
1
60
0
100
AcDbLine
10
42.85
20
-7.925
30
0
11
43.244957
21
-10.924999
31
0
39
0
210
0
220
0
230
1
0
LINE
5
143
100
AcDbEntity
8
2
62
256
6
ByLayer
370
13
48
1
60
0
100
AcDbLine
10
42.85
20
-7.925
30
0
11
42.455043
21
-10.925001
31
0
39
0
210
0
220
0
230
1
0
LINE
5
144
100
AcDbEntity
8
2
62
256
6
ByLayer
370
13
48
1
60
0
100
AcDbLine
10
43.244957
20
-10.924999
30
0
11
42.455043
21
-10.925001
31
0
39
0
210
0
220
0
230
1
0
LINE
5
145
100
AcDbEntity
8
2
62
256
6
ByLayer
370
13
48
1
60
0
100
AcDbLine
10
42.85
20
-4.925
30
0
11
42.455043
21
-1.925001
31
0
39
0
210
0
220
0
230
1
0
LINE
5
146
100
AcDbEntity
8
2
62
256
6
ByLayer
370
13
48
1
60
0
100
AcDbLine
10
42.85
20
-4.925
30
0
11
43.244957
21
-1.924999
31
0
39
0
210
0
220
0
230
1
0
LINE
5
147
100
AcDbEntity
8
2
62
256
6
ByLayer
370
13
48
1
60
0
100
AcDbLine
10
42.455043
20
-1.925001
30
0
11
43.244957
21
-1.924999
31
0
39
0
210
0
220
0
230
1
0
ENDBLK
5
149
100
AcDbEntity
8
0
100
AcDbBlockEnd
0
BLOCK
5
156
100
AcDbEntity
8
0
100
AcDbBlockBegin
2
DimnDraft3D3
70
0
10
0
20
0
30
0
3
DimnDraft3D3
0
MTEXT
5
14C
100
AcDbEntity
8
2
62
256
6
ByLayer
370
18
48
1
60
0
100
AcDbMText
10
51.725
20
0.075
30
0
210
0
220
0
230
1
1
\W0.6563;16.0
40
4.5
41
0
44
1.084337
50
90
71
8
72
5
7
iso_b_vert
0
LINE
5
14D
100
AcDbEntity
8
2
62
256
6
ByLayer
370
13
48
1
60
0
100
AcDbLine
10
30.1
20
-7.925
30
0
11
55.85
21
-7.925
31
0
39
0
210
0
220
0
230
1
0
LINE
5
14E
100
AcDbEntity
8
2
62
256
6
ByLayer
370
13
48
1
60
0
100
AcDbLine
10
1.5
20
8.075
30
0
11
55.85
21
8.075
31
0
39
0
210
0
220
0
230
1
0
LINE
5
14F
100
AcDbEntity
8
2
62
256
6
ByLayer
370
13
48
1
60
0
100
AcDbLine
10
52.85
20
-19.175
30
0
11
52.85
21
19.325
31
0
39
0
210
0
220
0
230
1
0
LINE
5
150
100
AcDbEntity
8
2
62
256
6
ByLayer
370
13
48
1
60
0
100
AcDbLine
10
52.85
20
-7.925
30
0
11
53.244957
21
-10.924999
31
0
39
0
210
0
220
0
230
1
0
LINE
5
151
100
AcDbEntity
8
2
62
256
6
ByLayer
370
13
48
1
60
0
100
AcDbLine
10
52.85
20
-7.925
30
0
11
52.455043
21
-10.925001
31
0
39
0
210
0
220
0
230
1
0
LINE
5
152
100
AcDbEntity
8
2
62
256
6
ByLayer
370
13
48
1
60
0
100
AcDbLine
10
53.244957
20
-10.924999
30
0
11
52.455043
21
-10.925001
31
0
39
0
210
0
220
0
230
1
0
LINE
5
153
100
AcDbEntity
8
2
62
256
6
ByLayer
370
13
48
1
60
0
100
AcDbLine
10
52.85
20
8.075
30
0
11
52.455043
21
11.074999
31
0
39
0
210
0
220
0
230
1
0
LINE
5
154
100
AcDbEntity
8
2
62
256
6
ByLayer
370
13
48
1
60
0
100
AcDbLine
10
52.85
20
8.075
30
0
11
53.244957
21
11.075001
31
0
39
0
210
0
220
0
230
1
0
LINE
5
155
100
AcDbEntity
8
2
62
256
6
ByLayer
370
13
48
1
60
0
100
AcDbLine
10
52.455043
20
11.074999
30
0
11
53.244957
21
11.075001
31
0
39
0
210
0
220
0
230
1
0
ENDBLK
5
157
100
AcDbEntity
8
0
100
AcDbBlockEnd
0
BLOCK
5
164
100
AcDbEntity
8
0
100
AcDbBlockBegin
2
DimnDraft3D4
70
0
10
0
20
0
30
0
3
DimnDraft3D4
0
MTEXT
5
15A
100
AcDbEntity
8
SK2
62
256
6
ByLayer
370
18
48
1
60
0
100
AcDbMText
10
-10.556579
20
-31.05
30
0
210
0
220
0
230
1
1
\W0.7346;70.0
40
4.5
41
0
44
1.084337
50
0
71
7
72
5
7
iso_b_vert
0
LINE
5
15B
100
AcDbEntity
8
SK2
62
256
6
ByLayer
370
13
48
1
60
0
100
AcDbLine
10
-41.4
20
-9.425
30
0
11
-41.4
21
-35.175
31
0
39
0
210
0
220
0
230
1
0
LINE
5
15C
100
AcDbEntity
8
SK2
62
256
6
ByLayer
370
13
48
1
60
0
100
AcDbLine
10
28.6
20
-9.425
30
0
11
28.6
21
-35.175
31
0
39
0
210
0
220
0
230
1
0
LINE
5
15D
100
AcDbEntity
8
SK2
62
256
6
ByLayer
370
13
48
1
60
0
100
AcDbLine
10
-41.4
20
-32.175
30
0
11
28.6
21
-32.175
31
0
39
0
210
0
220
0
230
1
0
LINE
5
15E
100
AcDbEntity
8
SK2
62
256
6
ByLayer
370
13
48
1
60
0
100
AcDbLine
10
-41.4
20
-32.175
30
0
11
-38.400001
21
-31.780043
31
0
39
0
210
0
220
0
230
1
0
LINE
5
15F
100
AcDbEntity
8
SK2
62
256
6
ByLayer
370
13
48
1
60
0
100
AcDbLine
10
-41.4
20
-32.175
30
0
11
-38.399999
21
-32.569957
31
0
39
0
210
0
220
0
230
1
0
LINE
5
160
100
AcDbEntity
8
SK2
62
256
6
ByLayer
370
13
48
1
60
0
100
AcDbLine
10
-38.400001
20
-31.780043
30
0
11
-38.399999
21
-32.569957
31
0
39
0
210
0
220
0
230
1
0
LINE
5
161
100
AcDbEntity
8
SK2
62
256
6
ByLayer
370
13
48
1
60
0
100
AcDbLine
10
28.6
20
-32.175
30
0
11
25.600001
21
-32.569957
31
0
39
0
210
0
220
0
230
1
0
LINE
5
162
100
AcDbEntity
8
SK2
62
256
6
ByLayer
370
13
48
1
60
0
100
AcDbLine
10
28.6
20
-32.175
30
0
11
25.599999
21
-31.780043
31
0
39
0
210
0
220
0
230
1
0
LINE
5
163
100
AcDbEntity
8
SK2
62
256
6
ByLayer
370
13
48
1
60
0
100
AcDbLine
10
25.600001
20
-32.569957
30
0
11
25.599999
21
-31.780043
31
0
39
0
210
0
220
0
230
1
0
ENDBLK
5
165
100
AcDbEntity
8
0
100
AcDbBlockEnd
0
BLOCK
5
172
100
AcDbEntity
8
0
100
AcDbBlockBegin
2
DimnDraft3D5
70
0
10
0
20
0
30
0
3
DimnDraft3D5
0
MTEXT
5
168
100
AcDbEntity
8
2
62
256
6
ByLayer
370
18
48
1
60
0
100
AcDbMText
10
10.143421
20
-21.05
30
0
210
0
220
0
230
1
1
\W0.7346;28.6
40
4.5
41
0
44
1.084337
50
0
71
7
72
5
7
iso_b_vert
0
LINE
5
169
100
AcDbEntity
8
2
62
256
6
ByLayer
370
13
48
1
60
0
100
AcDbLine
10
28.6
20
-9.425
30
0
11
28.6
21
-25.175
31
0
39
0
210
0
220
0
230
1
0
LINE
5
16A
100
AcDbEntity
8
2
62
256
6
ByLayer
370
13
48
1
60
0
100
AcDbLine
10
0
20
-9.425
30
0
11
0
21
-25.175
31
0
39
0
210
0
220
0
230
1
0
LINE
5
16B
100
AcDbEntity
8
2
62
256
6
ByLayer
370
13
48
1
60
0
100
AcDbLine
10
28.6
20
-22.175
30
0
11
0
21
-22.175
31
0
39
0
210
0
220
0
230
1
0
LINE
5
16C
100
AcDbEntity
8
2
62
256
6
ByLayer
370
13
48
1
60
0
100
AcDbLine
10
28.6
20
-22.175
30
0
11
25.600001
21
-22.569957
31
0
39
0
210
0
220
0
230
1
0
LINE
5
16D
100
AcDbEntity
8
2
62
256
6
ByLayer
370
13
48
1
60
0
100
AcDbLine
10
28.6
20
-22.175
30
0
11
25.599999
21
-21.780043
31
0
39
0
210
0
220
0
230
1
0
LINE
5
16E
100
AcDbEntity
8
2
62
256
6
ByLayer
370
13
48
1
60
0
100
AcDbLine
10
25.600001
20
-22.569957
30
0
11
25.599999
21
-21.780043
31
0
39
0
210
0
220
0
230
1
0
LINE
5
16F
100
AcDbEntity
8
2
62
256
6
ByLayer
370
13
48
1
60
0
100
AcDbLine
10
0
20
-22.175
30
0
11
2.999999
21
-21.780043
31
0
39
0
210
0
220
0
230
1
0
LINE
5
170
100
AcDbEntity
8
2
62
256
6
ByLayer
370
13
48
1
60
0
100
AcDbLine
10
0
20
-22.175
30
0
11
3.000001
21
-22.569957
31
0
39
0
210
0
220
0
230
1
0
LINE
5
171
100
AcDbEntity
8
2
62
256
6
ByLayer
370
13
48
1
60
0
100
AcDbLine
10
2.999999
20
-21.780043
30
0
11
3.000001
21
-22.569957
31
0
39
0
210
0
220
0
230
1
0
ENDBLK
5
173
100
AcDbEntity
8
0
100
AcDbBlockEnd
0
BLOCK
5
180
100
AcDbEntity
8
0
100
AcDbBlockBegin
2
DimnDraft3D6
70
0
10
0
20
0
30
0
3
DimnDraft3D6
0
MTEXT
5
176
100
AcDbEntity
8
2
62
256
6
ByLayer
370
18
48
1
60
0
100
AcDbMText
10
20.1
20
18.95
30
0
210
0
220
0
230
1
1
\W0.6563;17.0
40
4.5
41
0
44
1.084337
50
0
71
8
72
5
7
iso_b_vert
0
LINE
5
177
100
AcDbEntity
8
2
62
256
6
ByLayer
370
13
48
1
60
0
100
AcDbLine
10
28.6
20
-3.425
30
0
11
28.6
21
20.825
31
0
39
0
210
0
220
0
230
1
0
LINE
5
178
100
AcDbEntity
8
2
62
256
6
ByLayer
370
13
48
1
60
0
100
AcDbLine
10
11.6
20
9.575
30
0
11
11.6
21
20.825
31
0
39
0
210
0
220
0
230
1
0
LINE
5
179
100
AcDbEntity
8
2
62
256
6
ByLayer
370
13
48
1
60
0
100
AcDbLine
10
39.85
20
17.825
30
0
11
0.35
21
17.825
31
0
39
0
210
0
220
0
230
1
0
LINE
5
17A
100
AcDbEntity
8
2
62
256
6
ByLayer
370
13
48
1
60
0
100
AcDbLine
10
28.6
20
17.825
30
0
11
31.599999
21
18.219957
31
0
39
0
210
0
220
0
230
1
0
LINE
5
17B
100
AcDbEntity
8
2
62
256
6
ByLayer
370
13
48
1
60
0
100
AcDbLine
10
28.6
20
17.825
30
0
11
31.600001
21
17.430043
31
0
39
0
210
0
220
0
230
1
0
LINE
5
17C
100
AcDbEntity
8
2
62
256
6
ByLayer
370
13
48
1
60
0
100
AcDbLine
10
31.599999
20
18.219957
30
0
11
31.600001
21
17.430043
31
0
39
0
210
0
220
0
230
1
0
LINE
5
17D
100
AcDbEntity
8
2
62
256
6
ByLayer
370
13
48
1
60
0
100
AcDbLine
10
11.6
20
17.825
30
0
11
8.600001
21
17.430043
31
0
39
0
210
0
220
0
230
1
0
LINE
5
17E
100
AcDbEntity
8
2
62
256
6
ByLayer
370
13
48
1
60
0
100
AcDbLine
10
11.6
20
17.825
30
0
11
8.599999
21
18.219957
31
0
39
0
210
0
220
0
230
1
0
LINE
5
17F
100
AcDbEntity
8
2
62
256
6
ByLayer
370
13
48
1
60
0
100
AcDbLine
10
8.600001
20
17.430043
30
0
11
8.599999
21
18.219957
31
0
39
0
210
0
220
0
230
1
0
ENDBLK
5
181
100
AcDbEntity
8
0
100
AcDbBlockEnd
0
ENDSEC
0
SECTION
2
ENTITIES
0
ELLIPSE
5
D2
100
AcDbEntity
8
1
62
256
6
ByLayer
370
18
48
1
60
0
100
AcDbEllipse
10
10.275024
20
1.137502
30
0
11
-1.88243958694105E-07
21
3.17500214380669
31
0
210
0
220
0
230
1
40
0.123837
41
-2.13781907451102
42
-2.08945346115376
0
ELLIPSE
5
D3
100
AcDbEntity
8
1
62
256
6
ByLayer
370
18
48
1
60
0
100
AcDbEllipse
10
8.652733
20
-4.85
30
0
11
2.1355737300432
21
0
31
0
210
0
220
0
230
1
40
0.374607
41
3.14159265358979
42
-1.5707963267949
0
ELLIPSE
5
D4
100
AcDbEntity
8
1
62
256
6
ByLayer
370
18
48
1
60
0
100
AcDbEllipse
10
8.385786
20
1.1375
30
0
11
3.42434780800133
21
0
31
0
210
0
220
0
230
1
40
0.927184
41
-2.31622622467298
42
-2.14800676120713
0
ELLIPSE
5
D5
100
AcDbEntity
8
1
62
256
6
ByLayer
370
18
48
1
60
0
100
AcDbEllipse
10
11.378907
20
-4.85
30
0
11
9.37162673852942E-16
21
0.799999999999933
31
0
210
0
220
0
230
1
40
0.965288
41
1.5707963267949
42
3.14159265358979
0
ELLIPSE
5
D6
100
AcDbEntity
8
1
62
256
6
ByLayer
370
18
48
1
60
0
100
AcDbEllipse
10
11.535221
20
-4.85
30
0
11
-0.469856573187191
21
0.656147254650504
31
0
210
0
220
0
230
1
40
0.974084
41
0.96173268625736
42
2.5325290130522
0
ELLIPSE
5
D7
100
AcDbEntity
8
1
62
256
6
ByLayer
370
18
48
1
60
0
100
AcDbEllipse
10
8.123562
20
1.1375
30
0
11
-3.4031852585558E-15
21
-3.175
31
0
210
0
220
0
230
1
40
0.927184
41
2.13781884495998
42
-2.56438221917757
0
ELLIPSE
5
D8
100
AcDbEntity
8
1
62
256
6
ByLayer
370
18
48
1
60
0
100
AcDbEllipse
10
10.275024
20
1.137498
30
0
11
-1.89084817511586E-07
21
-3.17500215339999
31
0
210
0
220
0
230
1
40
0.123837
41
2.0894534622832
42
2.13781907552461
0
ELLIPSE
5
D9
100
AcDbEntity
8
1
62
256
6
ByLayer
370
18
48
1
60
0
100
AcDbEllipse
10
8.059843
20
1.1375
30
0
11
-3.4031852585558E-15
21
-3.175
31
0
210
0
220
0
230
1
40
0.927184
41
0.0108411456843918
42
1.05213944778906
0
ELLIPSE
5
DA
100
AcDbEntity
8
1
62
256
6
ByLayer
370
18
48
1
60
0
100
AcDbEllipse
10
8.059843
20
1.1375
30
0
11
-3.4031852585558E-15
21
-3.175
31
0
210
0
220
0
230
1
40
0.927184
41
2.08945320580074
42
3.1307515079054
0
ELLIPSE
5
DB
100
AcDbEntity
8
1
62
256
6
ByLayer
370
18
48
1
60
0
100
AcDbEllipse
10
8.123562
20
1.1375
30
0
11
-3.4031852585558E-15
21
-3.175
31
0
210
0
220
0
230
1
40
0.927184
41
-0.577210434412228
42
1.00377380862982
0
ELLIPSE
5
DC
100
AcDbEntity
8
1
62
256
6
ByLayer
370
18
48
1
60
0
100
AcDbEllipse
10
8.385786
20
1.1375
30
0
11
3.42434780800133
21
0
31
0
210
0
220
0
230
1
40
0.927184
41
2.14800676120712
42
2.31622622467298
0
ELLIPSE
5
DD
100
AcDbEntity
8
1
62
256
6
ByLayer
370
18
48
1
60
0
100
AcDbEllipse
10
9.364186
20
1.1375
30
0
11
4.19437608314678
21
0
31
0
210
0
220
0
230
1
40
0.901606
41
2.47677347073797
42
3.06786004015761
0
ELLIPSE
5
DE
100
AcDbEntity
8
1
62
256
6
ByLayer
370
18
48
1
60
0
100
AcDbEllipse
10
9.364186
20
1.1375
30
0
11
4.19437608314678
21
0
31
0
210
0
220
0
230
1
40
0.901606
41
-3.06786004015761
42
-2.47677347073797
0
ELLIPSE
5
DF
100
AcDbEntity
8
1
62
256
6
ByLayer
370
18
48
1
60
0
100
AcDbEllipse
10
28.600037
20
-15.744177
30
0
11
-1.18913841821875
21
-38.168258032762
31
0
210
0
220
0
230
1
40
0.465315
41
-1.86010053071907
42
-1.84571897272799
0
ELLIPSE
5
E0
100
AcDbEntity
8
1
62
256
6
ByLayer
370
18
48
1
60
0
100
AcDbEllipse
10
10.46679
20
-5.84549
30
0
11
-0.0901883552039787
21
-2.89478016579769
31
0
210
0
220
0
230
1
40
0.465315
41
1.74672709370721
42
2.13823913689191
0
ELLIPSE
5
E1
100
AcDbEntity
8
1
62
256
6
ByLayer
370
18
48
1
60
0
100
AcDbEllipse
10
8.827135
20
-8.05
30
0
11
-2.14373874554696E-16
21
-0.2
31
0
210
0
220
0
230
1
40
0.99863
41
-1.5707963267949
42
0.0436332312838075
0
ELLIPSE
5
E2
100
AcDbEntity
8
1
62
256
6
ByLayer
370
18
48
1
60
0
100
AcDbEllipse
10
28.400274
20
-5.45
30
0
11
-2.14373874554696E-16
21
-0.2
31
0
210
0
220
0
230
1
40
0.99863
41
1.5707963267949
42
-3.09795942230603
0
ELLIPSE
5
E3
100
AcDbEntity
8
1
62
256
6
ByLayer
370
18
48
1
60
0
100
AcDbEllipse
10
22.368951
20
-6.75
30
0
11
-0.525482745531693
21
1.23115703716527E-15
31
0
210
0
220
0
230
1
40
0.951506
41
2.79252680320636
42
-2.79252680320636
0
ELLIPSE
5
E4
100
AcDbEntity
8
1
62
256
6
ByLayer
370
18
48
1
60
0
100
AcDbEllipse
10
22.722409
20
-5.773551
30
0
11
-0.157644823663212
21
3.69347111158259E-16
31
0
210
0
220
0
230
1
40
0.951506
41
0
42
0.349065850369313
0
ELLIPSE
5
E5
100
AcDbEntity
8
1
62
256
6
ByLayer
370
18
48
1
60
0
100
AcDbEllipse
10
22.722409
20
-7.726449
30
0
11
-0.157644823704324
21
1.26139131480862E-10
31
0
210
0
220
0
230
1
40
0.951506
41
-0.349065849562264
42
7.59664945722934E-10
0
ELLIPSE
5
E6
100
AcDbEntity
8
1
62
256
6
ByLayer
370
18
48
1
60
0
100
AcDbEllipse
10
28.400274
20
-8.05
30
0
11
2.34290668463255E-16
21
0.2
31
0
210
0
220
0
230
1
40
0.99863
41
3.09795942230602
42
-1.5707963267949
0
ELLIPSE
5
E7
100
AcDbEntity
8
1
62
256
6
ByLayer
370
18
48
1
60
0
100
AcDbEllipse
10
7.950739
20
1.1375
30
0
11
3.51436002694883E-15
21
3
31
0
210
0
220
0
230
1
40
0.927184
41
0
42
-3.14159247561719
0
ELLIPSE
5
E8
100
AcDbEntity
8
1
62
256
6
ByLayer
370
18
48
1
60
0
100
AcDbEllipse
10
8.100582
20
1.1375
30
0
11
3.51436002694883E-15
21
3
31
0
210
0
220
0
230
1
40
0.927184
41
0
42
-2.86964854178685
0
ELLIPSE
5
E9
100
AcDbEntity
8
1
62
256
6
ByLayer
370
18
48
1
60
0
100
AcDbEllipse
10
8.100582
20
1.1375
30
0
11
3.51436002694883E-15
21
3
31
0
210
0
220
0
230
1
40
0.927184
41
-0.184961091485395
42
-2.39482783271747E-16
0
ELLIPSE
5
EA
100
AcDbEntity
8
1
62
256
6
ByLayer
370
18
48
1
60
0
100
AcDbEllipse
10
8.175503
20
1.1375
30
0
11
3.28006935848557E-15
21
2.8
31
0
210
0
220
0
230
1
40
0.927184
41
0
42
6.28318530717959
0
ELLIPSE
5
EB
100
AcDbEntity
8
1
62
256
6
ByLayer
370
18
48
1
60
0
100
AcDbEllipse
10
7.351368
20
-0.74706
30
0
11
8.03616992828965E-16
21
0.686
31
0
210
0
220
0
230
1
40
0.927184
41
0.121614041216901
42
0.18329531325439
0
ELLIPSE
5
EC
100
AcDbEntity
8
1
62
256
6
ByLayer
370
18
48
1
60
0
100
AcDbEllipse
10
7.996311
20
-0.059576
30
0
11
3.42064375956352E-16
21
0.292
31
0
210
0
220
0
230
1
40
0.927184
41
-1.69684708887387
42
-1.30900918493172
0
ELLIPSE
5
ED
100
AcDbEntity
8
1
62
256
6
ByLayer
370
18
48
1
60
0
100
AcDbEllipse
10
8.872202
20
0.193538
30
0
11
8.03616992828965E-16
21
0.686
31
0
210
0
220
0
230
1
40
0.927184
41
0.264602181416456
42
1.04859282503726
0
ELLIPSE
5
EE
100
AcDbEntity
8
1
62
256
6
ByLayer
370
18
48
1
60
0
100
AcDbEllipse
10
8.872202
20
0.193538
30
0
11
8.03616992828965E-16
21
0.686
31
0
210
0
220
0
230
1
40
0.927184
41
1.04859282503726
42
1.83258346865807
0
ELLIPSE
5
EF
100
AcDbEntity
8
1
62
256
6
ByLayer
370
18
48
1
60
0
100
AcDbEllipse
10
8.635054
20
1.1375
30
0
11
3.42064375956352E-16
21
0.292
31
0
210
0
220
0
230
1
40
0.927184
41
-2.87699047217332
42
-0.264602181416472
0
ELLIPSE
5
F0
100
AcDbEntity
8
1
62
256
6
ByLayer
370
18
48
1
60
0
100
AcDbEllipse
10
8.872202
20
2.081462
30
0
11
8.03616992828965E-16
21
0.686
31
0
210
0
220
0
230
1
40
0.927184
41
1.30900918493173
42
2.09299982855253
0
ELLIPSE
5
F1
100
AcDbEntity
8
1
62
256
6
ByLayer
370
18
48
1
60
0
100
AcDbEllipse
10
8.872202
20
2.081462
30
0
11
8.03616992828965E-16
21
0.686
31
0
210
0
220
0
230
1
40
0.927184
41
2.09299982855253
42
2.87699047217334
0
ELLIPSE
5
F2
100
AcDbEntity
8
1
62
256
6
ByLayer
370
18
48
1
60
0
100
AcDbEllipse
10
8.073852
20
1.1375
30
0
11
-1.29321039825121E-15
21
-1.2065
31
0
210
0
220
0
230
1
40
0.927184
41
3.07256002017789
42
-3.07256002017789
0
ELLIPSE
5
F3
100
AcDbEntity
8
1
62
256
6
ByLayer
370
18
48
1
60
0
100
AcDbEllipse
10
8.073852
20
1.1375
30
0
11
-1.29321039825121E-15
21
-1.2065
31
0
210
0
220
0
230
1
40
0.927184
41
-0.0690326334119037
42
0.0690326334119031
0
ELLIPSE
5
F4
100
AcDbEntity
8
1
62
256
6
ByLayer
370
18
48
1
60
0
100
AcDbEllipse
10
8.175503
20
1.1375
30
0
11
-1.79698900345474E-15
21
-1.6765
31
0
210
0
220
0
230
1
40
0.927184
41
-1.5707963267949
42
-0.526389323279638
0
ELLIPSE
5
F5
100
AcDbEntity
8
1
62
256
6
ByLayer
370
18
48
1
60
0
100
AcDbEllipse
10
7.089144
20
1.1375
30
0
11
-1.29321039825121E-15
21
-1.2065
31
0
210
0
220
0
230
1
40
0.927184
41
0.130867049978232
42
3.01013690553591
0
ELLIPSE
5
F6
100
AcDbEntity
8
1
62
256
6
ByLayer
370
18
48
1
60
0
100
AcDbEllipse
10
7.351368
20
1.1375
30
0
11
-1.29321039825121E-15
21
-1.2065
31
0
210
0
220
0
230
1
40
0.927184
41
2.09299982855253
42
3.07256002017789
0
ELLIPSE
5
F7
100
AcDbEntity
8
1
62
256
6
ByLayer
370
18
48
1
60
0
100
AcDbEllipse
10
7.351368
20
1.1375
30
0
11
-1.29321039825121E-15
21
-1.2065
31
0
210
0
220
0
230
1
40
0.927184
41
1.04859282503727
42
2.09299982855253
0
ELLIPSE
5
F8
100
AcDbEntity
8
1
62
256
6
ByLayer
370
18
48
1
60
0
100
AcDbEllipse
10
7.351368
20
1.1375
30
0
11
-1.29321039825121E-15
21
-1.2065
31
0
210
0
220
0
230
1
40
0.927184
41
0.0690326334119029
42
1.04859282503727
0
ELLIPSE
5
F9
100
AcDbEntity
8
1
62
256
6
ByLayer
370
18
48
1
60
0
100
AcDbEllipse
10
7.351368
20
1.1375
30
0
11
-1.29321039825121E-15
21
-1.2065
31
0
210
0
220
0
230
1
40
0.927184
41
-0.105567191452845
42
-0.0690326334119037
0
ELLIPSE
5
FA
100
AcDbEntity
8
1
62
256
6
ByLayer
370
18
48
1
60
0
100
AcDbEllipse
10
7.996311
20
2.334576
30
0
11
3.42064375956352E-16
21
0.292
31
0
210
0
220
0
230
1
40
0.927184
41
-1.83258346865806
42
-1.44700144809285
0
ELLIPSE
5
FB
100
AcDbEntity
8
1
62
256
6
ByLayer
370
18
48
1
60
0
100
AcDbEllipse
10
7.351368
20
3.02206
30
0
11
8.03616992828965E-16
21
0.686
31
0
210
0
220
0
230
1
40
0.927184
41
2.95960504560922
42
3.01997861237289
0
ELLIPSE
5
FC
100
AcDbEntity
8
1
62
256
6
ByLayer
370
18
48
1
60
0
100
AcDbEllipse
10
7.351368
20
1.1375
30
0
11
-1.29321039825121E-15
21
-1.2065
31
0
210
0
220
0
230
1
40
0.927184
41
-3.07256002017789
42
-3.03767866489159
0
ELLIPSE
5
FD
100
AcDbEntity
8
1
62
256
6
ByLayer
370
18
48
1
60
0
100
AcDbEllipse
10
8.175503
20
1.1375
30
0
11
1.96394152839324E-15
21
1.6765
31
0
210
0
220
0
230
1
40
0.927184
41
-2.61520333031015
42
-1.5707963267949
0
ELLIPSE
5
FE
100
AcDbEntity
8
1
62
256
6
ByLayer
370
18
48
1
60
0
100
AcDbEllipse
10
8.175503
20
1.1375
30
0
11
1.96394152839324E-15
21
1.6765
31
0
210
0
220
0
230
1
40
0.927184
41
-1.5707963267949
42
-0.526389323279641
0
ELLIPSE
5
FF
100
AcDbEntity
8
1
62
256
6
ByLayer
370
18
48
1
60
0
100
AcDbEllipse
10
8.175503
20
1.1375
30
0
11
1.96394152839324E-15
21
1.6765
31
0
210
0
220
0
230
1
40
0.927184
41
-0.526389323279641
42
0.526389323279636
0
ELLIPSE
5
100
100
AcDbEntity
8
1
62
256
6
ByLayer
370
18
48
1
60
0
100
AcDbEllipse
10
8.175503
20
1.1375
30
0
11
1.96394152839324E-15
21
1.6765
31
0
210
0
220
0
230
1
40
0.927184
41
0.526389323279636
42
1.5707963267949
0
ELLIPSE
5
101
100
AcDbEntity
8
1
62
256
6
ByLayer
370
18
48
1
60
0
100
AcDbEllipse
10
8.175503
20
1.1375
30
0
11
1.96394152839324E-15
21
1.6765
31
0
210
0
220
0
230
1
40
0.927184
41
2.61520333031016
42
-2.61520333031015
0
POINT
5
6C
100
AcDbEntity
8
81
62
256
6
ByLayer
370
18
48
1
60
0
100
AcDbPoint
10
28.6
20
-8.075
30
0
39
0
210
0
220
0
230
1
50
360
0
POINT
5
6E
100
AcDbEntity
8
80
62
256
6
ByLayer
370
18
48
1
60
0
100
AcDbPoint
10
0
20
0
30
0
39
0
210
0
220
0
230
1
50
360
0
POINT
5
70
100
AcDbEntity
8
2
62
256
6
ByLayer
370
18
48
1
60
0
100
AcDbPoint
10
28.6
20
6.825
30
0
39
0
210
0
220
0
230
1
50
360
0
POINT
5
72
100
AcDbEntity
8
4
62
256
6
ByLayer
370
13
48
1
60
0
100
AcDbPoint
10
5.999783
20
-1.1375
30
0
39
0
210
0
220
0
230
1
50
360
0
SPLINE
5
102
100
AcDbEntity
8
1
62
256
6
ByLayer
370
18
48
1
60
0
100
AcDbSpline
70
4
71
3
72
40
73
36
40
0
40
0
40
0
40
0
40
0.0282078407004063
40
0.0586875231590774
40
0.0891809402690997
40
0.119690434221707
40
0.150217514252786
40
0.180762880886662
40
0.211326507482555
40
0.241907760762106
40
0.272505540629572
40
0.303118421261316
40
0.333744779156834
40
0.364382898496937
40
0.395031048782251
40
0.425687533674481
40
0.456350712928163
40
0.487019001265278
40
0.517690849181399
40
0.548364401091121
40
0.579037867635858
40
0.609709575066665
40
0.640377733404658
40
0.671040418847193
40
0.701695575709481
40
0.732341043390889
40
0.76297461283757
40
0.793594114872081
40
0.824197539506585
40
0.854783180973903
40
0.885349798067371
40
0.915896774238341
40
0.946424257866708
40
0.976933261445635
40
1
40
1
40
1
40
1
41
1
10
8.85534101370192
20
-1.75046003262173
30
0
41
1
10
8.92366282482399
20
-1.73025499785675
30
0
41
1
10
9.0637510051933
20
-1.68246385855198
30
0
41
1
10
9.27062598192916
20
-1.59095134229457
30
0
41
1
10
9.47486920411095
20
-1.47912362930177
30
0
41
1
10
9.66991083513045
20
-1.34963371607188
30
0
41
1
10
9.85443413620854
20
-1.20344945885753
30
0
41
1
10
10.0272026017931
20
-1.04151235146813
30
0
41
1
10
10.1870517596661
20
-0.864908317307311
30
0
41
1
10
10.3329023689274
20
-0.674813903533249
30
0
41
1
10
10.4637673177143
20
-0.472501330340435
30
0
41
1
10
10.5787593800543
20
-0.259326502103761
30
0
41
1
10
10.6770977070028
20
-0.0367205269982094
30
0
41
1
10
10.7581134941863
20
0.193820538342862
30
0
41
1
10
10.8212546532952
20
0.430746075356922
30
0
41
1
10
10.866089539446
20
0.672461659294356
30
0
41
1
10
10.8923097665111
20
0.917339955212952
30
0
41
1
10
10.8997321690995
20
1.16373169149509
30
0
41
1
10
10.8883000060987
20
1.4099758139098
30
0
41
1
10
10.8580836946446
20
1.65441074175965
30
0
41
1
10
10.8092806412029
20
1.89538589888733
30
0
41
1
10
10.7422139386712
20
2.13127343595349
30
0
41
1
10
10.6573304798381
20
2.36047874682535
30
0
41
1
10
10.5551986123743
20
2.58145074006566
30
0
41
1
10
10.4365049381431
20
2.79269255540325
30
0
41
1
10
10.3020502647112
20
2.99277224010089
30
0
41
1
10
10.1527445974289
20
3.18033295032444
30
0
41
1
10
9.9896012330002
20
3.35410388229448
30
0
41
1
10
9.81372940799764
20
3.51290683240194
30
0
41
1
10
9.62632734449741
20
3.65567660104679
30
0
41
1
10
9.42866885036142
20
3.78142634444512
30
0
41
1
10
9.22210932955753
20
3.88941370370759
30
0
41
1
10
9.00801551466145
20
3.97855282483565
30
0
41
1
10
8.80582842548139
20
4.04386521759662
30
0
41
1
10
8.67441216770936
20
4.0733265268249
30
0
41
1
10
8.6173125349768
20
4.08395430604636
30
0
0
SPLINE
5
103
100
AcDbEntity
8
1
62
256
6
ByLayer
370
18
48
1
60
0
100
AcDbSpline
70
4
71
3
72
8
73
4
40
0
40
0
40
0
40
0
40
1
40
1
40
1
40
1
41
1
10
21.8301705062878
20
-7.55448606706622
30
0
41
1
10
21.8255290696103
20
-7.56819331354671
30
0
41
1
10
21.8203295850787
20
-7.58165532490128
30
0
41
1
10
21.8146122345417
20
-7.59478512627373
30
0
0
SPLINE
5
104
100
AcDbEntity
8
1
62
256
6
ByLayer
370
18
48
1
60
0
100
AcDbSpline
70
4
71
3
72
8
73
4
40
0
40
0
40
0
40
0
40
1
40
1
40
1
40
1
41
1
10
21.9370196778612
20
-7.23542417199073
30
0
41
1
10
21.9017025565539
20
-7.34191681445398
30
0
41
1
10
21.8661289856402
20
-7.44829227971192
30
0
41
1
10
21.8301705062876
20
-7.55448606706611
30
0
0
SPLINE
5
105
100
AcDbEntity
8
1
62
256
6
ByLayer
370
18
48
1
60
0
100
AcDbSpline
70
4
71
3
72
8
73
4
40
0
40
0
40
0
40
0
40
1
40
1
40
1
40
1
41
1
10
21.8146122345415
20
-7.59478512627362
30
0
41
1
10
21.7554318534189
20
-7.73069189712004
30
0
41
1
10
21.695322478189
20
-7.86606517106466
30
0
41
1
10
21.6329926718773
20
-7.99999999999994
30
0
0
SPLINE
5
106
100
AcDbEntity
8
1
62
256
6
ByLayer
370
18
48
1
60
0
100
AcDbSpline
70
4
71
3
72
8
73
4
40
0
40
0
40
0
40
0
40
1
40
1
40
1
40
1
41
1
10
10.6164986576882
20
2.71139227974032
30
0
41
1
10
10.6191863350491
20
2.61916070506601
30
0
41
1
10
10.6216894926832
20
2.52475965782284
30
0
41
1
10
10.6239806967493
20
2.42857256443347
30
0
0
SPLINE
5
107
100
AcDbEntity
8
1
62
256
6
ByLayer
370
18
48
1
60
0
100
AcDbSpline
70
4
71
3
72
8
73
4
40
0
40
0
40
0
40
0
40
1
40
1
40
1
40
1
41
1
10
10.6240797064711
20
-0.148948590012338
30
0
41
1
10
10.6217582297356
20
-0.246989312725105
30
0
41
1
10
10.6192208407515
20
-0.342976591484444
30
0
41
1
10
10.6164986576882
20
-0.436392279741938
30
0
0
SPLINE
5
108
100
AcDbEntity
8
1
62
256
6
ByLayer
370
18
48
1
60
0
100
AcDbSpline
70
4
71
3
72
8
73
4
40
0
40
0
40
0
40
0
40
1
40
1
40
1
40
1
41
1
10
21.8146122345417
20
-6.05521487372613
30
0
41
1
10
21.8203295850787
20
-6.06834467509859
30
0
41
1
10
21.8255290696103
20
-6.08180668645318
30
0
41
1
10
21.8301705062878
20
-6.09551393293367
30
0
0
SPLINE
5
109
100
AcDbEntity
8
1
62
256
6
ByLayer
370
18
48
1
60
0
100
AcDbSpline
70
4
71
3
72
8
73
4
40
0
40
0
40
0
40
0
40
1
40
1
40
1
40
1
41
1
10
21.8301705062876
20
-6.09551393293376
30
0
41
1
10
21.8661289856402
20
-6.20170772028794
30
0
41
1
10
21.9017025565539
20
-6.30808318554588
30
0
41
1
10
21.9370196778612
20
-6.41457582800913
30
0
0
SPLINE
5
10A
100
AcDbEntity
8
1
62
256
6
ByLayer
370
18
48
1
60
0
100
AcDbSpline
70
4
71
3
72
12
73
8
40
0
40
0
40
0
40
0
40
0.476042419603527
40
0.476042419603527
40
0.928606655931826
40
0.928606655931826
40
1
40
1
40
1
40
1
41
1
10
21.9370196778612
20
-6.41457582800913
30
0
41
1
10
21.9779319684765
20
-6.53793973128248
30
0
41
1
10
22.0004224306079
20
-6.67195300234309
30
0
41
1
10
22.0044302028483
20
-6.93049093744736
30
0
41
1
10
21.9879654237614
20
-7.05872765317056
30
0
41
1
10
21.9490556514833
20
-7.1976412141625
30
0
41
1
10
21.9432509208955
20
-7.21663494138556
30
0
41
1
10
21.9370196778612
20
-7.23542417199073
30
0
0
SPLINE
5
10B
100
AcDbEntity
8
1
62
256
6
ByLayer
370
18
48
1
60
0
100
AcDbSpline
70
4
71
3
72
8
73
4
40
0
40
0
40
0
40
0
40
1
40
1
40
1
40
1
41
1
10
21.6329926718781
20
-5.65000000000165
30
0
41
1
10
21.6953224781896
20
-5.78393482893637
30
0
41
1
10
21.7554318534191
20
-5.91930810288042
30
0
41
1
10
21.8146122345415
20
-6.05521487372627
30
0
0
SPLINE
5
10C
100
AcDbEntity
8
1
62
256
6
ByLayer
370
18
48
1
60
0
100
AcDbSpline
70
4
71
3
72
14
73
10
40
0
40
0
40
0
40
0
40
0.182130842090366
40
0.182130842090366
40
0.522361599373191
40
0.522361599373191
40
0.800928640678604
40
0.800928640678604
40
1
40
1
40
1
40
1
41
1
10
21.5082337785208
20
-5.60393846558551
30
0
41
1
10
21.4598660832249
20
-5.58859919678667
30
0
41
1
10
21.4125571069498
20
-5.56938635293315
30
0
41
1
10
21.2816930914255
20
-5.5027799601653
30
0
41
1
10
21.2006625480788
20
-5.44424354817846
30
0
41
1
10
21.0757906890418
20
-5.31294612582812
30
0
41
1
10
21.0266429271494
20
-5.24309567626517
30
0
41
1
10
20.964276411653
20
-5.11142930116412
30
0
41
1
10
20.9443747596386
20
-5.0519181399352
30
0
41
1
10
20.9323928994523
20
-4.99093973567429
30
0
0
SPLINE
5
10D
100
AcDbEntity
8
1
62
256
6
ByLayer
370
18
48
1
60
0
100
AcDbSpline
70
4
71
3
72
12
73
8
40
0
40
0
40
0
40
0
40
0.153321882914465
40
0.153321882914465
40
0.5368710310575
40
0.5368710310575
40
1
40
1
40
1
40
1
41
1
10
11.9634326555638
20
-5.3926626717296
30
0
41
1
10
11.9445898573228
20
-5.3691775410316
30
0
41
1
10
11.9275028012357
20
-5.34454664981666
30
0
41
1
10
11.8745506220255
20
-5.2554272879857
30
0
41
1
10
11.8480508636874
20
-5.1851886501864
30
0
41
1
10
11.8160091648829
20
-5.0275406233215
30
0
41
1
10
11.8153197440816
20
-4.93725700265776
30
0
41
1
10
11.8295488455847
20
-4.85000000000164
30
0
0
SPLINE
5
10E
100
AcDbEntity
8
1
62
256
6
ByLayer
370
18
48
1
60
0
100
AcDbSpline
70
4
71
3
72
10
73
6
40
0
40
0
40
0
40
0
40
0.5
40
0.5
40
1
40
1
40
1
40
1
41
1
10
20.903409845908
20
-4.85000000000164
30
0
41
1
10
20.903409845908
20
-4.87418327783948
30
0
41
1
10
20.9059815322783
20
-4.8984491905268
30
0
41
1
10
20.9159447243158
20
-4.94595069128883
30
0
41
1
10
20.9232079969191
20
-4.96881745896764
30
0
41
1
10
20.9323928994572
20
-4.99093973567258
30
0
0
SPLINE
5
10F
100
AcDbEntity
8
1
62
256
6
ByLayer
370
18
48
1
60
0
100
AcDbSpline
70
4
71
3
72
12
73
8
40
0
40
0
40
0
40
0
40
0.495785575728956
40
0.495785575728956
40
0.900238279923947
40
0.900238279923947
40
1
40
1
40
1
40
1
41
1
10
7.68165710202982
20
-0.264836787650807
30
0
41
1
10
7.71421807449733
20
-0.214108012957354
30
0
41
1
10
7.75652477541928
20
-0.169623351453822
30
0
41
1
10
7.85028738532986
20
-0.107660731175855
30
0
41
1
10
7.89981637672619
20
-0.086163650636081
30
0
41
1
10
7.96827575553434
20
-0.0706620259656461
30
0
41
1
10
7.98233602202333
20
-0.0681065798943621
30
0
41
1
10
7.99668977973067
20
-0.066126350896667
30
0
0
SPLINE
5
110
100
AcDbEntity
8
1
62
256
6
ByLayer
370
18
48
1
60
0
100
AcDbSpline
70
4
71
3
72
14
73
10
40
0
40
0
40
0
40
0
40
0.282169922576107
40
0.282169922576107
40
0.566902245317974
40
0.566902245317974
40
0.824523972080265
40
0.824523972080265
40
1
40
1
40
1
40
1
41
1
10
7.68165710202982
20
-0.264836787650807
30
0
41
1
10
7.66632167801643
20
-0.28872880347987
30
0
41
1
10
7.64607914429448
20
-0.309190953985649
30
0
41
1
10
7.59820094687652
20
-0.338927599521952
30
0
41
1
10
7.56972889440553
20
-0.348503160073506
30
0
41
1
10
7.51205476870103
20
-0.353139817661059
30
0
41
1
10
7.48229847947695
20
-0.349504868174222
30
0
41
1
10
7.43338165054936
20
-0.333338343629578
30
0
41
1
10
7.41345776887246
20
-0.323904333551496
30
0
41
1
10
7.39453747454365
20
-0.312046762837639
30
0
0
SPLINE
5
111
100
AcDbEntity
8
1
62
256
6
ByLayer
370
18
48
1
60
0
100
AcDbSpline
70
4
71
3
72
16
73
12
40
0
40
0
40
0
40
0
40
0.0569446172825055
40
0.0569446172825055
40
0.279906644834079
40
0.279906644834079
40
0.505321967306685
40
0.505321967306685
40
0.744915047128821
40
0.744915047128821
40
1
40
1
40
1
40
1
41
1
10
7.39453747454365
20
-0.312046762837639
30
0
41
1
10
7.38842616670055
20
-0.308216734422388
30
0
41
1
10
7.38239508018208
20
-0.304124426221847
30
0
41
1
10
7.35347774299007
20
-0.282958650749833
30
0
41
1
10
7.33186855372324
20
-0.262131063762297
30
0
41
1
10
7.2944667750194
20
-0.21586102380428
30
0
41
1
10
7.27824961269062
20
-0.189795361716307
30
0
41
1
10
7.25197173462095
20
-0.134561963343515
30
0
41
1
10
7.24200829581562
20
-0.104621704693898
30
0
41
1
10
7.22928775341876
20
-0.0442039169545012
30
0
41
1
10
7.22685886858554
20
-0.0131007348553851
30
0
41
1
10
7.2282356207875
20
0.0159959582233853
30
0
0
SPLINE
5
112
100
AcDbEntity
8
1
62
256
6
ByLayer
370
18
48
1
60
0
100
AcDbSpline
70
4
71
3
72
18
73
14
40
0
40
0
40
0
40
0
40
0.212491592102416
40
0.212491592102416
40
0.386618191488471
40
0.386618191488471
40
0.562426295050811
40
0.562426295050811
40
0.715388354469455
40
0.715388354469455
40
0.918249128147156
40
0.918249128147156
40
1
40
1
40
1
40
1
41
1
10
6.78020098142403
20
0.855662587868835
30
0
41
1
10
6.82992888021047
20
0.837101293062346
30
0
41
1
10
6.87985488400781
20
0.807118191088676
30
0
41
1
10
6.96633769484421
20
0.731903476347611
30
0
41
1
10
7.00464851856819
20
0.689419356581141
30
0
41
1
10
7.07494451377011
20
0.590954055586764
30
0
41
1
10
7.10788783980217
20
0.533263713105868
30
0
41
1
10
7.15870327135369
20
0.420796089286682
30
0
41
1
10
7.17859901944087
20
0.365309285961814
30
0
41
1
10
7.2131908987462
20
0.238637662240365
30
0
41
1
10
7.22477193241679
20
0.166080838438887
30
0
41
1
10
7.22946564659642
20
0.0699934272547296
30
0
41
1
10
7.22949705821284
20
0.0426555542998415
30
0
41
1
10
7.2282356207875
20
0.0159959582234137
30
0
0
SPLINE
5
113
100
AcDbEntity
8
1
62
256
6
ByLayer
370
18
48
1
60
0
100
AcDbSpline
70
4
71
3
72
14
73
10
40
0
40
0
40
0
40
0
40
0.283961457856582
40
0.283961457856582
40
0.570284934646617
40
0.570284934646617
40
0.82945086906046
40
0.82945086906046
40
1
40
1
40
1
40
1
41
1
10
6.78020098142403
20
0.855662587868835
30
0
41
1
10
6.75671052937184
20
0.86443056754058
30
0
41
1
10
6.73339756249604
20
0.879188691790119
30
0
41
1
10
6.69136606156707
20
0.919684456045616
30
0
41
1
10
6.67206647072561
20
0.946190506689504
30
0
41
1
10
6.64343590915038
20
1.00456677378318
30
0
41
1
10
6.63294203538055
20
1.03660439738891
30
0
41
1
10
6.62310546481504
20
1.09185798912097
30
0
41
1
10
6.62107913024528
20
1.11477033920369
30
0
41
1
10
6.62107913024528
20
1.13749999999928
30
0
0
SPLINE
5
114
100
AcDbEntity
8
1
62
256
6
ByLayer
370
18
48
1
60
0
100
AcDbSpline
70
4
71
3
72
16
73
12
40
0
40
0
40
0
40
0
40
0.0630415689509292
40
0.0630415689509292
40
0.285914332024972
40
0.285914332024972
40
0.511588305408905
40
0.511588305408905
40
0.751723061839374
40
0.751723061839374
40
1
40
1
40
1
40
1
41
1
10
6.62107913024528
20
1.13749999999928
30
0
41
1
10
6.62107913024528
20
1.14593365383217
30
0
41
1
10
6.62135340394357
20
1.15437696834971
30
0
41
1
10
6.62381625991739
20
1.19225379243079
30
0
41
1
10
6.62921355126795
20
1.22162160876979
30
0
41
1
10
6.64587031020065
20
1.27586778984258
30
0
41
1
10
6.65739661844603
20
1.3013845496431
30
0
41
1
10
6.6853403959326
20
1.34695291650107
30
0
41
1
10
6.70235365057547
20
1.36714056825244
30
0
41
1
10
6.73926691630598
20
1.39945144864691
30
0
41
1
10
6.75964772682076
20
1.41166576246755
30
0
41
1
10
6.78020098142403
20
1.41933741212969
30
0
0
SPLINE
5
115
100
AcDbEntity
8
1
62
256
6
ByLayer
370
18
48
1
60
0
100
AcDbSpline
70
4
71
3
72
18
73
14
40
0
40
0
40
0
40
0
40
0.212491695755303
40
0.212491695755303
40
0.386618276853805
40
0.386618276853805
40
0.562426360907934
40
0.562426360907934
40
0.71538841664594
40
0.71538841664594
40
0.918249208689867
40
0.918249208689867
40
1
40
1
40
1
40
1
41
1
10
7.22823562078753
20
2.25900404177511
30
0
41
1
10
7.23147940604633
20
2.1904489132981
30
0
41
1
10
7.22604744775683
20
2.11668502551083
30
0
41
1
10
7.19974206246059
20
1.98052215337208
30
0
41
1
10
7.1814620380965
20
1.91694876008034
30
0
41
1
10
7.13383089135991
20
1.79440553953043
30
0
41
1
10
7.10361710852425
20
1.73373246432135
30
0
41
1
10
7.0410964766173
20
1.63379574640297
30
0
41
1
10
7.00883374448131
20
1.59153177774448
30
0
41
1
10
6.93174242098124
20
1.50889670569086
30
0
41
1
10
6.88493019628211
20
1.47201809805785
30
0
41
1
10
6.81884110463955
20
1.43545067080015
30
0
41
1
10
6.79953906833009
20
1.42655549173523
30
0
41
1
10
6.78020098142403
20
1.41933741212972
30
0
0
SPLINE
5
116
100
AcDbEntity
8
1
62
256
6
ByLayer
370
18
48
1
60
0
100
AcDbSpline
70
4
71
3
72
14
73
10
40
0
40
0
40
0
40
0
40
0.283961749036715
40
0.283961749036715
40
0.570285189259029
40
0.570285189259029
40
0.829451094335676
40
0.829451094335676
40
1
40
1
40
1
40
1
41
1
10
7.22823562078753
20
2.25900404177511
30
0
41
1
10
7.22670332152293
20
2.29138811302781
30
0
41
1
10
7.22990721025499
20
2.3263255419582
30
0
41
1
10
7.24666329515568
20
2.39600421461327
30
0
41
1
10
7.26061503418637
20
2.4318148228412
30
0
41
1
10
7.29653238698293
20
2.49440846986957
30
0
41
1
10
7.31819931186291
20
2.52264373353256
30
0
41
1
10
7.35872581961908
20
2.56177613243102
30
0
41
1
10
7.37631585744953
20
2.57562706135269
30
0
41
1
10
7.39453747454368
20
2.58704676283617
30
0
0
SPLINE
5
117
100
AcDbEntity
8
1
62
256
6
ByLayer
370
18
48
1
60
0
100
AcDbSpline
70
4
71
3
72
16
73
12
40
0
40
0
40
0
40
0
40
0.0624450082614048
40
0.0624450082614048
40
0.283207995985781
40
0.283207995985781
40
0.506745688833541
40
0.506745688833541
40
0.744607284736972
40
0.744607284736972
40
1
40
1
40
1
40
1
41
1
10
7.39453747454368
20
2.58704676283617
30
0
41
1
10
7.40129848701395
20
2.59128396877338
30
0
41
1
10
7.4081724921322
20
2.59520925194491
30
0
41
1
10
7.43948193420223
20
2.61139408653523
30
0
41
1
10
7.46509645255165
20
2.61991558862789
30
0
41
1
10
7.51494794169051
20
2.62788000158073
30
0
41
1
10
7.53979741261733
20
2.62733232117839
30
0
41
1
10
7.58690626744598
20
2.61768142671738
30
0
41
1
10
7.60949505149685
20
2.60794293260307
30
0
41
1
10
7.64991501687277
20
2.58026136963372
30
0
41
1
10
7.66777631063613
20
2.56146254037768
30
0
41
1
10
7.68165710202979
20
2.53983678764936
30
0
0
SPLINE
5
118
100
AcDbEntity
8
1
62
256
6
ByLayer
370
18
48
1
60
0
100
AcDbSpline
70
4
71
3
72
12
73
8
40
0
40
0
40
0
40
0
40
0.422118641229882
40
0.422118641229882
40
0.843213633747407
40
0.843213633747407
40
1
40
1
40
1
40
1
41
1
10
7.9966897797307
20
2.3411263508952
30
0
41
1
10
7.93693838667772
20
2.34936958890918
30
0
41
1
10
7.88200929564613
20
2.36796260794057
30
0
41
1
10
7.78854132989559
20
2.42006908028048
30
0
41
1
10
7.74851749042696
20
2.45410935904198
30
0
41
1
10
7.70342936596458
20
2.50808295421316
30
0
41
1
10
7.69206711347388
20
2.52361837999493
30
0
41
1
10
7.68165710202982
20
2.53983678764936
30
0
0
SPLINE
5
119
100
AcDbEntity
8
1
62
256
6
ByLayer
370
18
48
1
60
0
100
AcDbSpline
70
4
71
3
72
12
73
8
40
0
40
0
40
0
40
0
40
0.422118641229817
40
0.422118641229817
40
0.843213633747322
40
0.843213633747322
40
1
40
1
40
1
40
1
41
1
10
8.15101348062638
20
-0.066126350896667
30
0
41
1
10
8.21633448879518
20
-0.0743695889106561
30
0
41
1
10
8.28377356075609
20
-0.0929626079420416
30
0
41
1
10
8.41026035038999
20
-0.145069080281928
30
0
41
1
10
8.47105779602865
20
-0.179109359043423
30
0
41
1
10
8.54703130374173
20
-0.233082954214609
30
0
41
1
10
8.56710920016704
20
-0.248618379996373
30
0
41
1
10
8.58642346338533
20
-0.264836787650807
30
0
0
SPLINE
5
11A
100
AcDbEntity
8
1
62
256
6
ByLayer
370
18
48
1
60
0
100
AcDbSpline
70
4
71
3
72
16
73
12
40
0
40
0
40
0
40
0
40
0.0624450082614043
40
0.0624450082614043
40
0.283207995985754
40
0.283207995985754
40
0.506745688833514
40
0.506745688833514
40
0.744607284736923
40
0.744607284736923
40
1
40
1
40
1
40
1
41
1
10
8.95646825030934
20
-0.312046762837639
30
0
41
1
10
8.94970723783908
20
-0.316283968774854
30
0
41
1
10
8.94270239223388
20
-0.32020925194638
30
0
41
1
10
8.91021688764653
20
-0.3363940865367
30
0
41
1
10
8.88202834310189
20
-0.344915588629362
30
0
41
1
10
8.82411979046472
20
-0.352880001582179
30
0
41
1
10
8.79365325364043
20
-0.352332321179858
30
0
41
1
10
8.73263237750282
20
-0.342681426718855
30
0
41
1
10
8.70143113036903
20
-0.33294293260451
30
0
41
1
10
8.64139973561552
20
-0.30526136963519
30
0
41
1
10
8.61217725434855
20
-0.286462540379148
30
0
41
1
10
8.58642346338533
20
-0.264836787650807
30
0
0
SPLINE
5
11B
100
AcDbEntity
8
1
62
256
6
ByLayer
370
18
48
1
60
0
100
AcDbSpline
70
4
71
3
72
14
73
10
40
0
40
0
40
0
40
0
40
0.283961749036719
40
0.283961749036719
40
0.570285189259031
40
0.570285189259031
40
0.82945109433569
40
0.82945109433569
40
1
40
1
40
1
40
1
41
1
10
9.04114795271974
20
0.0159959582234137
30
0
41
1
10
9.05570574374508
20
-0.0163881130292509
30
0
41
1
10
9.06490393432333
20
-0.0513255419596419
30
0
41
1
10
9.06988943072412
20
-0.121004214614743
30
0
41
1
10
9.06558056610879
20
-0.156814822842676
30
0
41
1
10
9.04374470029342
20
-0.219408469871041
30
0
41
1
10
9.02712478664648
20
-0.247643733534005
30
0
41
1
10
8.99131515494446
20
-0.286776132432493
30
0
41
1
10
8.9746898674035
20
-0.300627061354135
30
0
41
1
10
8.95646825030934
20
-0.312046762837639
30
0
0
SPLINE
5
11C
100
AcDbEntity
8
1
62
256
6
ByLayer
370
18
48
1
60
0
100
AcDbSpline
70
4
71
3
72
18
73
14
40
0
40
0
40
0
40
0
40
0.212491695754831
40
0.212491695754831
40
0.386618276852952
40
0.386618276852952
40
0.56242636090669
40
0.56242636090669
40
0.715388416644358
40
0.715388416644358
40
0.918249208687837
40
0.918249208687837
40
1
40
1
40
1
40
1
41
1
10
9.04114795271974
20
0.0159959582234137
30
0
41
1
10
9.01032998587752
20
0.0845510867004293
30
0
41
1
10
8.9897200890145
20
0.158314974487695
30
0
41
1
10
8.97800837676249
20
0.294477846626449
30
0
41
1
10
8.98234191894792
20
0.358051239918183
30
0
41
1
10
9.01384556590992
20
0.480594460468097
30
0
41
1
10
9.0419833511252
20
0.541267535677207
30
0
41
1
10
9.11298751939492
20
0.641204253595561
30
0
41
1
10
9.15418679266836
20
0.683468222254049
30
0
41
1
10
9.25972669965873
20
0.766103294307669
30
0
41
1
10
9.32878950907011
20
0.802981901940711
30
0
41
1
10
9.42937681797869
20
0.839549329198661
30
0
41
1
10
9.45912151723641
20
0.848444508263782
30
0
41
1
10
9.48918259208568
20
0.855662587869404
30
0
0
SPLINE
5
11D
100
AcDbEntity
8
1
62
256
6
ByLayer
370
18
48
1
60
0
100
AcDbSpline
70
4
71
3
72
16
73
12
40
0
40
0
40
0
40
0
40
0.0630415689509296
40
0.0630415689509296
40
0.285914332024961
40
0.285914332024961
40
0.511588305408869
40
0.511588305408869
40
0.75172306183932
40
0.75172306183932
40
1
40
1
40
1
40
1
41
1
10
9.72992659460772
20
1.13749999999928
30
0
41
1
10
9.72992659460772
20
1.12906634616635
30
0
41
1
10
9.72952148128795
20
1.12062303164882
30
0
41
1
10
9.72588256751195
20
1.08274620756774
30
0
41
1
10
9.71791125288459
20
1.05337839122873
30
0
41
1
10
9.69319743591421
20
0.999132210155949
30
0
41
1
10
9.67605406452634
20
0.973615450355453
30
0
41
1
10
9.63419827114944
20
0.928047083497461
30
0
41
1
10
9.60857255621661
20
0.90785943174609
30
0
41
1
10
9.55241619777877
20
0.875548551351613
30
0
41
1
10
9.52113264629546
20
0.863334237530978
30
0
41
1
10
9.48918259208327
20
0.855662587868835
30
0
0
SPLINE
5
11E
100
AcDbEntity
8
1
62
256
6
ByLayer
370
18
48
1
60
0
100
AcDbSpline
70
4
71
3
72
14
73
10
40
0
40
0
40
0
40
0
40
0.283961457856584
40
0.283961457856584
40
0.570284934646626
40
0.570284934646626
40
0.829450869060465
40
0.829450869060465
40
1
40
1
40
1
40
1
41
1
10
9.48918259208327
20
1.41933741212969
30
0
41
1
10
9.5256985225781
20
1.41056943245798
30
0
41
1
10
9.56141355654037
20
1.39581130820841
30
0
41
1
10
9.62518663492372
20
1.35531554395291
30
0
41
1
10
9.65412910492452
20
1.32880949330905
30
0
41
1
10
9.69684116234453
20
1.27043322621537
30
0
41
1
10
9.71238205167262
20
1.23839560260964
30
0
41
1
10
9.72693550716602
20
1.18314201087759
30
0
41
1
10
9.72992659460772
20
1.16022966079484
30
0
41
1
10
9.72992659460772
20
1.13749999999928
30
0
0
SPLINE
5
11F
100
AcDbEntity
8
1
62
256
6
ByLayer
370
18
48
1
60
0
100
AcDbSpline
70
4
71
3
72
18
73
14
40
0
40
0
40
0
40
0
40
0.212491592101867
40
0.212491592101867
40
0.386618191487476
40
0.386618191487476
40
0.562426295049361
40
0.562426295049361
40
0.715388354467611
40
0.715388354467611
40
0.918249128144789
40
0.918249128144789
40
1
40
1
40
1
40
1
41
1
10
9.48918259208327
20
1.41933741212969
30
0
41
1
10
9.41188052519641
20
1.43789870693618
30
0
41
1
10
9.33591267855095
20
1.46788180890988
30
0
41
1
10
9.21141276957187
20
1.54309652365092
30
0
41
1
10
9.1591554570027
20
1.58558064341739
30
0
41
1
10
9.07273194896263
20
1.68404594441176
30
0
41
1
10
9.03771261892547
20
1.74173628689266
30
0
41
1
10
8.99538071532146
20
1.85420391071185
30
0
41
1
10
8.98442150492673
20
1.90969071403671
30
0
41
1
10
8.97827820148629
20
2.03636233775816
30
0
41
1
10
8.9889477475819
20
2.10891916155964
30
0
41
1
10
9.01875225534022
20
2.20500657274468
30
0
41
1
10
9.02916351674659
20
2.23234444570045
30
0
41
1
10
9.04114795272091
20
2.25900404177764
30
0
0
SPLINE
5
120
100
AcDbEntity
8
1
62
256
6
ByLayer
370
18
48
1
60
0
100
AcDbSpline
70
4
71
3
72
12
73
8
40
0
40
0
40
0
40
0
40
0.495785575728963
40
0.495785575728963
40
0.900238279923945
40
0.900238279923945
40
1
40
1
40
1
40
1
41
1
10
8.58642346338533
20
2.53983678764936
30
0
41
1
10
8.52601131146221
20
2.48910801295588
30
0
41
1
10
8.45734413111214
20
2.44462335145235
30
0
41
1
10
8.32503572421422
20
2.38266073117441
30
0
41
1
10
8.26131837841504
20
2.36116365063464
30
0
41
1
10
8.1824872260589
20
2.34566202596417
30
0
41
1
10
8.16670519719648
20
2.34310657989289
30
0
41
1
10
8.15101348062638
20
2.3411263508952
30
0
0
SPLINE
5
121
100
AcDbEntity
8
1
62
256
6
ByLayer
370
18
48
1
60
0
100
AcDbSpline
70
4
71
3
72
14
73
10
40
0
40
0
40
0
40
0
40
0.282169922576108
40
0.282169922576108
40
0.566902245317975
40
0.566902245317975
40
0.824523972080273
40
0.824523972080273
40
1
40
1
40
1
40
1
41
1
10
8.58642346338533
20
2.53983678764936
30
0
41
1
10
8.6148761137546
20
2.56372880347843
30
0
41
1
10
8.64762801802274
20
2.58419095398418
30
0
41
1
10
8.71749097771746
20
2.61392759952048
30
0
41
1
10
8.75574394145335
20
2.62350316007203
30
0
41
1
10
8.82775789745142
20
2.62813981765959
30
0
41
1
10
8.86268740043087
20
2.62450486817275
30
0
41
1
10
8.91658253504735
20
2.60833834362813
30
0
41
1
10
8.93754795598053
20
2.59890433355005
30
0
41
1
10
8.95646825030934
20
2.58704676283617
30
0
0
SPLINE
5
122
100
AcDbEntity
8
1
62
256
6
ByLayer
370
18
48
1
60
0
100
AcDbSpline
70
4
71
3
72
16
73
12
40
0
40
0
40
0
40
0
40
0.0569446172824961
40
0.0569446172824961
40
0.279906644834056
40
0.279906644834056
40
0.505321967306654
40
0.505321967306654
40
0.744915047128763
40
0.744915047128763
40
1
40
1
40
1
40
1
41
1
10
8.95646825030934
20
2.58704676283617
30
0
41
1
10
8.96257955815247
20
2.58321673442094
30
0
41
1
10
8.96850379021816
20
2.57912442622038
30
0
41
1
10
8.9963800655236
20
2.55795865074836
30
0
41
1
10
9.01550030164842
20
2.53713106376083
30
0
41
1
10
9.04500405312271
20
2.49086102380281
30
0
41
1
10
9.0556843417817
20
2.46479536171486
30
0
41
1
10
9.06820786214641
20
2.40956196334204
30
0
41
1
10
9.06964010290892
20
2.37962170469243
30
0
41
1
10
9.06298464209661
20
2.31920391695303
30
0
41
1
10
9.05422795041565
20
2.28810073485391
30
0
41
1
10
9.04114795271977
20
2.25900404177511
30
0
0
LINE
5
74
100
AcDbEntity
8
80
62
256
6
ByLayer
370
18
48
1
60
0
100
AcDbLine
10
0
20
0
30
0
11
-5
21
0
31
0
39
0
210
0
220
0
230
1
0
LINE
5
75
100
AcDbEntity
8
81
62
256
6
ByLayer
370
18
48
1
60
0
100
AcDbLine
10
28.6
20
-8.075
30
0
11
33.6
21
-8.075
31
0
39
0
210
0
220
0
230
1
0
LINE
5
76
100
AcDbEntity
8
1
62
256
6
ByLayer
370
18
48
1
60
0
100
AcDbLine
10
7.950739
20
-1.8625
30
0
11
8.100582
21
-1.8625
31
0
39
0
210
0
220
0
230
1
0
LINE
5
78
100
AcDbEntity
8
1
62
256
6
ByLayer
370
18
48
1
60
0
100
AcDbLine
10
8.100582
20
4.1375
30
0
11
7.950739
21
4.1375
31
0
39
0
210
0
220
0
230
1
0
LINE
5
79
100
AcDbEntity
8
SK1
62
256
6
ByLayer
370
18
48
1
60
0
100
AcDbLine
10
-0.25
20
-8
30
0
11
0
21
-8
31
0
39
0
210
0
220
0
230
1
0
LINE
5
7B
100
AcDbEntity
8
SK1
62
256
6
ByLayer
370
18
48
1
60
0
100
AcDbLine
10
-41.4
20
-5.026066
30
0
11
-41.4
21
7.925
31
0
39
0
210
0
220
0
230
1
0
LINE
5
7C
100
AcDbEntity
8
SK1
62
256
6
ByLayer
370
18
48
1
60
0
100
AcDbLine
10
-41.4
20
7.925
30
0
11
-0.25
21
7.925
31
0
39
0
210
0
220
0
230
1
0
LINE
5
7D
100
AcDbEntity
8
SK1
62
256
6
ByLayer
370
18
48
1
60
0
100
AcDbLine
10
-38.4
20
-8
30
0
11
-41.4
21
-5.026066
31
0
39
0
210
0
220
0
230
1
0
LINE
5
7E
100
AcDbEntity
8
SK1
62
256
6
ByLayer
370
18
48
1
60
0
100
AcDbLine
10
-0.25
20
7.925
30
0
11
-0.25
21
-8
31
0
39
0
210
0
220
0
230
1
0
LINE
5
7F
100
AcDbEntity
8
SK1
62
256
6
ByLayer
370
18
48
1
60
0
100
AcDbLine
10
0
20
7.925397
30
0
11
-0.25
21
7.925
31
0
39
0
210
0
220
0
230
1
0
LINE
5
80
100
AcDbEntity
8
SK1
62
256
6
ByLayer
370
18
48
1
60
0
100
AcDbLine
10
-0.25
20
-8
30
0
11
-38.4
21
-8
31
0
39
0
210
0
220
0
230
1
0
LINE
5
81
100
AcDbEntity
8
SK1
62
256
6
ByLayer
370
18
48
1
60
0
100
AcDbLine
10
0
20
-8
30
0
11
0
21
7.925397
31
0
39
0
210
0
220
0
230
1
0
LINE
5
82
100
AcDbEntity
8
1
62
256
6
ByLayer
370
18
48
1
60
0
100
AcDbLine
10
6.517159
20
-4.85
30
0
11
10.606676
21
-4.85
31
0
39
0
210
0
220
0
230
1
0
LINE
5
83
100
AcDbEntity
8
1
62
256
6
ByLayer
370
18
48
1
60
0
100
AcDbLine
10
10.824394
20
-4.325
30
0
11
10.729263
21
-4.325
31
0
39
0
210
0
220
0
230
1
0
LINE
5
84
100
AcDbEntity
8
1
62
256
6
ByLayer
370
18
48
1
60
0
100
AcDbLine
10
5
20
-8
30
0
11
5
21
7.946817
31
0
39
0
210
0
220
0
230
1
0
LINE
5
85
100
AcDbEntity
8
1
62
256
6
ByLayer
370
18
48
1
60
0
100
AcDbLine
10
10.927637
20
7.110762
30
0
11
10.824394
21
7.185311
31
0
39
0
210
0
220
0
230
1
0
LINE
5
86
100
AcDbEntity
8
1
62
256
6
ByLayer
370
18
48
1
60
0
100
AcDbLine
10
10.606676
20
2.842865
30
0
11
10.606676
21
7.34252
31
0
39
0
210
0
220
0
230
1
0
LINE
5
87
100
AcDbEntity
8
1
62
256
6
ByLayer
370
18
48
1
60
0
100
AcDbLine
10
10.824394
20
7.185311
30
0
11
10.824394
21
1.80478
31
0
39
0
210
0
220
0
230
1
0
LINE
5
88
100
AcDbEntity
8
1
62
256
6
ByLayer
370
18
48
1
60
0
100
AcDbLine
10
10.824394
20
0.465088
30
0
11
10.824394
21
-4.325
31
0
39
0
210
0
220
0
230
1
0
LINE
5
89
100
AcDbEntity
8
1
62
256
6
ByLayer
370
18
48
1
60
0
100
AcDbLine
10
10.606676
20
-4.85
30
0
11
10.742202
21
-4.85
31
0
39
0
210
0
220
0
230
1
0
LINE
5
8A
100
AcDbEntity
8
1
62
256
6
ByLayer
370
18
48
1
60
0
100
AcDbLine
10
0
20
-8
30
0
11
0
21
7.925397
31
0
39
0
210
0
220
0
230
1
0
LINE
5
8B
100
AcDbEntity
8
1
62
256
6
ByLayer
370
18
48
1
60
0
100
AcDbLine
10
10.729263
20
-4.325
30
0
11
10.742202
21
-4.85
31
0
39
0
210
0
220
0
230
1
0
LINE
5
8C
100
AcDbEntity
8
1
62
256
6
ByLayer
370
18
48
1
60
0
100
AcDbLine
10
15.611646
20
-5.65
30
0
11
21.632993
21
-5.65
31
0
39
0
210
0
220
0
230
1
0
LINE
5
8D
100
AcDbEntity
8
1
62
256
6
ByLayer
370
18
48
1
60
0
100
AcDbLine
10
0.143063
20
7.925624
30
0
11
0
21
7.925397
31
0
39
0
210
0
220
0
230
1
0
LINE
5
8E
100
AcDbEntity
8
1
62
256
6
ByLayer
370
18
48
1
60
0
100
AcDbLine
10
5
20
7.946817
30
0
11
6.517159
21
7.946817
31
0
39
0
210
0
220
0
230
1
0
LINE
5
8F
100
AcDbEntity
8
1
62
256
6
ByLayer
370
18
48
1
60
0
100
AcDbLine
10
8.652733
20
-5.65
30
0
11
15.611646
21
-5.65
31
0
39
0
210
0
220
0
230
1
0
LINE
5
90
100
AcDbEntity
8
1
62
256
6
ByLayer
370
18
48
1
60
0
100
AcDbLine
10
10.824394
20
7.185311
30
0
11
10.606676
21
7.34252
31
0
39
0
210
0
220
0
230
1
0
LINE
5
91
100
AcDbEntity
8
1
62
256
6
ByLayer
370
18
48
1
60
0
100
AcDbLine
10
9.777747
20
7.941069
30
0
11
10.606676
21
7.34252
31
0
39
0
210
0
220
0
230
1
0
LINE
5
92
100
AcDbEntity
8
1
62
256
6
ByLayer
370
18
48
1
60
0
100
AcDbLine
10
6.517159
20
3.798112
30
0
11
6.517159
21
7.946817
31
0
39
0
210
0
220
0
230
1
0
LINE
5
93
100
AcDbEntity
8
1
62
256
6
ByLayer
370
18
48
1
60
0
100
AcDbLine
10
10.606676
20
-4.85
30
0
11
10.606676
21
-0.567865
31
0
39
0
210
0
220
0
230
1
0
LINE
5
94
100
AcDbEntity
8
1
62
256
6
ByLayer
370
18
48
1
60
0
100
AcDbLine
10
15.611646
20
-8
30
0
11
21.632993
21
-8
31
0
39
0
210
0
220
0
230
1
0
LINE
5
95
100
AcDbEntity
8
1
62
256
6
ByLayer
370
18
48
1
60
0
100
AcDbLine
10
10.927637
20
7.110762
30
0
11
10.927637
21
-4.325
31
0
39
0
210
0
220
0
230
1
0
LINE
5
96
100
AcDbEntity
8
1
62
256
6
ByLayer
370
18
48
1
60
0
100
AcDbLine
10
9.777747
20
7.941069
30
0
11
6.517159
21
7.946817
31
0
39
0
210
0
220
0
230
1
0
LINE
5
97
100
AcDbEntity
8
1
62
256
6
ByLayer
370
18
48
1
60
0
100
AcDbLine
10
10.927637
20
-4.325
30
0
11
10.824394
21
-4.325
31
0
39
0
210
0
220
0
230
1
0
LINE
5
98
100
AcDbEntity
8
1
62
256
6
ByLayer
370
18
48
1
60
0
100
AcDbLine
10
6.517159
20
-4.85
30
0
11
6.517159
21
-1.523112
31
0
39
0
210
0
220
0
230
1
0
LINE
5
99
100
AcDbEntity
8
1
62
256
6
ByLayer
370
18
48
1
60
0
100
AcDbLine
10
5
20
-8
30
0
11
0.143063
21
-8
31
0
39
0
210
0
220
0
230
1
0
LINE
5
9A
100
AcDbEntity
8
1
62
256
6
ByLayer
370
18
48
1
60
0
100
AcDbLine
10
15.611646
20
-5.65
30
0
11
15.611646
21
-8
31
0
39
0
210
0
220
0
230
1
0
LINE
5
9B
100
AcDbEntity
8
1
62
256
6
ByLayer
370
18
48
1
60
0
100
AcDbLine
10
0.143063
20
7.925624
30
0
11
5
21
7.946817
31
0
39
0
210
0
220
0
230
1
0
LINE
5
9C
100
AcDbEntity
8
1
62
256
6
ByLayer
370
18
48
1
60
0
100
AcDbLine
10
15.611646
20
-8
30
0
11
5
21
-8
31
0
39
0
210
0
220
0
230
1
0
LINE
5
9D
100
AcDbEntity
8
1
62
256
6
ByLayer
370
18
48
1
60
0
100
AcDbLine
10
0
20
-8
30
0
11
0.143063
21
-8
31
0
39
0
210
0
220
0
230
1
0
LINE
5
9E
100
AcDbEntity
8
1
62
256
6
ByLayer
370
18
48
1
60
0
100
AcDbLine
10
0.143063
20
-8
30
0
11
0.143063
21
7.925624
31
0
39
0
210
0
220
0
230
1
0
LINE
5
9F
100
AcDbEntity
8
1
62
256
6
ByLayer
370
18
48
1
60
0
100
AcDbLine
10
22.754716
20
-8
30
0
11
24.921342
21
-8
31
0
39
0
210
0
220
0
230
1
0
LINE
5
A0
100
AcDbEntity
8
1
62
256
6
ByLayer
370
18
48
1
60
0
100
AcDbLine
10
11.171386
20
-4.325
30
0
11
10.927604
21
-4.325
31
0
39
0
210
0
220
0
230
1
0
LINE
5
A1
100
AcDbEntity
8
1
62
256
6
ByLayer
370
18
48
1
60
0
100
AcDbLine
10
20.90341
20
-0.092489
30
0
11
11.171386
21
6.934757
31
0
39
0
210
0
220
0
230
1
0
LINE
5
A2
100
AcDbEntity
8
1
62
256
6
ByLayer
370
18
48
1
60
0
100
AcDbLine
10
21.633018
20
-8
30
0
11
22.754716
21
-8
31
0
39
0
210
0
220
0
230
1
0
LINE
5
A3
100
AcDbEntity
8
1
62
256
6
ByLayer
370
18
48
1
60
0
100
AcDbLine
10
11.829549
20
-4.85
30
0
11
20.90341
21
-4.85
31
0
39
0
210
0
220
0
230
1
0
LINE
5
A4
100
AcDbEntity
8
1
62
256
6
ByLayer
370
18
48
1
60
0
100
AcDbLine
10
11.171386
20
-4.325
30
0
11
11.171386
21
6.934757
31
0
39
0
210
0
220
0
230
1
0
LINE
5
A5
100
AcDbEntity
8
1
62
256
6
ByLayer
370
18
48
1
60
0
100
AcDbLine
10
20.90341
20
-0.092489
30
0
11
20.90341
21
-4.85
31
0
39
0
210
0
220
0
230
1
0
LINE
5
A6
100
AcDbEntity
8
1
62
256
6
ByLayer
370
18
48
1
60
0
100
AcDbLine
10
22.754716
20
-8
30
0
11
22.752274
21
-7.899994
31
0
39
0
210
0
220
0
230
1
0
LINE
5
A7
100
AcDbEntity
8
1
62
256
6
ByLayer
370
18
48
1
60
0
100
AcDbLine
10
11.171386
20
6.934757
30
0
11
10.927631
21
7.110766
31
0
39
0
210
0
220
0
230
1
0
LINE
5
A8
100
AcDbEntity
8
1
62
256
6
ByLayer
370
18
48
1
60
0
100
AcDbLine
10
11.917079
20
-4.325
30
0
11
11.171386
21
-4.325
31
0
39
0
210
0
220
0
230
1
0
LINE
5
A9
100
AcDbEntity
8
1
62
256
6
ByLayer
370
18
48
1
60
0
100
AcDbLine
10
23.806578
20
-5.6
30
0
11
23.806578
21
-7.9
31
0
39
0
210
0
220
0
230
1
0
LINE
5
AA
100
AcDbEntity
8
1
62
256
6
ByLayer
370
18
48
1
60
0
100
AcDbLine
10
21.977893
20
-6.57899
30
0
11
22.862743
21
-6.57899
31
0
39
0
210
0
220
0
230
1
0
LINE
5
AB
100
AcDbEntity
8
1
62
256
6
ByLayer
370
18
48
1
60
0
100
AcDbLine
10
21.688322
20
-5.773551
30
0
11
22.564764
21
-5.773551
31
0
39
0
210
0
220
0
230
1
0
LINE
5
AC
100
AcDbEntity
8
1
62
256
6
ByLayer
370
18
48
1
60
0
100
AcDbLine
10
24.748294
20
-7.9
30
0
11
25.104797
21
-8.106109
31
0
39
0
210
0
220
0
230
1
0
LINE
5
AD
100
AcDbEntity
8
1
62
256
6
ByLayer
370
18
48
1
60
0
100
AcDbLine
10
21.711315
20
-5.824854
30
0
11
22.574271
21
-5.824854
31
0
39
0
210
0
220
0
230
1
0
LINE
5
AE
100
AcDbEntity
8
1
62
256
6
ByLayer
370
18
48
1
60
0
100
AcDbLine
10
10.921505
20
-5.341377
30
0
11
12.122613
21
-5.393891
31
0
39
0
210
0
220
0
230
1
0
LINE
5
AF
100
AcDbEntity
8
1
62
256
6
ByLayer
370
18
48
1
60
0
100
AcDbLine
10
12.306145
20
-8.000002
30
0
11
12.122613
21
-8.106109
31
0
39
0
210
0
220
0
230
1
0
LINE
5
B0
100
AcDbEntity
8
1
62
256
6
ByLayer
370
18
48
1
60
0
100
AcDbLine
10
21.996017
20
-6.92101
30
0
11
22.862743
21
-6.92101
31
0
39
0
210
0
220
0
230
1
0
LINE
5
B1
100
AcDbEntity
8
1
62
256
6
ByLayer
370
18
48
1
60
0
100
AcDbLine
10
22.564764
20
-5.773551
30
0
11
22.564764
21
-5.6
31
0
39
0
210
0
220
0
230
1
0
LINE
5
B2
100
AcDbEntity
8
1
62
256
6
ByLayer
370
18
48
1
60
0
100
AcDbLine
10
23.806578
20
-7.9
30
0
11
24.748294
21
-7.9
31
0
39
0
210
0
220
0
230
1
0
LINE
5
B3
100
AcDbEntity
8
1
62
256
6
ByLayer
370
18
48
1
60
0
100
AcDbLine
10
21.778557
20
-7.675146
30
0
11
22.574271
21
-7.675146
31
0
39
0
210
0
220
0
230
1
0
LINE
5
B4
100
AcDbEntity
8
1
62
256
6
ByLayer
370
18
48
1
60
0
100
AcDbLine
10
13.420831
20
-5.6
30
0
11
13.420831
21
-5.650025
31
0
39
0
210
0
220
0
230
1
0
LINE
5
B5
100
AcDbEntity
8
1
62
256
6
ByLayer
370
18
48
1
60
0
100
AcDbLine
10
8.627409
20
-8.05
30
0
11
8.627409
21
-7.999991
31
0
39
0
210
0
220
0
230
1
0
LINE
5
B6
100
AcDbEntity
8
1
62
256
6
ByLayer
370
18
48
1
60
0
100
AcDbLine
10
21.755538
20
-7.726449
30
0
11
22.564764
21
-7.726449
31
0
39
0
210
0
220
0
230
1
0
LINE
5
B7
100
AcDbEntity
8
1
62
256
6
ByLayer
370
18
48
1
60
0
100
AcDbLine
10
14.538966
20
-5.6
30
0
11
13.420831
21
-5.6
31
0
39
0
210
0
220
0
230
1
0
LINE
5
B8
100
AcDbEntity
8
1
62
256
6
ByLayer
370
18
48
1
60
0
100
AcDbLine
10
14.538966
20
-5.650002
30
0
11
14.538966
21
-5.6
31
0
39
0
210
0
220
0
230
1
0
LINE
5
B9
100
AcDbEntity
8
1
62
256
6
ByLayer
370
18
48
1
60
0
100
AcDbLine
10
28.391562
20
-5.25019
30
0
11
25.104797
21
-5.393891
31
0
39
0
210
0
220
0
230
1
0
LINE
5
BA
100
AcDbEntity
8
1
62
256
6
ByLayer
370
18
48
1
60
0
100
AcDbLine
10
22.564764
20
-5.6
30
0
11
14.538966
21
-5.6
31
0
39
0
210
0
220
0
230
1
0
LINE
5
BB
100
AcDbEntity
8
1
62
256
6
ByLayer
370
18
48
1
60
0
100
AcDbLine
10
28.391562
20
-8.24981
30
0
11
25.104797
21
-8.106109
31
0
39
0
210
0
220
0
230
1
0
LINE
5
BC
100
AcDbEntity
8
1
62
256
6
ByLayer
370
18
48
1
60
0
100
AcDbLine
10
13.420831
20
-5.6
30
0
11
12.479115
21
-5.6
31
0
39
0
210
0
220
0
230
1
0
LINE
5
BD
100
AcDbEntity
8
1
62
256
6
ByLayer
370
18
48
1
60
0
100
AcDbLine
10
22.564764
20
-5.6
30
0
11
23.806578
21
-5.6
31
0
39
0
210
0
220
0
230
1
0
LINE
5
BE
100
AcDbEntity
8
1
62
256
6
ByLayer
370
18
48
1
60
0
100
AcDbLine
10
23.806578
20
-5.6
30
0
11
24.748294
21
-5.6
31
0
39
0
210
0
220
0
230
1
0
LINE
5
BF
100
AcDbEntity
8
1
62
256
6
ByLayer
370
18
48
1
60
0
100
AcDbLine
10
22.564764
20
-7.726449
30
0
11
22.564764
21
-7.9
31
0
39
0
210
0
220
0
230
1
0
LINE
5
C0
100
AcDbEntity
8
1
62
256
6
ByLayer
370
18
48
1
60
0
100
AcDbLine
10
12.479115
20
-5.6
30
0
11
12.122613
21
-5.393891
31
0
39
0
210
0
220
0
230
1
0
LINE
5
C1
100
AcDbEntity
8
1
62
256
6
ByLayer
370
18
48
1
60
0
100
AcDbLine
10
22.564764
20
-7.9
30
0
11
21.677788
21
-7.9
31
0
39
0
210
0
220
0
230
1
0
LINE
5
C2
100
AcDbEntity
8
1
62
256
6
ByLayer
370
18
48
1
60
0
100
AcDbLine
10
28.6
20
-8.05
30
0
11
28.6
21
-5.45
31
0
39
0
210
0
220
0
230
1
0
LINE
5
C3
100
AcDbEntity
8
1
62
256
6
ByLayer
370
18
48
1
60
0
100
AcDbLine
10
22.574271
20
-7.675146
30
0
11
22.862743
21
-6.92101
31
0
39
0
210
0
220
0
230
1
0
LINE
5
C4
100
AcDbEntity
8
1
62
256
6
ByLayer
370
18
48
1
60
0
100
AcDbLine
10
24.748294
20
-5.6
30
0
11
25.104797
21
-5.393891
31
0
39
0
210
0
220
0
230
1
0
LINE
5
C5
100
AcDbEntity
8
1
62
256
6
ByLayer
370
18
48
1
60
0
100
AcDbLine
10
8.835847
20
-8.24981
30
0
11
12.122613
21
-8.106109
31
0
39
0
210
0
220
0
230
1
0
LINE
5
C6
100
AcDbEntity
8
1
62
256
6
ByLayer
370
18
48
1
60
0
100
AcDbLine
10
22.574271
20
-5.824854
30
0
11
22.862743
21
-6.57899
31
0
39
0
210
0
220
0
230
1
0
LINE
5
C7
100
AcDbEntity
8
1
62
256
6
ByLayer
370
18
48
1
60
0
100
AcDbLine
10
22.564764
20
-7.9
30
0
11
23.806578
21
-7.9
31
0
39
0
210
0
220
0
230
1
0
LINE
5
C8
100
AcDbEntity
8
1
62
256
6
ByLayer
370
18
48
1
60
0
100
AcDbLine
10
8.705859
20
1.419337
30
0
11
9.489183
21
1.419337
31
0
39
0
210
0
220
0
230
1
0
LINE
5
C9
100
AcDbEntity
8
1
62
256
6
ByLayer
370
18
48
1
60
0
100
AcDbLine
10
8.705859
20
0.855663
30
0
11
9.489183
21
0.855663
31
0
39
0
210
0
220
0
230
1
0
LINE
5
CA
100
AcDbEntity
8
1
62
256
6
ByLayer
370
18
48
1
60
0
100
AcDbLine
10
8.257825
20
0.015996
30
0
11
9.041148
21
0.015996
31
0
39
0
210
0
220
0
230
1
0
LINE
5
CB
100
AcDbEntity
8
1
62
256
6
ByLayer
370
18
48
1
60
0
100
AcDbLine
10
7.996684
20
-0.066126
30
0
11
8.151013
21
-0.066126
31
0
39
0
210
0
220
0
230
1
0
LINE
5
CC
100
AcDbEntity
8
1
62
256
6
ByLayer
370
18
48
1
60
0
100
AcDbLine
10
8.151013
20
2.341126
30
0
11
7.996684
21
2.341126
31
0
39
0
210
0
220
0
230
1
0
LINE
5
CD
100
AcDbEntity
8
1
62
256
6
ByLayer
370
18
48
1
60
0
100
AcDbLine
10
7.99669
20
-0.066126
30
0
11
7.274207
21
-0.066126
31
0
39
0
210
0
220
0
230
1
0
LINE
5
CE
100
AcDbEntity
8
1
62
256
6
ByLayer
370
18
48
1
60
0
100
AcDbLine
10
7.274207
20
2.341126
30
0
11
7.99669
21
2.341126
31
0
39
0
210
0
220
0
230
1
0
LINE
5
CF
100
AcDbEntity
8
1
62
256
6
ByLayer
370
18
48
1
60
0
100
AcDbLine
10
7.340057
20
-0.264837
30
0
11
7.681657
21
-0.264837
31
0
39
0
210
0
220
0
230
1
0
LINE
5
D0
100
AcDbEntity
8
1
62
256
6
ByLayer
370
18
48
1
60
0
100
AcDbLine
10
8.257825
20
2.259004
30
0
11
9.041148
21
2.259004
31
0
39
0
210
0
220
0
230
1
0
LINE
5
D1
100
AcDbEntity
8
1
62
256
6
ByLayer
370
18
48
1
60
0
100
AcDbLine
10
7.337661
20
2.539837
30
0
11
7.681657
21
2.539837
31
0
39
0
210
0
220
0
230
1
0
MTEXT
5
123
100
AcDbEntity
8
SK6
62
256
6
ByLayer
370
18
48
1
60
0
100
AcDbMText
10
-33.025
20
16.973408
30
0
210
0
220
0
230
1
1
\W0.7194;QS-LF123G17-1616B
40
3.5
41
0
44
1.084337
50
0
71
7
72
5
7
iso_b_vert
0
DIMENSION
5
135
100
AcDbEntity
8
SK2
62
256
6
ByLayer
370
13
48
1
60
0
100
AcDbDimension
2
DimnDraft3D1
10
-51.15
20
-7.925
30
0
11
-51.15
21
-4.644079
31
0
70
32
71
5
72
1
41
1
210
0
220
0
230
1
3
Standard
100
AcDbAlignedDimension
13
-42.9
23
8.075
33
0
14
-42.9
24
-7.925
34
0
50
90
100
AcDbRotatedDimension
1001
ACAD
1000
DSTYLE
1002
{
1070
    74
1070
     0
1070
   279
1070
     0
1070
   172
1070
     1
1070
   173
1070
     1
1070
   340
1005
124
1070
   271
1070
     3
1070
   272
1070
     3
1070
    77
1070
     1
1070
    73
1070
     0
1070
   171
1070
     4
1070
   274
1070
     4
1070
   177
1070
     2
1070
   176
1070
     2
1070
   178
1070
     7
1070
    78
1070
     8
1070
    41
1041
3.0
1070
   147
1041
2.25
1070
    42
1041
1.5
1070
    44
1041
3.0
1070
   140
1041
4.5
1070
   343
1005
136
1070
   344
1005
136
1002
}
0
DIMENSION
5
14A
100
AcDbEntity
8
2
62
256
6
ByLayer
370
13
48
1
60
0
100
AcDbDimension
2
DimnDraft3D2
10
42.85
20
-4.925
30
0
11
42.85
21
-25.625
31
0
70
32
71
5
72
1
41
1
210
0
220
0
230
1
3
Standard
100
AcDbAlignedDimension
13
30.1
23
-7.925
33
0
14
30.1
24
-4.925
34
0
50
90
100
AcDbRotatedDimension
1001
ACAD
1000
DSTYLE
1002
{
1070
    74
1070
     0
1070
   279
1070
     0
1070
   172
1070
     1
1070
   173
1070
     1
1070
   340
1005
124
1070
   271
1070
     3
1070
   272
1070
     3
1070
    77
1070
     1
1070
    73
1070
     0
1070
   171
1070
     4
1070
   274
1070
     4
1070
   177
1070
     2
1070
   176
1070
     2
1070
   178
1070
     7
1070
    78
1070
     8
1070
    41
1041
3.0
1070
   147
1041
2.25
1070
    42
1041
1.5
1070
    44
1041
3.0
1070
   140
1041
4.5
1070
   343
1005
136
1070
   344
1005
136
1002
}
0
DIMENSION
5
158
100
AcDbEntity
8
2
62
256
6
ByLayer
370
13
48
1
60
0
100
AcDbDimension
2
DimnDraft3D3
10
52.85
20
8.075
30
0
11
52.85
21
0.075
31
0
70
32
71
5
72
1
41
1
210
0
220
0
230
1
3
Standard
100
AcDbAlignedDimension
13
30.1
23
-7.925
33
0
14
1.5
24
8.075
34
0
50
90
100
AcDbRotatedDimension
1001
ACAD
1000
DSTYLE
1002
{
1070
    74
1070
     0
1070
   279
1070
     0
1070
   172
1070
     1
1070
   173
1070
     1
1070
   340
1005
124
1070
   271
1070
     3
1070
   272
1070
     3
1070
    77
1070
     1
1070
    73
1070
     0
1070
   171
1070
     4
1070
   274
1070
     4
1070
   177
1070
     2
1070
   176
1070
     2
1070
   178
1070
     7
1070
    78
1070
     8
1070
    41
1041
3.0
1070
   147
1041
2.25
1070
    42
1041
1.5
1070
    44
1041
3.0
1070
   140
1041
4.5
1070
   343
1005
136
1070
   344
1005
136
1002
}
0
DIMENSION
5
166
100
AcDbEntity
8
SK2
62
256
6
ByLayer
370
13
48
1
60
0
100
AcDbDimension
2
DimnDraft3D4
10
28.6
20
-32.175
30
0
11
-11.681579
21
-32.175
31
0
70
32
71
5
72
1
41
1
210
0
220
0
230
1
3
Standard
100
AcDbAlignedDimension
13
-41.4
23
-9.425
33
0
14
28.6
24
-9.425
34
0
50
0
100
AcDbRotatedDimension
1001
ACAD
1000
DSTYLE
1002
{
1070
   279
1070
     0
1070
   172
1070
     1
1070
   173
1070
     1
1070
   340
1005
124
1070
   271
1070
     3
1070
   272
1070
     3
1070
    77
1070
     1
1070
    73
1070
     0
1070
   171
1070
     4
1070
   274
1070
     4
1070
   177
1070
     2
1070
   176
1070
     2
1070
   178
1070
     7
1070
    78
1070
     8
1070
    41
1041
3.0
1070
   147
1041
2.25
1070
    42
1041
1.5
1070
    44
1041
3.0
1070
   140
1041
4.5
1070
   343
1005
136
1070
   344
1005
136
1002
}
0
DIMENSION
5
174
100
AcDbEntity
8
2
62
256
6
ByLayer
370
13
48
1
60
0
100
AcDbDimension
2
DimnDraft3D5
10
0
20
-22.175
30
0
11
9.018421
21
-22.175
31
0
70
32
71
5
72
1
41
1
210
0
220
0
230
1
3
Standard
100
AcDbAlignedDimension
13
28.6
23
-9.425
33
0
14
0
24
-9.425
34
0
50
0
100
AcDbRotatedDimension
1001
ACAD
1000
DSTYLE
1002
{
1070
   279
1070
     0
1070
   172
1070
     1
1070
   173
1070
     1
1070
   340
1005
124
1070
   271
1070
     3
1070
   272
1070
     3
1070
    77
1070
     1
1070
    73
1070
     0
1070
   171
1070
     4
1070
   274
1070
     4
1070
   177
1070
     2
1070
   176
1070
     2
1070
   178
1070
     7
1070
    78
1070
     8
1070
    41
1041
3.0
1070
   147
1041
2.25
1070
    42
1041
1.5
1070
    44
1041
3.0
1070
   140
1041
4.5
1070
   343
1005
136
1070
   344
1005
136
1002
}
0
DIMENSION
5
182
100
AcDbEntity
8
2
62
256
6
ByLayer
370
13
48
1
60
0
100
AcDbDimension
2
DimnDraft3D6
10
11.6
20
17.825
30
0
11
20.1
21
17.825
31
0
70
32
71
5
72
1
41
1
210
0
220
0
230
1
3
Standard
100
AcDbAlignedDimension
13
28.6
23
-3.425
33
0
14
11.6
24
9.575
34
0
50
0
100
AcDbRotatedDimension
1001
ACAD
1000
DSTYLE
1002
{
1070
   279
1070
     0
1070
   172
1070
     1
1070
   173
1070
     1
1070
   340
1005
124
1070
   271
1070
     3
1070
   272
1070
     3
1070
    77
1070
     1
1070
    73
1070
     0
1070
   171
1070
     4
1070
   274
1070
     4
1070
   177
1070
     2
1070
   176
1070
     2
1070
   178
1070
     7
1070
    78
1070
     8
1070
    41
1041
3.0
1070
   147
1041
2.25
1070
    42
1041
1.5
1070
    44
1041
3.0
1070
   140
1041
4.5
1070
   343
1005
136
1070
   344
1005
136
1002
}
0
ENDSEC
0
SECTION
2
OBJECTS
0
DICTIONARY
5
1ec
330
0
100
AcDbDictionary
280
0
281
1
3
ACAD_GROUP
350
1ed
3
ACAD_MLINESTYLE
350
1ee
0
DICTIONARY
5
1ed
330
0
100
AcDbDictionary
280
0
281
1
0
DICTIONARY
5
1ee
330
0
100
AcDbDictionary
280
0
281
1
3
Standard
350
18
0
MLINESTYLE
5
18
330
1ee
100
AcDbMlineStyle
2
Standard
70
0
3

62
256
51
90
52
90
71
2
49
-0.5
62
256
6
ByLayer
49
0.5
62
256
6
ByLayer
0
RASTERVARIABLES
5
1db
330

100
AcDbRasterVariables
90
0
70
1
71
1
72
1
0
ENDSEC
0
EOF
