0
SECTION
2
HEADER
9
$ACADVER
1
AC1015
9
$DWGCODEPAGE
3
ANSI_1252
9
$HANDSEED
5
1ec
9
$ANGBASE
50
0
9
$ANGDIR
70
0
9
$ATTMODE
70
1
9
$AUNITS
70
0
9
$AUPREC
70
0
9
$CECOLOR
62
256
9
$CELTSCALE
40
1
9
$CELTYPE
6
ByLayer
9
$CELWEIGHT
370
18
9
$CLAYER
8
0
9
$CMLJUST
70
0
9
$CMLSCALE
40
1
9
$CMLSTYLE
2
Standard
9
$DIMSTYLE
2
Standard
9
$TEXTSIZE
40
0.2
9
$TEXTSTYLE
7
Standard
9
$LUNITS
70
2
9
$LUPREC
70
4
9
$EXTNAMES
290
1
9
$INSUNITS
70
4
9
$LTSCALE
40
1
9
$LWDISPLAY
290
1
9
$PDMODE
70
0
9
$PDSIZE
40
0
9
$PLINEGEN
70
0
0
ENDSEC
0
SECTION
2
CLASSES
0
CLASS
1
RASTERVARIABLES
2
AcDbRasterVariables
3
ISM
90
0
280
0
281
0
0
ENDSEC
0
SECTION
2
TABLES
0
TABLE
2
VPORT
5
1e2
100
AcDbSymbolTable
0
VPORT
5
1
100
AcDbSymbolTableRecord
100
AcDbViewportTableRecord
2
*Active
70
0
10
0
20
0
11
1
21
1
12
-1
22
1
13
0
23
0
14
0.5
24
0.5
15
10
25
10
16
0
26
0
36
1
17
0
27
0
37
0
0
ENDTAB
0
TABLE
2
LTYPE
5
1e3
100
AcDbSymbolTable
0
LTYPE
5
14
100
AcDbSymbolTableRecord
100
AcDbLinetypeTableRecord
70
0
2
ByBlock
3

72
65
73
0
40
0
0
LTYPE
5
15
100
AcDbSymbolTableRecord
100
AcDbLinetypeTableRecord
70
0
2
ByLayer
3

72
65
73
0
40
0
0
LTYPE
5
16
100
AcDbSymbolTableRecord
100
AcDbLinetypeTableRecord
70
0
2
CONTINUOUS
3
Solid line
72
65
73
0
40
0
0
LTYPE
5
6A
100
AcDbSymbolTableRecord
100
AcDbLinetypeTableRecord
70
0
2
CENTER
3
____ _ ____ _ ____ _ ____
72
65
73
4
40
47.5
49
22
74
0
49
-8.5
74
0
49
8.5
74
0
49
-8.5
74
0
0
LTYPE
5
6B
100
AcDbSymbolTableRecord
100
AcDbLinetypeTableRecord
70
0
2
DASHED
3
__ __ __ __ __ __ __ __ __
72
65
73
2
40
25.72
49
12.86
74
0
49
-12.86
74
0
0
ENDTAB
0
TABLE
2
LAYER
5
1e4
100
AcDbSymbolTable
0
LAYER
5
10
100
AcDbSymbolTableRecord
100
AcDbLayerTableRecord
2
0
70
0
62
7
6
CONTINUOUS
290
1
370
-3
390
0
0
LAYER
5
6D
100
AcDbSymbolTableRecord
100
AcDbLayerTableRecord
2
81
70
0
62
-3
6
CONTINUOUS
290
1
370
-3
390
0
0
LAYER
5
6F
100
AcDbSymbolTableRecord
100
AcDbLayerTableRecord
2
80
70
0
62
-6
6
CONTINUOUS
290
1
370
-3
390
0
0
LAYER
5
71
100
AcDbSymbolTableRecord
100
AcDbLayerTableRecord
2
2
70
0
62
7
6
CONTINUOUS
290
1
370
-3
390
0
0
LAYER
5
73
100
AcDbSymbolTableRecord
100
AcDbLayerTableRecord
2
4
70
0
62
-2
6
CENTER
290
1
370
-3
390
0
0
LAYER
5
77
100
AcDbSymbolTableRecord
100
AcDbLayerTableRecord
2
1
70
0
62
4
6
CONTINUOUS
290
1
370
-3
390
0
0
LAYER
5
1cf
100
AcDbSymbolTableRecord
100
AcDbLayerTableRecord
2
SK1
70
0
62
4
6
CONTINUOUS
290
1
370
-3
390
0
0
LAYER
5
1d0
100
AcDbSymbolTableRecord
100
AcDbLayerTableRecord
2
SK6
70
0
62
5
6
CONTINUOUS
290
1
370
-3
390
0
0
LAYER
5
1d1
100
AcDbSymbolTableRecord
100
AcDbLayerTableRecord
2
SK2
70
0
62
7
6
CONTINUOUS
290
1
370
-3
390
0
0
ENDTAB
0
TABLE
2
STYLE
5
1e5
100
AcDbSymbolTable
0
STYLE
5
11
100
AcDbSymbolTableRecord
100
AcDbTextStyleTableRecord
2
Standard
3
txt
70
0
71
0
40
0
41
1
42
0
50
0
0
STYLE
5
117
100
AcDbSymbolTableRecord
100
AcDbTextStyleTableRecord
2
iso_b_vert
3
simplex.shx
70
0
71
0
40
0
41
1
42
0
50
0
0
STYLE
5
118
100
AcDbSymbolTableRecord
100
AcDbTextStyleTableRecord
2
DWGDirectTextStyle
3
simplex
70
0
71
0
40
0
41
1
42
0
50
0
0
ENDTAB
0
TABLE
2
DIMSTYLE
5
1e6
100
AcDbSymbolTable
100
AcDbDimStyleTable
0
DIMSTYLE
105
27
100
AcDbSymbolTableRecord
100
AcDbDimStyleTableRecord
2
Standard
70
0
3
<>
41
0.18
42
0.0625
44
0.18
140
0.18
147
0.09
73
0
74
0
77
1
271
2
275
0
278
52
280
0
340
11
0
ENDTAB
0
TABLE
2
VIEW
5
1e7
100
AcDbSymbolTable
0
ENDTAB
0
TABLE
2
UCS
5
1e8
100
AcDbSymbolTable
0
ENDTAB
0
TABLE
2
APPID
5
1e9
100
AcDbSymbolTable
0
APPID
5
12
100
AcDbSymbolTableRecord
100
AcDbRegAppTableRecord
2
ACAD
70
0
0
ENDTAB
0
TABLE
2
BLOCK_RECORD
5
1ea
100
AcDbSymbolTable
0
BLOCK_RECORD
5
1F
100
AcDbSymbolTableRecord
100
AcDbBlockTableRecord
2
*Model_Space
340
0
70
0
0
BLOCK_RECORD
5
1B
100
AcDbSymbolTableRecord
100
AcDbBlockTableRecord
2
*Paper_Space
340
0
70
0
0
BLOCK_RECORD
5
23
100
AcDbSymbolTableRecord
100
AcDbBlockTableRecord
2
*Paper_Space0
340
0
70
0
0
BLOCK_RECORD
5
11A
100
AcDbSymbolTableRecord
100
AcDbBlockTableRecord
2
DimnDraft3D1
340
0
70
0
0
BLOCK_RECORD
5
129
100
AcDbSymbolTableRecord
100
AcDbBlockTableRecord
2
_CLOSED
340
0
70
0
0
BLOCK_RECORD
5
130
100
AcDbSymbolTableRecord
100
AcDbBlockTableRecord
2
DimnDraft3D2
340
0
70
0
0
BLOCK_RECORD
5
13E
100
AcDbSymbolTableRecord
100
AcDbBlockTableRecord
2
DimnDraft3D3
340
0
70
0
0
BLOCK_RECORD
5
14C
100
AcDbSymbolTableRecord
100
AcDbBlockTableRecord
2
DimnDraft3D4
340
0
70
0
0
BLOCK_RECORD
5
15A
100
AcDbSymbolTableRecord
100
AcDbBlockTableRecord
2
DimnDraft3D5
340
0
70
0
0
BLOCK_RECORD
5
168
100
AcDbSymbolTableRecord
100
AcDbBlockTableRecord
2
DimnDraft3D6
340
0
70
0
0
ENDTAB
0
ENDSEC
0
SECTION
2
BLOCKS
0
BLOCK
5
20
100
AcDbEntity
8
0
100
AcDbBlockBegin
2
*Model_Space
70
0
10
0
20
0
30
0
3
*Model_Space
0
ENDBLK
5
21
100
AcDbEntity
8
0
100
AcDbBlockEnd
0
BLOCK
5
1C
100
AcDbEntity
8
0
100
AcDbBlockBegin
2
*Paper_Space
70
0
10
0
20
0
30
0
3
*Paper_Space
0
ENDBLK
5
1D
100
AcDbEntity
8
0
100
AcDbBlockEnd
0
BLOCK
5
24
100
AcDbEntity
8
0
100
AcDbBlockBegin
2
*Paper_Space0
70
0
10
0
20
0
30
0
3
*Paper_Space0
0
ENDBLK
5
25
100
AcDbEntity
8
0
100
AcDbBlockEnd
0
BLOCK
5
126
100
AcDbEntity
8
0
100
AcDbBlockBegin
2
DimnDraft3D1
70
0
10
0
20
0
30
0
3
DimnDraft3D1
0
MTEXT
5
11B
100
AcDbEntity
8
SK2
62
256
6
ByLayer
370
18
48
1
60
0
100
AcDbMText
10
-58.275
20
17.7
30
0
210
0
220
0
230
1
1
\W0.6563;12.0
40
4.5
41
0
44
1.084337
50
90
71
7
72
5
7
iso_b_vert
0
LINE
5
11D
100
AcDbEntity
8
SK2
62
256
6
ByLayer
370
13
48
1
60
0
100
AcDbLine
10
-48.9
20
6.075
30
0
11
-60.15
21
6.075
31
0
39
0
210
0
220
0
230
1
0
LINE
5
11E
100
AcDbEntity
8
SK2
62
256
6
ByLayer
370
13
48
1
60
0
100
AcDbLine
10
-48.9
20
-5.925
30
0
11
-60.15
21
-5.925
31
0
39
0
210
0
220
0
230
1
0
LINE
5
11F
100
AcDbEntity
8
SK2
62
256
6
ByLayer
370
13
48
1
60
0
100
AcDbLine
10
-57.15
20
-5.925
30
0
11
-57.15
21
26.013158
31
0
39
0
210
0
220
0
230
1
0
LINE
5
120
100
AcDbEntity
8
SK2
62
256
6
ByLayer
370
13
48
1
60
0
100
AcDbLine
10
-57.15
20
6.075
30
0
11
-56.755043
21
3.075001
31
0
39
0
210
0
220
0
230
1
0
LINE
5
121
100
AcDbEntity
8
SK2
62
256
6
ByLayer
370
13
48
1
60
0
100
AcDbLine
10
-57.15
20
6.075
30
0
11
-57.544957
21
3.074999
31
0
39
0
210
0
220
0
230
1
0
LINE
5
122
100
AcDbEntity
8
SK2
62
256
6
ByLayer
370
13
48
1
60
0
100
AcDbLine
10
-56.755043
20
3.075001
30
0
11
-57.544957
21
3.074999
31
0
39
0
210
0
220
0
230
1
0
LINE
5
123
100
AcDbEntity
8
SK2
62
256
6
ByLayer
370
13
48
1
60
0
100
AcDbLine
10
-57.15
20
-5.925
30
0
11
-57.544957
21
-2.925001
31
0
39
0
210
0
220
0
230
1
0
LINE
5
124
100
AcDbEntity
8
SK2
62
256
6
ByLayer
370
13
48
1
60
0
100
AcDbLine
10
-57.15
20
-5.925
30
0
11
-56.755043
21
-2.924999
31
0
39
0
210
0
220
0
230
1
0
LINE
5
125
100
AcDbEntity
8
SK2
62
256
6
ByLayer
370
13
48
1
60
0
100
AcDbLine
10
-57.544957
20
-2.925001
30
0
11
-56.755043
21
-2.924999
31
0
39
0
210
0
220
0
230
1
0
ENDBLK
5
127
100
AcDbEntity
8
0
100
AcDbBlockEnd
0
BLOCK
5
12A
100
AcDbEntity
8
0
100
AcDbBlockBegin
2
_CLOSED
70
0
10
0
20
0
30
0
3
_CLOSED
0
LINE
5
12C
100
AcDbEntity
8
0
62
256
6
ByLayer
370
-2
48
1
60
0
100
AcDbLine
10
-1
20
0.166667
30
0
11
0
21
0
31
0
39
0
210
0
220
0
230
1
0
LINE
5
12D
100
AcDbEntity
8
0
62
256
6
ByLayer
370
-2
48
1
60
0
100
AcDbLine
10
0
20
0
30
0
11
-1
21
-0.166667
31
0
39
0
210
0
220
0
230
1
0
LINE
5
12E
100
AcDbEntity
8
0
62
256
6
ByLayer
370
-2
48
1
60
0
100
AcDbLine
10
-1
20
0.166667
30
0
11
-1
21
-0.166667
31
0
39
0
210
0
220
0
230
1
0
LINE
5
12F
100
AcDbEntity
8
0
62
256
6
ByLayer
370
-2
48
1
60
0
100
AcDbLine
10
0
20
0
30
0
11
-1
21
0
31
0
39
0
210
0
220
0
230
1
0
ENDBLK
5
12B
100
AcDbEntity
8
0
100
AcDbBlockEnd
0
BLOCK
5
13B
100
AcDbEntity
8
0
100
AcDbBlockBegin
2
DimnDraft3D2
70
0
10
0
20
0
30
0
3
DimnDraft3D2
0
MTEXT
5
131
100
AcDbEntity
8
2
62
256
6
ByLayer
370
18
48
1
60
0
100
AcDbMText
10
35.725
20
-22.5
30
0
210
0
220
0
230
1
1
\W0.7121;2.0
40
4.5
41
0
44
1.084337
50
90
71
7
72
5
7
iso_b_vert
0
LINE
5
132
100
AcDbEntity
8
2
62
256
6
ByLayer
370
13
48
1
60
0
100
AcDbLine
10
24.1
20
-5.925
30
0
11
39.85
21
-5.925
31
0
39
0
210
0
220
0
230
1
0
LINE
5
133
100
AcDbEntity
8
2
62
256
6
ByLayer
370
13
48
1
60
0
100
AcDbLine
10
24.1
20
-3.925
30
0
11
39.85
21
-3.925
31
0
39
0
210
0
220
0
230
1
0
LINE
5
134
100
AcDbEntity
8
2
62
256
6
ByLayer
370
13
48
1
60
0
100
AcDbLine
10
36.85
20
7.325
30
0
11
36.85
21
-23.625
31
0
39
0
210
0
220
0
230
1
0
LINE
5
135
100
AcDbEntity
8
2
62
256
6
ByLayer
370
13
48
1
60
0
100
AcDbLine
10
36.85
20
-5.925
30
0
11
37.244957
21
-8.924999
31
0
39
0
210
0
220
0
230
1
0
LINE
5
136
100
AcDbEntity
8
2
62
256
6
ByLayer
370
13
48
1
60
0
100
AcDbLine
10
36.85
20
-5.925
30
0
11
36.455043
21
-8.925001
31
0
39
0
210
0
220
0
230
1
0
LINE
5
137
100
AcDbEntity
8
2
62
256
6
ByLayer
370
13
48
1
60
0
100
AcDbLine
10
37.244957
20
-8.924999
30
0
11
36.455043
21
-8.925001
31
0
39
0
210
0
220
0
230
1
0
LINE
5
138
100
AcDbEntity
8
2
62
256
6
ByLayer
370
13
48
1
60
0
100
AcDbLine
10
36.85
20
-3.925
30
0
11
36.455043
21
-0.925001
31
0
39
0
210
0
220
0
230
1
0
LINE
5
139
100
AcDbEntity
8
2
62
256
6
ByLayer
370
13
48
1
60
0
100
AcDbLine
10
36.85
20
-3.925
30
0
11
37.244957
21
-0.924999
31
0
39
0
210
0
220
0
230
1
0
LINE
5
13A
100
AcDbEntity
8
2
62
256
6
ByLayer
370
13
48
1
60
0
100
AcDbLine
10
36.455043
20
-0.925001
30
0
11
37.244957
21
-0.924999
31
0
39
0
210
0
220
0
230
1
0
ENDBLK
5
13C
100
AcDbEntity
8
0
100
AcDbBlockEnd
0
BLOCK
5
149
100
AcDbEntity
8
0
100
AcDbBlockBegin
2
DimnDraft3D3
70
0
10
0
20
0
30
0
3
DimnDraft3D3
0
MTEXT
5
13F
100
AcDbEntity
8
2
62
256
6
ByLayer
370
18
48
1
60
0
100
AcDbMText
10
45.725
20
-21.144079
30
0
210
0
220
0
230
1
1
\W0.6563;12.0
40
4.5
41
0
44
1.084337
50
90
71
8
72
5
7
iso_b_vert
0
LINE
5
140
100
AcDbEntity
8
2
62
256
6
ByLayer
370
13
48
1
60
0
100
AcDbLine
10
24.1
20
-5.925
30
0
11
49.85
21
-5.925
31
0
39
0
210
0
220
0
230
1
0
LINE
5
141
100
AcDbEntity
8
2
62
256
6
ByLayer
370
13
48
1
60
0
100
AcDbLine
10
1.5
20
6.075
30
0
11
49.85
21
6.075
31
0
39
0
210
0
220
0
230
1
0
LINE
5
142
100
AcDbEntity
8
2
62
256
6
ByLayer
370
13
48
1
60
0
100
AcDbLine
10
46.85
20
6.075
30
0
11
46.85
21
-25.863158
31
0
39
0
210
0
220
0
230
1
0
LINE
5
143
100
AcDbEntity
8
2
62
256
6
ByLayer
370
13
48
1
60
0
100
AcDbLine
10
46.85
20
-5.925
30
0
11
46.455043
21
-2.925001
31
0
39
0
210
0
220
0
230
1
0
LINE
5
144
100
AcDbEntity
8
2
62
256
6
ByLayer
370
13
48
1
60
0
100
AcDbLine
10
46.85
20
-5.925
30
0
11
47.244957
21
-2.924999
31
0
39
0
210
0
220
0
230
1
0
LINE
5
145
100
AcDbEntity
8
2
62
256
6
ByLayer
370
13
48
1
60
0
100
AcDbLine
10
46.455043
20
-2.925001
30
0
11
47.244957
21
-2.924999
31
0
39
0
210
0
220
0
230
1
0
LINE
5
146
100
AcDbEntity
8
2
62
256
6
ByLayer
370
13
48
1
60
0
100
AcDbLine
10
46.85
20
6.075
30
0
11
47.244957
21
3.075001
31
0
39
0
210
0
220
0
230
1
0
LINE
5
147
100
AcDbEntity
8
2
62
256
6
ByLayer
370
13
48
1
60
0
100
AcDbLine
10
46.85
20
6.075
30
0
11
46.455043
21
3.074999
31
0
39
0
210
0
220
0
230
1
0
LINE
5
148
100
AcDbEntity
8
2
62
256
6
ByLayer
370
13
48
1
60
0
100
AcDbLine
10
47.244957
20
3.075001
30
0
11
46.455043
21
3.074999
31
0
39
0
210
0
220
0
230
1
0
ENDBLK
5
14A
100
AcDbEntity
8
0
100
AcDbBlockEnd
0
BLOCK
5
157
100
AcDbEntity
8
0
100
AcDbBlockBegin
2
DimnDraft3D4
70
0
10
0
20
0
30
0
3
DimnDraft3D4
0
MTEXT
5
14D
100
AcDbEntity
8
SK2
62
256
6
ByLayer
370
18
48
1
60
0
100
AcDbMText
10
-16.556579
20
-29.05
30
0
210
0
220
0
230
1
1
\W0.7346;70.0
40
4.5
41
0
44
1.084337
50
0
71
7
72
5
7
iso_b_vert
0
LINE
5
14E
100
AcDbEntity
8
SK2
62
256
6
ByLayer
370
13
48
1
60
0
100
AcDbLine
10
-47.4
20
-7.425
30
0
11
-47.4
21
-33.175
31
0
39
0
210
0
220
0
230
1
0
LINE
5
14F
100
AcDbEntity
8
SK2
62
256
6
ByLayer
370
13
48
1
60
0
100
AcDbLine
10
22.6
20
-7.425
30
0
11
22.6
21
-33.175
31
0
39
0
210
0
220
0
230
1
0
LINE
5
150
100
AcDbEntity
8
SK2
62
256
6
ByLayer
370
13
48
1
60
0
100
AcDbLine
10
-47.4
20
-30.175
30
0
11
22.6
21
-30.175
31
0
39
0
210
0
220
0
230
1
0
LINE
5
151
100
AcDbEntity
8
SK2
62
256
6
ByLayer
370
13
48
1
60
0
100
AcDbLine
10
-47.4
20
-30.175
30
0
11
-44.400001
21
-29.780043
31
0
39
0
210
0
220
0
230
1
0
LINE
5
152
100
AcDbEntity
8
SK2
62
256
6
ByLayer
370
13
48
1
60
0
100
AcDbLine
10
-47.4
20
-30.175
30
0
11
-44.399999
21
-30.569957
31
0
39
0
210
0
220
0
230
1
0
LINE
5
153
100
AcDbEntity
8
SK2
62
256
6
ByLayer
370
13
48
1
60
0
100
AcDbLine
10
-44.400001
20
-29.780043
30
0
11
-44.399999
21
-30.569957
31
0
39
0
210
0
220
0
230
1
0
LINE
5
154
100
AcDbEntity
8
SK2
62
256
6
ByLayer
370
13
48
1
60
0
100
AcDbLine
10
22.6
20
-30.175
30
0
11
19.600001
21
-30.569957
31
0
39
0
210
0
220
0
230
1
0
LINE
5
155
100
AcDbEntity
8
SK2
62
256
6
ByLayer
370
13
48
1
60
0
100
AcDbLine
10
22.6
20
-30.175
30
0
11
19.599999
21
-29.780043
31
0
39
0
210
0
220
0
230
1
0
LINE
5
156
100
AcDbEntity
8
SK2
62
256
6
ByLayer
370
13
48
1
60
0
100
AcDbLine
10
19.600001
20
-30.569957
30
0
11
19.599999
21
-29.780043
31
0
39
0
210
0
220
0
230
1
0
ENDBLK
5
158
100
AcDbEntity
8
0
100
AcDbBlockEnd
0
BLOCK
5
165
100
AcDbEntity
8
0
100
AcDbBlockBegin
2
DimnDraft3D5
70
0
10
0
20
0
30
0
3
DimnDraft3D5
0
MTEXT
5
15B
100
AcDbEntity
8
2
62
256
6
ByLayer
370
18
48
1
60
0
100
AcDbMText
10
7.143421
20
-19.05
30
0
210
0
220
0
230
1
1
\W0.7346;22.6
40
4.5
41
0
44
1.084337
50
0
71
7
72
5
7
iso_b_vert
0
LINE
5
15C
100
AcDbEntity
8
2
62
256
6
ByLayer
370
13
48
1
60
0
100
AcDbLine
10
22.6
20
-7.425
30
0
11
22.6
21
-23.175
31
0
39
0
210
0
220
0
230
1
0
LINE
5
15D
100
AcDbEntity
8
2
62
256
6
ByLayer
370
13
48
1
60
0
100
AcDbLine
10
0
20
-7.425
30
0
11
0
21
-23.175
31
0
39
0
210
0
220
0
230
1
0
LINE
5
15E
100
AcDbEntity
8
2
62
256
6
ByLayer
370
13
48
1
60
0
100
AcDbLine
10
22.6
20
-20.175
30
0
11
0
21
-20.175
31
0
39
0
210
0
220
0
230
1
0
LINE
5
15F
100
AcDbEntity
8
2
62
256
6
ByLayer
370
13
48
1
60
0
100
AcDbLine
10
22.6
20
-20.175
30
0
11
19.600001
21
-20.569957
31
0
39
0
210
0
220
0
230
1
0
LINE
5
160
100
AcDbEntity
8
2
62
256
6
ByLayer
370
13
48
1
60
0
100
AcDbLine
10
22.6
20
-20.175
30
0
11
19.599999
21
-19.780043
31
0
39
0
210
0
220
0
230
1
0
LINE
5
161
100
AcDbEntity
8
2
62
256
6
ByLayer
370
13
48
1
60
0
100
AcDbLine
10
19.600001
20
-20.569957
30
0
11
19.599999
21
-19.780043
31
0
39
0
210
0
220
0
230
1
0
LINE
5
162
100
AcDbEntity
8
2
62
256
6
ByLayer
370
13
48
1
60
0
100
AcDbLine
10
0
20
-20.175
30
0
11
2.999999
21
-19.780043
31
0
39
0
210
0
220
0
230
1
0
LINE
5
163
100
AcDbEntity
8
2
62
256
6
ByLayer
370
13
48
1
60
0
100
AcDbLine
10
0
20
-20.175
30
0
11
3.000001
21
-20.569957
31
0
39
0
210
0
220
0
230
1
0
LINE
5
164
100
AcDbEntity
8
2
62
256
6
ByLayer
370
13
48
1
60
0
100
AcDbLine
10
2.999999
20
-19.780043
30
0
11
3.000001
21
-20.569957
31
0
39
0
210
0
220
0
230
1
0
ENDBLK
5
166
100
AcDbEntity
8
0
100
AcDbBlockEnd
0
BLOCK
5
173
100
AcDbEntity
8
0
100
AcDbBlockBegin
2
DimnDraft3D6
70
0
10
0
20
0
30
0
3
DimnDraft3D6
0
MTEXT
5
169
100
AcDbEntity
8
2
62
256
6
ByLayer
370
18
48
1
60
0
100
AcDbMText
10
37.256579
20
16.95
30
0
210
0
220
0
230
1
1
\W0.5779;11.0
40
4.5
41
0
44
1.084337
50
0
71
8
72
5
7
iso_b_vert
0
LINE
5
16A
100
AcDbEntity
8
2
62
256
6
ByLayer
370
13
48
1
60
0
100
AcDbLine
10
22.6
20
-2.425
30
0
11
22.6
21
18.825
31
0
39
0
210
0
220
0
230
1
0
LINE
5
16B
100
AcDbEntity
8
2
62
256
6
ByLayer
370
13
48
1
60
0
100
AcDbLine
10
11.6
20
7.575
30
0
11
11.6
21
18.825
31
0
39
0
210
0
220
0
230
1
0
LINE
5
16C
100
AcDbEntity
8
2
62
256
6
ByLayer
370
13
48
1
60
0
100
AcDbLine
10
11.6
20
15.825
30
0
11
41.413158
21
15.825
31
0
39
0
210
0
220
0
230
1
0
LINE
5
16D
100
AcDbEntity
8
2
62
256
6
ByLayer
370
13
48
1
60
0
100
AcDbLine
10
22.6
20
15.825
30
0
11
19.600001
21
15.430043
31
0
39
0
210
0
220
0
230
1
0
LINE
5
16E
100
AcDbEntity
8
2
62
256
6
ByLayer
370
13
48
1
60
0
100
AcDbLine
10
22.6
20
15.825
30
0
11
19.599999
21
16.219957
31
0
39
0
210
0
220
0
230
1
0
LINE
5
16F
100
AcDbEntity
8
2
62
256
6
ByLayer
370
13
48
1
60
0
100
AcDbLine
10
19.600001
20
15.430043
30
0
11
19.599999
21
16.219957
31
0
39
0
210
0
220
0
230
1
0
LINE
5
170
100
AcDbEntity
8
2
62
256
6
ByLayer
370
13
48
1
60
0
100
AcDbLine
10
11.6
20
15.825
30
0
11
14.599999
21
16.219957
31
0
39
0
210
0
220
0
230
1
0
LINE
5
171
100
AcDbEntity
8
2
62
256
6
ByLayer
370
13
48
1
60
0
100
AcDbLine
10
11.6
20
15.825
30
0
11
14.600001
21
15.430043
31
0
39
0
210
0
220
0
230
1
0
LINE
5
172
100
AcDbEntity
8
2
62
256
6
ByLayer
370
13
48
1
60
0
100
AcDbLine
10
14.599999
20
16.219957
30
0
11
14.600001
21
15.430043
31
0
39
0
210
0
220
0
230
1
0
ENDBLK
5
174
100
AcDbEntity
8
0
100
AcDbBlockEnd
0
ENDSEC
0
SECTION
2
ENTITIES
0
ELLIPSE
5
CC
100
AcDbEntity
8
1
62
256
6
ByLayer
370
18
48
1
60
0
100
AcDbEllipse
10
22.599898
20
-14.249795
30
0
11
-0.788363298468269
21
-25.3023770320867
31
0
210
0
220
0
230
1
40
0.465313
41
-1.99670907537389
42
-1.98633684759716
0
ELLIPSE
5
CD
100
AcDbEntity
8
1
62
256
6
ByLayer
370
18
48
1
60
0
100
AcDbEllipse
10
16.368951
20
-5.175
30
0
11
-0.525482745482316
21
1.23115703704958E-15
31
0
210
0
220
0
230
1
40
0.951506
41
2.79252680318972
42
-2.79252680318971
0
ELLIPSE
5
CE
100
AcDbEntity
8
1
62
256
6
ByLayer
370
18
48
1
60
0
100
AcDbEllipse
10
16.856291
20
-4.548551
30
0
11
-0.157644820419366
21
3.56919879693946E-10
31
0
210
0
220
0
230
1
40
0.951506
41
0
42
0.349065856166634
0
ELLIPSE
5
CF
100
AcDbEntity
8
1
62
256
6
ByLayer
370
18
48
1
60
0
100
AcDbEllipse
10
22.400274
20
-4.375
30
0
11
-2.14373874554696E-16
21
-0.2
31
0
210
0
220
0
230
1
40
0.99863
41
1.5707963267949
42
-3.0979594223051
0
ELLIPSE
5
D0
100
AcDbEntity
8
1
62
256
6
ByLayer
370
18
48
1
60
0
100
AcDbEllipse
10
2.827135
20
-5.975
30
0
11
-2.14373874554696E-16
21
-0.2
31
0
210
0
220
0
230
1
40
0.99863
41
-1.44545180875661
42
0.0436332312846265
0
ELLIPSE
5
D1
100
AcDbEntity
8
1
62
256
6
ByLayer
370
18
48
1
60
0
100
AcDbEllipse
10
16.856291
20
-5.801449
30
0
11
-0.157644820259189
21
-7.07697096910325E-10
31
0
210
0
220
0
230
1
40
0.951506
41
-0.349065858462994
42
-9.74592308480664E-10
0
ELLIPSE
5
D2
100
AcDbEntity
8
1
62
256
6
ByLayer
370
18
48
1
60
0
100
AcDbEllipse
10
22.400274
20
-5.975
30
0
11
2.34290668463255E-16
21
0.2
31
0
210
0
220
0
230
1
40
0.99863
41
3.0979594223051
42
-1.5707963267949
0
ELLIPSE
5
D3
100
AcDbEntity
8
1
62
256
6
ByLayer
370
18
48
1
60
0
100
AcDbEllipse
10
8.067993
20
0.7125
30
0
11
-3.4031852585558E-15
21
-3.175
31
0
210
0
220
0
230
1
40
0.891007
41
2.00920310968625
42
-2.69410544362856
0
ELLIPSE
5
D4
100
AcDbEntity
8
1
62
256
6
ByLayer
370
18
48
1
60
0
100
AcDbEllipse
10
8.067993
20
0.7125
30
0
11
-3.4031852585558E-15
21
-3.175
31
0
210
0
220
0
230
1
40
0.891007
41
-0.447487209961232
42
1.13238954390354
0
ELLIPSE
5
D5
100
AcDbEntity
8
1
62
256
6
ByLayer
370
18
48
1
60
0
100
AcDbEllipse
10
7.990771
20
0.7125
30
0
11
-3.4031852585558E-15
21
-3.175
31
0
210
0
220
0
230
1
40
0.891007
41
1.92947959533588
42
3.12794290355087
0
ELLIPSE
5
D6
100
AcDbEntity
8
1
62
256
6
ByLayer
370
18
48
1
60
0
100
AcDbEllipse
10
9.714922
20
0.7125
30
0
11
4.51818464352502
21
0
31
0
210
0
220
0
230
1
40
0.851581
41
2.37223954998914
42
2.64560026814812
0
ELLIPSE
5
D7
100
AcDbEntity
8
1
62
256
6
ByLayer
370
18
48
1
60
0
100
AcDbEllipse
10
9.714922
20
0.7125
30
0
11
4.51818464352502
21
0
31
0
210
0
220
0
230
1
40
0.851581
41
-2.64560026814813
42
-2.37223954998914
0
ELLIPSE
5
D8
100
AcDbEntity
8
1
62
256
6
ByLayer
370
18
48
1
60
0
100
AcDbEllipse
10
8.385786
20
0.7125
30
0
11
3.5633858044891
21
0
31
0
210
0
220
0
230
1
40
0.891007
41
2.01828353675612
42
2.13867589673188
0
ELLIPSE
5
D9
100
AcDbEntity
8
1
62
256
6
ByLayer
370
18
48
1
60
0
100
AcDbEllipse
10
10.328499
20
0.7125
30
0
11
-2.30496505780038E-08
21
-3.17500034952013
31
0
210
0
220
0
230
1
40
0.104672
41
1.92947963431336
42
2.00920314103829
0
ELLIPSE
5
DA
100
AcDbEntity
8
1
62
256
6
ByLayer
370
18
48
1
60
0
100
AcDbEllipse
10
8.385786
20
0.7125
30
0
11
3.5633858044891
21
0
31
0
210
0
220
0
230
1
40
0.891007
41
-2.13867589673188
42
-2.01828353675612
0
ELLIPSE
5
DB
100
AcDbEntity
8
1
62
256
6
ByLayer
370
18
48
1
60
0
100
AcDbEllipse
10
11.404134
20
-3.7
30
0
11
9.37162673852982E-16
21
0.799999999999967
31
0
210
0
220
0
230
1
40
0.968413
41
1.5707963267949
42
3.14159265358979
0
ELLIPSE
5
DC
100
AcDbEntity
8
1
62
256
6
ByLayer
370
18
48
1
60
0
100
AcDbEllipse
10
8.606055
20
-3.7
30
0
11
1.76215141166822
21
0
31
0
210
0
220
0
230
1
40
0.45399
41
3.14159265358979
42
-1.5707963267949
0
ELLIPSE
5
DD
100
AcDbEntity
8
1
62
256
6
ByLayer
370
18
48
1
60
0
100
AcDbEllipse
10
11.528144
20
-3.7
30
0
11
-0.566886212732644
21
0.577894872638065
31
0
210
0
220
0
230
1
40
0.975869
41
0.807221472708419
42
2.37801779950316
0
ELLIPSE
5
DE
100
AcDbEntity
8
1
62
256
6
ByLayer
370
18
48
1
60
0
100
AcDbEllipse
10
7.990771
20
0.7125
30
0
11
-3.4031852585558E-15
21
-3.175
31
0
210
0
220
0
230
1
40
0.891007
41
0.013649750038919
42
1.21211305825391
0
ELLIPSE
5
DF
100
AcDbEntity
8
1
62
256
6
ByLayer
370
18
48
1
60
0
100
AcDbEllipse
10
10.328499
20
0.7125
30
0
11
-2.28547414292055E-08
21
3.17500034655405
31
0
210
0
220
0
230
1
40
0.104672
41
-2.0092031407755
42
-1.92947963398575
0
ELLIPSE
5
E0
100
AcDbEntity
8
1
62
256
6
ByLayer
370
18
48
1
60
0
100
AcDbEllipse
10
7.858547
20
0.7125
30
0
11
3.51436002694883E-15
21
3
31
0
210
0
220
0
230
1
40
0.891007
41
0
42
-3.14159258717259
0
ELLIPSE
5
E1
100
AcDbEntity
8
1
62
256
6
ByLayer
370
18
48
1
60
0
100
AcDbEllipse
10
8.040143
20
0.7125
30
0
11
3.51436002694883E-15
21
3
31
0
210
0
220
0
230
1
40
0.891007
41
0
42
-2.93149848048291
0
ELLIPSE
5
E2
100
AcDbEntity
8
1
62
256
6
ByLayer
370
18
48
1
60
0
100
AcDbEllipse
10
8.040143
20
0.7125
30
0
11
3.51436002694883E-15
21
3
31
0
210
0
220
0
230
1
40
0.891007
41
-0.222071377729843
42
-2.90740745111097E-16
0
ELLIPSE
5
E3
100
AcDbEntity
8
1
62
256
6
ByLayer
370
18
48
1
60
0
100
AcDbEllipse
10
8.130941
20
0.7125
30
0
11
3.28006935848557E-15
21
2.8
31
0
210
0
220
0
230
1
40
0.891007
41
0
42
6.28318530717959
0
ELLIPSE
5
E4
100
AcDbEntity
8
1
62
256
6
ByLayer
370
18
48
1
60
0
100
AcDbEllipse
10
7.359157
20
-1.17206
30
0
11
8.03616992828965E-16
21
0.686
31
0
210
0
220
0
230
1
40
0.891007
41
0.121614041217175
42
0.220982941271618
0
ELLIPSE
5
E5
100
AcDbEntity
8
1
62
256
6
ByLayer
370
18
48
1
60
0
100
AcDbEllipse
10
7.978935
20
-0.484576
30
0
11
3.42064375956352E-16
21
0.292
31
0
210
0
220
0
230
1
40
0.891007
41
-1.72160902068966
42
-1.30900918493172
0
ELLIPSE
5
E6
100
AcDbEntity
8
1
62
256
6
ByLayer
370
18
48
1
60
0
100
AcDbEllipse
10
8.82065
20
-0.231462
30
0
11
8.03616992828965E-16
21
0.686
31
0
210
0
220
0
230
1
40
0.891007
41
0.264602181416458
42
1.04859282503727
0
ELLIPSE
5
E7
100
AcDbEntity
8
1
62
256
6
ByLayer
370
18
48
1
60
0
100
AcDbEllipse
10
8.82065
20
-0.231462
30
0
11
8.03616992828965E-16
21
0.686
31
0
210
0
220
0
230
1
40
0.891007
41
1.04859282503727
42
1.83258346865807
0
ELLIPSE
5
E8
100
AcDbEntity
8
1
62
256
6
ByLayer
370
18
48
1
60
0
100
AcDbEllipse
10
8.592756
20
0.7125
30
0
11
3.42064375956352E-16
21
0.292
31
0
210
0
220
0
230
1
40
0.891007
41
-2.87699047217329
42
-0.264602181416502
0
ELLIPSE
5
E9
100
AcDbEntity
8
1
62
256
6
ByLayer
370
18
48
1
60
0
100
AcDbEllipse
10
8.82065
20
1.656462
30
0
11
8.03616992828965E-16
21
0.686
31
0
210
0
220
0
230
1
40
0.891007
41
1.30900918493172
42
2.09299982855252
0
ELLIPSE
5
EA
100
AcDbEntity
8
1
62
256
6
ByLayer
370
18
48
1
60
0
100
AcDbEllipse
10
8.82065
20
1.656462
30
0
11
8.03616992828965E-16
21
0.686
31
0
210
0
220
0
230
1
40
0.891007
41
2.09299982855252
42
2.87699047217334
0
ELLIPSE
5
EB
100
AcDbEntity
8
1
62
256
6
ByLayer
370
18
48
1
60
0
100
AcDbEllipse
10
8.007749
20
0.7125
30
0
11
-1.29321039825121E-15
21
-1.2065
31
0
210
0
220
0
230
1
40
0.891007
41
-0.0690326334118787
42
0.0690326334118595
0
ELLIPSE
5
EC
100
AcDbEntity
8
1
62
256
6
ByLayer
370
18
48
1
60
0
100
AcDbEllipse
10
8.007749
20
0.7125
30
0
11
-1.29321039825121E-15
21
-1.2065
31
0
210
0
220
0
230
1
40
0.891007
41
3.07256002017791
42
-3.07256002017789
0
ELLIPSE
5
ED
100
AcDbEntity
8
1
62
256
6
ByLayer
370
18
48
1
60
0
100
AcDbEllipse
10
8.130941
20
0.7125
30
0
11
-1.79698900345474E-15
21
-1.6765
31
0
210
0
220
0
230
1
40
0.891007
41
0.526389323279645
42
1.5707963267949
0
ELLIPSE
5
EE
100
AcDbEntity
8
1
62
256
6
ByLayer
370
18
48
1
60
0
100
AcDbEllipse
10
8.130941
20
0.7125
30
0
11
-1.79698900345474E-15
21
-1.6765
31
0
210
0
220
0
230
1
40
0.891007
41
-0.526389323279634
42
0.526389323279645
0
ELLIPSE
5
EF
100
AcDbEntity
8
1
62
256
6
ByLayer
370
18
48
1
60
0
100
AcDbEllipse
10
8.130941
20
0.7125
30
0
11
-1.79698900345474E-15
21
-1.6765
31
0
210
0
220
0
230
1
40
0.891007
41
-1.5707963267949
42
-0.526389323279634
0
ELLIPSE
5
F0
100
AcDbEntity
8
1
62
256
6
ByLayer
370
18
48
1
60
0
100
AcDbEllipse
10
8.130941
20
0.7125
30
0
11
-1.79698900345474E-15
21
-1.6765
31
0
210
0
220
0
230
1
40
0.891007
41
-2.61520333031016
42
-1.5707963267949
0
ELLIPSE
5
F1
100
AcDbEntity
8
1
62
256
6
ByLayer
370
18
48
1
60
0
100
AcDbEllipse
10
8.130941
20
0.7125
30
0
11
-1.79698900345474E-15
21
-1.6765
31
0
210
0
220
0
230
1
40
0.891007
41
2.61520333031016
42
-2.61520333031016
0
ELLIPSE
5
F2
100
AcDbEntity
8
1
62
256
6
ByLayer
370
18
48
1
60
0
100
AcDbEllipse
10
8.130941
20
0.7125
30
0
11
-1.79698900345474E-15
21
-1.6765
31
0
210
0
220
0
230
1
40
0.891007
41
1.5707963267949
42
2.61520333031016
0
ELLIPSE
5
F3
100
AcDbEntity
8
1
62
256
6
ByLayer
370
18
48
1
60
0
100
AcDbEllipse
10
7.359157
20
0.7125
30
0
11
-1.29321039825121E-15
21
-1.2065
31
0
210
0
220
0
230
1
40
0.891007
41
0.069032633412065
42
1.04859282503727
0
ELLIPSE
5
F4
100
AcDbEntity
8
1
62
256
6
ByLayer
370
18
48
1
60
0
100
AcDbEllipse
10
7.359157
20
0.7125
30
0
11
-1.29321039825126E-15
21
-1.20650000000005
31
0
210
0
220
0
230
1
40
0.891007
41
2.09299982855253
42
3.07256002017772
0
ELLIPSE
5
F5
100
AcDbEntity
8
1
62
256
6
ByLayer
370
18
48
1
60
0
100
AcDbEllipse
10
7.359157
20
0.7125
30
0
11
-1.29321039825126E-15
21
-1.20650000000005
31
0
210
0
220
0
230
1
40
0.891007
41
1.04859282503726
42
2.09299982855253
0
ELLIPSE
5
F6
100
AcDbEntity
8
1
62
256
6
ByLayer
370
18
48
1
60
0
100
AcDbEllipse
10
7.359157
20
0.7125
30
0
11
-1.29321039825126E-15
21
-1.20650000000005
31
0
210
0
220
0
230
1
40
0.891007
41
-3.07256002017769
42
-3.01158279321972
0
ELLIPSE
5
F7
100
AcDbEntity
8
1
62
256
6
ByLayer
370
18
48
1
60
0
100
AcDbEllipse
10
7.359157
20
0.7125
30
0
11
-1.29321039825126E-15
21
-1.20650000000005
31
0
210
0
220
0
230
1
40
0.891007
41
-0.133239857061131
42
-0.069032633412076
0
ELLIPSE
5
F8
100
AcDbEntity
8
1
62
256
6
ByLayer
370
18
48
1
60
0
100
AcDbEllipse
10
7.978935
20
1.909576
30
0
11
3.42064375956352E-16
21
0.292
31
0
210
0
220
0
230
1
40
0.891007
41
-1.83258346865808
42
-1.3979690966681
0
ELLIPSE
5
F9
100
AcDbEntity
8
1
62
256
6
ByLayer
370
18
48
1
60
0
100
AcDbEllipse
10
7.359157
20
2.59706
30
0
11
8.03616992828965E-16
21
0.686
31
0
210
0
220
0
230
1
40
0.891007
41
2.91665424279339
42
3.01997861237257
0
POINT
5
6C
100
AcDbEntity
8
81
62
256
6
ByLayer
370
18
48
1
60
0
100
AcDbPoint
10
22.6
20
-6.075
30
0
39
0
210
0
220
0
230
1
50
360
0
POINT
5
6E
100
AcDbEntity
8
80
62
256
6
ByLayer
370
18
48
1
60
0
100
AcDbPoint
10
0
20
0
30
0
39
0
210
0
220
0
230
1
50
360
0
POINT
5
70
100
AcDbEntity
8
2
62
256
6
ByLayer
370
18
48
1
60
0
100
AcDbPoint
10
22.6
20
5.25
30
0
39
0
210
0
220
0
230
1
50
360
0
POINT
5
72
100
AcDbEntity
8
4
62
256
6
ByLayer
370
13
48
1
60
0
100
AcDbPoint
10
5.494159
20
-0.7125
30
0
39
0
210
0
220
0
230
1
50
360
0
SPLINE
5
FA
100
AcDbEntity
8
1
62
256
6
ByLayer
370
18
48
1
60
0
100
AcDbSpline
70
4
71
3
72
41
73
37
40
0
40
0
40
0
40
0
40
0.0252968302733955
40
0.0554517927040259
40
0.0856271401882288
40
0.115827642266002
40
0.146056350499738
40
0.176314620326308
40
0.206602292733493
40
0.236917985160906
40
0.26725943484659
40
0.297623842797135
40
0.328008178922402
40
0.358409424157281
40
0.388824739773729
40
0.419251565206668
40
0.449687652772129
40
0.480131051011633
40
0.510580049040833
40
0.54103309336028
40
0.571488304784813
40
0.601943994327434
40
0.632398385297983
40
0.662849405038668
40
0.693294607199972
40
0.723731126308402
40
0.754155678224816
40
0.784564620926572
40
0.814954088552595
40
0.845320206587072
40
0.875659386467459
40
0.905968683797569
40
0.936246187345434
40
0.966491389617374
40
0.996705478966863
40
1
40
1
40
1
40
1
41
1
10
8.60687380663416
20
-2.21907865705762
30
0
41
1
10
8.66752885719447
20
-2.20522308043368
30
0
41
1
10
8.79901654990522
20
-2.16956755276826
30
0
41
1
10
8.99745305376297
20
-2.09545950368104
30
0
41
1
10
9.20073173780446
20
-1.99900156801684
30
0
41
1
10
9.3962259962891
20
-1.88415023307965
30
0
41
1
10
9.58264583691962
20
-1.7518914732857
30
0
41
1
10
9.75873731582826
20
-1.60303317614981
30
0
41
1
10
9.92331441518493
20
-1.43857676106521
30
0
41
1
10
10.0752627880664
20
-1.2596114335237
30
0
41
1
10
10.2135508348208
20
-1.06733432273813
30
0
41
1
10
10.3372379791639
20
-0.863034834549353
30
0
41
1
10
10.4454824084852
20
-0.648086989786577
30
0
41
1
10
10.5375474192068
20
-0.423938475519947
30
0
41
1
10
10.6128065343531
20
-0.192099889617111
30
0
41
1
10
10.6707474252701
20
0.0458663793892242
30
0
41
1
10
10.7109747875406
20
0.288357217944053
30
0
41
1
10
10.7332123198117
20
0.533739745075479
30
0
41
1
10
10.7373039488329
20
0.78036209401489
30
0
41
1
10
10.72321447792
20
1.02656298594712
30
0
41
1
10
10.6910299637524
20
1.27068286688888
30
0
41
1
10
10.6409573757174
20
1.51107455673304
30
0
41
1
10
10.5733233786641
20
1.74611449281122
30
0
41
1
10
10.4885729844873
20
1.97421227627669
30
0
41
1
10
10.3872678143418
20
2.19382081213681
30
0
41
1
10
10.2700836976373
20
2.40344674398301
30
0
41
1
10
10.1378076289161
20
2.60166153855752
30
0
41
1
10
9.99133346411611
20
2.78711086102521
30
0
41
1
10
9.83165777628687
20
2.95853084810068
30
0
41
1
10
9.65986956897098
20
3.11473860971032
30
0
41
1
10
9.47715637896471
20
3.25471766888597
30
0
41
1
10
9.284742123039
20
3.37734680278498
30
0
41
1
10
9.08407207136247
20
3.48245297201379
30
0
41
1
10
8.87607050785533
20
3.56692320036584
30
0
41
1
10
8.72680827737102
20
3.61777120787602
30
0
41
1
10
8.64645486076108
20
3.63502428308217
30
0
41
1
10
8.63854079374519
20
3.63666108014274
30
0
0
SPLINE
5
FB
100
AcDbEntity
8
1
62
256
6
ByLayer
370
18
48
1
60
0
100
AcDbSpline
70
4
71
3
72
16
73
12
40
0
40
0
40
0
40
0
40
0.0149768982340271
40
0.0149768982340271
40
0.369556099254171
40
0.369556099254171
40
0.653753145188038
40
0.653753145188038
40
0.892845767206084
40
0.892845767206084
40
1
40
1
40
1
40
1
41
1
10
18.9587352082236
20
-4.37743080801013
30
0
41
1
10
18.955202336852
20
-4.37560517857983
30
0
41
1
10
18.9516794601833
20
-4.37375794946769
30
0
41
1
10
18.8640907086729
20
-4.32715561248156
30
0
41
1
10
18.7840993235947
20
-4.26884092887758
30
0
41
1
10
18.6614798401246
20
-4.13975157490805
30
0
41
1
10
18.6134898832676
20
-4.07225449549506
30
0
41
1
10
18.5482734734247
20
-3.93543103598478
30
0
41
1
10
18.5268229504547
20
-3.86652215059863
30
0
41
1
10
18.5121820111202
20
-3.76455009372472
30
0
41
1
10
18.5098579815409
20
-3.73222392179193
30
0
41
1
10
18.5098579815409
20
-3.70000000000155
30
0
0
SPLINE
5
FC
100
AcDbEntity
8
1
62
256
6
ByLayer
370
18
48
1
60
0
100
AcDbSpline
70
4
71
3
72
16
73
12
40
0
40
0
40
0
40
0
40
0.0847835633181494
40
0.0847835633181494
40
0.362421464428513
40
0.362421464428513
40
0.630512826428316
40
0.630512826428316
40
0.917995995087821
40
0.917995995087821
40
1
40
1
40
1
40
1
41
1
10
12.3985126396315
20
-4.37752481445136
30
0
41
1
10
12.3795934885632
20
-4.36503028016307
30
0
41
1
10
12.3614616866329
20
-4.35165313929554
30
0
41
1
10
12.287857963048
20
-4.29079786418294
30
0
41
1
10
12.2401576479141
20
-4.23402171495249
30
0
41
1
10
12.1711326704511
20
-4.11263924615884
30
0
41
1
10
12.1480153592783
20
-4.04690365645629
30
0
41
1
10
12.1235881196631
20
-3.9086574993116
30
0
41
1
10
12.1235636809736
20
-3.83436215144121
30
0
41
1
10
12.1376239073694
20
-3.74129566626769
30
0
41
1
10
12.1416699002715
20
-3.72056464574771
30
0
41
1
10
12.1465641280343
20
-3.70000000000144
30
0
0
SPLINE
5
FD
100
AcDbEntity
8
1
62
256
6
ByLayer
370
18
48
1
60
0
100
AcDbSpline
70
4
71
3
72
12
73
8
40
0
40
0
40
0
40
0
40
0.367292260733842
40
0.367292260733842
40
0.734922303957997
40
0.734922303957997
40
1
40
1
40
1
40
1
41
1
10
15.9498799513891
20
-4.86964356443329
30
0
41
1
10
15.985961595192
20
-4.95562174588972
30
0
41
1
10
16.0100076317367
20
-5.05010421876693
30
0
41
1
10
16.0299146820519
20
-5.24060593788252
30
0
41
1
10
16.0260230842774
20
-5.3392486220198
30
0
41
1
10
15.99597997168
20
-5.50113656782437
30
0
41
1
10
15.976098155032
20
-5.56788163585745
30
0
41
1
10
15.9498799513942
20
-5.63035643556867
30
0
0
SPLINE
5
FE
100
AcDbEntity
8
1
62
256
6
ByLayer
370
18
48
1
60
0
100
AcDbSpline
70
4
71
3
72
8
73
4
40
0
40
0
40
0
40
0
40
1
40
1
40
1
40
1
41
1
10
10.6396822546421
20
1.82705709097778
30
0
41
1
10
10.641855010181
20
1.71255637860219
30
0
41
1
10
10.6436787773351
20
1.59562012426929
30
0
41
1
10
10.6451531493783
20
1.47702546551565
30
0
0
SPLINE
5
FF
100
AcDbEntity
8
1
62
256
6
ByLayer
370
18
48
1
60
0
100
AcDbSpline
70
4
71
3
72
8
73
4
40
0
40
0
40
0
40
0
40
1
40
1
40
1
40
1
41
1
10
10.6452218235621
20
-0.0465048934609911
30
0
41
1
10
10.6437361184273
20
-0.166939238642982
30
0
41
1
10
10.6418897366126
20
-0.285726351668984
30
0
41
1
10
10.6396822546421
20
-0.402057090979156
30
0
0
SPLINE
5
100
100
AcDbEntity
8
1
62
256
6
ByLayer
370
18
48
1
60
0
100
AcDbSpline
70
4
71
3
72
8
73
4
40
0
40
0
40
0
40
0
40
1
40
1
40
1
40
1
41
1
10
15.9498799513891
20
-5.63035643556657
30
0
41
1
10
15.8980372653282
20
-5.75389126933609
30
0
41
1
10
15.8457731973071
20
-5.87718434728191
30
0
41
1
10
15.7927158449521
20
-5.99999999999994
30
0
0
SPLINE
5
101
100
AcDbEntity
8
1
62
256
6
ByLayer
370
18
48
1
60
0
100
AcDbSpline
70
4
71
3
72
8
73
4
40
0
40
0
40
0
40
0
40
1
40
1
40
1
40
1
41
1
10
15.7927158449527
20
-4.50000000000145
30
0
41
1
10
15.8457731973076
20
-4.62281565271897
30
0
41
1
10
15.8980372653284
20
-4.74610873066428
30
0
41
1
10
15.9498799513891
20
-4.86964356443329
30
0
0
SPLINE
5
102
100
AcDbEntity
8
1
62
256
6
ByLayer
370
18
48
1
60
0
100
AcDbSpline
70
4
71
3
72
12
73
8
40
0
40
0
40
0
40
0
40
0.495447747571048
40
0.495447747571048
40
0.900382671304165
40
0.900382671304165
40
1
40
1
40
1
40
1
41
1
10
7.64596020340329
20
-0.689836787650478
30
0
41
1
10
7.67375632983305
20
-0.639108012956996
30
0
41
1
10
7.71110495253873
20
-0.594623351453492
30
0
41
1
10
7.79644286138318
20
-0.532609901029446
30
0
41
1
10
7.84235901166878
20
-0.511085015260619
30
0
41
1
10
7.90687295131238
20
-0.495624204665603
30
0
41
1
10
7.92007255596724
20
-0.493091927723668
30
0
41
1
10
7.93359756299486
20
-0.491126350896309
30
0
0
SPLINE
5
103
100
AcDbEntity
8
1
62
256
6
ByLayer
370
18
48
1
60
0
100
AcDbSpline
70
4
71
3
72
16
73
12
40
0
40
0
40
0
40
0
40
0.0762647947696036
40
0.0762647947696036
40
0.388591267886628
40
0.388591267886628
40
0.668410626283055
40
0.668410626283055
40
0.914934097560629
40
0.914934097560629
40
1
40
1
40
1
40
1
41
1
10
7.64596020340511
20
-0.689836787651757
30
0
41
1
10
7.64239840718989
20
-0.696337173889475
30
0
41
1
10
7.6385008856395
20
-0.702570123854287
30
0
41
1
10
7.61718950442494
20
-0.732490746326334
30
0
41
1
10
7.59426221675028
20
-0.751761575042082
30
0
41
1
10
7.54346068563032
20
-0.773838848522217
30
0
41
1
10
7.51552217884725
20
-0.778418641503976
30
0
41
1
10
7.46088670922899
20
-0.773611693922845
30
0
41
1
10
7.43362989266285
20
-0.765702222167675
30
0
41
1
10
7.39835765210108
20
-0.748032348207659
30
0
41
1
10
7.38931422812357
20
-0.742829066972661
30
0
41
1
10
7.38044781181193
20
-0.737046762837281
30
0
0
SPLINE
5
104
100
AcDbEntity
8
1
62
256
6
ByLayer
370
18
48
1
60
0
100
AcDbSpline
70
4
71
3
72
16
73
12
40
0
40
0
40
0
40
0
40
0.142319077947386
40
0.142319077947386
40
0.364748229791845
40
0.364748229791845
40
0.594359598464812
40
0.594359598464812
40
0.841957615948578
40
0.841957615948578
40
1
40
1
40
1
40
1
41
1
10
7.38044781181193
20
-0.737046762837281
30
0
41
1
10
7.3658646595519
20
-0.727536243744055
30
0
41
1
10
7.35163108798267
20
-0.71635885500018
30
0
41
1
10
7.3172865389096
20
-0.68448407294332
30
0
41
1
10
7.29795163394203
20
-0.661504433062532
30
0
41
1
10
7.26459500920888
20
-0.611549564506959
30
0
41
1
10
7.25032626033254
20
-0.583852739547524
30
0
41
1
10
7.22762310254433
20
-0.525909376359891
30
0
41
1
10
7.21942297979231
20
-0.494916359620873
30
0
41
1
10
7.21195500260711
20
-0.446011057575589
30
0
41
1
10
7.21048465846167
20
-0.427149039245336
30
0
41
1
10
7.21039403444036
20
-0.409004041776228
30
0
0
SPLINE
5
105
100
AcDbEntity
8
1
62
256
6
ByLayer
370
18
48
1
60
0
100
AcDbSpline
70
4
71
3
72
18
73
14
40
0
40
0
40
0
40
0
40
0.212077939306985
40
0.212077939306985
40
0.386277180669149
40
0.386277180669149
40
0.562162788938242
40
0.562162788938242
40
0.715139313179786
40
0.715139313179786
40
0.917926548134291
40
0.917926548134291
40
1
40
1
40
1
40
1
41
1
10
6.77984103810726
20
0.43066258786925
30
0
41
1
10
6.82408260138516
20
0.412137478151038
30
0
41
1
10
6.86870379916704
20
0.382236662590088
30
0
41
1
10
6.94698165406137
20
0.307171682067633
30
0
41
1
10
6.98206776768137
20
0.264705108782778
30
0
41
1
10
7.04764155234528
20
0.166252959745435
30
0
41
1
10
7.07906453860829
20
0.108556291942733
30
0
41
1
10
7.12899940886899
20
-0.0039240874451139
30
0
41
1
10
7.14925551711426
20
-0.0594139029183509
30
0
41
1
10
7.18609225991128
20
-0.186066399360101
30
0
41
1
10
7.20002983673311
20
-0.258603837731982
30
0
41
1
10
7.20890989020506
20
-0.354790879660726
30
0
41
1
10
7.21026036007467
20
-0.38223938278216
30
0
41
1
10
7.21039403444036
20
-0.409004041776228
30
0
0
SPLINE
5
106
100
AcDbEntity
8
1
62
256
6
ByLayer
370
18
48
1
60
0
100
AcDbSpline
70
4
71
3
72
14
73
10
40
0
40
0
40
0
40
0
40
0.282570466285485
40
0.282570466285485
40
0.569068632820059
40
0.569068632820059
40
0.82837484292783
40
0.82837484292783
40
1
40
1
40
1
40
1
41
1
10
6.77984103810726
20
0.43066258786925
30
0
41
1
10
6.75900367442878
20
0.439387741769423
30
0
41
1
10
6.73825944860275
20
0.454042342539594
30
0
41
1
10
6.70063982139175
20
0.494342143298354
30
0
41
1
10
6.68326674028427
20
0.520814853497768
30
0
41
1
10
6.6574472658603
20
0.579152888484401
30
0
41
1
10
6.64795850189725
20
0.611182456022476
30
0
41
1
10
6.63901836571588
20
0.666568886479354
30
0
41
1
10
6.63716865788427
20
0.689627473865841
30
0
41
1
10
6.63716865788427
20
0.712499999999636
30
0
0
SPLINE
5
107
100
AcDbEntity
8
1
62
256
6
ByLayer
370
18
48
1
60
0
100
AcDbSpline
70
4
71
3
72
16
73
12
40
0
40
0
40
0
40
0
40
0.0620393275785827
40
0.0620393275785827
40
0.284918893961802
40
0.284918893961802
40
0.510542617547249
40
0.510542617547249
40
0.750580338323976
40
0.750580338323976
40
1
40
1
40
1
40
1
41
1
10
6.63716865788427
20
0.712499999999636
30
0
41
1
10
6.63716865788427
20
0.720800761114788
30
0
41
1
10
6.63740806530632
20
0.729110734974739
30
0
41
1
10
6.63958494204903
20
0.766862833713645
30
0
41
1
10
6.64442265640648
20
0.796244980188106
30
0
41
1
10
6.65937153161172
20
0.850523485147193
30
0
41
1
10
6.66972049943922
20
0.876060064296183
30
0
41
1
10
6.69478615117774
20
0.921673473868253
30
0
41
1
10
6.71003473444887
20
0.941888829333323
30
0
41
1
10
6.74314000448393
20
0.974342178745928
30
0
41
1
10
6.76143870501662
20
0.986631869777568
30
0
41
1
10
6.77984103810746
20
0.994337412130079
30
0
0
SPLINE
5
108
100
AcDbEntity
8
1
62
256
6
ByLayer
370
18
48
1
60
0
100
AcDbSpline
70
4
71
3
72
18
73
14
40
0
40
0
40
0
40
0
40
0.212491310234948
40
0.212491310234948
40
0.386617575418321
40
0.386617575418321
40
0.562425340506593
40
0.562425340506593
40
0.715387118727936
40
0.715387118727936
40
0.918247542724695
40
0.918247542724695
40
1
40
1
40
1
40
1
41
1
10
7.21039403444036
20
1.83400404177547
30
0
41
1
10
7.21005164026616
20
1.76544891329846
30
0
41
1
10
7.20156427139503
20
1.69168502551119
30
0
41
1
10
7.17151544428464
20
1.55552215337244
30
0
41
1
10
7.15219887516662
20
1.4919487600807
30
0
41
1
10
7.10440277794703
20
1.36940553953079
30
0
41
1
10
7.07510742550249
20
1.30873246432168
30
0
41
1
10
7.01609064749849
20
1.20879574640332
30
0
41
1
10
6.98620798769454
20
1.16653177774484
30
0
41
1
10
6.91569397174464
20
1.08389670569122
30
0
41
1
10
6.87349997358967
20
1.04701809805817
30
0
41
1
10
6.81431791987762
20
1.01045067080051
30
0
41
1
10
6.79707921539602
20
1.00155549173559
30
0
41
1
10
6.77984103810746
20
0.994337412130079
30
0
0
SPLINE
5
109
100
AcDbEntity
8
1
62
256
6
ByLayer
370
18
48
1
60
0
100
AcDbSpline
70
4
71
3
72
14
73
10
40
0
40
0
40
0
40
0
40
0.283961749036708
40
0.283961749036708
40
0.570285189259025
40
0.570285189259025
40
0.82945109433567
40
0.82945109433567
40
1
40
1
40
1
40
1
41
1
10
7.21039403444036
20
1.83400404177547
30
0
41
1
10
7.21055577459867
20
1.86638811302816
30
0
41
1
10
7.21519068693655
20
1.90132554195853
30
0
41
1
10
7.23402079537493
20
1.97100421461363
30
0
41
1
10
7.24863800758033
20
2.00681482284156
30
0
41
1
10
7.28492066135658
20
2.06940846986993
30
0
41
1
10
7.30637540155172
20
2.09764373353289
30
0
41
1
10
7.34591243122847
20
2.13677613243138
30
0
41
1
10
7.36293717502488
20
2.15062706135302
30
0
41
1
10
7.38044781181193
20
2.16204676283653
30
0
0
SPLINE
5
10A
100
AcDbEntity
8
1
62
256
6
ByLayer
370
18
48
1
60
0
100
AcDbSpline
70
4
71
3
72
16
73
12
40
0
40
0
40
0
40
0
40
0.0624381308002529
40
0.0624381308002529
40
0.283176804509564
40
0.283176804509564
40
0.506689877746584
40
0.506689877746584
40
0.744525276457811
40
0.744525276457811
40
1
40
1
40
1
40
1
41
1
10
7.38044781181193
20
2.16204676283653
30
0
41
1
10
7.38694501966501
20
2.16628396877374
30
0
41
1
10
7.39353439537882
20
2.17020925194527
30
0
41
1
10
7.42347463432981
20
2.18639408653559
30
0
41
1
10
7.44776676060647
20
2.19491558862825
30
0
41
1
10
7.49466223456929
20
2.20288000158107
30
0
41
1
10
7.51783736757093
20
2.20233232117874
30
0
41
1
10
7.56136262481306
20
2.19268142671774
30
0
41
1
10
7.58198946020366
20
2.18294293260342
30
0
41
1
10
7.61837173871396
20
2.15526136963408
30
0
41
1
10
7.63411067302124
20
2.13646254037803
30
0
41
1
10
7.64596020340332
20
2.11483678764969
30
0
0
SPLINE
5
10B
100
AcDbEntity
8
1
62
256
6
ByLayer
370
18
48
1
60
0
100
AcDbSpline
70
4
71
3
72
12
73
8
40
0
40
0
40
0
40
0
40
0.322038032637123
40
0.322038032637123
40
0.791348107785219
40
0.791348107785219
40
1
40
1
40
1
40
1
41
1
10
7.93359756299483
20
1.91612635089555
30
0
41
1
10
7.89013553141163
20
1.92244264795741
30
0
41
1
10
7.84990538822913
20
1.93475949397529
30
0
41
1
10
7.7629981337306
20
1.97662133220769
30
0
41
1
10
7.72013828483057
20
2.0120170199053
30
0
41
1
10
7.67124937074928
20
2.07291895968444
30
0
41
1
10
7.65777193961469
20
2.09328001043039
30
0
41
1
10
7.64596020340329
20
2.11483678764969
30
0
0
SPLINE
5
10C
100
AcDbEntity
8
1
62
256
6
ByLayer
370
18
48
1
60
0
100
AcDbSpline
70
4
71
3
72
12
73
8
40
0
40
0
40
0
40
0
40
0.322038032642897
40
0.322038032642897
40
0.7913481077926
40
0.7913481077926
40
1
40
1
40
1
40
1
41
1
10
8.08189978337717
20
-0.491126350896309
30
0
41
1
10
8.13053384739572
20
-0.497442647958309
30
0
41
1
10
8.18080784822811
20
-0.509759493976503
30
0
41
1
10
8.30051082610453
20
-0.55162133220972
30
0
41
1
10
8.37014622140867
20
-0.587017019907734
30
0
41
1
10
8.46184302238649
20
-0.647918959686677
30
0
41
1
10
8.48926904992072
20
-0.668280010431943
30
0
41
1
10
8.51542393151212
20
-0.689836787650478
30
0
0
SPLINE
5
10D
100
AcDbEntity
8
1
62
256
6
ByLayer
370
18
48
1
60
0
100
AcDbSpline
70
4
71
3
72
16
73
12
40
0
40
0
40
0
40
0
40
0.0624381308124387
40
0.0624381308124387
40
0.283176804521547
40
0.283176804521547
40
0.506689877759031
40
0.506689877759031
40
0.744525276471263
40
0.744525276471263
40
1
40
1
40
1
40
1
41
1
10
8.88143437956023
20
-0.737046762837281
30
0
41
1
10
8.87493717170588
20
-0.741283968775321
30
0
41
1
10
8.86818922873886
20
-0.745209251947557
30
0
41
1
10
8.83682370464879
20
-0.76139408653799
30
0
41
1
10
8.80941208325561
20
-0.769915588630141
30
0
41
1
10
8.75275215146303
20
-0.77788000158202
30
0
41
1
10
8.72276962478838
20
-0.777332321179188
30
0
41
1
10
8.66238421180557
20
-0.767681426717218
30
0
41
1
10
8.63131982275803
20
-0.757942932602361
30
0
41
1
10
8.57117020331054
20
-0.730261369632842
30
0
41
1
10
8.54166250122825
20
-0.711462540377653
30
0
41
1
10
8.51542393151212
20
-0.689836787650449
30
0
0
SPLINE
5
10E
100
AcDbEntity
8
1
62
256
6
ByLayer
370
18
48
1
60
0
100
AcDbSpline
70
4
71
3
72
14
73
10
40
0
40
0
40
0
40
0
40
0.28396174905386
40
0.28396174905386
40
0.570285189274022
40
0.570285189274022
40
0.829451094348947
40
0.829451094348947
40
1
40
1
40
1
40
1
41
1
10
8.95256923257074
20
-0.409004041776228
30
0
41
1
10
8.96819325170787
20
-0.441388113030854
30
0
41
1
10
8.97858857717941
20
-0.476325541963547
30
0
41
1
10
8.98610736791466
20
-0.546004214620524
30
0
41
1
10
8.98317647797742
20
-0.58181482284806
30
0
41
1
10
8.96395935754614
20
-0.644408469875458
30
0
41
1
10
8.94862115451812
20
-0.67264373353791
30
0
41
1
10
8.91480056698305
20
-0.711776132434295
30
0
41
1
10
8.89894501634592
20
-0.725627061354686
30
0
41
1
10
8.88143437956023
20
-0.737046762837281
30
0
0
SPLINE
5
10F
100
AcDbEntity
8
1
62
256
6
ByLayer
370
18
48
1
60
0
100
AcDbSpline
70
4
71
3
72
18
73
14
40
0
40
0
40
0
40
0
40
0.212491310237583
40
0.212491310237583
40
0.386617575420429
40
0.386617575420429
40
0.562425340508144
40
0.562425340508144
40
0.715387118729344
40
0.715387118729344
40
0.918247542726534
40
0.918247542726534
40
1
40
1
40
1
40
1
41
1
10
8.95256923257074
20
-0.409004041776228
30
0
41
1
10
8.91949412503206
20
-0.34044891329836
30
0
41
1
10
8.8964210381005
20
-0.266685025510043
30
0
41
1
10
8.88039646069072
20
-0.130522153370435
30
0
41
1
10
8.88281111050173
20
-0.0669487600788727
30
0
41
1
10
8.91106208542317
20
0.0555944604706156
30
0
41
1
10
8.93784150992187
20
0.116267535679413
30
0
41
1
10
9.00713959364953
20
0.216204253597368
30
0
41
1
10
9.04785256143066
20
0.258468222255715
30
0
41
1
10
9.15284377789646
20
0.341103294309107
30
0
41
1
10
9.2220035429404
20
0.377981901942036
30
0
41
1
10
9.32299442535833
20
0.414549329199218
30
0
41
1
10
9.35288872601254
20
0.423444508263884
30
0
41
1
10
9.38312222890397
20
0.43066258786925
30
0
0
SPLINE
5
110
100
AcDbEntity
8
1
62
256
6
ByLayer
370
18
48
1
60
0
100
AcDbSpline
70
4
71
3
72
16
73
12
40
0
40
0
40
0
40
0
40
0.0620393276245863
40
0.0620393276245863
40
0.284918894007674
40
0.284918894007674
40
0.510542617595596
40
0.510542617595596
40
0.750580338376978
40
0.750580338376978
40
1
40
1
40
1
40
1
41
1
10
9.62471353348789
20
0.712499999999608
30
0
41
1
10
9.62471353348789
20
0.704199238878374
30
0
41
1
10
9.62432052942569
20
0.695889265012312
30
0
41
1
10
9.62074558916225
20
0.658137166267665
30
0
41
1
10
9.61280527803154
20
0.628755019793857
30
0
41
1
10
9.58812355837549
20
0.574476514836277
30
0
41
1
10
9.57098314477656
20
0.548939935688196
30
0
41
1
10
9.52908870250064
20
0.503326526118173
30
0
41
1
10
9.50341873256605
20
0.483111170654382
30
0
41
1
10
9.44696572833232
20
0.450657821248342
30
0
41
1
10
9.41539750843586
20
0.438368130220198
30
0
41
1
10
9.38312222890397
20
0.43066258786925
30
0
0
SPLINE
5
111
100
AcDbEntity
8
1
62
256
6
ByLayer
370
18
48
1
60
0
100
AcDbSpline
70
4
71
3
72
14
73
10
40
0
40
0
40
0
40
0
40
0.282570466349857
40
0.282570466349857
40
0.569068632876196
40
0.569068632876196
40
0.82837484297731
40
0.82837484297731
40
1
40
1
40
1
40
1
41
1
10
9.38312222890363
20
0.994337412130079
30
0
41
1
10
9.41966823284795
20
0.985612258227945
30
0
41
1
10
9.45537190623315
20
0.970957657453027
30
0
41
1
10
9.51931803978843
20
0.930657856685229
30
0
41
1
10
9.54840490382907
20
0.904185146484252
30
0
41
1
10
9.59134123267688
20
0.845847111495885
30
0
41
1
10
9.60697158168702
20
0.813817543957441
30
0
41
1
10
9.62167963043618
20
0.758431113506617
30
0
41
1
10
9.62471353348789
20
0.735372526126866
30
0
41
1
10
9.62471353348789
20
0.712499999999608
30
0
0
SPLINE
5
112
100
AcDbEntity
8
1
62
256
6
ByLayer
370
18
48
1
60
0
100
AcDbSpline
70
4
71
3
72
18
73
14
40
0
40
0
40
0
40
0
40
0.212077939306746
40
0.212077939306746
40
0.386277180668968
40
0.386277180668968
40
0.562162788938114
40
0.562162788938114
40
0.715139313179706
40
0.715139313179706
40
0.917926548134269
40
0.917926548134269
40
1
40
1
40
1
40
1
41
1
10
9.38312222890363
20
0.994337412130051
30
0
41
1
10
9.30552832736055
20
1.01286252184826
30
0
41
1
10
9.22940614102708
20
1.04276333740921
30
0
41
1
10
9.10505207765462
20
1.11782831793158
30
0
41
1
10
9.0530318287243
20
1.16029489121647
30
0
41
1
10
8.96784978509604
20
1.25874704025381
30
0
41
1
10
8.93388000818516
20
1.31644370805651
30
0
41
1
10
8.89418577281205
20
1.42892408744433
30
0
41
1
10
8.88474332847855
20
1.48441390291759
30
0
41
1
10
8.88234695550139
20
1.61106639935932
30
0
41
1
10
8.89535125307384
20
1.6836038377312
30
0
41
1
10
8.92830257210585
20
1.77979087965997
30
0
41
1
10
8.9396563550936
20
1.8072393827814
30
0
41
1
10
8.95256923257074
20
1.83400404177547
30
0
0
SPLINE
5
113
100
AcDbEntity
8
1
62
256
6
ByLayer
370
18
48
1
60
0
100
AcDbSpline
70
4
71
3
72
12
73
8
40
0
40
0
40
0
40
0
40
0.495447747561344
40
0.495447747561344
40
0.900382671296171
40
0.900382671296171
40
1
40
1
40
1
40
1
41
1
10
8.51542393151212
20
2.11483678764972
30
0
41
1
10
8.45387460612335
20
2.06410801295723
30
0
41
1
10
8.38457938280061
20
2.01962335145447
30
0
41
1
10
8.25248901057984
20
1.95760990103028
30
0
41
1
10
8.18935324710398
20
1.936085015261
30
0
41
1
10
8.11230162245451
20
1.92062420466525
30
0
41
1
10
8.09703428201226
20
1.91809192772308
30
0
41
1
10
8.0818997833772
20
1.91612635089555
30
0
0
SPLINE
5
114
100
AcDbEntity
8
1
62
256
6
ByLayer
370
18
48
1
60
0
100
AcDbSpline
70
4
71
3
72
16
73
12
40
0
40
0
40
0
40
0
40
0.0762647947695832
40
0.0762647947695832
40
0.388591267886618
40
0.388591267886618
40
0.668410626283025
40
0.668410626283025
40
0.91493409756059
40
0.91493409756059
40
1
40
1
40
1
40
1
41
1
10
8.51542393151061
20
2.114836787651
30
0
41
1
10
8.52331086333822
20
2.12133717388872
30
0
41
1
10
8.53146781024699
20
2.1275701238535
30
0
41
1
10
8.57385850784075
20
2.15749074632555
30
0
41
1
10
8.61259233512058
20
2.17676157504133
30
0
41
1
10
8.68828357077487
20
2.19883884852146
30
0
41
1
10
8.72621135890935
20
2.20341864150319
30
0
41
1
10
8.79421476391778
20
2.19861169392209
30
0
41
1
10
8.82567996186339
20
2.19070222216692
30
0
41
1
10
8.86322862269378
20
2.1730323482069
30
0
41
1
10
8.87256796324863
20
2.16782906697191
30
0
41
1
10
8.88143437956023
20
2.16204676283653
30
0
0
SPLINE
5
115
100
AcDbEntity
8
1
62
256
6
ByLayer
370
18
48
1
60
0
100
AcDbSpline
70
4
71
3
72
16
73
12
40
0
40
0
40
0
40
0
40
0.142319077947391
40
0.142319077947391
40
0.364748229791884
40
0.364748229791884
40
0.594359598464898
40
0.594359598464898
40
0.841957615948693
40
0.841957615948693
40
1
40
1
40
1
40
1
41
1
10
8.88143437956023
20
2.16204676283653
30
0
41
1
10
8.89601753182026
20
2.1525362437433
30
0
41
1
10
8.9094444322582
20
2.14135885499942
30
0
41
1
10
8.9397360305112
20
2.10948407294256
30
0
41
1
10
8.95462845515783
20
2.08650443306178
30
0
41
1
10
8.97571768881642
20
2.0365495645062
30
0
41
1
10
8.98190828940281
20
2.00885273954677
30
0
41
1
10
8.98524155672513
20
1.95090937635913
30
0
41
1
10
8.9817113559958
20
1.91991635962012
30
0
41
1
10
8.96843193146128
20
1.87101105757483
30
0
41
1
10
8.96132346811672
20
1.85214903924458
30
0
41
1
10
8.95256923257074
20
1.83400404177547
30
0
0
LINE
5
74
100
AcDbEntity
8
80
62
256
6
ByLayer
370
18
48
1
60
0
100
AcDbLine
10
0
20
0
30
0
11
-5
21
0
31
0
39
0
210
0
220
0
230
1
0
LINE
5
75
100
AcDbEntity
8
81
62
256
6
ByLayer
370
18
48
1
60
0
100
AcDbLine
10
22.6
20
-6.075
30
0
11
27.6
21
-6.075
31
0
39
0
210
0
220
0
230
1
0
LINE
5
76
100
AcDbEntity
8
1
62
256
6
ByLayer
370
18
48
1
60
0
100
AcDbLine
10
7.858547
20
-2.2875
30
0
11
8.040143
21
-2.2875
31
0
39
0
210
0
220
0
230
1
0
LINE
5
78
100
AcDbEntity
8
1
62
256
6
ByLayer
370
18
48
1
60
0
100
AcDbLine
10
8.040143
20
3.7125
30
0
11
7.858547
21
3.7125
31
0
39
0
210
0
220
0
230
1
0
LINE
5
79
100
AcDbEntity
8
1
62
256
6
ByLayer
370
18
48
1
60
0
100
AcDbLine
10
16.746306
20
-6
30
0
11
19.458829
21
-6
31
0
39
0
210
0
220
0
230
1
0
LINE
5
7A
100
AcDbEntity
8
1
62
256
6
ByLayer
370
18
48
1
60
0
100
AcDbLine
10
11.2701
20
-3.462
30
0
11
11.2701
21
4.727672
31
0
39
0
210
0
220
0
230
1
0
LINE
5
7B
100
AcDbEntity
8
1
62
256
6
ByLayer
370
18
48
1
60
0
100
AcDbLine
10
11.249563
20
-4.374989
30
0
11
11.271823
21
-3.462
31
0
39
0
210
0
220
0
230
1
0
LINE
5
7C
100
AcDbEntity
8
1
62
256
6
ByLayer
370
18
48
1
60
0
100
AcDbLine
10
11.249701
20
-4.374989
30
0
11
11.271982
21
-3.462
31
0
39
0
210
0
220
0
230
1
0
LINE
5
7D
100
AcDbEntity
8
1
62
256
6
ByLayer
370
18
48
1
60
0
100
AcDbLine
10
11.2701
20
-3.462
30
0
11
12.203904
21
-3.462
31
0
39
0
210
0
220
0
230
1
0
LINE
5
7E
100
AcDbEntity
8
1
62
256
6
ByLayer
370
18
48
1
60
0
100
AcDbLine
10
18.509858
20
-1.168771
30
0
11
11.2701
21
4.727672
31
0
39
0
210
0
220
0
230
1
0
LINE
5
7F
100
AcDbEntity
8
1
62
256
6
ByLayer
370
18
48
1
60
0
100
AcDbLine
10
18.509858
20
-3.7
30
0
11
18.509858
21
-1.168771
31
0
39
0
210
0
220
0
230
1
0
LINE
5
80
100
AcDbEntity
8
1
62
256
6
ByLayer
370
18
48
1
60
0
100
AcDbLine
10
16.746306
20
-6
30
0
11
16.745696
21
-5.974997
31
0
39
0
210
0
220
0
230
1
0
LINE
5
81
100
AcDbEntity
8
1
62
256
6
ByLayer
370
18
48
1
60
0
100
AcDbLine
10
10.940031
20
-3.462
30
0
11
11.2701
21
-3.462
31
0
39
0
210
0
220
0
230
1
0
LINE
5
82
100
AcDbEntity
8
1
62
256
6
ByLayer
370
18
48
1
60
0
100
AcDbLine
10
15.792709
20
-6
30
0
11
16.746306
21
-6
31
0
39
0
210
0
220
0
230
1
0
LINE
5
83
100
AcDbEntity
8
1
62
256
6
ByLayer
370
18
48
1
60
0
100
AcDbLine
10
12.146564
20
-3.7
30
0
11
18.509858
21
-3.7
31
0
39
0
210
0
220
0
230
1
0
LINE
5
84
100
AcDbEntity
8
1
62
256
6
ByLayer
370
18
48
1
60
0
100
AcDbLine
10
11.2701
20
4.727672
30
0
11
10.940066
21
4.99647
31
0
39
0
210
0
220
0
230
1
0
LINE
5
85
100
AcDbEntity
8
SK1
62
256
6
ByLayer
370
18
48
1
60
0
100
AcDbLine
10
0
20
-6
30
0
11
0
21
5.925397
31
0
39
0
210
0
220
0
230
1
0
LINE
5
87
100
AcDbEntity
8
SK1
62
256
6
ByLayer
370
18
48
1
60
0
100
AcDbLine
10
-44.4
20
-6
30
0
11
-47.4
21
-3.026066
31
0
39
0
210
0
220
0
230
1
0
LINE
5
88
100
AcDbEntity
8
SK1
62
256
6
ByLayer
370
18
48
1
60
0
100
AcDbLine
10
-0.25
20
-6
30
0
11
-44.4
21
-6
31
0
39
0
210
0
220
0
230
1
0
LINE
5
89
100
AcDbEntity
8
SK1
62
256
6
ByLayer
370
18
48
1
60
0
100
AcDbLine
10
0
20
5.925397
30
0
11
-0.25
21
5.925
31
0
39
0
210
0
220
0
230
1
0
LINE
5
8A
100
AcDbEntity
8
SK1
62
256
6
ByLayer
370
18
48
1
60
0
100
AcDbLine
10
-0.25
20
5.925
30
0
11
-0.25
21
-6
31
0
39
0
210
0
220
0
230
1
0
LINE
5
8B
100
AcDbEntity
8
SK1
62
256
6
ByLayer
370
18
48
1
60
0
100
AcDbLine
10
-47.4
20
-3.026066
30
0
11
-47.4
21
5.925
31
0
39
0
210
0
220
0
230
1
0
LINE
5
8C
100
AcDbEntity
8
SK1
62
256
6
ByLayer
370
18
48
1
60
0
100
AcDbLine
10
-47.4
20
5.925
30
0
11
-0.25
21
5.925
31
0
39
0
210
0
220
0
230
1
0
LINE
5
8D
100
AcDbEntity
8
SK1
62
256
6
ByLayer
370
18
48
1
60
0
100
AcDbLine
10
-0.25
20
-6
30
0
11
0
21
-6
31
0
39
0
210
0
220
0
230
1
0
LINE
5
8E
100
AcDbEntity
8
1
62
256
6
ByLayer
370
18
48
1
60
0
100
AcDbLine
10
0.143063
20
5.925624
30
0
11
0
21
5.925397
31
0
39
0
210
0
220
0
230
1
0
LINE
5
8F
100
AcDbEntity
8
1
62
256
6
ByLayer
370
18
48
1
60
0
100
AcDbLine
10
5
20
-6
30
0
11
0.143063
21
-6
31
0
39
0
210
0
220
0
230
1
0
LINE
5
90
100
AcDbEntity
8
1
62
256
6
ByLayer
370
18
48
1
60
0
100
AcDbLine
10
0.143063
20
-6
30
0
11
0.143063
21
5.925624
31
0
39
0
210
0
220
0
230
1
0
LINE
5
91
100
AcDbEntity
8
1
62
256
6
ByLayer
370
18
48
1
60
0
100
AcDbLine
10
9.611646
20
-6
30
0
11
5
21
-6
31
0
39
0
210
0
220
0
230
1
0
LINE
5
92
100
AcDbEntity
8
1
62
256
6
ByLayer
370
18
48
1
60
0
100
AcDbLine
10
16.708153
20
-5.750146
30
0
11
15.89894
21
-5.750146
31
0
39
0
210
0
220
0
230
1
0
LINE
5
93
100
AcDbEntity
8
1
62
256
6
ByLayer
370
18
48
1
60
0
100
AcDbLine
10
19.390267
20
-5.975
30
0
11
17.806578
21
-5.975
31
0
39
0
210
0
220
0
230
1
0
LINE
5
94
100
AcDbEntity
8
1
62
256
6
ByLayer
370
18
48
1
60
0
100
AcDbLine
10
16.708153
20
-4.599854
30
0
11
15.835146
21
-4.599854
31
0
39
0
210
0
220
0
230
1
0
LINE
5
95
100
AcDbEntity
8
1
62
256
6
ByLayer
370
18
48
1
60
0
100
AcDbLine
10
16.698646
20
-4.548551
30
0
11
15.813308
21
-4.548551
31
0
39
0
210
0
220
0
230
1
0
LINE
5
96
100
AcDbEntity
8
1
62
256
6
ByLayer
370
18
48
1
60
0
100
AcDbLine
10
19.604111
20
-6.05294
30
0
11
22.391562
21
-6.17481
31
0
39
0
210
0
220
0
230
1
0
LINE
5
97
100
AcDbEntity
8
1
62
256
6
ByLayer
370
18
48
1
60
0
100
AcDbLine
10
16.698646
20
-5.801449
30
0
11
15.877092
21
-5.801449
31
0
39
0
210
0
220
0
230
1
0
LINE
5
98
100
AcDbEntity
8
1
62
256
6
ByLayer
370
18
48
1
60
0
100
AcDbLine
10
19.390267
20
-4.375
30
0
11
17.806578
21
-4.375
31
0
39
0
210
0
220
0
230
1
0
LINE
5
99
100
AcDbEntity
8
1
62
256
6
ByLayer
370
18
48
1
60
0
100
AcDbLine
10
16.862743
20
-5.00399
30
0
11
15.99454
21
-5.00399
31
0
39
0
210
0
220
0
230
1
0
LINE
5
9A
100
AcDbEntity
8
1
62
256
6
ByLayer
370
18
48
1
60
0
100
AcDbLine
10
19.390267
20
-4.375
30
0
11
19.604111
21
-4.29706
31
0
39
0
210
0
220
0
230
1
0
LINE
5
9B
100
AcDbEntity
8
1
62
256
6
ByLayer
370
18
48
1
60
0
100
AcDbLine
10
16.862743
20
-5.34601
30
0
11
16.708153
21
-5.750146
31
0
39
0
210
0
220
0
230
1
0
LINE
5
9C
100
AcDbEntity
8
1
62
256
6
ByLayer
370
18
48
1
60
0
100
AcDbLine
10
16.698646
20
-4.375
30
0
11
17.806578
21
-4.375
31
0
39
0
210
0
220
0
230
1
0
LINE
5
9D
100
AcDbEntity
8
1
62
256
6
ByLayer
370
18
48
1
60
0
100
AcDbLine
10
19.390267
20
-5.975
30
0
11
19.604111
21
-6.05294
31
0
39
0
210
0
220
0
230
1
0
LINE
5
9E
100
AcDbEntity
8
1
62
256
6
ByLayer
370
18
48
1
60
0
100
AcDbLine
10
11.115573
20
-4.375
30
0
11
16.698646
21
-4.375
31
0
39
0
210
0
220
0
230
1
0
LINE
5
9F
100
AcDbEntity
8
1
62
256
6
ByLayer
370
18
48
1
60
0
100
AcDbLine
10
16.698646
20
-5.801449
30
0
11
16.698646
21
-5.975
31
0
39
0
210
0
220
0
230
1
0
LINE
5
A0
100
AcDbEntity
8
1
62
256
6
ByLayer
370
18
48
1
60
0
100
AcDbLine
10
17.806578
20
-5.975
30
0
11
17.806578
21
-4.375
31
0
39
0
210
0
220
0
230
1
0
LINE
5
A1
100
AcDbEntity
8
1
62
256
6
ByLayer
370
18
48
1
60
0
100
AcDbLine
10
19.604111
20
-4.29706
30
0
11
22.391562
21
-4.17519
31
0
39
0
210
0
220
0
230
1
0
LINE
5
A2
100
AcDbEntity
8
1
62
256
6
ByLayer
370
18
48
1
60
0
100
AcDbLine
10
16.862743
20
-5.00399
30
0
11
16.708153
21
-4.599854
31
0
39
0
210
0
220
0
230
1
0
LINE
5
A3
100
AcDbEntity
8
1
62
256
6
ByLayer
370
18
48
1
60
0
100
AcDbLine
10
22.6
20
-4.375
30
0
11
22.6
21
-5.975
31
0
39
0
210
0
220
0
230
1
0
LINE
5
A4
100
AcDbEntity
8
1
62
256
6
ByLayer
370
18
48
1
60
0
100
AcDbLine
10
5.623298
20
-6.05294
30
0
11
2.835847
21
-6.17481
31
0
39
0
210
0
220
0
230
1
0
LINE
5
A5
100
AcDbEntity
8
1
62
256
6
ByLayer
370
18
48
1
60
0
100
AcDbLine
10
5.768549
20
-6
30
0
11
5.623298
21
-6.05294
31
0
39
0
210
0
220
0
230
1
0
LINE
5
A6
100
AcDbEntity
8
1
62
256
6
ByLayer
370
18
48
1
60
0
100
AcDbLine
10
16.698646
20
-5.975
30
0
11
17.806578
21
-5.975
31
0
39
0
210
0
220
0
230
1
0
LINE
5
A7
100
AcDbEntity
8
1
62
256
6
ByLayer
370
18
48
1
60
0
100
AcDbLine
10
15.803217
20
-5.975
30
0
11
16.698646
21
-5.975
31
0
39
0
210
0
220
0
230
1
0
LINE
5
A8
100
AcDbEntity
8
1
62
256
6
ByLayer
370
18
48
1
60
0
100
AcDbLine
10
16.698646
20
-4.548551
30
0
11
16.698646
21
-4.375
31
0
39
0
210
0
220
0
230
1
0
LINE
5
A9
100
AcDbEntity
8
1
62
256
6
ByLayer
370
18
48
1
60
0
100
AcDbLine
10
16.862743
20
-5.34601
30
0
11
16.018169
21
-5.34601
31
0
39
0
210
0
220
0
230
1
0
LINE
5
AA
100
AcDbEntity
8
1
62
256
6
ByLayer
370
18
48
1
60
0
100
AcDbLine
10
10.816171
20
5.097376
30
0
11
10.629403
21
5.24949
31
0
39
0
210
0
220
0
230
1
0
LINE
5
AB
100
AcDbEntity
8
1
62
256
6
ByLayer
370
18
48
1
60
0
100
AcDbLine
10
9.781231
20
5.940286
30
0
11
10.629403
21
5.24949
31
0
39
0
210
0
220
0
230
1
0
LINE
5
AC
100
AcDbEntity
8
1
62
256
6
ByLayer
370
18
48
1
60
0
100
AcDbLine
10
9.611646
20
-4.5
30
0
11
8.606055
21
-4.5
31
0
39
0
210
0
220
0
230
1
0
LINE
5
AD
100
AcDbEntity
8
1
62
256
6
ByLayer
370
18
48
1
60
0
100
AcDbLine
10
6.843904
20
-3.7
30
0
11
6.843904
21
-2.149881
31
0
39
0
210
0
220
0
230
1
0
LINE
5
AE
100
AcDbEntity
8
1
62
256
6
ByLayer
370
18
48
1
60
0
100
AcDbLine
10
9.611646
20
-6
30
0
11
15.792716
21
-6
31
0
39
0
210
0
220
0
230
1
0
LINE
5
AF
100
AcDbEntity
8
1
62
256
6
ByLayer
370
18
48
1
60
0
100
AcDbLine
10
0.143063
20
5.925624
30
0
11
5
21
5.946817
31
0
39
0
210
0
220
0
230
1
0
LINE
5
B0
100
AcDbEntity
8
1
62
256
6
ByLayer
370
18
48
1
60
0
100
AcDbLine
10
10.629403
20
-3.7
30
0
11
10.629403
21
-0.635279
31
0
39
0
210
0
220
0
230
1
0
LINE
5
B1
100
AcDbEntity
8
1
62
256
6
ByLayer
370
18
48
1
60
0
100
AcDbLine
10
0
20
-6
30
0
11
0
21
5.925397
31
0
39
0
210
0
220
0
230
1
0
LINE
5
B2
100
AcDbEntity
8
1
62
256
6
ByLayer
370
18
48
1
60
0
100
AcDbLine
10
10.722949
20
-3.462
30
0
11
10.816171
21
-3.462
31
0
39
0
210
0
220
0
230
1
0
LINE
5
B3
100
AcDbEntity
8
1
62
256
6
ByLayer
370
18
48
1
60
0
100
AcDbLine
10
0
20
-6
30
0
11
0.143063
21
-6
31
0
39
0
210
0
220
0
230
1
0
LINE
5
B4
100
AcDbEntity
8
1
62
256
6
ByLayer
370
18
48
1
60
0
100
AcDbLine
10
6.843904
20
-3.7
30
0
11
10.629403
21
-3.7
31
0
39
0
210
0
220
0
230
1
0
LINE
5
B5
100
AcDbEntity
8
1
62
256
6
ByLayer
370
18
48
1
60
0
100
AcDbLine
10
9.611646
20
-4.5
30
0
11
9.611646
21
-6
31
0
39
0
210
0
220
0
230
1
0
LINE
5
B6
100
AcDbEntity
8
1
62
256
6
ByLayer
370
18
48
1
60
0
100
AcDbLine
10
10.629403
20
-3.7
30
0
11
10.728758
21
-3.7
31
0
39
0
210
0
220
0
230
1
0
LINE
5
B7
100
AcDbEntity
8
1
62
256
6
ByLayer
370
18
48
1
60
0
100
AcDbLine
10
5
20
5.946817
30
0
11
6.843904
21
5.946817
31
0
39
0
210
0
220
0
230
1
0
LINE
5
B8
100
AcDbEntity
8
1
62
256
6
ByLayer
370
18
48
1
60
0
100
AcDbLine
10
9.611646
20
-4.5
30
0
11
15.792716
21
-4.5
31
0
39
0
210
0
220
0
230
1
0
LINE
5
B9
100
AcDbEntity
8
1
62
256
6
ByLayer
370
18
48
1
60
0
100
AcDbLine
10
10.629403
20
2.060279
30
0
11
10.629403
21
5.24949
31
0
39
0
210
0
220
0
230
1
0
LINE
5
BA
100
AcDbEntity
8
1
62
256
6
ByLayer
370
18
48
1
60
0
100
AcDbLine
10
10.940066
20
4.996469
30
0
11
10.940066
21
-3.462
31
0
39
0
210
0
220
0
230
1
0
LINE
5
BB
100
AcDbEntity
8
1
62
256
6
ByLayer
370
18
48
1
60
0
100
AcDbLine
10
10.816171
20
-3.462
30
0
11
10.940066
21
-3.462
31
0
39
0
210
0
220
0
230
1
0
LINE
5
BC
100
AcDbEntity
8
1
62
256
6
ByLayer
370
18
48
1
60
0
100
AcDbLine
10
5
20
-6
30
0
11
5
21
5.946817
31
0
39
0
210
0
220
0
230
1
0
LINE
5
BD
100
AcDbEntity
8
1
62
256
6
ByLayer
370
18
48
1
60
0
100
AcDbLine
10
10.722949
20
-3.462
30
0
11
10.728758
21
-3.7
31
0
39
0
210
0
220
0
230
1
0
LINE
5
BE
100
AcDbEntity
8
1
62
256
6
ByLayer
370
18
48
1
60
0
100
AcDbLine
10
6.843904
20
3.574881
30
0
11
6.843904
21
5.946817
31
0
39
0
210
0
220
0
230
1
0
LINE
5
BF
100
AcDbEntity
8
1
62
256
6
ByLayer
370
18
48
1
60
0
100
AcDbLine
10
9.781231
20
5.940286
30
0
11
6.843904
21
5.946817
31
0
39
0
210
0
220
0
230
1
0
LINE
5
C0
100
AcDbEntity
8
1
62
256
6
ByLayer
370
18
48
1
60
0
100
AcDbLine
10
10.940066
20
4.996469
30
0
11
10.816171
21
5.097376
31
0
39
0
210
0
220
0
230
1
0
LINE
5
C1
100
AcDbEntity
8
1
62
256
6
ByLayer
370
18
48
1
60
0
100
AcDbLine
10
10.816171
20
5.097376
30
0
11
10.816171
21
-3.462
31
0
39
0
210
0
220
0
230
1
0
LINE
5
C2
100
AcDbEntity
8
1
62
256
6
ByLayer
370
18
48
1
60
0
100
AcDbLine
10
8.660798
20
0.994337
30
0
11
9.383122
21
0.994337
31
0
39
0
210
0
220
0
230
1
0
LINE
5
C3
100
AcDbEntity
8
1
62
256
6
ByLayer
370
18
48
1
60
0
100
AcDbLine
10
8.660798
20
0.430663
30
0
11
9.383122
21
0.430663
31
0
39
0
210
0
220
0
230
1
0
LINE
5
C4
100
AcDbEntity
8
1
62
256
6
ByLayer
370
18
48
1
60
0
100
AcDbLine
10
8.230245
20
-0.409004
30
0
11
8.952569
21
-0.409004
31
0
39
0
210
0
220
0
230
1
0
LINE
5
C5
100
AcDbEntity
8
1
62
256
6
ByLayer
370
18
48
1
60
0
100
AcDbLine
10
7.933595
20
-0.491126
30
0
11
8.0819
21
-0.491126
31
0
39
0
210
0
220
0
230
1
0
LINE
5
C6
100
AcDbEntity
8
1
62
256
6
ByLayer
370
18
48
1
60
0
100
AcDbLine
10
7.933598
20
-0.491126
30
0
11
7.285006
21
-0.491126
31
0
39
0
210
0
220
0
230
1
0
LINE
5
C7
100
AcDbEntity
8
1
62
256
6
ByLayer
370
18
48
1
60
0
100
AcDbLine
10
7.285006
20
1.916126
30
0
11
7.933598
21
1.916126
31
0
39
0
210
0
220
0
230
1
0
LINE
5
C8
100
AcDbEntity
8
1
62
256
6
ByLayer
370
18
48
1
60
0
100
AcDbLine
10
8.0819
20
1.916126
30
0
11
7.933595
21
1.916126
31
0
39
0
210
0
220
0
230
1
0
LINE
5
C9
100
AcDbEntity
8
1
62
256
6
ByLayer
370
18
48
1
60
0
100
AcDbLine
10
7.326309
20
-0.689837
30
0
11
7.64596
21
-0.689837
31
0
39
0
210
0
220
0
230
1
0
LINE
5
CA
100
AcDbEntity
8
1
62
256
6
ByLayer
370
18
48
1
60
0
100
AcDbLine
10
8.230245
20
1.834004
30
0
11
8.952569
21
1.834004
31
0
39
0
210
0
220
0
230
1
0
LINE
5
CB
100
AcDbEntity
8
1
62
256
6
ByLayer
370
18
48
1
60
0
100
AcDbLine
10
7.325294
20
2.114837
30
0
11
7.64596
21
2.114837
31
0
39
0
210
0
220
0
230
1
0
MTEXT
5
116
100
AcDbEntity
8
SK6
62
256
6
ByLayer
370
18
48
1
60
0
100
AcDbMText
10
-39.025
20
15.010908
30
0
210
0
220
0
230
1
1
\W0.7018;QS-LF123E11-1212B
40
3.5
41
0
44
1.084337
50
0
71
7
72
5
7
iso_b_vert
0
DIMENSION
5
128
100
AcDbEntity
8
SK2
62
256
6
ByLayer
370
13
48
1
60
0
100
AcDbDimension
2
DimnDraft3D1
10
-57.15
20
-5.925
30
0
11
-57.15
21
16.575
31
0
70
32
71
5
72
1
41
1
210
0
220
0
230
1
3
Standard
100
AcDbAlignedDimension
13
-48.9
23
6.075
33
0
14
-48.9
24
-5.925
34
0
50
90
100
AcDbRotatedDimension
1001
ACAD
1000
DSTYLE
1002
{
1070
    74
1070
     0
1070
   279
1070
     0
1070
   172
1070
     1
1070
   173
1070
     1
1070
   340
1005
117
1070
   271
1070
     3
1070
   272
1070
     3
1070
    77
1070
     1
1070
    73
1070
     0
1070
   171
1070
     4
1070
   274
1070
     4
1070
   177
1070
     2
1070
   176
1070
     2
1070
   178
1070
     7
1070
    78
1070
     8
1070
    41
1041
3.0
1070
   147
1041
2.25
1070
    42
1041
1.5
1070
    44
1041
3.0
1070
   140
1041
4.5
1070
   343
1005
129
1070
   344
1005
129
1002
}
0
DIMENSION
5
13D
100
AcDbEntity
8
2
62
256
6
ByLayer
370
13
48
1
60
0
100
AcDbDimension
2
DimnDraft3D2
10
36.85
20
-3.925
30
0
11
36.85
21
-23.625
31
0
70
32
71
5
72
1
41
1
210
0
220
0
230
1
3
Standard
100
AcDbAlignedDimension
13
24.1
23
-5.925
33
0
14
24.1
24
-3.925
34
0
50
90
100
AcDbRotatedDimension
1001
ACAD
1000
DSTYLE
1002
{
1070
    74
1070
     0
1070
   279
1070
     0
1070
   172
1070
     1
1070
   173
1070
     1
1070
   340
1005
117
1070
   271
1070
     3
1070
   272
1070
     3
1070
    77
1070
     1
1070
    73
1070
     0
1070
   171
1070
     4
1070
   274
1070
     4
1070
   177
1070
     2
1070
   176
1070
     2
1070
   178
1070
     7
1070
    78
1070
     8
1070
    41
1041
3.0
1070
   147
1041
2.25
1070
    42
1041
1.5
1070
    44
1041
3.0
1070
   140
1041
4.5
1070
   343
1005
129
1070
   344
1005
129
1002
}
0
DIMENSION
5
14B
100
AcDbEntity
8
2
62
256
6
ByLayer
370
13
48
1
60
0
100
AcDbDimension
2
DimnDraft3D3
10
46.85
20
6.075
30
0
11
46.85
21
-21.144079
31
0
70
32
71
5
72
1
41
1
210
0
220
0
230
1
3
Standard
100
AcDbAlignedDimension
13
24.1
23
-5.925
33
0
14
1.5
24
6.075
34
0
50
90
100
AcDbRotatedDimension
1001
ACAD
1000
DSTYLE
1002
{
1070
    74
1070
     0
1070
   279
1070
     0
1070
   172
1070
     1
1070
   173
1070
     1
1070
   340
1005
117
1070
   271
1070
     3
1070
   272
1070
     3
1070
    77
1070
     1
1070
    73
1070
     0
1070
   171
1070
     4
1070
   274
1070
     4
1070
   177
1070
     2
1070
   176
1070
     2
1070
   178
1070
     7
1070
    78
1070
     8
1070
    41
1041
3.0
1070
   147
1041
2.25
1070
    42
1041
1.5
1070
    44
1041
3.0
1070
   140
1041
4.5
1070
   343
1005
129
1070
   344
1005
129
1002
}
0
DIMENSION
5
159
100
AcDbEntity
8
SK2
62
256
6
ByLayer
370
13
48
1
60
0
100
AcDbDimension
2
DimnDraft3D4
10
22.6
20
-30.175
30
0
11
-17.681579
21
-30.175
31
0
70
32
71
5
72
1
41
1
210
0
220
0
230
1
3
Standard
100
AcDbAlignedDimension
13
-47.4
23
-7.425
33
0
14
22.6
24
-7.425
34
0
50
0
100
AcDbRotatedDimension
1001
ACAD
1000
DSTYLE
1002
{
1070
   279
1070
     0
1070
   172
1070
     1
1070
   173
1070
     1
1070
   340
1005
117
1070
   271
1070
     3
1070
   272
1070
     3
1070
    77
1070
     1
1070
    73
1070
     0
1070
   171
1070
     4
1070
   274
1070
     4
1070
   177
1070
     2
1070
   176
1070
     2
1070
   178
1070
     7
1070
    78
1070
     8
1070
    41
1041
3.0
1070
   147
1041
2.25
1070
    42
1041
1.5
1070
    44
1041
3.0
1070
   140
1041
4.5
1070
   343
1005
129
1070
   344
1005
129
1002
}
0
DIMENSION
5
167
100
AcDbEntity
8
2
62
256
6
ByLayer
370
13
48
1
60
0
100
AcDbDimension
2
DimnDraft3D5
10
0
20
-20.175
30
0
11
6.018421
21
-20.175
31
0
70
32
71
5
72
1
41
1
210
0
220
0
230
1
3
Standard
100
AcDbAlignedDimension
13
22.6
23
-7.425
33
0
14
0
24
-7.425
34
0
50
0
100
AcDbRotatedDimension
1001
ACAD
1000
DSTYLE
1002
{
1070
   279
1070
     0
1070
   172
1070
     1
1070
   173
1070
     1
1070
   340
1005
117
1070
   271
1070
     3
1070
   272
1070
     3
1070
    77
1070
     1
1070
    73
1070
     0
1070
   171
1070
     4
1070
   274
1070
     4
1070
   177
1070
     2
1070
   176
1070
     2
1070
   178
1070
     7
1070
    78
1070
     8
1070
    41
1041
3.0
1070
   147
1041
2.25
1070
    42
1041
1.5
1070
    44
1041
3.0
1070
   140
1041
4.5
1070
   343
1005
129
1070
   344
1005
129
1002
}
0
DIMENSION
5
175
100
AcDbEntity
8
2
62
256
6
ByLayer
370
13
48
1
60
0
100
AcDbDimension
2
DimnDraft3D6
10
11.6
20
15.825
30
0
11
37.256579
21
15.825
31
0
70
32
71
5
72
1
41
1
210
0
220
0
230
1
3
Standard
100
AcDbAlignedDimension
13
22.6
23
-2.425
33
0
14
11.6
24
7.575
34
0
50
0
100
AcDbRotatedDimension
1001
ACAD
1000
DSTYLE
1002
{
1070
   279
1070
     0
1070
   172
1070
     1
1070
   173
1070
     1
1070
   340
1005
117
1070
   271
1070
     3
1070
   272
1070
     3
1070
    77
1070
     1
1070
    73
1070
     0
1070
   171
1070
     4
1070
   274
1070
     4
1070
   177
1070
     2
1070
   176
1070
     2
1070
   178
1070
     7
1070
    78
1070
     8
1070
    41
1041
3.0
1070
   147
1041
2.25
1070
    42
1041
1.5
1070
    44
1041
3.0
1070
   140
1041
4.5
1070
   343
1005
129
1070
   344
1005
129
1002
}
0
ENDSEC
0
SECTION
2
OBJECTS
0
DICTIONARY
5
1df
330
0
100
AcDbDictionary
280
0
281
1
3
ACAD_GROUP
350
1e0
3
ACAD_MLINESTYLE
350
1e1
0
DICTIONARY
5
1e0
330
0
100
AcDbDictionary
280
0
281
1
0
DICTIONARY
5
1e1
330
0
100
AcDbDictionary
280
0
281
1
3
Standard
350
18
0
MLINESTYLE
5
18
330
1e1
100
AcDbMlineStyle
2
Standard
70
0
3

62
256
51
90
52
90
71
2
49
-0.5
62
256
6
ByLayer
49
0.5
62
256
6
ByLayer
0
RASTERVARIABLES
5
1ce
330

100
AcDbRasterVariables
90
0
70
1
71
1
72
1
0
ENDSEC
0
EOF
