0
SECTION
2
HEADER
9
$ACADVER
1
AC1015
9
$DWGCODEPAGE
3
ANSI_1252
9
$HANDSEED
5
205
9
$ANGBASE
50
0
9
$ANGDIR
70
0
9
$ATTMODE
70
1
9
$AUNITS
70
0
9
$AUPREC
70
0
9
$CECOLOR
62
256
9
$CELTSCALE
40
1
9
$CELTYPE
6
ByLayer
9
$CELWEIGHT
370
18
9
$CLAYER
8
0
9
$CMLJUST
70
0
9
$CMLSCALE
40
1
9
$CMLSTYLE
2
Standard
9
$DIMSTYLE
2
Standard
9
$TEXTSIZE
40
0.2
9
$TEXTSTYLE
7
Standard
9
$LUNITS
70
2
9
$LUPREC
70
4
9
$EXTNAMES
290
1
9
$INSUNITS
70
4
9
$LTSCALE
40
1
9
$LWDISPLAY
290
1
9
$PDMODE
70
0
9
$PDSIZE
40
0
9
$PLINEGEN
70
0
0
ENDSEC
0
SECTION
2
CLASSES
0
CLASS
1
RASTERVARIABLES
2
AcDbRasterVariables
3
ISM
90
0
280
0
281
0
0
ENDSEC
0
SECTION
2
TABLES
0
TABLE
2
VPORT
5
1fb
100
AcDbSymbolTable
0
VPORT
5
1
100
AcDbSymbolTableRecord
100
AcDbViewportTableRecord
2
*Active
70
0
10
0
20
0
11
1
21
1
12
-1
22
1
13
0
23
0
14
0.5
24
0.5
15
10
25
10
16
0
26
0
36
1
17
0
27
0
37
0
0
ENDTAB
0
TABLE
2
LTYPE
5
1fc
100
AcDbSymbolTable
0
LTYPE
5
14
100
AcDbSymbolTableRecord
100
AcDbLinetypeTableRecord
70
0
2
ByBlock
3

72
65
73
0
40
0
0
LTYPE
5
15
100
AcDbSymbolTableRecord
100
AcDbLinetypeTableRecord
70
0
2
ByLayer
3

72
65
73
0
40
0
0
LTYPE
5
16
100
AcDbSymbolTableRecord
100
AcDbLinetypeTableRecord
70
0
2
CONTINUOUS
3
Solid line
72
65
73
0
40
0
0
LTYPE
5
6A
100
AcDbSymbolTableRecord
100
AcDbLinetypeTableRecord
70
0
2
CENTER
3
____ _ ____ _ ____ _ ____
72
65
73
4
40
47.5
49
22
74
0
49
-8.5
74
0
49
8.5
74
0
49
-8.5
74
0
0
LTYPE
5
6B
100
AcDbSymbolTableRecord
100
AcDbLinetypeTableRecord
70
0
2
DASHED
3
__ __ __ __ __ __ __ __ __
72
65
73
2
40
25.72
49
12.86
74
0
49
-12.86
74
0
0
ENDTAB
0
TABLE
2
LAYER
5
1fd
100
AcDbSymbolTable
0
LAYER
5
10
100
AcDbSymbolTableRecord
100
AcDbLayerTableRecord
2
0
70
0
62
7
6
CONTINUOUS
290
1
370
-3
390
0
0
LAYER
5
6D
100
AcDbSymbolTableRecord
100
AcDbLayerTableRecord
2
81
70
0
62
-3
6
CONTINUOUS
290
1
370
-3
390
0
0
LAYER
5
6F
100
AcDbSymbolTableRecord
100
AcDbLayerTableRecord
2
80
70
0
62
-6
6
CONTINUOUS
290
1
370
-3
390
0
0
LAYER
5
71
100
AcDbSymbolTableRecord
100
AcDbLayerTableRecord
2
2
70
0
62
7
6
CONTINUOUS
290
1
370
-3
390
0
0
LAYER
5
73
100
AcDbSymbolTableRecord
100
AcDbLayerTableRecord
2
4
70
0
62
-2
6
CENTER
290
1
370
-3
390
0
0
LAYER
5
75
100
AcDbSymbolTableRecord
100
AcDbLayerTableRecord
2
1
70
0
62
4
6
CONTINUOUS
290
1
370
-3
390
0
0
LAYER
5
1e8
100
AcDbSymbolTableRecord
100
AcDbLayerTableRecord
2
SK1
70
0
62
4
6
CONTINUOUS
290
1
370
-3
390
0
0
LAYER
5
1e9
100
AcDbSymbolTableRecord
100
AcDbLayerTableRecord
2
SK6
70
0
62
5
6
CONTINUOUS
290
1
370
-3
390
0
0
LAYER
5
1ea
100
AcDbSymbolTableRecord
100
AcDbLayerTableRecord
2
SK2
70
0
62
7
6
CONTINUOUS
290
1
370
-3
390
0
0
ENDTAB
0
TABLE
2
STYLE
5
1fe
100
AcDbSymbolTable
0
STYLE
5
11
100
AcDbSymbolTableRecord
100
AcDbTextStyleTableRecord
2
Standard
3
txt
70
0
71
0
40
0
41
1
42
0
50
0
0
STYLE
5
130
100
AcDbSymbolTableRecord
100
AcDbTextStyleTableRecord
2
iso_b_vert
3
simplex.shx
70
0
71
0
40
0
41
1
42
0
50
0
0
STYLE
5
131
100
AcDbSymbolTableRecord
100
AcDbTextStyleTableRecord
2
DWGDirectTextStyle
3
simplex
70
0
71
0
40
0
41
1
42
0
50
0
0
ENDTAB
0
TABLE
2
DIMSTYLE
5
1ff
100
AcDbSymbolTable
100
AcDbDimStyleTable
0
DIMSTYLE
105
27
100
AcDbSymbolTableRecord
100
AcDbDimStyleTableRecord
2
Standard
70
0
3
<>
41
0.18
42
0.0625
44
0.18
140
0.18
147
0.09
73
0
74
0
77
1
271
2
275
0
278
52
280
0
340
11
0
ENDTAB
0
TABLE
2
VIEW
5
200
100
AcDbSymbolTable
0
ENDTAB
0
TABLE
2
UCS
5
201
100
AcDbSymbolTable
0
ENDTAB
0
TABLE
2
APPID
5
202
100
AcDbSymbolTable
0
APPID
5
12
100
AcDbSymbolTableRecord
100
AcDbRegAppTableRecord
2
ACAD
70
0
0
ENDTAB
0
TABLE
2
BLOCK_RECORD
5
203
100
AcDbSymbolTable
0
BLOCK_RECORD
5
1F
100
AcDbSymbolTableRecord
100
AcDbBlockTableRecord
2
*Model_Space
340
0
70
0
0
BLOCK_RECORD
5
1B
100
AcDbSymbolTableRecord
100
AcDbBlockTableRecord
2
*Paper_Space
340
0
70
0
0
BLOCK_RECORD
5
23
100
AcDbSymbolTableRecord
100
AcDbBlockTableRecord
2
*Paper_Space0
340
0
70
0
0
BLOCK_RECORD
5
133
100
AcDbSymbolTableRecord
100
AcDbBlockTableRecord
2
DimnDraft3D1
340
0
70
0
0
BLOCK_RECORD
5
142
100
AcDbSymbolTableRecord
100
AcDbBlockTableRecord
2
_CLOSED
340
0
70
0
0
BLOCK_RECORD
5
149
100
AcDbSymbolTableRecord
100
AcDbBlockTableRecord
2
DimnDraft3D2
340
0
70
0
0
BLOCK_RECORD
5
157
100
AcDbSymbolTableRecord
100
AcDbBlockTableRecord
2
DimnDraft3D3
340
0
70
0
0
BLOCK_RECORD
5
165
100
AcDbSymbolTableRecord
100
AcDbBlockTableRecord
2
DimnDraft3D4
340
0
70
0
0
BLOCK_RECORD
5
173
100
AcDbSymbolTableRecord
100
AcDbBlockTableRecord
2
DimnDraft3D5
340
0
70
0
0
BLOCK_RECORD
5
181
100
AcDbSymbolTableRecord
100
AcDbBlockTableRecord
2
DimnDraft3D6
340
0
70
0
0
ENDTAB
0
ENDSEC
0
SECTION
2
BLOCKS
0
BLOCK
5
20
100
AcDbEntity
8
0
100
AcDbBlockBegin
2
*Model_Space
70
0
10
0
20
0
30
0
3
*Model_Space
0
ENDBLK
5
21
100
AcDbEntity
8
0
100
AcDbBlockEnd
0
BLOCK
5
1C
100
AcDbEntity
8
0
100
AcDbBlockBegin
2
*Paper_Space
70
0
10
0
20
0
30
0
3
*Paper_Space
0
ENDBLK
5
1D
100
AcDbEntity
8
0
100
AcDbBlockEnd
0
BLOCK
5
24
100
AcDbEntity
8
0
100
AcDbBlockBegin
2
*Paper_Space0
70
0
10
0
20
0
30
0
3
*Paper_Space0
0
ENDBLK
5
25
100
AcDbEntity
8
0
100
AcDbBlockEnd
0
BLOCK
5
13F
100
AcDbEntity
8
0
100
AcDbBlockBegin
2
DimnDraft3D1
70
0
10
0
20
0
30
0
3
DimnDraft3D1
0
MTEXT
5
134
100
AcDbEntity
8
SK2
62
256
6
ByLayer
370
18
48
1
60
0
100
AcDbMText
10
-59.275
20
16.7
30
0
210
0
220
0
230
1
1
\W0.6563;10.0
40
4.5
41
0
44
1.084337
50
90
71
7
72
5
7
iso_b_vert
0
LINE
5
136
100
AcDbEntity
8
SK2
62
256
6
ByLayer
370
13
48
1
60
0
100
AcDbLine
10
-49.9
20
5.075
30
0
11
-61.15
21
5.075
31
0
39
0
210
0
220
0
230
1
0
LINE
5
137
100
AcDbEntity
8
SK2
62
256
6
ByLayer
370
13
48
1
60
0
100
AcDbLine
10
-49.9
20
-4.925
30
0
11
-61.15
21
-4.925
31
0
39
0
210
0
220
0
230
1
0
LINE
5
138
100
AcDbEntity
8
SK2
62
256
6
ByLayer
370
13
48
1
60
0
100
AcDbLine
10
-58.15
20
-4.925
30
0
11
-58.15
21
25.013158
31
0
39
0
210
0
220
0
230
1
0
LINE
5
139
100
AcDbEntity
8
SK2
62
256
6
ByLayer
370
13
48
1
60
0
100
AcDbLine
10
-58.15
20
5.075
30
0
11
-57.755043
21
2.075001
31
0
39
0
210
0
220
0
230
1
0
LINE
5
13A
100
AcDbEntity
8
SK2
62
256
6
ByLayer
370
13
48
1
60
0
100
AcDbLine
10
-58.15
20
5.075
30
0
11
-58.544957
21
2.074999
31
0
39
0
210
0
220
0
230
1
0
LINE
5
13B
100
AcDbEntity
8
SK2
62
256
6
ByLayer
370
13
48
1
60
0
100
AcDbLine
10
-57.755043
20
2.075001
30
0
11
-58.544957
21
2.074999
31
0
39
0
210
0
220
0
230
1
0
LINE
5
13C
100
AcDbEntity
8
SK2
62
256
6
ByLayer
370
13
48
1
60
0
100
AcDbLine
10
-58.15
20
-4.925
30
0
11
-58.544957
21
-1.925001
31
0
39
0
210
0
220
0
230
1
0
LINE
5
13D
100
AcDbEntity
8
SK2
62
256
6
ByLayer
370
13
48
1
60
0
100
AcDbLine
10
-58.15
20
-4.925
30
0
11
-57.755043
21
-1.924999
31
0
39
0
210
0
220
0
230
1
0
LINE
5
13E
100
AcDbEntity
8
SK2
62
256
6
ByLayer
370
13
48
1
60
0
100
AcDbLine
10
-58.544957
20
-1.925001
30
0
11
-57.755043
21
-1.924999
31
0
39
0
210
0
220
0
230
1
0
ENDBLK
5
140
100
AcDbEntity
8
0
100
AcDbBlockEnd
0
BLOCK
5
143
100
AcDbEntity
8
0
100
AcDbBlockBegin
2
_CLOSED
70
0
10
0
20
0
30
0
3
_CLOSED
0
LINE
5
145
100
AcDbEntity
8
0
62
256
6
ByLayer
370
-2
48
1
60
0
100
AcDbLine
10
-1
20
0.166667
30
0
11
0
21
0
31
0
39
0
210
0
220
0
230
1
0
LINE
5
146
100
AcDbEntity
8
0
62
256
6
ByLayer
370
-2
48
1
60
0
100
AcDbLine
10
0
20
0
30
0
11
-1
21
-0.166667
31
0
39
0
210
0
220
0
230
1
0
LINE
5
147
100
AcDbEntity
8
0
62
256
6
ByLayer
370
-2
48
1
60
0
100
AcDbLine
10
-1
20
0.166667
30
0
11
-1
21
-0.166667
31
0
39
0
210
0
220
0
230
1
0
LINE
5
148
100
AcDbEntity
8
0
62
256
6
ByLayer
370
-2
48
1
60
0
100
AcDbLine
10
0
20
0
30
0
11
-1
21
0
31
0
39
0
210
0
220
0
230
1
0
ENDBLK
5
144
100
AcDbEntity
8
0
100
AcDbBlockEnd
0
BLOCK
5
154
100
AcDbEntity
8
0
100
AcDbBlockBegin
2
DimnDraft3D2
70
0
10
0
20
0
30
0
3
DimnDraft3D2
0
MTEXT
5
14A
100
AcDbEntity
8
2
62
256
6
ByLayer
370
18
48
1
60
0
100
AcDbMText
10
34.725
20
-20.375
30
0
210
0
220
0
230
1
1
\W0.6004;1.5
40
4.5
41
0
44
1.084337
50
90
71
7
72
5
7
iso_b_vert
0
LINE
5
14B
100
AcDbEntity
8
2
62
256
6
ByLayer
370
13
48
1
60
0
100
AcDbLine
10
23.1
20
-4.925
30
0
11
38.85
21
-4.925
31
0
39
0
210
0
220
0
230
1
0
LINE
5
14C
100
AcDbEntity
8
2
62
256
6
ByLayer
370
13
48
1
60
0
100
AcDbLine
10
23.1
20
-3.425
30
0
11
38.85
21
-3.425
31
0
39
0
210
0
220
0
230
1
0
LINE
5
14D
100
AcDbEntity
8
2
62
256
6
ByLayer
370
13
48
1
60
0
100
AcDbLine
10
35.85
20
7.825
30
0
11
35.85
21
-21.5
31
0
39
0
210
0
220
0
230
1
0
LINE
5
14E
100
AcDbEntity
8
2
62
256
6
ByLayer
370
13
48
1
60
0
100
AcDbLine
10
35.85
20
-4.925
30
0
11
36.244957
21
-7.924999
31
0
39
0
210
0
220
0
230
1
0
LINE
5
14F
100
AcDbEntity
8
2
62
256
6
ByLayer
370
13
48
1
60
0
100
AcDbLine
10
35.85
20
-4.925
30
0
11
35.455043
21
-7.925001
31
0
39
0
210
0
220
0
230
1
0
LINE
5
150
100
AcDbEntity
8
2
62
256
6
ByLayer
370
13
48
1
60
0
100
AcDbLine
10
36.244957
20
-7.924999
30
0
11
35.455043
21
-7.925001
31
0
39
0
210
0
220
0
230
1
0
LINE
5
151
100
AcDbEntity
8
2
62
256
6
ByLayer
370
13
48
1
60
0
100
AcDbLine
10
35.85
20
-3.425
30
0
11
35.455043
21
-0.425001
31
0
39
0
210
0
220
0
230
1
0
LINE
5
152
100
AcDbEntity
8
2
62
256
6
ByLayer
370
13
48
1
60
0
100
AcDbLine
10
35.85
20
-3.425
30
0
11
36.244957
21
-0.424999
31
0
39
0
210
0
220
0
230
1
0
LINE
5
153
100
AcDbEntity
8
2
62
256
6
ByLayer
370
13
48
1
60
0
100
AcDbLine
10
35.455043
20
-0.425001
30
0
11
36.244957
21
-0.424999
31
0
39
0
210
0
220
0
230
1
0
ENDBLK
5
155
100
AcDbEntity
8
0
100
AcDbBlockEnd
0
BLOCK
5
162
100
AcDbEntity
8
0
100
AcDbBlockBegin
2
DimnDraft3D3
70
0
10
0
20
0
30
0
3
DimnDraft3D3
0
MTEXT
5
158
100
AcDbEntity
8
2
62
256
6
ByLayer
370
18
48
1
60
0
100
AcDbMText
10
44.725
20
-20.144079
30
0
210
0
220
0
230
1
1
\W0.6563;10.0
40
4.5
41
0
44
1.084337
50
90
71
8
72
5
7
iso_b_vert
0
LINE
5
159
100
AcDbEntity
8
2
62
256
6
ByLayer
370
13
48
1
60
0
100
AcDbLine
10
23.1
20
-4.925
30
0
11
48.85
21
-4.925
31
0
39
0
210
0
220
0
230
1
0
LINE
5
15A
100
AcDbEntity
8
2
62
256
6
ByLayer
370
13
48
1
60
0
100
AcDbLine
10
1.5
20
5.075
30
0
11
48.85
21
5.075
31
0
39
0
210
0
220
0
230
1
0
LINE
5
15B
100
AcDbEntity
8
2
62
256
6
ByLayer
370
13
48
1
60
0
100
AcDbLine
10
45.85
20
5.075
30
0
11
45.85
21
-24.863158
31
0
39
0
210
0
220
0
230
1
0
LINE
5
15C
100
AcDbEntity
8
2
62
256
6
ByLayer
370
13
48
1
60
0
100
AcDbLine
10
45.85
20
-4.925
30
0
11
45.455043
21
-1.925001
31
0
39
0
210
0
220
0
230
1
0
LINE
5
15D
100
AcDbEntity
8
2
62
256
6
ByLayer
370
13
48
1
60
0
100
AcDbLine
10
45.85
20
-4.925
30
0
11
46.244957
21
-1.924999
31
0
39
0
210
0
220
0
230
1
0
LINE
5
15E
100
AcDbEntity
8
2
62
256
6
ByLayer
370
13
48
1
60
0
100
AcDbLine
10
45.455043
20
-1.925001
30
0
11
46.244957
21
-1.924999
31
0
39
0
210
0
220
0
230
1
0
LINE
5
15F
100
AcDbEntity
8
2
62
256
6
ByLayer
370
13
48
1
60
0
100
AcDbLine
10
45.85
20
5.075
30
0
11
46.244957
21
2.075001
31
0
39
0
210
0
220
0
230
1
0
LINE
5
160
100
AcDbEntity
8
2
62
256
6
ByLayer
370
13
48
1
60
0
100
AcDbLine
10
45.85
20
5.075
30
0
11
45.455043
21
2.074999
31
0
39
0
210
0
220
0
230
1
0
LINE
5
161
100
AcDbEntity
8
2
62
256
6
ByLayer
370
13
48
1
60
0
100
AcDbLine
10
46.244957
20
2.075001
30
0
11
45.455043
21
2.074999
31
0
39
0
210
0
220
0
230
1
0
ENDBLK
5
163
100
AcDbEntity
8
0
100
AcDbBlockEnd
0
BLOCK
5
170
100
AcDbEntity
8
0
100
AcDbBlockBegin
2
DimnDraft3D4
70
0
10
0
20
0
30
0
3
DimnDraft3D4
0
MTEXT
5
166
100
AcDbEntity
8
SK2
62
256
6
ByLayer
370
18
48
1
60
0
100
AcDbMText
10
-17.556579
20
-28.05
30
0
210
0
220
0
230
1
1
\W0.7346;70.0
40
4.5
41
0
44
1.084337
50
0
71
7
72
5
7
iso_b_vert
0
LINE
5
167
100
AcDbEntity
8
SK2
62
256
6
ByLayer
370
13
48
1
60
0
100
AcDbLine
10
-48.4
20
-6.425
30
0
11
-48.4
21
-32.175
31
0
39
0
210
0
220
0
230
1
0
LINE
5
168
100
AcDbEntity
8
SK2
62
256
6
ByLayer
370
13
48
1
60
0
100
AcDbLine
10
21.6
20
-6.425
30
0
11
21.6
21
-32.175
31
0
39
0
210
0
220
0
230
1
0
LINE
5
169
100
AcDbEntity
8
SK2
62
256
6
ByLayer
370
13
48
1
60
0
100
AcDbLine
10
-48.4
20
-29.175
30
0
11
21.6
21
-29.175
31
0
39
0
210
0
220
0
230
1
0
LINE
5
16A
100
AcDbEntity
8
SK2
62
256
6
ByLayer
370
13
48
1
60
0
100
AcDbLine
10
-48.4
20
-29.175
30
0
11
-45.400001
21
-28.780043
31
0
39
0
210
0
220
0
230
1
0
LINE
5
16B
100
AcDbEntity
8
SK2
62
256
6
ByLayer
370
13
48
1
60
0
100
AcDbLine
10
-48.4
20
-29.175
30
0
11
-45.399999
21
-29.569957
31
0
39
0
210
0
220
0
230
1
0
LINE
5
16C
100
AcDbEntity
8
SK2
62
256
6
ByLayer
370
13
48
1
60
0
100
AcDbLine
10
-45.400001
20
-28.780043
30
0
11
-45.399999
21
-29.569957
31
0
39
0
210
0
220
0
230
1
0
LINE
5
16D
100
AcDbEntity
8
SK2
62
256
6
ByLayer
370
13
48
1
60
0
100
AcDbLine
10
21.6
20
-29.175
30
0
11
18.600001
21
-29.569957
31
0
39
0
210
0
220
0
230
1
0
LINE
5
16E
100
AcDbEntity
8
SK2
62
256
6
ByLayer
370
13
48
1
60
0
100
AcDbLine
10
21.6
20
-29.175
30
0
11
18.599999
21
-28.780043
31
0
39
0
210
0
220
0
230
1
0
LINE
5
16F
100
AcDbEntity
8
SK2
62
256
6
ByLayer
370
13
48
1
60
0
100
AcDbLine
10
18.600001
20
-29.569957
30
0
11
18.599999
21
-28.780043
31
0
39
0
210
0
220
0
230
1
0
ENDBLK
5
171
100
AcDbEntity
8
0
100
AcDbBlockEnd
0
BLOCK
5
17E
100
AcDbEntity
8
0
100
AcDbBlockBegin
2
DimnDraft3D5
70
0
10
0
20
0
30
0
3
DimnDraft3D5
0
MTEXT
5
174
100
AcDbEntity
8
2
62
256
6
ByLayer
370
18
48
1
60
0
100
AcDbMText
10
7.205921
20
-18.05
30
0
210
0
220
0
230
1
1
\W0.6563;21.6
40
4.5
41
0
44
1.084337
50
0
71
7
72
5
7
iso_b_vert
0
LINE
5
175
100
AcDbEntity
8
2
62
256
6
ByLayer
370
13
48
1
60
0
100
AcDbLine
10
21.6
20
-6.425
30
0
11
21.6
21
-22.175
31
0
39
0
210
0
220
0
230
1
0
LINE
5
176
100
AcDbEntity
8
2
62
256
6
ByLayer
370
13
48
1
60
0
100
AcDbLine
10
0
20
-6.425
30
0
11
0
21
-22.175
31
0
39
0
210
0
220
0
230
1
0
LINE
5
177
100
AcDbEntity
8
2
62
256
6
ByLayer
370
13
48
1
60
0
100
AcDbLine
10
21.6
20
-19.175
30
0
11
0
21
-19.175
31
0
39
0
210
0
220
0
230
1
0
LINE
5
178
100
AcDbEntity
8
2
62
256
6
ByLayer
370
13
48
1
60
0
100
AcDbLine
10
21.6
20
-19.175
30
0
11
18.600001
21
-19.569957
31
0
39
0
210
0
220
0
230
1
0
LINE
5
179
100
AcDbEntity
8
2
62
256
6
ByLayer
370
13
48
1
60
0
100
AcDbLine
10
21.6
20
-19.175
30
0
11
18.599999
21
-18.780043
31
0
39
0
210
0
220
0
230
1
0
LINE
5
17A
100
AcDbEntity
8
2
62
256
6
ByLayer
370
13
48
1
60
0
100
AcDbLine
10
18.600001
20
-19.569957
30
0
11
18.599999
21
-18.780043
31
0
39
0
210
0
220
0
230
1
0
LINE
5
17B
100
AcDbEntity
8
2
62
256
6
ByLayer
370
13
48
1
60
0
100
AcDbLine
10
0
20
-19.175
30
0
11
2.999999
21
-18.780043
31
0
39
0
210
0
220
0
230
1
0
LINE
5
17C
100
AcDbEntity
8
2
62
256
6
ByLayer
370
13
48
1
60
0
100
AcDbLine
10
0
20
-19.175
30
0
11
3.000001
21
-19.569957
31
0
39
0
210
0
220
0
230
1
0
LINE
5
17D
100
AcDbEntity
8
2
62
256
6
ByLayer
370
13
48
1
60
0
100
AcDbLine
10
2.999999
20
-18.780043
30
0
11
3.000001
21
-19.569957
31
0
39
0
210
0
220
0
230
1
0
ENDBLK
5
17F
100
AcDbEntity
8
0
100
AcDbBlockEnd
0
BLOCK
5
18C
100
AcDbEntity
8
0
100
AcDbBlockBegin
2
DimnDraft3D6
70
0
10
0
20
0
30
0
3
DimnDraft3D6
0
MTEXT
5
182
100
AcDbEntity
8
2
62
256
6
ByLayer
370
18
48
1
60
0
100
AcDbMText
10
36.819079
20
15.95
30
0
210
0
220
0
230
1
1
\W0.6563;10.0
40
4.5
41
0
44
1.084337
50
0
71
8
72
5
7
iso_b_vert
0
LINE
5
183
100
AcDbEntity
8
2
62
256
6
ByLayer
370
13
48
1
60
0
100
AcDbLine
10
21.6
20
-1.925
30
0
11
21.6
21
17.825
31
0
39
0
210
0
220
0
230
1
0
LINE
5
184
100
AcDbEntity
8
2
62
256
6
ByLayer
370
13
48
1
60
0
100
AcDbLine
10
11.6
20
6.575
30
0
11
11.6
21
17.825
31
0
39
0
210
0
220
0
230
1
0
LINE
5
185
100
AcDbEntity
8
2
62
256
6
ByLayer
370
13
48
1
60
0
100
AcDbLine
10
11.6
20
14.825
30
0
11
41.538158
21
14.825
31
0
39
0
210
0
220
0
230
1
0
LINE
5
186
100
AcDbEntity
8
2
62
256
6
ByLayer
370
13
48
1
60
0
100
AcDbLine
10
21.6
20
14.825
30
0
11
18.600001
21
14.430043
31
0
39
0
210
0
220
0
230
1
0
LINE
5
187
100
AcDbEntity
8
2
62
256
6
ByLayer
370
13
48
1
60
0
100
AcDbLine
10
21.6
20
14.825
30
0
11
18.599999
21
15.219957
31
0
39
0
210
0
220
0
230
1
0
LINE
5
188
100
AcDbEntity
8
2
62
256
6
ByLayer
370
13
48
1
60
0
100
AcDbLine
10
18.600001
20
14.430043
30
0
11
18.599999
21
15.219957
31
0
39
0
210
0
220
0
230
1
0
LINE
5
189
100
AcDbEntity
8
2
62
256
6
ByLayer
370
13
48
1
60
0
100
AcDbLine
10
11.6
20
14.825
30
0
11
14.599999
21
15.219957
31
0
39
0
210
0
220
0
230
1
0
LINE
5
18A
100
AcDbEntity
8
2
62
256
6
ByLayer
370
13
48
1
60
0
100
AcDbLine
10
11.6
20
14.825
30
0
11
14.600001
21
14.430043
31
0
39
0
210
0
220
0
230
1
0
LINE
5
18B
100
AcDbEntity
8
2
62
256
6
ByLayer
370
13
48
1
60
0
100
AcDbLine
10
14.599999
20
15.219957
30
0
11
14.600001
21
14.430043
31
0
39
0
210
0
220
0
230
1
0
ENDBLK
5
18D
100
AcDbEntity
8
0
100
AcDbBlockEnd
0
ENDSEC
0
SECTION
2
ENTITIES
0
ELLIPSE
5
DA
100
AcDbEntity
8
1
62
256
6
ByLayer
370
18
48
1
60
0
100
AcDbEllipse
10
8.067993
20
0.4625
30
0
11
-3.4031852585558E-15
21
-3.175
31
0
210
0
220
0
230
1
40
0.891007
41
1.96065874051545
42
-2.69410544362856
0
ELLIPSE
5
DB
100
AcDbEntity
8
1
62
256
6
ByLayer
370
18
48
1
60
0
100
AcDbEllipse
10
7.990771
20
0.4625
30
0
11
-3.4031852585558E-15
21
-3.175
31
0
210
0
220
0
230
1
40
0.891007
41
1.86891048658196
42
3.12794105250953
0
ELLIPSE
5
DC
100
AcDbEntity
8
1
62
256
6
ByLayer
370
18
48
1
60
0
100
AcDbEllipse
10
8.385786
20
0.4625
30
0
11
3.5633858044891
21
0
31
0
210
0
220
0
230
1
40
0.891007
41
2.01828353675613
42
2.13867589673189
0
ELLIPSE
5
DD
100
AcDbEntity
8
1
62
256
6
ByLayer
370
18
48
1
60
0
100
AcDbEllipse
10
8.067993
20
0.4625
30
0
11
-3.4031852585558E-15
21
-3.175
31
0
210
0
220
0
230
1
40
0.891007
41
-0.447487209961237
42
1.18093391307434
0
ELLIPSE
5
DE
100
AcDbEntity
8
1
62
256
6
ByLayer
370
18
48
1
60
0
100
AcDbEllipse
10
10.377263
20
0.4625
30
0
11
-4.37304960684425E-09
21
-3.17500007307335
31
0
210
0
220
0
230
1
40
0.104672
41
1.86891049407968
42
1.96065874611064
0
ELLIPSE
5
DF
100
AcDbEntity
8
1
62
256
6
ByLayer
370
18
48
1
60
0
100
AcDbEllipse
10
8.385786
20
0.4625
30
0
11
3.5633858044891
21
0
31
0
210
0
220
0
230
1
40
0.891007
41
-2.13867589673189
42
-2.01828353675613
0
ELLIPSE
5
E0
100
AcDbEntity
8
1
62
256
6
ByLayer
370
18
48
1
60
0
100
AcDbEllipse
10
9.714922
20
0.4625
30
0
11
4.51818464352504
21
0
31
0
210
0
220
0
230
1
40
0.851581
41
2.37223954998915
42
2.64560026814813
0
ELLIPSE
5
E1
100
AcDbEntity
8
1
62
256
6
ByLayer
370
18
48
1
60
0
100
AcDbEllipse
10
9.714922
20
0.4625
30
0
11
4.51818464352504
21
0
31
0
210
0
220
0
230
1
40
0.851581
41
-2.64560026814814
42
-2.37223954998915
0
ELLIPSE
5
E2
100
AcDbEntity
8
1
62
256
6
ByLayer
370
18
48
1
60
0
100
AcDbEllipse
10
8.606055
20
-3.2
30
0
11
1.76215141166822
21
0
31
0
210
0
220
0
230
1
40
0.45399
41
-3.14159265358979
42
-1.5707963267949
0
ELLIPSE
5
E3
100
AcDbEntity
8
1
62
256
6
ByLayer
370
18
48
1
60
0
100
AcDbEllipse
10
10.377263
20
0.4625
30
0
11
-4.48274341551317E-09
21
3.17500007489579
31
0
210
0
220
0
230
1
40
0.104672
41
-1.96065874625291
42
-1.86891049426931
0
ELLIPSE
5
E4
100
AcDbEntity
8
1
62
256
6
ByLayer
370
18
48
1
60
0
100
AcDbEllipse
10
11.561598
20
-3.2
30
0
11
-0.561500342704238
21
0.579831311068184
31
0
210
0
220
0
230
1
40
0.981614
41
2.2051844520233
42
2.38152461930615
0
ELLIPSE
5
E5
100
AcDbEntity
8
1
62
256
6
ByLayer
370
18
48
1
60
0
100
AcDbEllipse
10
11.459389
20
-3.2
30
0
11
9.3716267385329E-16
21
0.80000000000023
31
0
210
0
220
0
230
1
40
0.968413
41
1.5707963267949
42
3.14159265358979
0
ELLIPSE
5
E6
100
AcDbEntity
8
1
62
256
6
ByLayer
370
18
48
1
60
0
100
AcDbEllipse
10
7.990771
20
0.4625
30
0
11
-3.4031852585558E-15
21
-3.175
31
0
210
0
220
0
230
1
40
0.891007
41
0.0136516010802659
42
1.27268216700783
0
ELLIPSE
5
E7
100
AcDbEntity
8
1
62
256
6
ByLayer
370
18
48
1
60
0
100
AcDbEllipse
10
16.083845
20
-4.5
30
0
11
5.85726671144363E-16
21
0.499999999988241
31
0
210
0
220
0
230
1
40
0.852203
41
-1.91113553094214
42
-1.2304571226477
0
ELLIPSE
5
E8
100
AcDbEntity
8
1
62
256
6
ByLayer
370
18
48
1
60
0
100
AcDbEllipse
10
15.785192
20
-4.425
30
0
11
-3.48096779303297
21
8.15558271128756E-15
31
0
210
0
220
0
230
1
40
0.086183
41
2.79252680303264
42
-2.79252680303262
0
ELLIPSE
5
E9
100
AcDbEntity
8
1
62
256
6
ByLayer
370
18
48
1
60
0
100
AcDbEllipse
10
21.600048
20
-15.906277
30
0
11
-0.645940881310475
21
-30.4974951357715
31
0
210
0
220
0
230
1
40
0.353495
41
-2.00026107085279
42
-1.99303545222701
0
ELLIPSE
5
EA
100
AcDbEntity
8
1
62
256
6
ByLayer
370
18
48
1
60
0
100
AcDbEllipse
10
9.498206
20
-3.426913
30
0
11
-0.0807453265548656
21
-3.81217556503974
31
0
210
0
220
0
230
1
40
0.353495
41
1.57828352085582
42
1.69050250181947
0
ELLIPSE
5
EB
100
AcDbEntity
8
1
62
256
6
ByLayer
370
18
48
1
60
0
100
AcDbEllipse
10
7.858547
20
0.4625
30
0
11
3.51436002694883E-15
21
3
31
0
210
0
220
0
230
1
40
0.891007
41
0
42
-3.14159258717258
0
ELLIPSE
5
EC
100
AcDbEntity
8
1
62
256
6
ByLayer
370
18
48
1
60
0
100
AcDbEllipse
10
8.040143
20
0.4625
30
0
11
3.51436002694883E-15
21
3
31
0
210
0
220
0
230
1
40
0.891007
41
0
42
-2.93149848048291
0
ELLIPSE
5
ED
100
AcDbEntity
8
1
62
256
6
ByLayer
370
18
48
1
60
0
100
AcDbEllipse
10
8.040143
20
0.4625
30
0
11
3.51436002694883E-15
21
3
31
0
210
0
220
0
230
1
40
0.891007
41
-0.222071377729843
42
-2.69973549031733E-16
0
ELLIPSE
5
EE
100
AcDbEntity
8
1
62
256
6
ByLayer
370
18
48
1
60
0
100
AcDbEllipse
10
8.130941
20
0.4625
30
0
11
3.28006935848557E-15
21
2.8
31
0
210
0
220
0
230
1
40
0.891007
41
0
42
6.28318530717959
0
ELLIPSE
5
EF
100
AcDbEntity
8
1
62
256
6
ByLayer
370
18
48
1
60
0
100
AcDbEllipse
10
7.359157
20
-1.42206
30
0
11
8.03616992828965E-16
21
0.686
31
0
210
0
220
0
230
1
40
0.891007
41
0.121614041216742
42
0.220982941271186
0
ELLIPSE
5
F0
100
AcDbEntity
8
1
62
256
6
ByLayer
370
18
48
1
60
0
100
AcDbEllipse
10
7.978935
20
-0.734576
30
0
11
3.42064375956352E-16
21
0.292
31
0
210
0
220
0
230
1
40
0.891007
41
-1.72160902068968
42
-1.30900918493174
0
ELLIPSE
5
F1
100
AcDbEntity
8
1
62
256
6
ByLayer
370
18
48
1
60
0
100
AcDbEllipse
10
8.82065
20
-0.481462
30
0
11
8.03616992828965E-16
21
0.686
31
0
210
0
220
0
230
1
40
0.891007
41
0.264602181416459
42
1.04859282503727
0
ELLIPSE
5
F2
100
AcDbEntity
8
1
62
256
6
ByLayer
370
18
48
1
60
0
100
AcDbEllipse
10
8.82065
20
-0.481462
30
0
11
8.03616992828965E-16
21
0.686
31
0
210
0
220
0
230
1
40
0.891007
41
1.04859282503727
42
1.83258346865807
0
ELLIPSE
5
F3
100
AcDbEntity
8
1
62
256
6
ByLayer
370
18
48
1
60
0
100
AcDbEllipse
10
8.592756
20
0.4625
30
0
11
3.42064375956352E-16
21
0.292
31
0
210
0
220
0
230
1
40
0.891007
41
-2.87699047217329
42
-0.264602181416452
0
ELLIPSE
5
F4
100
AcDbEntity
8
1
62
256
6
ByLayer
370
18
48
1
60
0
100
AcDbEllipse
10
8.82065
20
1.406462
30
0
11
8.03616992828965E-16
21
0.686
31
0
210
0
220
0
230
1
40
0.891007
41
1.30900918493172
42
2.09299982855252
0
ELLIPSE
5
F5
100
AcDbEntity
8
1
62
256
6
ByLayer
370
18
48
1
60
0
100
AcDbEllipse
10
8.82065
20
1.406462
30
0
11
8.03616992828965E-16
21
0.686
31
0
210
0
220
0
230
1
40
0.891007
41
2.09299982855252
42
2.87699047217332
0
ELLIPSE
5
F6
100
AcDbEntity
8
1
62
256
6
ByLayer
370
18
48
1
60
0
100
AcDbEllipse
10
8.007749
20
0.4625
30
0
11
-1.29321039825121E-15
21
-1.2065
31
0
210
0
220
0
230
1
40
0.891007
41
-0.0690326334119065
42
0.0690326334119191
0
ELLIPSE
5
F7
100
AcDbEntity
8
1
62
256
6
ByLayer
370
18
48
1
60
0
100
AcDbEllipse
10
8.007749
20
0.4625
30
0
11
-1.29321039825121E-15
21
-1.2065
31
0
210
0
220
0
230
1
40
0.891007
41
3.07256002017789
42
-3.0725600201779
0
ELLIPSE
5
F8
100
AcDbEntity
8
1
62
256
6
ByLayer
370
18
48
1
60
0
100
AcDbEllipse
10
8.130941
20
0.4625
30
0
11
-1.79698900345474E-15
21
-1.6765
31
0
210
0
220
0
230
1
40
0.891007
41
0.526389323279636
42
1.5707963267949
0
ELLIPSE
5
F9
100
AcDbEntity
8
1
62
256
6
ByLayer
370
18
48
1
60
0
100
AcDbEllipse
10
8.130941
20
0.4625
30
0
11
-1.79698900345474E-15
21
-1.6765
31
0
210
0
220
0
230
1
40
0.891007
41
-0.526389323279647
42
0.526389323279636
0
ELLIPSE
5
FA
100
AcDbEntity
8
1
62
256
6
ByLayer
370
18
48
1
60
0
100
AcDbEllipse
10
8.130941
20
0.4625
30
0
11
-1.79698900345474E-15
21
-1.6765
31
0
210
0
220
0
230
1
40
0.891007
41
-1.5707963267949
42
-0.526389323279647
0
ELLIPSE
5
FB
100
AcDbEntity
8
1
62
256
6
ByLayer
370
18
48
1
60
0
100
AcDbEllipse
10
8.130941
20
0.4625
30
0
11
-1.79698900345474E-15
21
-1.6765
31
0
210
0
220
0
230
1
40
0.891007
41
-2.61520333031015
42
-1.5707963267949
0
ELLIPSE
5
FC
100
AcDbEntity
8
1
62
256
6
ByLayer
370
18
48
1
60
0
100
AcDbEllipse
10
8.130941
20
0.4625
30
0
11
-1.79698900345474E-15
21
-1.6765
31
0
210
0
220
0
230
1
40
0.891007
41
2.61520333031016
42
-2.61520333031015
0
ELLIPSE
5
FD
100
AcDbEntity
8
1
62
256
6
ByLayer
370
18
48
1
60
0
100
AcDbEllipse
10
8.130941
20
0.4625
30
0
11
-1.79698900345474E-15
21
-1.6765
31
0
210
0
220
0
230
1
40
0.891007
41
1.5707963267949
42
2.61520333031016
0
ELLIPSE
5
FE
100
AcDbEntity
8
1
62
256
6
ByLayer
370
18
48
1
60
0
100
AcDbEllipse
10
7.359157
20
0.4625
30
0
11
-1.29321039825121E-15
21
-1.2065
31
0
210
0
220
0
230
1
40
0.891007
41
0.0690326334118134
42
1.04859282503727
0
ELLIPSE
5
FF
100
AcDbEntity
8
1
62
256
6
ByLayer
370
18
48
1
60
0
100
AcDbEllipse
10
7.359157
20
0.4625
30
0
11
-1.29321039825118E-15
21
-1.20649999999998
31
0
210
0
220
0
230
1
40
0.891007
41
2.09299982855252
42
3.072560020178
0
ELLIPSE
5
100
100
AcDbEntity
8
1
62
256
6
ByLayer
370
18
48
1
60
0
100
AcDbEllipse
10
7.359157
20
0.4625
30
0
11
-1.29321039825118E-15
21
-1.20649999999998
31
0
210
0
220
0
230
1
40
0.891007
41
1.04859282503727
42
2.09299982855252
0
ELLIPSE
5
101
100
AcDbEntity
8
1
62
256
6
ByLayer
370
18
48
1
60
0
100
AcDbEllipse
10
7.359157
20
0.4625
30
0
11
-1.29321039825118E-15
21
-1.20649999999998
31
0
210
0
220
0
230
1
40
0.891007
41
-3.07256002017801
42
-3.01158279322003
0
ELLIPSE
5
102
100
AcDbEntity
8
1
62
256
6
ByLayer
370
18
48
1
60
0
100
AcDbEllipse
10
7.359157
20
0.4625
30
0
11
-1.29321039825118E-15
21
-1.20649999999998
31
0
210
0
220
0
230
1
40
0.891007
41
-0.133239857060865
42
-0.069032633411815
0
ELLIPSE
5
103
100
AcDbEntity
8
1
62
256
6
ByLayer
370
18
48
1
60
0
100
AcDbEllipse
10
7.978935
20
1.659576
30
0
11
3.42064375956352E-16
21
0.292
31
0
210
0
220
0
230
1
40
0.891007
41
-1.83258346865807
42
-1.39796909666808
0
ELLIPSE
5
104
100
AcDbEntity
8
1
62
256
6
ByLayer
370
18
48
1
60
0
100
AcDbEllipse
10
7.359157
20
2.34706
30
0
11
8.03616992828965E-16
21
0.686
31
0
210
0
220
0
230
1
40
0.891007
41
2.9166542427939
42
3.01997861237307
0
POINT
5
6C
100
AcDbEntity
8
81
62
256
6
ByLayer
370
18
48
1
60
0
100
AcDbPoint
10
21.6
20
-5.075
30
0
39
0
210
0
220
0
230
1
50
360
0
POINT
5
6E
100
AcDbEntity
8
80
62
256
6
ByLayer
370
18
48
1
60
0
100
AcDbPoint
10
0
20
0
30
0
39
0
210
0
220
0
230
1
50
360
0
POINT
5
70
100
AcDbEntity
8
2
62
256
6
ByLayer
370
18
48
1
60
0
100
AcDbPoint
10
21.6
20
4.5
30
0
39
0
210
0
220
0
230
1
50
360
0
POINT
5
72
100
AcDbEntity
8
4
62
256
6
ByLayer
370
13
48
1
60
0
100
AcDbPoint
10
5.494159
20
-0.4625
30
0
39
0
210
0
220
0
230
1
50
360
0
SPLINE
5
105
100
AcDbEntity
8
1
62
256
6
ByLayer
370
18
48
1
60
0
100
AcDbSpline
70
4
71
3
72
41
73
37
40
0
40
0
40
0
40
0
40
0.0252968302733816
40
0.0554517927040088
40
0.0856271401882115
40
0.115827642265977
40
0.146056350499716
40
0.176314620326294
40
0.206602292733473
40
0.236917985160892
40
0.267259434846569
40
0.297623842797109
40
0.328008178922382
40
0.358409424157253
40
0.388824739773694
40
0.419251565206628
40
0.449687652772095
40
0.480131051011593
40
0.510580049040797
40
0.541033093360248
40
0.571488304784775
40
0.60194399432739
40
0.632398385297934
40
0.662849405038617
40
0.693294607199918
40
0.723731126308358
40
0.754155678224768
40
0.784564620926524
40
0.814954088552546
40
0.845320206587033
40
0.875659386467417
40
0.905968683797527
40
0.936246187345389
40
0.966491389617329
40
0.996705478966815
40
1
40
1
40
1
40
1
41
1
10
8.60687380663398
20
-2.46907865705759
30
0
41
1
10
8.66752885719427
20
-2.45522308043366
30
0
41
1
10
8.79901654990499
20
-2.41956755276826
30
0
41
1
10
8.99745305376271
20
-2.3454595036811
30
0
41
1
10
9.20073173780418
20
-2.24900156801689
30
0
41
1
10
9.39622599628882
20
-2.13415023307974
30
0
41
1
10
9.58264583691943
20
-2.00189147328581
30
0
41
1
10
9.75873731582809
20
-1.85303317614992
30
0
41
1
10
9.92331441518479
20
-1.68857676106532
30
0
41
1
10
10.0752627880663
20
-1.50961143352382
30
0
41
1
10
10.2135508348207
20
-1.31733432273828
30
0
41
1
10
10.3372379791638
20
-1.11303483454949
30
0
41
1
10
10.4454824084851
20
-0.898086989786776
30
0
41
1
10
10.5375474192067
20
-0.673938475520146
30
0
41
1
10
10.612806534353
20
-0.442099889617367
30
0
41
1
10
10.67074742527
20
-0.20413362061106
30
0
41
1
10
10.7109747875405
20
0.0383572179437692
30
0
41
1
10
10.7332123198117
20
0.283739745075195
30
0
41
1
10
10.7373039488329
20
0.530362094014635
30
0
41
1
10
10.72321447792
20
0.776562985946867
30
0
41
1
10
10.6910299637524
20
1.02068286688862
30
0
41
1
10
10.6409573757175
20
1.26107455673272
30
0
41
1
10
10.5733233786642
20
1.4961144928109
30
0
41
1
10
10.4885729844875
20
1.72421227627638
30
0
41
1
10
10.3872678143419
20
1.94382081213652
30
0
41
1
10
10.2700836976375
20
2.15344674398276
30
0
41
1
10
10.1378076289163
20
2.3516615385573
30
0
41
1
10
9.99133346411631
20
2.53711086102498
30
0
41
1
10
9.83165777628707
20
2.70853084810054
30
0
41
1
10
9.65986956897117
20
2.86473860971017
30
0
41
1
10
9.47715637896491
20
3.00471766888589
30
0
41
1
10
9.28474212303917
20
3.1273468027849
30
0
41
1
10
9.08407207136275
20
3.23245297201373
30
0
41
1
10
8.8760705078553
20
3.31692320036572
30
0
41
1
10
8.72680827737173
20
3.36777120787616
30
0
41
1
10
8.64645486076097
20
3.38502428308217
30
0
41
1
10
8.63854079374511
20
3.3866610801428
30
0
0
SPLINE
5
106
100
AcDbEntity
8
1
62
256
6
ByLayer
370
18
48
1
60
0
100
AcDbSpline
70
4
71
3
72
18
73
14
40
0
40
0
40
0
40
0
40
0.0820564505266979
40
0.0820564505266979
40
0.298481215595216
40
0.298481215595216
40
0.515813717150601
40
0.515813717150601
40
0.720229499509327
40
0.720229499509327
40
0.932405332257635
40
0.932405332257635
40
1
40
1
40
1
40
1
41
1
10
11.4359613344512
20
-3.98759385651019
30
0
41
1
10
11.4113307835716
20
-3.98340676693724
30
0
41
1
10
11.3859585623375
20
-3.9779895420202
30
0
41
1
10
11.2924409940724
20
-3.95318626126621
30
0
41
1
10
11.2202855860285
20
-3.9246277534383
30
0
41
1
10
11.0831846277323
20
-3.84369787097131
30
0
41
1
10
11.0165706914755
20
-3.79000377634148
30
0
41
1
10
10.9075451762615
20
-3.66744034726324
30
0
41
1
10
10.8624994585622
20
-3.598162567321
30
0
41
1
10
10.7951775489806
20
-3.44795384945303
30
0
41
1
10
10.7728604313037
20
-3.36471025527072
30
0
41
1
10
10.7615119053536
20
-3.25419960380987
30
0
41
1
10
10.7601232977421
20
-3.22708188493621
30
0
41
1
10
10.7601232977421
20
-3.19999999999993
30
0
0
SPLINE
5
107
100
AcDbEntity
8
1
62
256
6
ByLayer
370
18
48
1
60
0
100
AcDbSpline
70
4
71
3
72
8
73
4
40
0
40
0
40
0
40
0
40
1
40
1
40
1
40
1
41
1
10
10.6949378761606
20
1.39505487310103
30
0
41
1
10
10.697348614399
20
1.24168709627554
30
0
41
1
10
10.6991474866377
20
1.0847402583164
30
0
41
1
10
10.7003333423303
20
0.926011228868276
30
0
0
SPLINE
5
108
100
AcDbEntity
8
1
62
256
6
ByLayer
370
18
48
1
60
0
100
AcDbSpline
70
4
71
3
72
8
73
4
40
0
40
0
40
0
40
0
40
1
40
1
40
1
40
1
41
1
10
10.7002937523004
20
-0.0063080818016488
30
0
41
1
10
10.6991083339354
20
-0.163132142881125
30
0
41
1
10
10.6973234107747
20
-0.318290515413139
30
0
41
1
10
10.6949378761606
20
-0.470054873102384
30
0
0
SPLINE
5
109
100
AcDbEntity
8
1
62
256
6
ByLayer
370
18
48
1
60
0
100
AcDbSpline
70
4
71
3
72
8
73
4
40
0
40
0
40
0
40
0
40
1
40
1
40
1
40
1
41
1
10
19.1731995121746
20
-5.11507405205518
30
0
41
1
10
19.1595886375341
20
-5.11438507565384
30
0
41
1
10
19.146058675874
20
-5.1123116520869
30
0
41
1
10
19.1328867820106
20
-5.10889856670838
30
0
0
SPLINE
5
10A
100
AcDbEntity
8
1
62
256
6
ByLayer
370
18
48
1
60
0
100
AcDbSpline
70
4
71
2
72
6
73
3
40
0
40
0
40
0
40
1
40
1
40
1
41
1
10
19.1731995121745
20
-3.73492594794493
30
0
41
1
10
19.1526674964191
20
-3.73602922009877
30
0
41
1
10
19.1328867820071
20
-3.74110143329193
30
0
0
SPLINE
5
10B
100
AcDbEntity
8
1
62
256
6
ByLayer
370
18
48
1
60
0
100
AcDbSpline
70
4
71
8
72
18
73
9
40
0
40
0
40
0
40
0
40
0
40
0
40
0
40
0
40
0
40
1
40
1
40
1
40
1
40
1
40
1
40
1
40
1
40
1
41
1
10
17.5042151955661
20
-3.80999999999992
30
0
41
1
10
17.5095978294288
20
-3.80999999999992
30
0
41
1
10
17.5149839386574
20
-3.80999999999992
30
0
41
1
10
17.5203725700798
20
-3.80999999999992
30
0
41
1
10
17.5257627697025
20
-3.80999999999992
30
0
41
1
10
17.5311535829896
20
-3.80999999999992
30
0
41
1
10
17.5365440552538
20
-3.80999999999992
30
0
41
1
10
17.5419332320356
20
-3.80999999999992
30
0
41
1
10
17.5473201594157
20
-3.80999999999992
30
0
0
SPLINE
5
10C
100
AcDbEntity
8
1
62
256
6
ByLayer
370
18
48
1
60
0
100
AcDbSpline
70
4
71
5
72
12
73
6
40
0
40
0
40
0
40
0
40
0
40
0
40
1
40
1
40
1
40
1
40
1
40
1
41
1
10
17.5042151955661
20
-3.95999999999992
30
0
41
1
10
17.5129073314962
20
-3.95999999421193
30
0
41
1
10
17.5216086784979
20
-3.96052037946893
30
0
41
1
10
17.5302725796263
20
-3.96156100863092
30
0
41
1
10
17.5388553500442
20
-3.96310102617693
30
0
41
1
10
17.5473201594157
20
-3.96510535304091
30
0
0
SPLINE
5
10D
100
AcDbEntity
8
1
62
256
6
ByLayer
370
18
48
1
60
0
100
AcDbSpline
70
4
71
8
72
18
73
9
40
0
40
0
40
0
40
0
40
0
40
0
40
0
40
0
40
0
40
1
40
1
40
1
40
1
40
1
40
1
40
1
40
1
40
1
41
1
10
11.6516376526745
20
-3.80999999999992
30
0
41
1
10
11.6462550188094
20
-3.80999999999992
30
0
41
1
10
11.64087586035
20
-3.80999999999992
30
0
41
1
10
11.6355011304682
20
-3.80999999999992
30
0
41
1
10
11.6301317814344
20
-3.80999999999992
30
0
41
1
10
11.6247687643377
20
-3.80999999999992
30
0
41
1
10
11.6194130286972
20
-3.80999999999992
30
0
41
1
10
11.6140655220835
20
-3.80999999999992
30
0
41
1
10
11.6087271898108
20
-3.80999999999992
30
0
0
SPLINE
5
10E
100
AcDbEntity
8
1
62
256
6
ByLayer
370
18
48
1
60
0
100
AcDbSpline
70
4
71
2
72
9
73
6
40
0
40
0
40
0
40
0.25
40
0.5
40
0.75
40
1
40
1
40
1
41
1
10
7.61918651343592
20
-5.0026970371799
30
0
41
1
10
7.6192956032192
20
-5.04396357506945
30
0
41
1
10
7.65164485492016
20
-5.11952562113908
30
0
41
1
10
7.71121397949844
20
-5.17603882269853
30
0
41
1
10
7.78835141847927
20
-5.20469443568246
30
0
41
1
10
7.83052544895355
20
-5.20235866884292
30
0
0
SPLINE
5
10F
100
AcDbEntity
8
1
62
256
6
ByLayer
370
18
48
1
60
0
100
AcDbSpline
70
4
71
3
72
8
73
4
40
0
40
0
40
0
40
0
40
1
40
1
40
1
40
1
41
1
10
10.3277393511818
20
-5.03999999999991
30
0
41
1
10
10.3098716773459
20
-5.03999999999991
30
0
41
1
10
10.2920053640929
20
-5.04229759030099
30
0
41
1
10
10.2747315817619
20
-5.04681483480817
30
0
0
SPLINE
5
110
100
AcDbEntity
8
1
62
256
6
ByLayer
370
18
48
1
60
0
100
AcDbSpline
70
4
71
5
72
12
73
6
40
0
40
0
40
0
40
0
40
0
40
0
40
1
40
1
40
1
40
1
40
1
40
1
41
1
10
17.5042151955661
20
-4.88999999999993
30
0
41
1
10
17.5129073314962
20
-4.89000000578793
30
0
41
1
10
17.5216086784979
20
-4.88947962053092
30
0
41
1
10
17.5302725796263
20
-4.88843899136893
30
0
41
1
10
17.5388553500442
20
-4.88689897382292
30
0
41
1
10
17.5473201594157
20
-4.88489464695891
30
0
0
SPLINE
5
111
100
AcDbEntity
8
1
62
256
6
ByLayer
370
18
48
1
60
0
100
AcDbSpline
70
4
71
2
72
9
73
6
40
0
40
0
40
0
40
0.25
40
0.5
40
0.75
40
1
40
1
40
1
41
1
10
21.6
20
-3.84730296281992
30
0
41
1
10
21.5998909102167
20
-3.8060364249304
30
0
41
1
10
21.5675416585157
20
-3.73047437886075
30
0
41
1
10
21.5079725339375
20
-3.67396117730129
30
0
41
1
10
21.4308350949566
20
-3.64530556431737
30
0
41
1
10
21.3886610644823
20
-3.64764133115693
30
0
0
SPLINE
5
112
100
AcDbEntity
8
1
62
256
6
ByLayer
370
18
48
1
60
0
100
AcDbSpline
70
4
71
2
72
6
73
3
40
0
40
0
40
0
40
1
40
1
40
1
41
1
10
9.99751478412912
20
-5.11507405205492
30
0
41
1
10
10.0178615819666
20
-5.11397077990105
30
0
41
1
10
10.037463855899
20
-5.10889856670792
30
0
0
SPLINE
5
113
100
AcDbEntity
8
1
62
256
6
ByLayer
370
18
48
1
60
0
100
AcDbSpline
70
4
71
8
72
18
73
9
40
0
40
0
40
0
40
0
40
0
40
0
40
0
40
0
40
0
40
1
40
1
40
1
40
1
40
1
40
1
40
1
40
1
40
1
41
1
10
11.6516376526745
20
-5.03999999999991
30
0
41
1
10
11.6462550188094
20
-5.03999999999991
30
0
41
1
10
11.64087586035
20
-5.03999999999991
30
0
41
1
10
11.6355011304682
20
-5.03999999999991
30
0
41
1
10
11.6301317814344
20
-5.03999999999991
30
0
41
1
10
11.6247687643377
20
-5.03999999999991
30
0
41
1
10
11.6194130286972
20
-5.03999999999991
30
0
41
1
10
11.6140655220835
20
-5.03999999999991
30
0
41
1
10
11.6087271898108
20
-5.03999999999991
30
0
0
SPLINE
5
114
100
AcDbEntity
8
1
62
256
6
ByLayer
370
18
48
1
60
0
100
AcDbSpline
70
4
71
2
72
6
73
3
40
0
40
0
40
0
40
1
40
1
40
1
41
1
10
18.8399688943771
20
-5.03999999999994
30
0
41
1
10
18.8672220174479
20
-5.0400814807594
30
0
41
1
10
18.8934591961736
20
-5.04681483480991
30
0
0
SPLINE
5
115
100
AcDbEntity
8
1
62
256
6
ByLayer
370
18
48
1
60
0
100
AcDbSpline
70
4
71
8
72
18
73
9
40
0
40
0
40
0
40
0
40
0
40
0
40
0
40
0
40
0
40
1
40
1
40
1
40
1
40
1
40
1
40
1
40
1
40
1
41
1
10
17.5042151955661
20
-5.03999999999991
30
0
41
1
10
17.5095978294288
20
-5.03999999999991
30
0
41
1
10
17.5149839386574
20
-5.03999999999991
30
0
41
1
10
17.5203725700798
20
-5.03999999999991
30
0
41
1
10
17.5257627697025
20
-5.03999999999991
30
0
41
1
10
17.5311535829896
20
-5.03999999999991
30
0
41
1
10
17.5365440552538
20
-5.03999999999991
30
0
41
1
10
17.5419332320356
20
-5.03999999999991
30
0
41
1
10
17.5473201594157
20
-5.03999999999991
30
0
0
SPLINE
5
116
100
AcDbEntity
8
1
62
256
6
ByLayer
370
18
48
1
60
0
100
AcDbSpline
70
4
71
5
72
12
73
6
40
0
40
0
40
0
40
0
40
0
40
0
40
1
40
1
40
1
40
1
40
1
40
1
41
1
10
11.6516376526745
20
-3.95999999999992
30
0
41
1
10
11.6429455165209
20
-3.95999999421193
30
0
41
1
10
11.6342639948728
20
-3.9605203794689
30
0
41
1
10
11.6256397390742
20
-3.96156100863092
30
0
41
1
10
11.6171156394168
20
-3.9631010261769
30
0
41
1
10
11.6087271898108
20
-3.96510535304091
30
0
0
SPLINE
5
117
100
AcDbEntity
8
1
62
256
6
ByLayer
370
18
48
1
60
0
100
AcDbSpline
70
4
71
11
72
24
73
12
40
0
40
0
40
0
40
0
40
0
40
0
40
0
40
0
40
0
40
0
40
0
40
0
40
1
40
1
40
1
40
1
40
1
40
1
40
1
40
1
40
1
40
1
40
1
40
1
41
1
10
21.5999999999961
20
-5.00269703718118
30
0
41
1
10
21.5999999999961
20
-5.03231474589319
30
0
41
1
10
21.5951819640784
20
-5.06193245241818
30
0
41
1
10
21.5855458934813
20
-5.09067691795218
30
0
41
1
10
21.5712693544425
20
-5.1176748811852
30
0
41
1
10
21.5527074863479
20
-5.14209448549019
30
0
41
1
10
21.5303817736604
20
-5.1631866153042
30
0
41
1
10
21.50495761701
20
-5.18032263691018
30
0
41
1
10
21.4772121568911
20
-5.19302478862119
30
0
41
1
10
21.4479953656577
20
-5.2009864169292
30
0
41
1
10
21.4181881431402
20
-5.20408078540919
30
0
41
1
10
21.3886610644784
20
-5.2023586688442
30
0
0
SPLINE
5
118
100
AcDbEntity
8
1
62
256
6
ByLayer
370
18
48
1
60
0
100
AcDbSpline
70
4
71
3
72
8
73
4
40
0
40
0
40
0
40
0
40
1
40
1
40
1
40
1
41
1
10
18.8399688943792
20
-3.80999999999992
30
0
41
1
10
18.8579974123401
20
-3.80999999999992
30
0
41
1
10
18.8760245697179
20
-3.80770240969883
30
0
41
1
10
18.8934591961741
20
-3.80318516519165
30
0
0
SPLINE
5
119
100
AcDbEntity
8
1
62
256
6
ByLayer
370
18
48
1
60
0
100
AcDbSpline
70
4
71
3
72
12
73
8
40
0
40
0
40
0
40
0
40
0.35866561941238
40
0.35866561941238
40
0.719579341708923
40
0.719579341708923
40
1
40
1
40
1
40
1
41
1
10
12.0308736732956
20
-3.20000000000144
30
0
41
1
10
12.016562838392
20
-3.27924088931951
30
0
41
1
10
12.0151588654025
20
-3.36152698631241
30
0
41
1
10
12.041669641922
20
-3.51975819236182
30
0
41
1
10
12.070287349336
20
-3.59788064360379
30
0
41
1
10
12.1453918878093
20
-3.72096680134646
30
0
41
1
10
12.1872711697782
20
-3.77069894760578
30
0
41
1
10
12.235405322886
20
-3.81340382806445
30
0
0
SPLINE
5
11A
100
AcDbEntity
8
1
62
256
6
ByLayer
370
18
48
1
60
0
100
AcDbSpline
70
4
71
3
72
14
73
10
40
0
40
0
40
0
40
0
40
0.220594292501042
40
0.220594292501042
40
0.570204110379324
40
0.570204110379324
40
0.923121921702772
40
0.923121921702772
40
1
40
1
40
1
40
1
41
1
10
17.3937373055705
20
-3.81108874300179
30
0
41
1
10
17.3536939773661
20
-3.78107226663261
30
0
41
1
10
17.3158495764778
20
-3.74734661605584
30
0
41
1
10
17.2264681202272
20
-3.65096248295069
30
0
41
1
10
17.1787505317335
20
-3.5814082070761
30
0
41
1
10
17.1086555328487
20
-3.42885706519851
30
0
41
1
10
17.0856521324571
20
-3.34323872782198
30
0
41
1
10
17.0772847038892
20
-3.23829914772739
30
0
41
1
10
17.0765208475206
20
-3.21913993225576
30
0
41
1
10
17.0765208475206
20
-3.20000000000147
30
0
0
SPLINE
5
11B
100
AcDbEntity
8
1
62
256
6
ByLayer
370
18
48
1
60
0
100
AcDbSpline
70
4
71
3
72
12
73
8
40
0
40
0
40
0
40
0
40
0.495447747571075
40
0.495447747571075
40
0.900382671304227
40
0.900382671304227
40
1
40
1
40
1
40
1
41
1
10
7.64596020340326
20
-0.939836787650421
30
0
41
1
10
7.67375632983303
20
-0.889108012956967
30
0
41
1
10
7.71110495253871
20
-0.844623351453436
30
0
41
1
10
7.79644286138316
20
-0.782609901029389
30
0
41
1
10
7.84235901166875
20
-0.761085015260562
30
0
41
1
10
7.90687295131235
20
-0.745624204665546
30
0
41
1
10
7.92007255596721
20
-0.743091927723611
30
0
41
1
10
7.93359756299481
20
-0.741126350896252
30
0
0
SPLINE
5
11C
100
AcDbEntity
8
1
62
256
6
ByLayer
370
18
48
1
60
0
100
AcDbSpline
70
4
71
3
72
16
73
12
40
0
40
0
40
0
40
0
40
0.0762647947696553
40
0.0762647947696553
40
0.388591267886662
40
0.388591267886662
40
0.668410626283079
40
0.668410626283079
40
0.91493409756065
40
0.91493409756065
40
1
40
1
40
1
40
1
41
1
10
7.64596020340508
20
-0.9398367876517
30
0
41
1
10
7.64239840718986
20
-0.946337173889418
30
0
41
1
10
7.63850088563947
20
-0.95257012385423
30
0
41
1
10
7.61718950442491
20
-0.982490746326278
30
0
41
1
10
7.59426221675025
20
-1.00176157504203
30
0
41
1
10
7.54346068563029
20
-1.02383884852216
30
0
41
1
10
7.51552217884722
20
-1.02841864150392
30
0
41
1
10
7.46088670922893
20
-1.02361169392279
30
0
41
1
10
7.43362989266282
20
-1.01570222216759
30
0
41
1
10
7.39835765210105
20
-0.998032348207602
30
0
41
1
10
7.38931422812351
20
-0.992829066972604
30
0
41
1
10
7.38044781181191
20
-0.987046762837224
30
0
0
SPLINE
5
11D
100
AcDbEntity
8
1
62
256
6
ByLayer
370
18
48
1
60
0
100
AcDbSpline
70
4
71
3
72
16
73
12
40
0
40
0
40
0
40
0
40
0.14231907794741
40
0.14231907794741
40
0.36474822979188
40
0.36474822979188
40
0.594359598464842
40
0.594359598464842
40
0.841957615948619
40
0.841957615948619
40
1
40
1
40
1
40
1
41
1
10
7.38044781181191
20
-0.987046762837224
30
0
41
1
10
7.36586465955187
20
-0.977536243743998
30
0
41
1
10
7.35163108798264
20
-0.966358855000124
30
0
41
1
10
7.31728653890954
20
-0.934484072943263
30
0
41
1
10
7.29795163394198
20
-0.911504433062447
30
0
41
1
10
7.26459500920885
20
-0.861549564506902
30
0
41
1
10
7.25032626033249
20
-0.833852739547467
30
0
41
1
10
7.22762310254427
20
-0.775909376359834
30
0
41
1
10
7.21942297979228
20
-0.744916359620788
30
0
41
1
10
7.21195500260706
20
-0.696011057575504
30
0
41
1
10
7.21048465846167
20
-0.677149039245279
30
0
41
1
10
7.21039403444033
20
-0.659004041776171
30
0
0
SPLINE
5
11E
100
AcDbEntity
8
1
62
256
6
ByLayer
370
18
48
1
60
0
100
AcDbSpline
70
4
71
3
72
18
73
14
40
0
40
0
40
0
40
0
40
0.212077939306979
40
0.212077939306979
40
0.386277180669149
40
0.386277180669149
40
0.562162788938248
40
0.562162788938248
40
0.715139313179794
40
0.715139313179794
40
0.917926548134305
40
0.917926548134305
40
1
40
1
40
1
40
1
41
1
10
6.77984103810724
20
0.180662587869307
30
0
41
1
10
6.82408260138516
20
0.162137478151095
30
0
41
1
10
6.86870379916701
20
0.132236662590145
30
0
41
1
10
6.94698165406137
20
0.0571716820676897
30
0
41
1
10
6.98206776768134
20
0.0147051087828345
30
0
41
1
10
7.04764155234528
20
-0.0837470402545364
30
0
41
1
10
7.07906453860826
20
-0.141443708057238
30
0
41
1
10
7.12899940886896
20
-0.253924087445057
30
0
41
1
10
7.14925551711426
20
-0.309413902918322
30
0
41
1
10
7.18609225991125
20
-0.436066399360044
30
0
41
1
10
7.20002983673311
20
-0.508603837731926
30
0
41
1
10
7.20890989020504
20
-0.604790879660698
30
0
41
1
10
7.21026036007464
20
-0.632239382782132
30
0
41
1
10
7.21039403444036
20
-0.659004041776171
30
0
0
SPLINE
5
11F
100
AcDbEntity
8
1
62
256
6
ByLayer
370
18
48
1
60
0
100
AcDbSpline
70
4
71
3
72
14
73
10
40
0
40
0
40
0
40
0
40
0.282570466285547
40
0.282570466285547
40
0.569068632820116
40
0.569068632820116
40
0.828374842927862
40
0.828374842927862
40
1
40
1
40
1
40
1
41
1
10
6.77984103810726
20
0.180662587869307
30
0
41
1
10
6.75900367442875
20
0.18938774176948
30
0
41
1
10
6.73825944860272
20
0.204042342539623
30
0
41
1
10
6.70063982139172
20
0.244342143298411
30
0
41
1
10
6.68326674028424
20
0.270814853497853
30
0
41
1
10
6.65744726586024
20
0.329152888484458
30
0
41
1
10
6.64795850189722
20
0.361182456022533
30
0
41
1
10
6.63901836571586
20
0.416568886479411
30
0
41
1
10
6.63716865788425
20
0.439627473865869
30
0
41
1
10
6.63716865788425
20
0.462499999999665
30
0
0
SPLINE
5
120
100
AcDbEntity
8
1
62
256
6
ByLayer
370
18
48
1
60
0
100
AcDbSpline
70
4
71
3
72
16
73
12
40
0
40
0
40
0
40
0
40
0.0620393275786077
40
0.0620393275786077
40
0.284918893961817
40
0.284918893961817
40
0.51054261754726
40
0.51054261754726
40
0.750580338323974
40
0.750580338323974
40
1
40
1
40
1
40
1
41
1
10
6.63716865788425
20
0.462499999999665
30
0
41
1
10
6.63716865788425
20
0.470800761114845
30
0
41
1
10
6.63740806530632
20
0.479110734974796
30
0
41
1
10
6.639584942049
20
0.516862833713702
30
0
41
1
10
6.64442265640645
20
0.546244980188192
30
0
41
1
10
6.6593715316117
20
0.600523485147249
30
0
41
1
10
6.66972049943919
20
0.62606006429624
30
0
41
1
10
6.69478615117771
20
0.67167347386831
30
0
41
1
10
6.71003473444887
20
0.691888829333379
30
0
41
1
10
6.74314000448391
20
0.724342178745985
30
0
41
1
10
6.76143870501662
20
0.736631869777625
30
0
41
1
10
6.77984103810743
20
0.744337412130136
30
0
0
SPLINE
5
121
100
AcDbEntity
8
1
62
256
6
ByLayer
370
18
48
1
60
0
100
AcDbSpline
70
4
71
3
72
18
73
14
40
0
40
0
40
0
40
0
40
0.212491310234948
40
0.212491310234948
40
0.38661757541832
40
0.38661757541832
40
0.562425340506594
40
0.562425340506594
40
0.715387118727935
40
0.715387118727935
40
0.9182475427247
40
0.9182475427247
40
1
40
1
40
1
40
1
41
1
10
7.21039403444036
20
1.58400404177553
30
0
41
1
10
7.21005164026613
20
1.51544891329851
30
0
41
1
10
7.201564271395
20
1.44168502551125
30
0
41
1
10
7.17151544428464
20
1.30552215337249
30
0
41
1
10
7.15219887516659
20
1.24194876008076
30
0
41
1
10
7.10440277794703
20
1.11940553953085
30
0
41
1
10
7.07510742550249
20
1.05873246432174
30
0
41
1
10
7.01609064749846
20
0.958795746403382
30
0
41
1
10
6.98620798769451
20
0.916531777744865
30
0
41
1
10
6.91569397174462
20
0.833896705691274
30
0
41
1
10
6.87349997358965
20
0.797018098058231
30
0
41
1
10
6.81431791987762
20
0.760450670800566
30
0
41
1
10
6.797079215396
20
0.751555491735644
30
0
41
1
10
6.77984103810743
20
0.744337412130108
30
0
0
SPLINE
5
122
100
AcDbEntity
8
1
62
256
6
ByLayer
370
18
48
1
60
0
100
AcDbSpline
70
4
71
3
72
14
73
10
40
0
40
0
40
0
40
0
40
0.283961749036726
40
0.283961749036726
40
0.570285189259031
40
0.570285189259031
40
0.829451094335685
40
0.829451094335685
40
1
40
1
40
1
40
1
41
1
10
7.21039403444033
20
1.58400404177553
30
0
41
1
10
7.21055577459865
20
1.61638811302819
30
0
41
1
10
7.21519068693652
20
1.65132554195859
30
0
41
1
10
7.23402079537488
20
1.72100421461369
30
0
41
1
10
7.2486380075803
20
1.75681482284162
30
0
41
1
10
7.28492066135652
20
1.81940846986998
30
0
41
1
10
7.30637540155169
20
1.84764373353295
30
0
41
1
10
7.34591243122844
20
1.88677613243144
30
0
41
1
10
7.36293717502485
20
1.90062706135308
30
0
41
1
10
7.38044781181191
20
1.91204676283658
30
0
0
SPLINE
5
123
100
AcDbEntity
8
1
62
256
6
ByLayer
370
18
48
1
60
0
100
AcDbSpline
70
4
71
3
72
16
73
12
40
0
40
0
40
0
40
0
40
0.0624381308002748
40
0.0624381308002748
40
0.283176804509579
40
0.283176804509579
40
0.506689877746574
40
0.506689877746574
40
0.744525276457792
40
0.744525276457792
40
1
40
1
40
1
40
1
41
1
10
7.38044781181191
20
1.91204676283658
30
0
41
1
10
7.38694501966501
20
1.9162839687738
30
0
41
1
10
7.39353439537879
20
1.92020925194532
30
0
41
1
10
7.42347463432978
20
1.93639408653564
30
0
41
1
10
7.44776676060644
20
1.9449155886283
30
0
41
1
10
7.49466223456926
20
1.95288000158112
30
0
41
1
10
7.51783736757091
20
1.9523323211788
30
0
41
1
10
7.56136262481303
20
1.9426814267178
30
0
41
1
10
7.5819894602036
20
1.93294293260345
30
0
41
1
10
7.61837173871393
20
1.90526136963413
30
0
41
1
10
7.63411067302121
20
1.88646254037809
30
0
41
1
10
7.64596020340326
20
1.86483678764975
30
0
0
SPLINE
5
124
100
AcDbEntity
8
1
62
256
6
ByLayer
370
18
48
1
60
0
100
AcDbSpline
70
4
71
3
72
12
73
8
40
0
40
0
40
0
40
0
40
0.322038032637096
40
0.322038032637096
40
0.791348107785197
40
0.791348107785197
40
1
40
1
40
1
40
1
41
1
10
7.93359756299481
20
1.66612635089561
30
0
41
1
10
7.8901355314116
20
1.67244264795747
30
0
41
1
10
7.8499053882291
20
1.68475949397535
30
0
41
1
10
7.76299813373058
20
1.72662133220771
30
0
41
1
10
7.72013828483057
20
1.76201701990536
30
0
41
1
10
7.67124937074928
20
1.8229189596845
30
0
41
1
10
7.65777193961466
20
1.84328001043045
30
0
41
1
10
7.64596020340326
20
1.86483678764975
30
0
0
SPLINE
5
125
100
AcDbEntity
8
1
62
256
6
ByLayer
370
18
48
1
60
0
100
AcDbSpline
70
4
71
3
72
12
73
8
40
0
40
0
40
0
40
0
40
0.322038032642815
40
0.322038032642815
40
0.791348107792556
40
0.791348107792556
40
1
40
1
40
1
40
1
41
1
10
8.0818997833772
20
-0.741126350896252
30
0
41
1
10
8.13053384739572
20
-0.747442647958252
30
0
41
1
10
8.18080784822811
20
-0.759759493976446
30
0
41
1
10
8.30051082610453
20
-0.801621332209635
30
0
41
1
10
8.37014622140865
20
-0.837017019907648
30
0
41
1
10
8.46184302238646
20
-0.897918959686592
30
0
41
1
10
8.48926904992072
20
-0.918280010431857
30
0
41
1
10
8.51542393151209
20
-0.939836787650421
30
0
0
SPLINE
5
126
100
AcDbEntity
8
1
62
256
6
ByLayer
370
18
48
1
60
0
100
AcDbSpline
70
4
71
3
72
16
73
12
40
0
40
0
40
0
40
0
40
0.0624381308124597
40
0.0624381308124597
40
0.283176804521573
40
0.283176804521573
40
0.506689877759059
40
0.506689877759059
40
0.744525276471297
40
0.744525276471297
40
1
40
1
40
1
40
1
41
1
10
8.88143437956018
20
-0.987046762837224
30
0
41
1
10
8.87493717170585
20
-0.991283968775264
30
0
41
1
10
8.86818922873883
20
-0.9952092519475
30
0
41
1
10
8.83682370464874
20
-1.01139408653793
30
0
41
1
10
8.80941208325555
20
-1.01991558863008
30
0
41
1
10
8.752752151463
20
-1.02788000158196
30
0
41
1
10
8.72276962478836
20
-1.02733232117913
30
0
41
1
10
8.66238421180555
20
-1.01768142671716
30
0
41
1
10
8.631319822758
20
-1.00794293260231
30
0
41
1
10
8.57117020331052
20
-0.980261369632785
30
0
41
1
10
8.54166250122825
20
-0.961462540377596
30
0
41
1
10
8.51542393151209
20
-0.939836787650421
30
0
0
SPLINE
5
127
100
AcDbEntity
8
1
62
256
6
ByLayer
370
18
48
1
60
0
100
AcDbSpline
70
4
71
3
72
14
73
10
40
0
40
0
40
0
40
0
40
0.283961749053863
40
0.283961749053863
40
0.570285189274033
40
0.570285189274033
40
0.82945109434896
40
0.82945109434896
40
1
40
1
40
1
40
1
41
1
10
8.95256923257071
20
-0.659004041776171
30
0
41
1
10
8.96819325170782
20
-0.691388113030825
30
0
41
1
10
8.97858857717938
20
-0.72632554196349
30
0
41
1
10
8.9861073679146
20
-0.796004214620467
30
0
41
1
10
8.98317647797739
20
-0.831814822848003
30
0
41
1
10
8.96395935754609
20
-0.894408469875401
30
0
41
1
10
8.94862115451807
20
-0.922643733537853
30
0
41
1
10
8.91480056698299
20
-0.961776132434238
30
0
41
1
10
8.89894501634589
20
-0.975627061354629
30
0
41
1
10
8.88143437956018
20
-0.987046762837224
30
0
0
SPLINE
5
128
100
AcDbEntity
8
1
62
256
6
ByLayer
370
18
48
1
60
0
100
AcDbSpline
70
4
71
3
72
18
73
14
40
0
40
0
40
0
40
0
40
0.21249131023758
40
0.21249131023758
40
0.386617575420427
40
0.386617575420427
40
0.562425340508143
40
0.562425340508143
40
0.715387118729346
40
0.715387118729346
40
0.918247542726533
40
0.918247542726533
40
1
40
1
40
1
40
1
41
1
10
8.95256923257071
20
-0.659004041776171
30
0
41
1
10
8.91949412503206
20
-0.590448913298303
30
0
41
1
10
8.89642103810047
20
-0.516685025510014
30
0
41
1
10
8.88039646069069
20
-0.380522153370379
30
0
41
1
10
8.88281111050173
20
-0.316948760078816
30
0
41
1
10
8.91106208542314
20
-0.194405539529328
30
0
41
1
10
8.93784150992184
20
-0.133732464320531
30
0
41
1
10
9.0071395936495
20
-0.0337957464025749
30
0
41
1
10
9.04785256143063
20
0.0084682222557717
30
0
41
1
10
9.15284377789644
20
0.0911032943091641
30
0
41
1
10
9.22200354294037
20
0.127981901942064
30
0
41
1
10
9.3229944253583
20
0.164549329199275
30
0
41
1
10
9.35288872601251
20
0.173444508263941
30
0
41
1
10
9.38312222890391
20
0.180662587869307
30
0
0
SPLINE
5
129
100
AcDbEntity
8
1
62
256
6
ByLayer
370
18
48
1
60
0
100
AcDbSpline
70
4
71
3
72
16
73
12
40
0
40
0
40
0
40
0
40
0.0620393276245618
40
0.0620393276245618
40
0.284918894007661
40
0.284918894007661
40
0.510542617595597
40
0.510542617595597
40
0.75058033837697
40
0.75058033837697
40
1
40
1
40
1
40
1
41
1
10
9.62471353348786
20
0.462499999999665
30
0
41
1
10
9.62471353348786
20
0.454199238878402
30
0
41
1
10
9.62432052942563
20
0.445889265012369
30
0
41
1
10
9.62074558916223
20
0.408137166267721
30
0
41
1
10
9.61280527803152
20
0.378755019793914
30
0
41
1
10
9.58812355837546
20
0.324476514836334
30
0
41
1
10
9.57098314477651
20
0.298939935688253
30
0
41
1
10
9.52908870250059
20
0.253326526118229
30
0
41
1
10
9.50341873256602
20
0.233111170654439
30
0
41
1
10
9.44696572833232
20
0.200657821248399
30
0
41
1
10
9.41539750843583
20
0.188368130220255
30
0
41
1
10
9.38312222890394
20
0.180662587869307
30
0
0
SPLINE
5
12A
100
AcDbEntity
8
1
62
256
6
ByLayer
370
18
48
1
60
0
100
AcDbSpline
70
4
71
3
72
14
73
10
40
0
40
0
40
0
40
0
40
0.282570466349804
40
0.282570466349804
40
0.569068632876144
40
0.569068632876144
40
0.828374842977278
40
0.828374842977278
40
1
40
1
40
1
40
1
41
1
10
9.3831222289036
20
0.744337412130108
30
0
41
1
10
9.41966823284793
20
0.735612258228002
30
0
41
1
10
9.45537190623313
20
0.720957657453056
30
0
41
1
10
9.51931803978837
20
0.680657856685286
30
0
41
1
10
9.54840490382901
20
0.654185146484309
30
0
41
1
10
9.59134123267683
20
0.595847111495942
30
0
41
1
10
9.60697158168699
20
0.563817543957498
30
0
41
1
10
9.62167963043615
20
0.508431113506674
30
0
41
1
10
9.62471353348786
20
0.485372526126923
30
0
41
1
10
9.62471353348786
20
0.462499999999665
30
0
0
SPLINE
5
12B
100
AcDbEntity
8
1
62
256
6
ByLayer
370
18
48
1
60
0
100
AcDbSpline
70
4
71
3
72
18
73
14
40
0
40
0
40
0
40
0
40
0.212077939306756
40
0.212077939306756
40
0.386277180668976
40
0.386277180668976
40
0.56216278893813
40
0.56216278893813
40
0.715139313179713
40
0.715139313179713
40
0.917926548134281
40
0.917926548134281
40
1
40
1
40
1
40
1
41
1
10
9.3831222289036
20
0.744337412130108
30
0
41
1
10
9.30552832736052
20
0.762862521848319
30
0
41
1
10
9.22940614102708
20
0.792763337409269
30
0
41
1
10
9.10505207765459
20
0.86782831793164
30
0
41
1
10
9.05303182872427
20
0.910294891216523
30
0
41
1
10
8.96784978509601
20
1.00874704025387
30
0
41
1
10
8.93388000818516
20
1.06644370805657
30
0
41
1
10
8.89418577281202
20
1.17892408744441
30
0
41
1
10
8.88474332847855
20
1.23441390291765
30
0
41
1
10
8.88234695550139
20
1.36106639935937
30
0
41
1
10
8.89535125307384
20
1.43360383773125
30
0
41
1
10
8.92830257210585
20
1.52979087966003
30
0
41
1
10
8.93965635509358
20
1.55723938278146
30
0
41
1
10
8.95256923257071
20
1.58400404177553
30
0
0
SPLINE
5
12C
100
AcDbEntity
8
1
62
256
6
ByLayer
370
18
48
1
60
0
100
AcDbSpline
70
4
71
3
72
12
73
8
40
0
40
0
40
0
40
0
40
0.495447747561344
40
0.495447747561344
40
0.900382671296185
40
0.900382671296185
40
1
40
1
40
1
40
1
41
1
10
8.51542393151209
20
1.86483678764978
30
0
41
1
10
8.45387460612332
20
1.81410801295729
30
0
41
1
10
8.38457938280061
20
1.76962335145453
30
0
41
1
10
8.25248901057981
20
1.70760990103034
30
0
41
1
10
8.18935324710398
20
1.68608501526106
30
0
41
1
10
8.11230162245451
20
1.6706242046653
30
0
41
1
10
8.09703428201226
20
1.66809192772314
30
0
41
1
10
8.0818997833772
20
1.66612635089561
30
0
0
SPLINE
5
12D
100
AcDbEntity
8
1
62
256
6
ByLayer
370
18
48
1
60
0
100
AcDbSpline
70
4
71
3
72
16
73
12
40
0
40
0
40
0
40
0
40
0.0762647947695864
40
0.0762647947695864
40
0.38859126788659
40
0.38859126788659
40
0.668410626283027
40
0.668410626283027
40
0.914934097560603
40
0.914934097560603
40
1
40
1
40
1
40
1
41
1
10
8.51542393151058
20
1.86483678765106
30
0
41
1
10
8.52331086333817
20
1.87133717388878
30
0
41
1
10
8.53146781024697
20
1.87757012385356
30
0
41
1
10
8.57385850784073
20
1.90749074632561
30
0
41
1
10
8.61259233512055
20
1.92676157504138
30
0
41
1
10
8.68828357077484
20
1.94883884852152
30
0
41
1
10
8.72621135890932
20
1.95341864150325
30
0
41
1
10
8.79421476391775
20
1.94861169392215
30
0
41
1
10
8.82567996186336
20
1.94070222216695
30
0
41
1
10
8.86322862269378
20
1.92303234820696
30
0
41
1
10
8.87256796324857
20
1.91782906697196
30
0
41
1
10
8.8814343795602
20
1.91204676283658
30
0
0
SPLINE
5
12E
100
AcDbEntity
8
1
62
256
6
ByLayer
370
18
48
1
60
0
100
AcDbSpline
70
4
71
3
72
16
73
12
40
0
40
0
40
0
40
0
40
0.142319077947408
40
0.142319077947408
40
0.364748229791894
40
0.364748229791894
40
0.594359598464917
40
0.594359598464917
40
0.841957615948729
40
0.841957615948729
40
1
40
1
40
1
40
1
41
1
10
8.8814343795602
20
1.91204676283658
30
0
41
1
10
8.89601753182023
20
1.90253624374336
30
0
41
1
10
8.90944443225817
20
1.89135885499948
30
0
41
1
10
8.93973603051117
20
1.85948407294262
30
0
41
1
10
8.9546284551578
20
1.83650443306183
30
0
41
1
10
8.97571768881636
20
1.78654956450626
30
0
41
1
10
8.98190828940278
20
1.75885273954682
30
0
41
1
10
8.9852415567251
20
1.70090937635919
30
0
41
1
10
8.98171135599577
20
1.66991635962017
30
0
41
1
10
8.96843193146125
20
1.62101105757486
30
0
41
1
10
8.96132346811669
20
1.60214903924464
30
0
41
1
10
8.95256923257071
20
1.58400404177553
30
0
0
LINE
5
74
100
AcDbEntity
8
1
62
256
6
ByLayer
370
18
48
1
60
0
100
AcDbLine
10
7.858547
20
-2.5375
30
0
11
8.040143
21
-2.5375
31
0
39
0
210
0
220
0
230
1
0
LINE
5
76
100
AcDbEntity
8
1
62
256
6
ByLayer
370
18
48
1
60
0
100
AcDbLine
10
8.040143
20
3.4625
30
0
11
7.858547
21
3.4625
31
0
39
0
210
0
220
0
230
1
0
LINE
5
77
100
AcDbEntity
8
80
62
256
6
ByLayer
370
18
48
1
60
0
100
AcDbLine
10
0
20
0
30
0
11
-5
21
0
31
0
39
0
210
0
220
0
230
1
0
LINE
5
78
100
AcDbEntity
8
81
62
256
6
ByLayer
370
18
48
1
60
0
100
AcDbLine
10
21.6
20
-5.075
30
0
11
26.6
21
-5.075
31
0
39
0
210
0
220
0
230
1
0
LINE
5
79
100
AcDbEntity
8
1
62
256
6
ByLayer
370
18
48
1
60
0
100
AcDbLine
10
6.843904
20
-3.2
30
0
11
10.684659
21
-3.2
31
0
39
0
210
0
220
0
230
1
0
LINE
5
7A
100
AcDbEntity
8
1
62
256
6
ByLayer
370
18
48
1
60
0
100
AcDbLine
10
16.384984
20
-4
30
0
11
16.485506
21
-4.333097
31
0
39
0
210
0
220
0
230
1
0
LINE
5
7B
100
AcDbEntity
8
1
62
256
6
ByLayer
370
18
48
1
60
0
100
AcDbLine
10
11.467643
20
-5
30
0
11
16.384984
21
-5
31
0
39
0
210
0
220
0
230
1
0
LINE
5
7C
100
AcDbEntity
8
1
62
256
6
ByLayer
370
18
48
1
60
0
100
AcDbLine
10
11.467643
20
-5
30
0
11
4
21
-5
31
0
39
0
210
0
220
0
230
1
0
LINE
5
7D
100
AcDbEntity
8
1
62
256
6
ByLayer
370
18
48
1
60
0
100
AcDbLine
10
10.913469
20
4.082821
30
0
11
10.814801
21
4.157449
31
0
39
0
210
0
220
0
230
1
0
LINE
5
7E
100
AcDbEntity
8
1
62
256
6
ByLayer
370
18
48
1
60
0
100
AcDbLine
10
10.758505
20
-3
30
0
11
10.814801
21
-3
31
0
39
0
210
0
220
0
230
1
0
LINE
5
7F
100
AcDbEntity
8
1
62
256
6
ByLayer
370
18
48
1
60
0
100
AcDbLine
10
10.760123
20
-3.2
30
0
11
10.760123
21
-3.087292
31
0
39
0
210
0
220
0
230
1
0
LINE
5
80
100
AcDbEntity
8
1
62
256
6
ByLayer
370
18
48
1
60
0
100
AcDbLine
10
4
20
-5
30
0
11
0.143063
21
-5
31
0
39
0
210
0
220
0
230
1
0
LINE
5
81
100
AcDbEntity
8
1
62
256
6
ByLayer
370
18
48
1
60
0
100
AcDbLine
10
0.143063
20
-5
30
0
11
0.143063
21
4.925624
31
0
39
0
210
0
220
0
230
1
0
LINE
5
82
100
AcDbEntity
8
1
62
256
6
ByLayer
370
18
48
1
60
0
100
AcDbLine
10
10.913469
20
4.082821
30
0
11
10.913469
21
-3
31
0
39
0
210
0
220
0
230
1
0
LINE
5
83
100
AcDbEntity
8
1
62
256
6
ByLayer
370
18
48
1
60
0
100
AcDbLine
10
0
20
-5
30
0
11
0.143063
21
-5
31
0
39
0
210
0
220
0
230
1
0
LINE
5
84
100
AcDbEntity
8
1
62
256
6
ByLayer
370
18
48
1
60
0
100
AcDbLine
10
9.785571
20
4.935913
30
0
11
6.843904
21
4.942453
31
0
39
0
210
0
220
0
230
1
0
LINE
5
85
100
AcDbEntity
8
1
62
256
6
ByLayer
370
18
48
1
60
0
100
AcDbLine
10
11.467643
20
-4
30
0
11
11.467643
21
-5
31
0
39
0
210
0
220
0
230
1
0
LINE
5
86
100
AcDbEntity
8
1
62
256
6
ByLayer
370
18
48
1
60
0
100
AcDbLine
10
10.814801
20
-3
30
0
11
10.913469
21
-3
31
0
39
0
210
0
220
0
230
1
0
LINE
5
87
100
AcDbEntity
8
1
62
256
6
ByLayer
370
18
48
1
60
0
100
AcDbLine
10
4
20
-5
30
0
11
4
21
4.942453
31
0
39
0
210
0
220
0
230
1
0
LINE
5
88
100
AcDbEntity
8
1
62
256
6
ByLayer
370
18
48
1
60
0
100
AcDbLine
10
10.684659
20
-3.2
30
0
11
10.684659
21
-0.744194
31
0
39
0
210
0
220
0
230
1
0
LINE
5
89
100
AcDbEntity
8
1
62
256
6
ByLayer
370
18
48
1
60
0
100
AcDbLine
10
6.843904
20
3.324881
30
0
11
6.843904
21
4.942453
31
0
39
0
210
0
220
0
230
1
0
LINE
5
8A
100
AcDbEntity
8
1
62
256
6
ByLayer
370
18
48
1
60
0
100
AcDbLine
10
16.384984
20
-5
30
0
11
16.485506
21
-4.666903
31
0
39
0
210
0
220
0
230
1
0
LINE
5
8B
100
AcDbEntity
8
1
62
256
6
ByLayer
370
18
48
1
60
0
100
AcDbLine
10
0.143063
20
4.925624
30
0
11
4
21
4.942453
31
0
39
0
210
0
220
0
230
1
0
LINE
5
8C
100
AcDbEntity
8
1
62
256
6
ByLayer
370
18
48
1
60
0
100
AcDbLine
10
0
20
-5
30
0
11
0
21
4.925397
31
0
39
0
210
0
220
0
230
1
0
LINE
5
8D
100
AcDbEntity
8
1
62
256
6
ByLayer
370
18
48
1
60
0
100
AcDbLine
10
4
20
4.942453
30
0
11
6.843904
21
4.942453
31
0
39
0
210
0
220
0
230
1
0
LINE
5
8E
100
AcDbEntity
8
1
62
256
6
ByLayer
370
18
48
1
60
0
100
AcDbLine
10
10.814801
20
4.157449
30
0
11
10.684659
21
4.255883
31
0
39
0
210
0
220
0
230
1
0
LINE
5
8F
100
AcDbEntity
8
1
62
256
6
ByLayer
370
18
48
1
60
0
100
AcDbLine
10
10.684659
20
1.669194
30
0
11
10.684659
21
4.255883
31
0
39
0
210
0
220
0
230
1
0
LINE
5
90
100
AcDbEntity
8
1
62
256
6
ByLayer
370
18
48
1
60
0
100
AcDbLine
10
10.758505
20
-3
30
0
11
10.760123
21
-3.087292
31
0
39
0
210
0
220
0
230
1
0
LINE
5
91
100
AcDbEntity
8
1
62
256
6
ByLayer
370
18
48
1
60
0
100
AcDbLine
10
6.843904
20
-3.2
30
0
11
6.843904
21
-2.399881
31
0
39
0
210
0
220
0
230
1
0
LINE
5
92
100
AcDbEntity
8
1
62
256
6
ByLayer
370
18
48
1
60
0
100
AcDbLine
10
10.684659
20
-3.2
30
0
11
10.760123
21
-3.2
31
0
39
0
210
0
220
0
230
1
0
LINE
5
93
100
AcDbEntity
8
1
62
256
6
ByLayer
370
18
48
1
60
0
100
AcDbLine
10
11.467643
20
-4
30
0
11
16.384984
21
-4
31
0
39
0
210
0
220
0
230
1
0
LINE
5
94
100
AcDbEntity
8
1
62
256
6
ByLayer
370
18
48
1
60
0
100
AcDbLine
10
10.814801
20
4.157449
30
0
11
10.814801
21
-3
31
0
39
0
210
0
220
0
230
1
0
LINE
5
95
100
AcDbEntity
8
1
62
256
6
ByLayer
370
18
48
1
60
0
100
AcDbLine
10
8.606055
20
-4
30
0
11
11.467643
21
-4
31
0
39
0
210
0
220
0
230
1
0
LINE
5
96
100
AcDbEntity
8
1
62
256
6
ByLayer
370
18
48
1
60
0
100
AcDbLine
10
0.143063
20
4.925624
30
0
11
0
21
4.925397
31
0
39
0
210
0
220
0
230
1
0
LINE
5
97
100
AcDbEntity
8
1
62
256
6
ByLayer
370
18
48
1
60
0
100
AcDbLine
10
9.785571
20
4.935913
30
0
11
10.684659
21
4.255883
31
0
39
0
210
0
220
0
230
1
0
LINE
5
98
100
AcDbEntity
8
SK1
62
256
6
ByLayer
370
18
48
1
60
0
100
AcDbLine
10
-0.25
20
-5
30
0
11
-45.4
21
-5
31
0
39
0
210
0
220
0
230
1
0
LINE
5
9A
100
AcDbEntity
8
SK1
62
256
6
ByLayer
370
18
48
1
60
0
100
AcDbLine
10
-48.4
20
4.925
30
0
11
-0.25
21
4.925
31
0
39
0
210
0
220
0
230
1
0
LINE
5
9B
100
AcDbEntity
8
SK1
62
256
6
ByLayer
370
18
48
1
60
0
100
AcDbLine
10
0
20
-5
30
0
11
0
21
4.925397
31
0
39
0
210
0
220
0
230
1
0
LINE
5
9C
100
AcDbEntity
8
SK1
62
256
6
ByLayer
370
18
48
1
60
0
100
AcDbLine
10
-0.25
20
-5
30
0
11
0
21
-5
31
0
39
0
210
0
220
0
230
1
0
LINE
5
9D
100
AcDbEntity
8
SK1
62
256
6
ByLayer
370
18
48
1
60
0
100
AcDbLine
10
-0.25
20
4.925
30
0
11
-0.25
21
-5
31
0
39
0
210
0
220
0
230
1
0
LINE
5
9E
100
AcDbEntity
8
SK1
62
256
6
ByLayer
370
18
48
1
60
0
100
AcDbLine
10
-48.4
20
-2.026066
30
0
11
-48.4
21
4.925
31
0
39
0
210
0
220
0
230
1
0
LINE
5
9F
100
AcDbEntity
8
SK1
62
256
6
ByLayer
370
18
48
1
60
0
100
AcDbLine
10
-45.4
20
-5
30
0
11
-48.4
21
-2.026066
31
0
39
0
210
0
220
0
230
1
0
LINE
5
A0
100
AcDbEntity
8
SK1
62
256
6
ByLayer
370
18
48
1
60
0
100
AcDbLine
10
0
20
4.925397
30
0
11
-0.25
21
4.925
31
0
39
0
210
0
220
0
230
1
0
LINE
5
A1
100
AcDbEntity
8
1
62
256
6
ByLayer
370
18
48
1
60
0
100
AcDbLine
10
21.6
20
-5.002698
30
0
11
21.6
21
-3.847302
31
0
39
0
210
0
220
0
230
1
0
LINE
5
A2
100
AcDbEntity
8
1
62
256
6
ByLayer
370
18
48
1
60
0
100
AcDbLine
10
20.186783
20
-3.717739
30
0
11
19.752571
21
-3.705656
31
0
39
0
210
0
220
0
230
1
0
LINE
5
A3
100
AcDbEntity
8
1
62
256
6
ByLayer
370
18
48
1
60
0
100
AcDbLine
10
11.608727
20
-3.965105
30
0
11
11.608727
21
-3.81
31
0
39
0
210
0
220
0
230
1
0
LINE
5
A4
100
AcDbEntity
8
1
62
256
6
ByLayer
370
18
48
1
60
0
100
AcDbLine
10
7.619187
20
-5.002698
30
0
11
7.619187
21
-4.99999
31
0
39
0
210
0
220
0
230
1
0
LINE
5
A5
100
AcDbEntity
8
1
62
256
6
ByLayer
370
18
48
1
60
0
100
AcDbLine
10
17.504215
20
-3.81
30
0
11
11.651638
21
-3.81
31
0
39
0
210
0
220
0
230
1
0
LINE
5
A6
100
AcDbEntity
8
1
62
256
6
ByLayer
370
18
48
1
60
0
100
AcDbLine
10
18.839969
20
-3.81
30
0
11
17.54732
21
-3.81
31
0
39
0
210
0
220
0
230
1
0
LINE
5
A7
100
AcDbEntity
8
1
62
256
6
ByLayer
370
18
48
1
60
0
100
AcDbLine
10
17.54732
20
-4.884895
30
0
11
17.54732
21
-5.04
31
0
39
0
210
0
220
0
230
1
0
LINE
5
A8
100
AcDbEntity
8
1
62
256
6
ByLayer
370
18
48
1
60
0
100
AcDbLine
10
9.997515
20
-5.115074
30
0
11
9.423369
21
-5.144344
31
0
39
0
210
0
220
0
230
1
0
LINE
5
A9
100
AcDbEntity
8
1
62
256
6
ByLayer
370
18
48
1
60
0
100
AcDbLine
10
17.504215
20
-4.89
30
0
11
17.504215
21
-5.04
31
0
39
0
210
0
220
0
230
1
0
LINE
5
AA
100
AcDbEntity
8
1
62
256
6
ByLayer
370
18
48
1
60
0
100
AcDbLine
10
18.893459
20
-3.803185
30
0
11
19.132887
21
-3.741101
31
0
39
0
210
0
220
0
230
1
0
LINE
5
AB
100
AcDbEntity
8
1
62
256
6
ByLayer
370
18
48
1
60
0
100
AcDbLine
10
19.173199
20
-3.734926
30
0
11
19.752571
21
-3.705656
31
0
39
0
210
0
220
0
230
1
0
LINE
5
AC
100
AcDbEntity
8
1
62
256
6
ByLayer
370
18
48
1
60
0
100
AcDbLine
10
16.509209
20
-4.527606
30
0
11
19.056232
21
-4.527606
31
0
39
0
210
0
220
0
230
1
0
LINE
5
AD
100
AcDbEntity
8
1
62
256
6
ByLayer
370
18
48
1
60
0
100
AcDbLine
10
17.504215
20
-5.04
30
0
11
11.651638
21
-5.04
31
0
39
0
210
0
220
0
230
1
0
LINE
5
AE
100
AcDbEntity
8
1
62
256
6
ByLayer
370
18
48
1
60
0
100
AcDbLine
10
21.388662
20
-3.647641
30
0
11
20.186783
21
-3.717739
31
0
39
0
210
0
220
0
230
1
0
LINE
5
AF
100
AcDbEntity
8
1
62
256
6
ByLayer
370
18
48
1
60
0
100
AcDbLine
10
11.608727
20
-3.965105
30
0
11
11.484734
21
-3.994732
31
0
39
0
210
0
220
0
230
1
0
LINE
5
B0
100
AcDbEntity
8
1
62
256
6
ByLayer
370
18
48
1
60
0
100
AcDbLine
10
17.504215
20
-4.89
30
0
11
16.418105
21
-4.89
31
0
39
0
210
0
220
0
230
1
0
LINE
5
B1
100
AcDbEntity
8
1
62
256
6
ByLayer
370
18
48
1
60
0
100
AcDbLine
10
16.482241
20
-4.322394
30
0
11
19.056232
21
-4.322394
31
0
39
0
210
0
220
0
230
1
0
LINE
5
B2
100
AcDbEntity
8
1
62
256
6
ByLayer
370
18
48
1
60
0
100
AcDbLine
10
9.032403
20
-5.132261
30
0
11
9.032403
21
-4.999981
31
0
39
0
210
0
220
0
230
1
0
LINE
5
B3
100
AcDbEntity
8
1
62
256
6
ByLayer
370
18
48
1
60
0
100
AcDbLine
10
17.54732
20
-3.965105
30
0
11
17.54732
21
-3.81
31
0
39
0
210
0
220
0
230
1
0
LINE
5
B4
100
AcDbEntity
8
1
62
256
6
ByLayer
370
18
48
1
60
0
100
AcDbLine
10
21.388662
20
-5.202359
30
0
11
20.186783
21
-5.132261
31
0
39
0
210
0
220
0
230
1
0
LINE
5
B5
100
AcDbEntity
8
1
62
256
6
ByLayer
370
18
48
1
60
0
100
AcDbLine
10
11.608727
20
-5
30
0
11
11.608727
21
-5.04
31
0
39
0
210
0
220
0
230
1
0
LINE
5
B6
100
AcDbEntity
8
1
62
256
6
ByLayer
370
18
48
1
60
0
100
AcDbLine
10
11.651638
20
-4.999999
30
0
11
11.651638
21
-5.04
31
0
39
0
210
0
220
0
230
1
0
LINE
5
B7
100
AcDbEntity
8
1
62
256
6
ByLayer
370
18
48
1
60
0
100
AcDbLine
10
17.54732
20
-3.965105
30
0
11
19.056232
21
-4.322394
31
0
39
0
210
0
220
0
230
1
0
LINE
5
B8
100
AcDbEntity
8
1
62
256
6
ByLayer
370
18
48
1
60
0
100
AcDbLine
10
19.752571
20
-5.144344
30
0
11
19.752571
21
-3.705656
31
0
39
0
210
0
220
0
230
1
0
LINE
5
B9
100
AcDbEntity
8
1
62
256
6
ByLayer
370
18
48
1
60
0
100
AcDbLine
10
9.032403
20
-5.132261
30
0
11
9.423369
21
-5.144344
31
0
39
0
210
0
220
0
230
1
0
LINE
5
BA
100
AcDbEntity
8
1
62
256
6
ByLayer
370
18
48
1
60
0
100
AcDbLine
10
10.327739
20
-5.04
30
0
11
11.608727
21
-5.04
31
0
39
0
210
0
220
0
230
1
0
LINE
5
BB
100
AcDbEntity
8
1
62
256
6
ByLayer
370
18
48
1
60
0
100
AcDbLine
10
20.186783
20
-5.132261
30
0
11
20.186783
21
-3.717739
31
0
39
0
210
0
220
0
230
1
0
LINE
5
BC
100
AcDbEntity
8
1
62
256
6
ByLayer
370
18
48
1
60
0
100
AcDbLine
10
19.173199
20
-5.115074
30
0
11
19.752571
21
-5.144344
31
0
39
0
210
0
220
0
230
1
0
LINE
5
BD
100
AcDbEntity
8
1
62
256
6
ByLayer
370
18
48
1
60
0
100
AcDbLine
10
11.047274
20
-3.81
30
0
11
11.608727
21
-3.81
31
0
39
0
210
0
220
0
230
1
0
LINE
5
BE
100
AcDbEntity
8
1
62
256
6
ByLayer
370
18
48
1
60
0
100
AcDbLine
10
10.274732
20
-5.046815
30
0
11
10.037464
21
-5.108899
31
0
39
0
210
0
220
0
230
1
0
LINE
5
BF
100
AcDbEntity
8
1
62
256
6
ByLayer
370
18
48
1
60
0
100
AcDbLine
10
18.839969
20
-5.04
30
0
11
17.54732
21
-5.04
31
0
39
0
210
0
220
0
230
1
0
LINE
5
C0
100
AcDbEntity
8
1
62
256
6
ByLayer
370
18
48
1
60
0
100
AcDbLine
10
7.830524
20
-5.202359
30
0
11
9.032403
21
-5.132261
31
0
39
0
210
0
220
0
230
1
0
LINE
5
C1
100
AcDbEntity
8
1
62
256
6
ByLayer
370
18
48
1
60
0
100
AcDbLine
10
9.423369
20
-5.144344
30
0
11
9.423369
21
-4.999981
31
0
39
0
210
0
220
0
230
1
0
LINE
5
C2
100
AcDbEntity
8
1
62
256
6
ByLayer
370
18
48
1
60
0
100
AcDbLine
10
20.186783
20
-5.132261
30
0
11
19.752571
21
-5.144344
31
0
39
0
210
0
220
0
230
1
0
LINE
5
C3
100
AcDbEntity
8
1
62
256
6
ByLayer
370
18
48
1
60
0
100
AcDbLine
10
11.651638
20
-3.96
30
0
11
11.651638
21
-3.81
31
0
39
0
210
0
220
0
230
1
0
LINE
5
C4
100
AcDbEntity
8
1
62
256
6
ByLayer
370
18
48
1
60
0
100
AcDbLine
10
17.54732
20
-4.884895
30
0
11
19.056232
21
-4.527606
31
0
39
0
210
0
220
0
230
1
0
LINE
5
C5
100
AcDbEntity
8
1
62
256
6
ByLayer
370
18
48
1
60
0
100
AcDbLine
10
18.893459
20
-5.046815
30
0
11
19.132887
21
-5.108899
31
0
39
0
210
0
220
0
230
1
0
LINE
5
C6
100
AcDbEntity
8
1
62
256
6
ByLayer
370
18
48
1
60
0
100
AcDbLine
10
17.504215
20
-3.96
30
0
11
17.504215
21
-3.81
31
0
39
0
210
0
220
0
230
1
0
LINE
5
C7
100
AcDbEntity
8
1
62
256
6
ByLayer
370
18
48
1
60
0
100
AcDbLine
10
17.504215
20
-3.96
30
0
11
11.651638
21
-3.96
31
0
39
0
210
0
220
0
230
1
0
LINE
5
C8
100
AcDbEntity
8
1
62
256
6
ByLayer
370
18
48
1
60
0
100
AcDbLine
10
12.030874
20
-3.2
30
0
11
17.076521
21
-3.2
31
0
39
0
210
0
220
0
230
1
0
LINE
5
C9
100
AcDbEntity
8
1
62
256
6
ByLayer
370
18
48
1
60
0
100
AcDbLine
10
11.238574
20
-3
30
0
11
12.067303
21
-3
31
0
39
0
210
0
220
0
230
1
0
LINE
5
CA
100
AcDbEntity
8
1
62
256
6
ByLayer
370
18
48
1
60
0
100
AcDbLine
10
10.844128
20
-3.547124
30
0
11
10.846356
21
-3.426913
31
0
39
0
210
0
220
0
230
1
0
LINE
5
CB
100
AcDbEntity
8
1
62
256
6
ByLayer
370
18
48
1
60
0
100
AcDbLine
10
17.076521
20
-3.2
30
0
11
17.076521
21
-0.57864
31
0
39
0
210
0
220
0
230
1
0
LINE
5
CC
100
AcDbEntity
8
1
62
256
6
ByLayer
370
18
48
1
60
0
100
AcDbLine
10
11.238574
20
3.836926
30
0
11
10.913454
21
4.082832
31
0
39
0
210
0
220
0
230
1
0
LINE
5
CD
100
AcDbEntity
8
1
62
256
6
ByLayer
370
18
48
1
60
0
100
AcDbLine
10
17.076521
20
-0.57864
30
0
11
11.238574
21
3.836926
31
0
39
0
210
0
220
0
230
1
0
LINE
5
CE
100
AcDbEntity
8
1
62
256
6
ByLayer
370
18
48
1
60
0
100
AcDbLine
10
10.913456
20
-3
30
0
11
11.238574
21
-3
31
0
39
0
210
0
220
0
230
1
0
LINE
5
CF
100
AcDbEntity
8
1
62
256
6
ByLayer
370
18
48
1
60
0
100
AcDbLine
10
11.238574
20
-3
30
0
11
11.238574
21
3.836926
31
0
39
0
210
0
220
0
230
1
0
LINE
5
D0
100
AcDbEntity
8
1
62
256
6
ByLayer
370
18
48
1
60
0
100
AcDbLine
10
8.660798
20
0.744337
30
0
11
9.383122
21
0.744337
31
0
39
0
210
0
220
0
230
1
0
LINE
5
D1
100
AcDbEntity
8
1
62
256
6
ByLayer
370
18
48
1
60
0
100
AcDbLine
10
8.660798
20
0.180663
30
0
11
9.383122
21
0.180663
31
0
39
0
210
0
220
0
230
1
0
LINE
5
D2
100
AcDbEntity
8
1
62
256
6
ByLayer
370
18
48
1
60
0
100
AcDbLine
10
8.230245
20
-0.659004
30
0
11
8.952569
21
-0.659004
31
0
39
0
210
0
220
0
230
1
0
LINE
5
D3
100
AcDbEntity
8
1
62
256
6
ByLayer
370
18
48
1
60
0
100
AcDbLine
10
7.933595
20
-0.741126
30
0
11
8.0819
21
-0.741126
31
0
39
0
210
0
220
0
230
1
0
LINE
5
D4
100
AcDbEntity
8
1
62
256
6
ByLayer
370
18
48
1
60
0
100
AcDbLine
10
7.933598
20
-0.741126
30
0
11
7.285006
21
-0.741126
31
0
39
0
210
0
220
0
230
1
0
LINE
5
D5
100
AcDbEntity
8
1
62
256
6
ByLayer
370
18
48
1
60
0
100
AcDbLine
10
7.285006
20
1.666126
30
0
11
7.933598
21
1.666126
31
0
39
0
210
0
220
0
230
1
0
LINE
5
D6
100
AcDbEntity
8
1
62
256
6
ByLayer
370
18
48
1
60
0
100
AcDbLine
10
8.0819
20
1.666126
30
0
11
7.933595
21
1.666126
31
0
39
0
210
0
220
0
230
1
0
LINE
5
D7
100
AcDbEntity
8
1
62
256
6
ByLayer
370
18
48
1
60
0
100
AcDbLine
10
7.326309
20
-0.939837
30
0
11
7.64596
21
-0.939837
31
0
39
0
210
0
220
0
230
1
0
LINE
5
D8
100
AcDbEntity
8
1
62
256
6
ByLayer
370
18
48
1
60
0
100
AcDbLine
10
8.230245
20
1.584004
30
0
11
8.952569
21
1.584004
31
0
39
0
210
0
220
0
230
1
0
LINE
5
D9
100
AcDbEntity
8
1
62
256
6
ByLayer
370
18
48
1
60
0
100
AcDbLine
10
7.325294
20
1.864837
30
0
11
7.64596
21
1.864837
31
0
39
0
210
0
220
0
230
1
0
MTEXT
5
12F
100
AcDbEntity
8
SK6
62
256
6
ByLayer
370
18
48
1
60
0
100
AcDbMText
10
-40.025
20
13.991938
30
0
210
0
220
0
230
1
1
\W0.7194;QS-LF123D10-1010B
40
3.5
41
0
44
1.084337
50
0
71
7
72
5
7
iso_b_vert
0
DIMENSION
5
141
100
AcDbEntity
8
SK2
62
256
6
ByLayer
370
13
48
1
60
0
100
AcDbDimension
2
DimnDraft3D1
10
-58.15
20
-4.925
30
0
11
-58.15
21
15.575
31
0
70
32
71
5
72
1
41
1
210
0
220
0
230
1
3
Standard
100
AcDbAlignedDimension
13
-49.9
23
5.075
33
0
14
-49.9
24
-4.925
34
0
50
90
100
AcDbRotatedDimension
1001
ACAD
1000
DSTYLE
1002
{
1070
    74
1070
     0
1070
   279
1070
     0
1070
   172
1070
     1
1070
   173
1070
     1
1070
   340
1005
130
1070
   271
1070
     3
1070
   272
1070
     3
1070
    77
1070
     1
1070
    73
1070
     0
1070
   171
1070
     4
1070
   274
1070
     4
1070
   177
1070
     2
1070
   176
1070
     2
1070
   178
1070
     7
1070
    78
1070
     8
1070
    41
1041
3.0
1070
   147
1041
2.25
1070
    42
1041
1.5
1070
    44
1041
3.0
1070
   140
1041
4.5
1070
   343
1005
142
1070
   344
1005
142
1002
}
0
DIMENSION
5
156
100
AcDbEntity
8
2
62
256
6
ByLayer
370
13
48
1
60
0
100
AcDbDimension
2
DimnDraft3D2
10
35.85
20
-3.425
30
0
11
35.85
21
-21.5
31
0
70
32
71
5
72
1
41
1
210
0
220
0
230
1
3
Standard
100
AcDbAlignedDimension
13
23.1
23
-4.925
33
0
14
23.1
24
-3.425
34
0
50
90
100
AcDbRotatedDimension
1001
ACAD
1000
DSTYLE
1002
{
1070
    74
1070
     0
1070
   279
1070
     0
1070
   172
1070
     1
1070
   173
1070
     1
1070
   340
1005
130
1070
   271
1070
     3
1070
   272
1070
     3
1070
    77
1070
     1
1070
    73
1070
     0
1070
   171
1070
     4
1070
   274
1070
     4
1070
   177
1070
     2
1070
   176
1070
     2
1070
   178
1070
     7
1070
    78
1070
     8
1070
    41
1041
3.0
1070
   147
1041
2.25
1070
    42
1041
1.5
1070
    44
1041
3.0
1070
   140
1041
4.5
1070
   343
1005
142
1070
   344
1005
142
1002
}
0
DIMENSION
5
164
100
AcDbEntity
8
2
62
256
6
ByLayer
370
13
48
1
60
0
100
AcDbDimension
2
DimnDraft3D3
10
45.85
20
5.075
30
0
11
45.85
21
-20.144079
31
0
70
32
71
5
72
1
41
1
210
0
220
0
230
1
3
Standard
100
AcDbAlignedDimension
13
23.1
23
-4.925
33
0
14
1.5
24
5.075
34
0
50
90
100
AcDbRotatedDimension
1001
ACAD
1000
DSTYLE
1002
{
1070
    74
1070
     0
1070
   279
1070
     0
1070
   172
1070
     1
1070
   173
1070
     1
1070
   340
1005
130
1070
   271
1070
     3
1070
   272
1070
     3
1070
    77
1070
     1
1070
    73
1070
     0
1070
   171
1070
     4
1070
   274
1070
     4
1070
   177
1070
     2
1070
   176
1070
     2
1070
   178
1070
     7
1070
    78
1070
     8
1070
    41
1041
3.0
1070
   147
1041
2.25
1070
    42
1041
1.5
1070
    44
1041
3.0
1070
   140
1041
4.5
1070
   343
1005
142
1070
   344
1005
142
1002
}
0
DIMENSION
5
172
100
AcDbEntity
8
SK2
62
256
6
ByLayer
370
13
48
1
60
0
100
AcDbDimension
2
DimnDraft3D4
10
21.6
20
-29.175
30
0
11
-18.681579
21
-29.175
31
0
70
32
71
5
72
1
41
1
210
0
220
0
230
1
3
Standard
100
AcDbAlignedDimension
13
-48.4
23
-6.425
33
0
14
21.6
24
-6.425
34
0
50
0
100
AcDbRotatedDimension
1001
ACAD
1000
DSTYLE
1002
{
1070
   279
1070
     0
1070
   172
1070
     1
1070
   173
1070
     1
1070
   340
1005
130
1070
   271
1070
     3
1070
   272
1070
     3
1070
    77
1070
     1
1070
    73
1070
     0
1070
   171
1070
     4
1070
   274
1070
     4
1070
   177
1070
     2
1070
   176
1070
     2
1070
   178
1070
     7
1070
    78
1070
     8
1070
    41
1041
3.0
1070
   147
1041
2.25
1070
    42
1041
1.5
1070
    44
1041
3.0
1070
   140
1041
4.5
1070
   343
1005
142
1070
   344
1005
142
1002
}
0
DIMENSION
5
180
100
AcDbEntity
8
2
62
256
6
ByLayer
370
13
48
1
60
0
100
AcDbDimension
2
DimnDraft3D5
10
0
20
-19.175
30
0
11
6.080921
21
-19.175
31
0
70
32
71
5
72
1
41
1
210
0
220
0
230
1
3
Standard
100
AcDbAlignedDimension
13
21.6
23
-6.425
33
0
14
0
24
-6.425
34
0
50
0
100
AcDbRotatedDimension
1001
ACAD
1000
DSTYLE
1002
{
1070
   279
1070
     0
1070
   172
1070
     1
1070
   173
1070
     1
1070
   340
1005
130
1070
   271
1070
     3
1070
   272
1070
     3
1070
    77
1070
     1
1070
    73
1070
     0
1070
   171
1070
     4
1070
   274
1070
     4
1070
   177
1070
     2
1070
   176
1070
     2
1070
   178
1070
     7
1070
    78
1070
     8
1070
    41
1041
3.0
1070
   147
1041
2.25
1070
    42
1041
1.5
1070
    44
1041
3.0
1070
   140
1041
4.5
1070
   343
1005
142
1070
   344
1005
142
1002
}
0
DIMENSION
5
18E
100
AcDbEntity
8
2
62
256
6
ByLayer
370
13
48
1
60
0
100
AcDbDimension
2
DimnDraft3D6
10
11.6
20
14.825
30
0
11
36.819079
21
14.825
31
0
70
32
71
5
72
1
41
1
210
0
220
0
230
1
3
Standard
100
AcDbAlignedDimension
13
21.6
23
-1.925
33
0
14
11.6
24
6.575
34
0
50
0
100
AcDbRotatedDimension
1001
ACAD
1000
DSTYLE
1002
{
1070
   279
1070
     0
1070
   172
1070
     1
1070
   173
1070
     1
1070
   340
1005
130
1070
   271
1070
     3
1070
   272
1070
     3
1070
    77
1070
     1
1070
    73
1070
     0
1070
   171
1070
     4
1070
   274
1070
     4
1070
   177
1070
     2
1070
   176
1070
     2
1070
   178
1070
     7
1070
    78
1070
     8
1070
    41
1041
3.0
1070
   147
1041
2.25
1070
    42
1041
1.5
1070
    44
1041
3.0
1070
   140
1041
4.5
1070
   343
1005
142
1070
   344
1005
142
1002
}
0
ENDSEC
0
SECTION
2
OBJECTS
0
DICTIONARY
5
1f8
330
0
100
AcDbDictionary
280
0
281
1
3
ACAD_GROUP
350
1f9
3
ACAD_MLINESTYLE
350
1fa
0
DICTIONARY
5
1f9
330
0
100
AcDbDictionary
280
0
281
1
0
DICTIONARY
5
1fa
330
0
100
AcDbDictionary
280
0
281
1
3
Standard
350
18
0
MLINESTYLE
5
18
330
1fa
100
AcDbMlineStyle
2
Standard
70
0
3

62
256
51
90
52
90
71
2
49
-0.5
62
256
6
ByLayer
49
0.5
62
256
6
ByLayer
0
RASTERVARIABLES
5
1e7
330

100
AcDbRasterVariables
90
0
70
1
71
1
72
1
0
ENDSEC
0
EOF
