0
SECTION
2
HEADER
9
$ACADVER
1
AC1015
9
$DWGCODEPAGE
3
ANSI_1252
9
$HANDSEED
5
201
9
$ANGBASE
50
0
9
$ANGDIR
70
0
9
$ATTMODE
70
1
9
$AUNITS
70
0
9
$AUPREC
70
0
9
$CECOLOR
62
256
9
$CELTSCALE
40
1
9
$CELTYPE
6
ByLayer
9
$CELWEIGHT
370
18
9
$CLAYER
8
0
9
$CMLJUST
70
0
9
$CMLSCALE
40
1
9
$CMLSTYLE
2
Standard
9
$DIMSTYLE
2
Standard
9
$TEXTSIZE
40
0.2
9
$TEXTSTYLE
7
Standard
9
$LUNITS
70
2
9
$LUPREC
70
4
9
$EXTNAMES
290
1
9
$INSUNITS
70
4
9
$LTSCALE
40
1
9
$LWDISPLAY
290
1
9
$PDMODE
70
0
9
$PDSIZE
40
0
9
$PLINEGEN
70
0
0
ENDSEC
0
SECTION
2
CLASSES
0
CLASS
1
RASTERVARIABLES
2
AcDbRasterVariables
3
ISM
90
0
280
0
281
0
0
ENDSEC
0
SECTION
2
TABLES
0
TABLE
2
VPORT
5
1f7
100
AcDbSymbolTable
0
VPORT
5
1
100
AcDbSymbolTableRecord
100
AcDbViewportTableRecord
2
*Active
70
0
10
0
20
0
11
1
21
1
12
-1
22
1
13
0
23
0
14
0.5
24
0.5
15
10
25
10
16
0
26
0
36
1
17
0
27
0
37
0
0
ENDTAB
0
TABLE
2
LTYPE
5
1f8
100
AcDbSymbolTable
0
LTYPE
5
14
100
AcDbSymbolTableRecord
100
AcDbLinetypeTableRecord
70
0
2
ByBlock
3

72
65
73
0
40
0
0
LTYPE
5
15
100
AcDbSymbolTableRecord
100
AcDbLinetypeTableRecord
70
0
2
ByLayer
3

72
65
73
0
40
0
0
LTYPE
5
16
100
AcDbSymbolTableRecord
100
AcDbLinetypeTableRecord
70
0
2
CONTINUOUS
3
Solid line
72
65
73
0
40
0
0
LTYPE
5
6A
100
AcDbSymbolTableRecord
100
AcDbLinetypeTableRecord
70
0
2
CENTER
3
____ _ ____ _ ____ _ ____
72
65
73
4
40
47.5
49
22
74
0
49
-8.5
74
0
49
8.5
74
0
49
-8.5
74
0
0
LTYPE
5
6B
100
AcDbSymbolTableRecord
100
AcDbLinetypeTableRecord
70
0
2
DASHED
3
__ __ __ __ __ __ __ __ __
72
65
73
2
40
25.72
49
12.86
74
0
49
-12.86
74
0
0
ENDTAB
0
TABLE
2
LAYER
5
1f9
100
AcDbSymbolTable
0
LAYER
5
10
100
AcDbSymbolTableRecord
100
AcDbLayerTableRecord
2
0
70
0
62
7
6
CONTINUOUS
290
1
370
-3
390
0
0
LAYER
5
6D
100
AcDbSymbolTableRecord
100
AcDbLayerTableRecord
2
81
70
0
62
-3
6
CONTINUOUS
290
1
370
-3
390
0
0
LAYER
5
6F
100
AcDbSymbolTableRecord
100
AcDbLayerTableRecord
2
80
70
0
62
-6
6
CONTINUOUS
290
1
370
-3
390
0
0
LAYER
5
71
100
AcDbSymbolTableRecord
100
AcDbLayerTableRecord
2
2
70
0
62
7
6
CONTINUOUS
290
1
370
-3
390
0
0
LAYER
5
73
100
AcDbSymbolTableRecord
100
AcDbLayerTableRecord
2
4
70
0
62
-2
6
CENTER
290
1
370
-3
390
0
0
LAYER
5
77
100
AcDbSymbolTableRecord
100
AcDbLayerTableRecord
2
1
70
0
62
4
6
CONTINUOUS
290
1
370
-3
390
0
0
LAYER
5
1e4
100
AcDbSymbolTableRecord
100
AcDbLayerTableRecord
2
SK1
70
0
62
4
6
CONTINUOUS
290
1
370
-3
390
0
0
LAYER
5
1e5
100
AcDbSymbolTableRecord
100
AcDbLayerTableRecord
2
SK6
70
0
62
5
6
CONTINUOUS
290
1
370
-3
390
0
0
LAYER
5
1e6
100
AcDbSymbolTableRecord
100
AcDbLayerTableRecord
2
SK2
70
0
62
7
6
CONTINUOUS
290
1
370
-3
390
0
0
ENDTAB
0
TABLE
2
STYLE
5
1fa
100
AcDbSymbolTable
0
STYLE
5
11
100
AcDbSymbolTableRecord
100
AcDbTextStyleTableRecord
2
Standard
3
txt
70
0
71
0
40
0
41
1
42
0
50
0
0
STYLE
5
12C
100
AcDbSymbolTableRecord
100
AcDbTextStyleTableRecord
2
iso_b_vert
3
simplex.shx
70
0
71
0
40
0
41
1
42
0
50
0
0
STYLE
5
12D
100
AcDbSymbolTableRecord
100
AcDbTextStyleTableRecord
2
DWGDirectTextStyle
3
simplex
70
0
71
0
40
0
41
1
42
0
50
0
0
ENDTAB
0
TABLE
2
DIMSTYLE
5
1fb
100
AcDbSymbolTable
100
AcDbDimStyleTable
0
DIMSTYLE
105
27
100
AcDbSymbolTableRecord
100
AcDbDimStyleTableRecord
2
Standard
70
0
3
<>
41
0.18
42
0.0625
44
0.18
140
0.18
147
0.09
73
0
74
0
77
1
271
2
275
0
278
52
280
0
340
11
0
ENDTAB
0
TABLE
2
VIEW
5
1fc
100
AcDbSymbolTable
0
ENDTAB
0
TABLE
2
UCS
5
1fd
100
AcDbSymbolTable
0
ENDTAB
0
TABLE
2
APPID
5
1fe
100
AcDbSymbolTable
0
APPID
5
12
100
AcDbSymbolTableRecord
100
AcDbRegAppTableRecord
2
ACAD
70
0
0
ENDTAB
0
TABLE
2
BLOCK_RECORD
5
1ff
100
AcDbSymbolTable
0
BLOCK_RECORD
5
1F
100
AcDbSymbolTableRecord
100
AcDbBlockTableRecord
2
*Model_Space
340
0
70
0
0
BLOCK_RECORD
5
1B
100
AcDbSymbolTableRecord
100
AcDbBlockTableRecord
2
*Paper_Space
340
0
70
0
0
BLOCK_RECORD
5
23
100
AcDbSymbolTableRecord
100
AcDbBlockTableRecord
2
*Paper_Space0
340
0
70
0
0
BLOCK_RECORD
5
12F
100
AcDbSymbolTableRecord
100
AcDbBlockTableRecord
2
DimnDraft3D1
340
0
70
0
0
BLOCK_RECORD
5
13E
100
AcDbSymbolTableRecord
100
AcDbBlockTableRecord
2
_CLOSED
340
0
70
0
0
BLOCK_RECORD
5
145
100
AcDbSymbolTableRecord
100
AcDbBlockTableRecord
2
DimnDraft3D2
340
0
70
0
0
BLOCK_RECORD
5
153
100
AcDbSymbolTableRecord
100
AcDbBlockTableRecord
2
DimnDraft3D3
340
0
70
0
0
BLOCK_RECORD
5
161
100
AcDbSymbolTableRecord
100
AcDbBlockTableRecord
2
DimnDraft3D4
340
0
70
0
0
BLOCK_RECORD
5
16F
100
AcDbSymbolTableRecord
100
AcDbBlockTableRecord
2
DimnDraft3D5
340
0
70
0
0
BLOCK_RECORD
5
17D
100
AcDbSymbolTableRecord
100
AcDbBlockTableRecord
2
DimnDraft3D6
340
0
70
0
0
ENDTAB
0
ENDSEC
0
SECTION
2
BLOCKS
0
BLOCK
5
20
100
AcDbEntity
8
0
100
AcDbBlockBegin
2
*Model_Space
70
0
10
0
20
0
30
0
3
*Model_Space
0
ENDBLK
5
21
100
AcDbEntity
8
0
100
AcDbBlockEnd
0
BLOCK
5
1C
100
AcDbEntity
8
0
100
AcDbBlockBegin
2
*Paper_Space
70
0
10
0
20
0
30
0
3
*Paper_Space
0
ENDBLK
5
1D
100
AcDbEntity
8
0
100
AcDbBlockEnd
0
BLOCK
5
24
100
AcDbEntity
8
0
100
AcDbBlockBegin
2
*Paper_Space0
70
0
10
0
20
0
30
0
3
*Paper_Space0
0
ENDBLK
5
25
100
AcDbEntity
8
0
100
AcDbBlockEnd
0
BLOCK
5
13B
100
AcDbEntity
8
0
100
AcDbBlockBegin
2
DimnDraft3D1
70
0
10
0
20
0
30
0
3
DimnDraft3D1
0
MTEXT
5
130
100
AcDbEntity
8
SK2
62
256
6
ByLayer
370
18
48
1
60
0
100
AcDbMText
10
-61.275
20
-3.519079
30
0
210
0
220
0
230
1
1
\W0.6563;16.0
40
4.5
41
0
44
1.084337
50
90
71
7
72
5
7
iso_b_vert
0
LINE
5
132
100
AcDbEntity
8
SK2
62
256
6
ByLayer
370
13
48
1
60
0
100
AcDbLine
10
-51.9
20
8.075
30
0
11
-63.15
21
8.075
31
0
39
0
210
0
220
0
230
1
0
LINE
5
133
100
AcDbEntity
8
SK2
62
256
6
ByLayer
370
13
48
1
60
0
100
AcDbLine
10
-51.9
20
-7.925
30
0
11
-63.15
21
-7.925
31
0
39
0
210
0
220
0
230
1
0
LINE
5
134
100
AcDbEntity
8
SK2
62
256
6
ByLayer
370
13
48
1
60
0
100
AcDbLine
10
-60.15
20
19.325
30
0
11
-60.15
21
-19.175
31
0
39
0
210
0
220
0
230
1
0
LINE
5
135
100
AcDbEntity
8
SK2
62
256
6
ByLayer
370
13
48
1
60
0
100
AcDbLine
10
-60.15
20
8.075
30
0
11
-60.544957
21
11.074999
31
0
39
0
210
0
220
0
230
1
0
LINE
5
136
100
AcDbEntity
8
SK2
62
256
6
ByLayer
370
13
48
1
60
0
100
AcDbLine
10
-60.15
20
8.075
30
0
11
-59.755043
21
11.075001
31
0
39
0
210
0
220
0
230
1
0
LINE
5
137
100
AcDbEntity
8
SK2
62
256
6
ByLayer
370
13
48
1
60
0
100
AcDbLine
10
-60.544957
20
11.074999
30
0
11
-59.755043
21
11.075001
31
0
39
0
210
0
220
0
230
1
0
LINE
5
138
100
AcDbEntity
8
SK2
62
256
6
ByLayer
370
13
48
1
60
0
100
AcDbLine
10
-60.15
20
-7.925
30
0
11
-59.755043
21
-10.924999
31
0
39
0
210
0
220
0
230
1
0
LINE
5
139
100
AcDbEntity
8
SK2
62
256
6
ByLayer
370
13
48
1
60
0
100
AcDbLine
10
-60.15
20
-7.925
30
0
11
-60.544957
21
-10.925001
31
0
39
0
210
0
220
0
230
1
0
LINE
5
13A
100
AcDbEntity
8
SK2
62
256
6
ByLayer
370
13
48
1
60
0
100
AcDbLine
10
-59.755043
20
-10.924999
30
0
11
-60.544957
21
-10.925001
31
0
39
0
210
0
220
0
230
1
0
ENDBLK
5
13C
100
AcDbEntity
8
0
100
AcDbBlockEnd
0
BLOCK
5
13F
100
AcDbEntity
8
0
100
AcDbBlockBegin
2
_CLOSED
70
0
10
0
20
0
30
0
3
_CLOSED
0
LINE
5
141
100
AcDbEntity
8
0
62
256
6
ByLayer
370
-2
48
1
60
0
100
AcDbLine
10
-1
20
0.166667
30
0
11
0
21
0
31
0
39
0
210
0
220
0
230
1
0
LINE
5
142
100
AcDbEntity
8
0
62
256
6
ByLayer
370
-2
48
1
60
0
100
AcDbLine
10
0
20
0
30
0
11
-1
21
-0.166667
31
0
39
0
210
0
220
0
230
1
0
LINE
5
143
100
AcDbEntity
8
0
62
256
6
ByLayer
370
-2
48
1
60
0
100
AcDbLine
10
-1
20
0.166667
30
0
11
-1
21
-0.166667
31
0
39
0
210
0
220
0
230
1
0
LINE
5
144
100
AcDbEntity
8
0
62
256
6
ByLayer
370
-2
48
1
60
0
100
AcDbLine
10
0
20
0
30
0
11
-1
21
0
31
0
39
0
210
0
220
0
230
1
0
ENDBLK
5
140
100
AcDbEntity
8
0
100
AcDbBlockEnd
0
BLOCK
5
150
100
AcDbEntity
8
0
100
AcDbBlockBegin
2
DimnDraft3D2
70
0
10
0
20
0
30
0
3
DimnDraft3D2
0
MTEXT
5
146
100
AcDbEntity
8
2
62
256
6
ByLayer
370
18
48
1
60
0
100
AcDbMText
10
32.725
20
-23.375
30
0
210
0
220
0
230
1
1
\W0.6004;1.5
40
4.5
41
0
44
1.084337
50
90
71
7
72
5
7
iso_b_vert
0
LINE
5
147
100
AcDbEntity
8
2
62
256
6
ByLayer
370
13
48
1
60
0
100
AcDbLine
10
21.1
20
-7.925
30
0
11
36.85
21
-7.925
31
0
39
0
210
0
220
0
230
1
0
LINE
5
148
100
AcDbEntity
8
2
62
256
6
ByLayer
370
13
48
1
60
0
100
AcDbLine
10
21.1
20
-6.425
30
0
11
36.85
21
-6.425
31
0
39
0
210
0
220
0
230
1
0
LINE
5
149
100
AcDbEntity
8
2
62
256
6
ByLayer
370
13
48
1
60
0
100
AcDbLine
10
33.85
20
4.825
30
0
11
33.85
21
-24.5
31
0
39
0
210
0
220
0
230
1
0
LINE
5
14A
100
AcDbEntity
8
2
62
256
6
ByLayer
370
13
48
1
60
0
100
AcDbLine
10
33.85
20
-7.925
30
0
11
34.244957
21
-10.924999
31
0
39
0
210
0
220
0
230
1
0
LINE
5
14B
100
AcDbEntity
8
2
62
256
6
ByLayer
370
13
48
1
60
0
100
AcDbLine
10
33.85
20
-7.925
30
0
11
33.455043
21
-10.925001
31
0
39
0
210
0
220
0
230
1
0
LINE
5
14C
100
AcDbEntity
8
2
62
256
6
ByLayer
370
13
48
1
60
0
100
AcDbLine
10
34.244957
20
-10.924999
30
0
11
33.455043
21
-10.925001
31
0
39
0
210
0
220
0
230
1
0
LINE
5
14D
100
AcDbEntity
8
2
62
256
6
ByLayer
370
13
48
1
60
0
100
AcDbLine
10
33.85
20
-6.425
30
0
11
33.455043
21
-3.425001
31
0
39
0
210
0
220
0
230
1
0
LINE
5
14E
100
AcDbEntity
8
2
62
256
6
ByLayer
370
13
48
1
60
0
100
AcDbLine
10
33.85
20
-6.425
30
0
11
34.244957
21
-3.424999
31
0
39
0
210
0
220
0
230
1
0
LINE
5
14F
100
AcDbEntity
8
2
62
256
6
ByLayer
370
13
48
1
60
0
100
AcDbLine
10
33.455043
20
-3.425001
30
0
11
34.244957
21
-3.424999
31
0
39
0
210
0
220
0
230
1
0
ENDBLK
5
151
100
AcDbEntity
8
0
100
AcDbBlockEnd
0
BLOCK
5
15E
100
AcDbEntity
8
0
100
AcDbBlockBegin
2
DimnDraft3D3
70
0
10
0
20
0
30
0
3
DimnDraft3D3
0
MTEXT
5
154
100
AcDbEntity
8
2
62
256
6
ByLayer
370
18
48
1
60
0
100
AcDbMText
10
42.725
20
0.075
30
0
210
0
220
0
230
1
1
\W0.6563;16.0
40
4.5
41
0
44
1.084337
50
90
71
8
72
5
7
iso_b_vert
0
LINE
5
155
100
AcDbEntity
8
2
62
256
6
ByLayer
370
13
48
1
60
0
100
AcDbLine
10
21.1
20
-7.925
30
0
11
46.85
21
-7.925
31
0
39
0
210
0
220
0
230
1
0
LINE
5
156
100
AcDbEntity
8
2
62
256
6
ByLayer
370
13
48
1
60
0
100
AcDbLine
10
1.5
20
8.075
30
0
11
46.85
21
8.075
31
0
39
0
210
0
220
0
230
1
0
LINE
5
157
100
AcDbEntity
8
2
62
256
6
ByLayer
370
13
48
1
60
0
100
AcDbLine
10
43.85
20
-19.175
30
0
11
43.85
21
19.325
31
0
39
0
210
0
220
0
230
1
0
LINE
5
158
100
AcDbEntity
8
2
62
256
6
ByLayer
370
13
48
1
60
0
100
AcDbLine
10
43.85
20
-7.925
30
0
11
44.244957
21
-10.924999
31
0
39
0
210
0
220
0
230
1
0
LINE
5
159
100
AcDbEntity
8
2
62
256
6
ByLayer
370
13
48
1
60
0
100
AcDbLine
10
43.85
20
-7.925
30
0
11
43.455043
21
-10.925001
31
0
39
0
210
0
220
0
230
1
0
LINE
5
15A
100
AcDbEntity
8
2
62
256
6
ByLayer
370
13
48
1
60
0
100
AcDbLine
10
44.244957
20
-10.924999
30
0
11
43.455043
21
-10.925001
31
0
39
0
210
0
220
0
230
1
0
LINE
5
15B
100
AcDbEntity
8
2
62
256
6
ByLayer
370
13
48
1
60
0
100
AcDbLine
10
43.85
20
8.075
30
0
11
43.455043
21
11.074999
31
0
39
0
210
0
220
0
230
1
0
LINE
5
15C
100
AcDbEntity
8
2
62
256
6
ByLayer
370
13
48
1
60
0
100
AcDbLine
10
43.85
20
8.075
30
0
11
44.244957
21
11.075001
31
0
39
0
210
0
220
0
230
1
0
LINE
5
15D
100
AcDbEntity
8
2
62
256
6
ByLayer
370
13
48
1
60
0
100
AcDbLine
10
43.455043
20
11.074999
30
0
11
44.244957
21
11.075001
31
0
39
0
210
0
220
0
230
1
0
ENDBLK
5
15F
100
AcDbEntity
8
0
100
AcDbBlockEnd
0
BLOCK
5
16C
100
AcDbEntity
8
0
100
AcDbBlockBegin
2
DimnDraft3D4
70
0
10
0
20
0
30
0
3
DimnDraft3D4
0
MTEXT
5
162
100
AcDbEntity
8
SK2
62
256
6
ByLayer
370
18
48
1
60
0
100
AcDbMText
10
-19.556579
20
-31.05
30
0
210
0
220
0
230
1
1
\W0.7346;70.0
40
4.5
41
0
44
1.084337
50
0
71
7
72
5
7
iso_b_vert
0
LINE
5
163
100
AcDbEntity
8
SK2
62
256
6
ByLayer
370
13
48
1
60
0
100
AcDbLine
10
-50.4
20
-9.425
30
0
11
-50.4
21
-35.175
31
0
39
0
210
0
220
0
230
1
0
LINE
5
164
100
AcDbEntity
8
SK2
62
256
6
ByLayer
370
13
48
1
60
0
100
AcDbLine
10
19.6
20
-9.425
30
0
11
19.6
21
-35.175
31
0
39
0
210
0
220
0
230
1
0
LINE
5
165
100
AcDbEntity
8
SK2
62
256
6
ByLayer
370
13
48
1
60
0
100
AcDbLine
10
-50.4
20
-32.175
30
0
11
19.6
21
-32.175
31
0
39
0
210
0
220
0
230
1
0
LINE
5
166
100
AcDbEntity
8
SK2
62
256
6
ByLayer
370
13
48
1
60
0
100
AcDbLine
10
-50.4
20
-32.175
30
0
11
-47.400001
21
-31.780043
31
0
39
0
210
0
220
0
230
1
0
LINE
5
167
100
AcDbEntity
8
SK2
62
256
6
ByLayer
370
13
48
1
60
0
100
AcDbLine
10
-50.4
20
-32.175
30
0
11
-47.399999
21
-32.569957
31
0
39
0
210
0
220
0
230
1
0
LINE
5
168
100
AcDbEntity
8
SK2
62
256
6
ByLayer
370
13
48
1
60
0
100
AcDbLine
10
-47.400001
20
-31.780043
30
0
11
-47.399999
21
-32.569957
31
0
39
0
210
0
220
0
230
1
0
LINE
5
169
100
AcDbEntity
8
SK2
62
256
6
ByLayer
370
13
48
1
60
0
100
AcDbLine
10
19.6
20
-32.175
30
0
11
16.600001
21
-32.569957
31
0
39
0
210
0
220
0
230
1
0
LINE
5
16A
100
AcDbEntity
8
SK2
62
256
6
ByLayer
370
13
48
1
60
0
100
AcDbLine
10
19.6
20
-32.175
30
0
11
16.599999
21
-31.780043
31
0
39
0
210
0
220
0
230
1
0
LINE
5
16B
100
AcDbEntity
8
SK2
62
256
6
ByLayer
370
13
48
1
60
0
100
AcDbLine
10
16.600001
20
-32.569957
30
0
11
16.599999
21
-31.780043
31
0
39
0
210
0
220
0
230
1
0
ENDBLK
5
16D
100
AcDbEntity
8
0
100
AcDbBlockEnd
0
BLOCK
5
17A
100
AcDbEntity
8
0
100
AcDbBlockBegin
2
DimnDraft3D5
70
0
10
0
20
0
30
0
3
DimnDraft3D5
0
MTEXT
5
170
100
AcDbEntity
8
2
62
256
6
ByLayer
370
18
48
1
60
0
100
AcDbMText
10
6.205921
20
-21.05
30
0
210
0
220
0
230
1
1
\W0.6563;19.6
40
4.5
41
0
44
1.084337
50
0
71
7
72
5
7
iso_b_vert
0
LINE
5
171
100
AcDbEntity
8
2
62
256
6
ByLayer
370
13
48
1
60
0
100
AcDbLine
10
19.6
20
-9.425
30
0
11
19.6
21
-25.175
31
0
39
0
210
0
220
0
230
1
0
LINE
5
172
100
AcDbEntity
8
2
62
256
6
ByLayer
370
13
48
1
60
0
100
AcDbLine
10
0
20
-9.425
30
0
11
0
21
-25.175
31
0
39
0
210
0
220
0
230
1
0
LINE
5
173
100
AcDbEntity
8
2
62
256
6
ByLayer
370
13
48
1
60
0
100
AcDbLine
10
19.6
20
-22.175
30
0
11
0
21
-22.175
31
0
39
0
210
0
220
0
230
1
0
LINE
5
174
100
AcDbEntity
8
2
62
256
6
ByLayer
370
13
48
1
60
0
100
AcDbLine
10
19.6
20
-22.175
30
0
11
16.600001
21
-22.569957
31
0
39
0
210
0
220
0
230
1
0
LINE
5
175
100
AcDbEntity
8
2
62
256
6
ByLayer
370
13
48
1
60
0
100
AcDbLine
10
19.6
20
-22.175
30
0
11
16.599999
21
-21.780043
31
0
39
0
210
0
220
0
230
1
0
LINE
5
176
100
AcDbEntity
8
2
62
256
6
ByLayer
370
13
48
1
60
0
100
AcDbLine
10
16.600001
20
-22.569957
30
0
11
16.599999
21
-21.780043
31
0
39
0
210
0
220
0
230
1
0
LINE
5
177
100
AcDbEntity
8
2
62
256
6
ByLayer
370
13
48
1
60
0
100
AcDbLine
10
0
20
-22.175
30
0
11
2.999999
21
-21.780043
31
0
39
0
210
0
220
0
230
1
0
LINE
5
178
100
AcDbEntity
8
2
62
256
6
ByLayer
370
13
48
1
60
0
100
AcDbLine
10
0
20
-22.175
30
0
11
3.000001
21
-22.569957
31
0
39
0
210
0
220
0
230
1
0
LINE
5
179
100
AcDbEntity
8
2
62
256
6
ByLayer
370
13
48
1
60
0
100
AcDbLine
10
2.999999
20
-21.780043
30
0
11
3.000001
21
-22.569957
31
0
39
0
210
0
220
0
230
1
0
ENDBLK
5
17B
100
AcDbEntity
8
0
100
AcDbBlockEnd
0
BLOCK
5
188
100
AcDbEntity
8
0
100
AcDbBlockBegin
2
DimnDraft3D6
70
0
10
0
20
0
30
0
3
DimnDraft3D6
0
MTEXT
5
17E
100
AcDbEntity
8
2
62
256
6
ByLayer
370
18
48
1
60
0
100
AcDbMText
10
33.7
20
18.95
30
0
210
0
220
0
230
1
1
\W0.7121;8.0
40
4.5
41
0
44
1.084337
50
0
71
8
72
5
7
iso_b_vert
0
LINE
5
17F
100
AcDbEntity
8
2
62
256
6
ByLayer
370
13
48
1
60
0
100
AcDbLine
10
19.6
20
-4.925
30
0
11
19.6
21
20.825
31
0
39
0
210
0
220
0
230
1
0
LINE
5
180
100
AcDbEntity
8
2
62
256
6
ByLayer
370
13
48
1
60
0
100
AcDbLine
10
11.6
20
9.575
30
0
11
11.6
21
20.825
31
0
39
0
210
0
220
0
230
1
0
LINE
5
181
100
AcDbEntity
8
2
62
256
6
ByLayer
370
13
48
1
60
0
100
AcDbLine
10
11.6
20
17.825
30
0
11
37.3
21
17.825
31
0
39
0
210
0
220
0
230
1
0
LINE
5
182
100
AcDbEntity
8
2
62
256
6
ByLayer
370
13
48
1
60
0
100
AcDbLine
10
19.6
20
17.825
30
0
11
16.600001
21
17.430043
31
0
39
0
210
0
220
0
230
1
0
LINE
5
183
100
AcDbEntity
8
2
62
256
6
ByLayer
370
13
48
1
60
0
100
AcDbLine
10
19.6
20
17.825
30
0
11
16.599999
21
18.219957
31
0
39
0
210
0
220
0
230
1
0
LINE
5
184
100
AcDbEntity
8
2
62
256
6
ByLayer
370
13
48
1
60
0
100
AcDbLine
10
16.600001
20
17.430043
30
0
11
16.599999
21
18.219957
31
0
39
0
210
0
220
0
230
1
0
LINE
5
185
100
AcDbEntity
8
2
62
256
6
ByLayer
370
13
48
1
60
0
100
AcDbLine
10
11.6
20
17.825
30
0
11
14.599999
21
18.219957
31
0
39
0
210
0
220
0
230
1
0
LINE
5
186
100
AcDbEntity
8
2
62
256
6
ByLayer
370
13
48
1
60
0
100
AcDbLine
10
11.6
20
17.825
30
0
11
14.600001
21
17.430043
31
0
39
0
210
0
220
0
230
1
0
LINE
5
187
100
AcDbEntity
8
2
62
256
6
ByLayer
370
13
48
1
60
0
100
AcDbLine
10
14.599999
20
18.219957
30
0
11
14.600001
21
17.430043
31
0
39
0
210
0
220
0
230
1
0
ENDBLK
5
189
100
AcDbEntity
8
0
100
AcDbBlockEnd
0
ENDSEC
0
SECTION
2
ENTITIES
0
ELLIPSE
5
D6
100
AcDbEntity
8
1
62
256
6
ByLayer
370
18
48
1
60
0
100
AcDbEllipse
10
19.59994
20
-18.906107
30
0
11
-0.526372983855846
21
-24.8496087165247
31
0
210
0
220
0
230
1
40
0.353494
41
-2.10940355676888
42
-2.10001227422165
0
ELLIPSE
5
D7
100
AcDbEntity
8
1
62
256
6
ByLayer
370
18
48
1
60
0
100
AcDbEllipse
10
14.083845
20
-7.5
30
0
11
5.85726671166272E-16
21
0.500000000006944
31
0
210
0
220
0
230
1
40
0.852203
41
-1.9111355309289
42
-1.23045712266094
0
ELLIPSE
5
D8
100
AcDbEntity
8
1
62
256
6
ByLayer
370
18
48
1
60
0
100
AcDbEllipse
10
11.560063
20
-6.2
30
0
11
-0.561500343201622
21
0.579831310532065
31
0
210
0
220
0
230
1
40
0.981614
41
0.810728291609412
42
2.38152461840433
0
ELLIPSE
5
D9
100
AcDbEntity
8
1
62
256
6
ByLayer
370
18
48
1
60
0
100
AcDbEllipse
10
8.123562
20
0.4625
30
0
11
-3.4031852585558E-15
21
-3.175
31
0
210
0
220
0
230
1
40
0.927184
41
2.09448951652485
42
-2.56438221917755
0
ELLIPSE
5
DA
100
AcDbEntity
8
1
62
256
6
ByLayer
370
18
48
1
60
0
100
AcDbEllipse
10
11.445066
20
-6.2
30
0
11
9.37162673853198E-16
21
0.800000000000152
31
0
210
0
220
0
230
1
40
0.965288
41
1.5707963267949
42
3.03741897605151
0
ELLIPSE
5
DB
100
AcDbEntity
8
1
62
256
6
ByLayer
370
18
48
1
60
0
100
AcDbEllipse
10
11.450888
20
-6.2
30
0
11
-0.82822045278526
21
1.94044323517998E-15
31
0
210
0
220
0
230
1
40
0.965926
41
1.46662264927135
42
1.5707963267949
0
ELLIPSE
5
DC
100
AcDbEntity
8
1
62
256
6
ByLayer
370
18
48
1
60
0
100
AcDbEllipse
10
8.385786
20
0.4625
30
0
11
3.42434780800133
21
0
31
0
210
0
220
0
230
1
40
0.927184
41
2.14800676120714
42
2.31622622467298
0
ELLIPSE
5
DD
100
AcDbEntity
8
1
62
256
6
ByLayer
370
18
48
1
60
0
100
AcDbEllipse
10
10.332348
20
0.462501
30
0
11
-9.79403094396763E-08
21
3.17499886213144
31
0
210
0
220
0
230
1
40
0.123837
41
-1.09945503869195
42
-1.04710325658856
0
ELLIPSE
5
DE
100
AcDbEntity
8
1
62
256
6
ByLayer
370
18
48
1
60
0
100
AcDbEllipse
10
8.059843
20
0.4625
30
0
11
-3.4031852585558E-15
21
-3.175
31
0
210
0
220
0
230
1
40
0.927184
41
0.0108288309675721
42
1.09945490390934
0
ELLIPSE
5
DF
100
AcDbEntity
8
1
62
256
6
ByLayer
370
18
48
1
60
0
100
AcDbEllipse
10
8.652733
20
-6.2
30
0
11
2.13557373004321
21
0
31
0
210
0
220
0
230
1
40
0.374607
41
-3.14159265358979
42
-1.5707963267949
0
ELLIPSE
5
E0
100
AcDbEntity
8
1
62
256
6
ByLayer
370
18
48
1
60
0
100
AcDbEllipse
10
9.364186
20
0.4625
30
0
11
4.19437608314677
21
0
31
0
210
0
220
0
230
1
40
0.901606
41
2.47677347073797
42
3.06786004015762
0
ELLIPSE
5
E1
100
AcDbEntity
8
1
62
256
6
ByLayer
370
18
48
1
60
0
100
AcDbEllipse
10
9.364186
20
0.4625
30
0
11
4.19437608314677
21
0
31
0
210
0
220
0
230
1
40
0.901606
41
-3.06786004015761
42
-2.47677347073797
0
ELLIPSE
5
E2
100
AcDbEntity
8
1
62
256
6
ByLayer
370
18
48
1
60
0
100
AcDbEllipse
10
10.958498
20
-6.2
30
0
11
-3.90697147633649
21
9.15366958857747E-15
31
0
210
0
220
0
230
1
40
0.204762
41
1.5707963267949
42
1.67497000431181
0
ELLIPSE
5
E3
100
AcDbEntity
8
1
62
256
6
ByLayer
370
18
48
1
60
0
100
AcDbEllipse
10
8.059843
20
0.4625
30
0
11
-3.4031852585558E-15
21
-3.175
31
0
210
0
220
0
230
1
40
0.927184
41
2.04213774968045
42
3.13076382262222
0
ELLIPSE
5
E4
100
AcDbEntity
8
1
62
256
6
ByLayer
370
18
48
1
60
0
100
AcDbEllipse
10
10.332348
20
0.462499
30
0
11
-9.74107730607034E-08
21
-3.17499886831344
31
0
210
0
220
0
230
1
40
0.123837
41
1.04710325595607
42
1.09945503797608
0
ELLIPSE
5
E5
100
AcDbEntity
8
1
62
256
6
ByLayer
370
18
48
1
60
0
100
AcDbEllipse
10
8.385786
20
0.4625
30
0
11
3.42434780800133
21
0
31
0
210
0
220
0
230
1
40
0.927184
41
-2.31622622467298
42
-2.14800676120714
0
ELLIPSE
5
E6
100
AcDbEntity
8
1
62
256
6
ByLayer
370
18
48
1
60
0
100
AcDbEllipse
10
8.123562
20
0.4625
30
0
11
-3.4031852585558E-15
21
-3.175
31
0
210
0
220
0
230
1
40
0.927184
41
-0.577210434412244
42
1.04710313706494
0
ELLIPSE
5
E7
100
AcDbEntity
8
1
62
256
6
ByLayer
370
18
48
1
60
0
100
AcDbEllipse
10
13.785192
20
-7.425
30
0
11
-3.480967793023
21
8.1555827112642E-15
31
0
210
0
220
0
230
1
40
0.086183
41
2.79252680303212
42
-2.7925268030321
0
ELLIPSE
5
E8
100
AcDbEntity
8
1
62
256
6
ByLayer
370
18
48
1
60
0
100
AcDbEllipse
10
7.950739
20
0.4625
30
0
11
3.51436002694883E-15
21
3
31
0
210
0
220
0
230
1
40
0.927184
41
0
42
-3.14159247561719
0
ELLIPSE
5
E9
100
AcDbEntity
8
1
62
256
6
ByLayer
370
18
48
1
60
0
100
AcDbEllipse
10
8.100582
20
0.4625
30
0
11
3.51436002694883E-15
21
3
31
0
210
0
220
0
230
1
40
0.927184
41
0
42
-2.86964854178685
0
ELLIPSE
5
EA
100
AcDbEntity
8
1
62
256
6
ByLayer
370
18
48
1
60
0
100
AcDbEllipse
10
8.100582
20
0.4625
30
0
11
3.51436002694883E-15
21
3
31
0
210
0
220
0
230
1
40
0.927184
41
-0.184961091485386
42
-2.59439681877726E-16
0
ELLIPSE
5
EB
100
AcDbEntity
8
1
62
256
6
ByLayer
370
18
48
1
60
0
100
AcDbEllipse
10
8.175503
20
0.4625
30
0
11
3.28006935848557E-15
21
2.8
31
0
210
0
220
0
230
1
40
0.927184
41
0
42
6.28318530717959
0
ELLIPSE
5
EC
100
AcDbEntity
8
1
62
256
6
ByLayer
370
18
48
1
60
0
100
AcDbEllipse
10
7.351368
20
-1.42206
30
0
11
8.03616992828965E-16
21
0.686
31
0
210
0
220
0
230
1
40
0.927184
41
0.121614041216901
42
0.183295313254391
0
ELLIPSE
5
ED
100
AcDbEntity
8
1
62
256
6
ByLayer
370
18
48
1
60
0
100
AcDbEllipse
10
7.996311
20
-0.734576
30
0
11
3.42064375956352E-16
21
0.292
31
0
210
0
220
0
230
1
40
0.927184
41
-1.69684708887387
42
-1.30900918493173
0
ELLIPSE
5
EE
100
AcDbEntity
8
1
62
256
6
ByLayer
370
18
48
1
60
0
100
AcDbEllipse
10
8.872202
20
-0.481462
30
0
11
8.03616992828965E-16
21
0.686
31
0
210
0
220
0
230
1
40
0.927184
41
0.264602181416468
42
1.04859282503727
0
ELLIPSE
5
EF
100
AcDbEntity
8
1
62
256
6
ByLayer
370
18
48
1
60
0
100
AcDbEllipse
10
8.872202
20
-0.481462
30
0
11
8.03616992828965E-16
21
0.686
31
0
210
0
220
0
230
1
40
0.927184
41
1.04859282503727
42
1.83258346865807
0
ELLIPSE
5
F0
100
AcDbEntity
8
1
62
256
6
ByLayer
370
18
48
1
60
0
100
AcDbEllipse
10
8.635054
20
0.4625
30
0
11
3.42064375956352E-16
21
0.292
31
0
210
0
220
0
230
1
40
0.927184
41
-2.87699047217335
42
-0.264602181416447
0
ELLIPSE
5
F1
100
AcDbEntity
8
1
62
256
6
ByLayer
370
18
48
1
60
0
100
AcDbEllipse
10
8.872202
20
1.406462
30
0
11
8.03616992828965E-16
21
0.686
31
0
210
0
220
0
230
1
40
0.927184
41
1.30900918493173
42
2.09299982855253
0
ELLIPSE
5
F2
100
AcDbEntity
8
1
62
256
6
ByLayer
370
18
48
1
60
0
100
AcDbEllipse
10
8.872202
20
1.406462
30
0
11
8.03616992828965E-16
21
0.686
31
0
210
0
220
0
230
1
40
0.927184
41
2.09299982855253
42
2.87699047217333
0
ELLIPSE
5
F3
100
AcDbEntity
8
1
62
256
6
ByLayer
370
18
48
1
60
0
100
AcDbEllipse
10
8.073852
20
0.4625
30
0
11
-1.29321039825121E-15
21
-1.2065
31
0
210
0
220
0
230
1
40
0.927184
41
3.0725600201779
42
-3.0725600201779
0
ELLIPSE
5
F4
100
AcDbEntity
8
1
62
256
6
ByLayer
370
18
48
1
60
0
100
AcDbEllipse
10
8.073852
20
0.4625
30
0
11
-1.29321039825121E-15
21
-1.2065
31
0
210
0
220
0
230
1
40
0.927184
41
-0.0690326334118971
42
0.069032633411895
0
ELLIPSE
5
F5
100
AcDbEntity
8
1
62
256
6
ByLayer
370
18
48
1
60
0
100
AcDbEllipse
10
8.175503
20
0.4625
30
0
11
-1.79698900345474E-15
21
-1.6765
31
0
210
0
220
0
230
1
40
0.927184
41
-1.5707963267949
42
-0.526389323279638
0
ELLIPSE
5
F6
100
AcDbEntity
8
1
62
256
6
ByLayer
370
18
48
1
60
0
100
AcDbEllipse
10
7.089144
20
0.4625
30
0
11
-1.29321039825121E-15
21
-1.2065
31
0
210
0
220
0
230
1
40
0.927184
41
0.130867049978231
42
3.0101369055359
0
ELLIPSE
5
F7
100
AcDbEntity
8
1
62
256
6
ByLayer
370
18
48
1
60
0
100
AcDbEllipse
10
7.351368
20
0.4625
30
0
11
-1.29321039825121E-15
21
-1.2065
31
0
210
0
220
0
230
1
40
0.927184
41
2.09299982855252
42
3.07256002017789
0
ELLIPSE
5
F8
100
AcDbEntity
8
1
62
256
6
ByLayer
370
18
48
1
60
0
100
AcDbEllipse
10
7.351368
20
0.4625
30
0
11
-1.29321039825121E-15
21
-1.2065
31
0
210
0
220
0
230
1
40
0.927184
41
1.04859282503727
42
2.09299982855252
0
ELLIPSE
5
F9
100
AcDbEntity
8
1
62
256
6
ByLayer
370
18
48
1
60
0
100
AcDbEllipse
10
7.351368
20
0.4625
30
0
11
-1.29321039825121E-15
21
-1.2065
31
0
210
0
220
0
230
1
40
0.927184
41
0.069032633411903
42
1.04859282503727
0
ELLIPSE
5
FA
100
AcDbEntity
8
1
62
256
6
ByLayer
370
18
48
1
60
0
100
AcDbEllipse
10
7.351368
20
0.4625
30
0
11
-1.29321039825121E-15
21
-1.2065
31
0
210
0
220
0
230
1
40
0.927184
41
-0.10556719145284
42
-0.069032633411897
0
ELLIPSE
5
FB
100
AcDbEntity
8
1
62
256
6
ByLayer
370
18
48
1
60
0
100
AcDbEllipse
10
7.996311
20
1.659576
30
0
11
3.42064375956352E-16
21
0.292
31
0
210
0
220
0
230
1
40
0.927184
41
-1.83258346865806
42
-1.44700144809285
0
ELLIPSE
5
FC
100
AcDbEntity
8
1
62
256
6
ByLayer
370
18
48
1
60
0
100
AcDbEllipse
10
7.351368
20
2.34706
30
0
11
8.03616992828965E-16
21
0.686
31
0
210
0
220
0
230
1
40
0.927184
41
2.95960504560922
42
3.01997861237289
0
ELLIPSE
5
FD
100
AcDbEntity
8
1
62
256
6
ByLayer
370
18
48
1
60
0
100
AcDbEllipse
10
7.351368
20
0.4625
30
0
11
-1.29321039825121E-15
21
-1.2065
31
0
210
0
220
0
230
1
40
0.927184
41
-3.0725600201779
42
-3.0376786648916
0
ELLIPSE
5
FE
100
AcDbEntity
8
1
62
256
6
ByLayer
370
18
48
1
60
0
100
AcDbEllipse
10
8.175503
20
0.4625
30
0
11
1.96394152839324E-15
21
1.6765
31
0
210
0
220
0
230
1
40
0.927184
41
-2.61520333031016
42
-1.5707963267949
0
ELLIPSE
5
FF
100
AcDbEntity
8
1
62
256
6
ByLayer
370
18
48
1
60
0
100
AcDbEllipse
10
8.175503
20
0.4625
30
0
11
1.96394152839324E-15
21
1.6765
31
0
210
0
220
0
230
1
40
0.927184
41
-1.5707963267949
42
-0.526389323279641
0
ELLIPSE
5
100
100
AcDbEntity
8
1
62
256
6
ByLayer
370
18
48
1
60
0
100
AcDbEllipse
10
8.175503
20
0.4625
30
0
11
1.96394152839324E-15
21
1.6765
31
0
210
0
220
0
230
1
40
0.927184
41
-0.526389323279641
42
0.526389323279636
0
ELLIPSE
5
101
100
AcDbEntity
8
1
62
256
6
ByLayer
370
18
48
1
60
0
100
AcDbEllipse
10
8.175503
20
0.4625
30
0
11
1.96394152839324E-15
21
1.6765
31
0
210
0
220
0
230
1
40
0.927184
41
0.526389323279636
42
1.5707963267949
0
ELLIPSE
5
102
100
AcDbEntity
8
1
62
256
6
ByLayer
370
18
48
1
60
0
100
AcDbEllipse
10
8.175503
20
0.4625
30
0
11
1.96394152839324E-15
21
1.6765
31
0
210
0
220
0
230
1
40
0.927184
41
2.61520333031016
42
-2.61520333031016
0
POINT
5
6C
100
AcDbEntity
8
81
62
256
6
ByLayer
370
18
48
1
60
0
100
AcDbPoint
10
19.6
20
-8.075
30
0
39
0
210
0
220
0
230
1
50
360
0
POINT
5
6E
100
AcDbEntity
8
80
62
256
6
ByLayer
370
18
48
1
60
0
100
AcDbPoint
10
0
20
0
30
0
39
0
210
0
220
0
230
1
50
360
0
POINT
5
70
100
AcDbEntity
8
2
62
256
6
ByLayer
370
18
48
1
60
0
100
AcDbPoint
10
19.6
20
7.5
30
0
39
0
210
0
220
0
230
1
50
360
0
POINT
5
72
100
AcDbEntity
8
4
62
256
6
ByLayer
370
13
48
1
60
0
100
AcDbPoint
10
5.999783
20
-0.4625
30
0
39
0
210
0
220
0
230
1
50
360
0
SPLINE
5
103
100
AcDbEntity
8
1
62
256
6
ByLayer
370
18
48
1
60
0
100
AcDbSpline
70
4
71
3
72
40
73
36
40
0
40
0
40
0
40
0
40
0.0282078407007258
40
0.0586875231593854
40
0.0891809402693965
40
0.119690434221991
40
0.150217514253056
40
0.18076288088692
40
0.211326507482809
40
0.241907760762345
40
0.272505540629806
40
0.303118421261534
40
0.333744779157038
40
0.364382898497136
40
0.395031048782436
40
0.42568753367466
40
0.456350712928335
40
0.487019001265444
40
0.517690849181559
40
0.548364401091276
40
0.579037867636006
40
0.609709575066797
40
0.640377733404774
40
0.6710404188473
40
0.70169557570957
40
0.732341043390981
40
0.762974612837646
40
0.793594114872135
40
0.82419753950664
40
0.854783180973949
40
0.885349798067402
40
0.915896774238355
40
0.946424257866712
40
0.976933261445629
40
1
40
1
40
1
40
1
41
1
10
8.85534101369979
20
-2.42546003262228
30
0
41
1
10
8.92366282482266
20
-2.40525499785704
30
0
41
1
10
9.06375100519276
20
-2.35746385855202
30
0
41
1
10
9.27062598192936
20
-2.26595134229427
30
0
41
1
10
9.47486920411117
20
-2.15412362930147
30
0
41
1
10
9.66991083513068
20
-2.02463371607155
30
0
41
1
10
9.85443413620874
20
-1.87844945885718
30
0
41
1
10
10.0272026017933
20
-1.71651235146774
30
0
41
1
10
10.1870517596663
20
-1.53990831730692
30
0
41
1
10
10.3329023689276
20
-1.34981390353283
30
0
41
1
10
10.4637673177145
20
-1.14750133033996
30
0
41
1
10
10.5787593800544
20
-0.934326502103289
30
0
41
1
10
10.677097707003
20
-0.711720526997738
30
0
41
1
10
10.7581134941864
20
-0.481179461656637
30
0
41
1
10
10.8212546532953
20
-0.244253924642521
30
0
41
1
10
10.8660895394461
20
-0.0025383407050867
30
0
41
1
10
10.8923097665112
20
0.242339955213566
30
0
41
1
10
10.8997321690995
20
0.488731691495758
30
0
41
1
10
10.8883000060987
20
0.734975813910523
30
0
41
1
10
10.8580836946445
20
0.979410741760432
30
0
41
1
10
10.8092806412028
20
1.22038589888811
30
0
41
1
10
10.7422139386711
20
1.45627343595425
30
0
41
1
10
10.6573304798379
20
1.68547874682608
30
0
41
1
10
10.5551986123741
20
1.90645074006636
30
0
41
1
10
10.4365049381429
20
2.11769255540395
30
0
41
1
10
10.3020502647109
20
2.31777224010159
30
0
41
1
10
10.1527445974286
20
2.50533295032511
30
0
41
1
10
9.98960123299983
20
2.6791038822951
30
0
41
1
10
9.81372940799722
20
2.83790683240252
30
0
41
1
10
9.62632734449693
20
2.98067660104738
30
0
41
1
10
9.42866885036094
20
3.10642634444568
30
0
41
1
10
9.22210932955701
20
3.21441370370806
30
0
41
1
10
9.00801551466094
20
3.30355282483606
30
0
41
1
10
8.80582842548071
20
3.368865217597
30
0
41
1
10
8.67441216770888
20
3.39832652682526
30
0
41
1
10
8.61731253497612
20
3.40895430604675
30
0
0
SPLINE
5
104
100
AcDbEntity
8
1
62
256
6
ByLayer
370
18
48
1
60
0
100
AcDbSpline
70
4
71
3
72
8
73
4
40
0
40
0
40
0
40
0
40
1
40
1
40
1
40
1
41
1
10
19.3527319879593
20
-6.65136371406331
30
0
41
1
10
19.3530457960092
20
-6.64262292889831
30
0
41
1
10
19.3533502762519
20
-6.63376891223191
30
0
41
1
10
19.3536450175936
20
-6.62481141710043
30
0
0
SPLINE
5
105
100
AcDbEntity
8
1
62
256
6
ByLayer
370
18
48
1
60
0
100
AcDbSpline
70
4
71
3
72
10
73
6
40
0
40
0
40
0
40
0
40
0.429230389193115
40
0.429230389193115
40
1
40
1
40
1
40
1
41
1
10
19.3536450175937
20
-6.62481141710049
30
0
41
1
10
19.3170159575503
20
-6.5690268537181
30
0
41
1
10
19.2779833722478
20
-6.50958181946908
30
0
41
1
10
19.1850017212284
20
-6.36797456013605
30
0
41
1
10
19.1294552642046
20
-6.28337957329114
30
0
41
1
10
19.0747068676734
20
-6.20000000000246
30
0
0
SPLINE
5
106
100
AcDbEntity
8
1
62
256
6
ByLayer
370
18
48
1
60
0
100
AcDbSpline
70
4
71
3
72
12
73
8
40
0
40
0
40
0
40
0
40
0.340242540930061
40
0.340242540930061
40
0.682858676730498
40
0.682858676730498
40
1
40
1
40
1
40
1
41
1
10
12.2831490525594
20
-6.20000000000161
30
0
41
1
10
12.2662053141101
20
-6.27401248512231
30
0
41
1
10
12.2609807190874
20
-6.35134624499494
30
0
41
1
10
12.2783754129606
20
-6.50140284986651
30
0
41
1
10
12.3015925645877
20
-6.57616079825016
30
0
41
1
10
12.3718278737565
20
-6.70518499208831
30
0
41
1
10
12.4178789479894
20
-6.76223930339319
30
0
41
1
10
12.4718850849265
20
-6.80978010067105
30
0
0
SPLINE
5
107
100
AcDbEntity
8
1
62
256
6
ByLayer
370
18
48
1
60
0
100
AcDbSpline
70
4
71
3
72
8
73
4
40
0
40
0
40
0
40
0
40
1
40
1
40
1
40
1
41
1
10
10.6826584256375
20
1.90420986632296
30
0
41
1
10
10.6853525389859
20
1.80220422997675
30
0
41
1
10
10.6878115761705
20
1.69775219082615
30
0
41
1
10
10.6900032134595
20
1.591402520982
30
0
0
SPLINE
5
108
100
AcDbEntity
8
1
62
256
6
ByLayer
370
18
48
1
60
0
100
AcDbSpline
70
4
71
3
72
8
73
4
40
0
40
0
40
0
40
0
40
1
40
1
40
1
40
1
41
1
10
10.6899744301318
20
-0.667821230192004
30
0
41
1
10
10.687791098793
20
-0.773626518966552
30
0
41
1
10
10.6853421024592
20
-0.877599382075886
30
0
41
1
10
10.6826584256375
20
-0.979209866324453
30
0
0
SPLINE
5
109
100
AcDbEntity
8
1
62
256
6
ByLayer
370
18
48
1
60
0
100
AcDbSpline
70
4
71
2
72
6
73
3
40
0
40
0
40
0
40
1
40
1
40
1
41
1
10
17.1731995121745
20
-6.7349259479449
30
0
41
1
10
17.1526674964191
20
-6.73602922009874
30
0
41
1
10
17.1328867820071
20
-6.7411014332919
30
0
0
SPLINE
5
10A
100
AcDbEntity
8
1
62
256
6
ByLayer
370
18
48
1
60
0
100
AcDbSpline
70
4
71
2
72
9
73
6
40
0
40
0
40
0
40
0.25
40
0.5
40
0.75
40
1
40
1
40
1
41
1
10
5.61918651343595
20
-8.00269703717987
30
0
41
1
10
5.61929560321923
20
-8.04396357506943
30
0
41
1
10
5.65164485492019
20
-8.11952562113905
30
0
41
1
10
5.71121397949847
20
-8.1760388226985
30
0
41
1
10
5.78835141847927
20
-8.20469443568243
30
0
41
1
10
5.83052544895358
20
-8.20235866884289
30
0
0
SPLINE
5
10B
100
AcDbEntity
8
1
62
256
6
ByLayer
370
18
48
1
60
0
100
AcDbSpline
70
4
71
8
72
18
73
9
40
0
40
0
40
0
40
0
40
0
40
0
40
0
40
0
40
0
40
1
40
1
40
1
40
1
40
1
40
1
40
1
40
1
40
1
41
1
10
15.5042151955661
20
-8.03999999999988
30
0
41
1
10
15.5095978294288
20
-8.03999999999988
30
0
41
1
10
15.5149839386574
20
-8.03999999999988
30
0
41
1
10
15.5203725700798
20
-8.03999999999988
30
0
41
1
10
15.5257627697025
20
-8.03999999999988
30
0
41
1
10
15.5311535829897
20
-8.03999999999988
30
0
41
1
10
15.5365440552538
20
-8.03999999999988
30
0
41
1
10
15.5419332320356
20
-8.03999999999988
30
0
41
1
10
15.5473201594157
20
-8.03999999999988
30
0
0
SPLINE
5
10C
100
AcDbEntity
8
1
62
256
6
ByLayer
370
18
48
1
60
0
100
AcDbSpline
70
4
71
8
72
18
73
9
40
0
40
0
40
0
40
0
40
0
40
0
40
0
40
0
40
0
40
1
40
1
40
1
40
1
40
1
40
1
40
1
40
1
40
1
41
1
10
9.65163765267457
20
-8.03999999999988
30
0
41
1
10
9.6462550188094
20
-8.03999999999988
30
0
41
1
10
9.64087586035001
20
-8.03999999999988
30
0
41
1
10
9.63550113046824
20
-8.03999999999988
30
0
41
1
10
9.63013178143444
20
-8.03999999999988
30
0
41
1
10
9.62476876433772
20
-8.03999999999988
30
0
41
1
10
9.61941302869721
20
-8.03999999999988
30
0
41
1
10
9.61406552208354
20
-8.03999999999988
30
0
41
1
10
9.60872718981082
20
-8.03999999999988
30
0
0
SPLINE
5
10D
100
AcDbEntity
8
1
62
256
6
ByLayer
370
18
48
1
60
0
100
AcDbSpline
70
4
71
3
72
8
73
4
40
0
40
0
40
0
40
0
40
1
40
1
40
1
40
1
41
1
10
17.1731995121746
20
-8.11507405205515
30
0
41
1
10
17.1595886375341
20
-8.11438507565381
30
0
41
1
10
17.146058675874
20
-8.11231165208687
30
0
41
1
10
17.1328867820106
20
-8.10889856670835
30
0
0
SPLINE
5
10E
100
AcDbEntity
8
1
62
256
6
ByLayer
370
18
48
1
60
0
100
AcDbSpline
70
4
71
2
72
9
73
6
40
0
40
0
40
0
40
0.25
40
0.5
40
0.75
40
1
40
1
40
1
41
1
10
19.6
20
-6.8473029628199
30
0
41
1
10
19.5998909102167
20
-6.80603642493037
30
0
41
1
10
19.5675416585158
20
-6.73047437886072
30
0
41
1
10
19.5079725339375
20
-6.67396117730126
30
0
41
1
10
19.4308350949566
20
-6.64530556431734
30
0
41
1
10
19.3886610644824
20
-6.6476413311569
30
0
0
SPLINE
5
10F
100
AcDbEntity
8
1
62
256
6
ByLayer
370
18
48
1
60
0
100
AcDbSpline
70
4
71
2
72
6
73
3
40
0
40
0
40
0
40
1
40
1
40
1
41
1
10
7.99751478412912
20
-8.11507405205489
30
0
41
1
10
8.01786158196657
20
-8.11397077990102
30
0
41
1
10
8.03746385589906
20
-8.10889856670789
30
0
0
SPLINE
5
110
100
AcDbEntity
8
1
62
256
6
ByLayer
370
18
48
1
60
0
100
AcDbSpline
70
4
71
5
72
12
73
6
40
0
40
0
40
0
40
0
40
0
40
0
40
1
40
1
40
1
40
1
40
1
40
1
41
1
10
15.5042151955661
20
-7.8899999999999
30
0
41
1
10
15.5129073314962
20
-7.8900000057879
30
0
41
1
10
15.5216086784979
20
-7.88947962053089
30
0
41
1
10
15.5302725796263
20
-7.8884389913689
30
0
41
1
10
15.5388553500442
20
-7.88689897382289
30
0
41
1
10
15.5473201594157
20
-7.88489464695888
30
0
0
SPLINE
5
111
100
AcDbEntity
8
1
62
256
6
ByLayer
370
18
48
1
60
0
100
AcDbSpline
70
4
71
8
72
18
73
9
40
0
40
0
40
0
40
0
40
0
40
0
40
0
40
0
40
0
40
1
40
1
40
1
40
1
40
1
40
1
40
1
40
1
40
1
41
1
10
15.5042151955661
20
-6.80999999999989
30
0
41
1
10
15.5095978294288
20
-6.80999999999989
30
0
41
1
10
15.5149839386574
20
-6.80999999999989
30
0
41
1
10
15.5203725700798
20
-6.80999999999989
30
0
41
1
10
15.5257627697025
20
-6.80999999999989
30
0
41
1
10
15.5311535829897
20
-6.80999999999989
30
0
41
1
10
15.5365440552538
20
-6.80999999999989
30
0
41
1
10
15.5419332320356
20
-6.80999999999989
30
0
41
1
10
15.5473201594157
20
-6.80999999999989
30
0
0
SPLINE
5
112
100
AcDbEntity
8
1
62
256
6
ByLayer
370
18
48
1
60
0
100
AcDbSpline
70
4
71
3
72
8
73
4
40
0
40
0
40
0
40
0
40
1
40
1
40
1
40
1
41
1
10
16.8399688943793
20
-6.80999999999989
30
0
41
1
10
16.8579974123402
20
-6.80999999999989
30
0
41
1
10
16.8760245697179
20
-6.8077024096988
30
0
41
1
10
16.8934591961741
20
-6.80318516519162
30
0
0
SPLINE
5
113
100
AcDbEntity
8
1
62
256
6
ByLayer
370
18
48
1
60
0
100
AcDbSpline
70
4
71
3
72
8
73
4
40
0
40
0
40
0
40
0
40
1
40
1
40
1
40
1
41
1
10
8.32773935118186
20
-8.03999999999988
30
0
41
1
10
8.30987167734591
20
-8.03999999999988
30
0
41
1
10
8.29200536409289
20
-8.04229759030096
30
0
41
1
10
8.27473158176196
20
-8.04681483480815
30
0
0
SPLINE
5
114
100
AcDbEntity
8
1
62
256
6
ByLayer
370
18
48
1
60
0
100
AcDbSpline
70
4
71
5
72
12
73
6
40
0
40
0
40
0
40
0
40
0
40
0
40
1
40
1
40
1
40
1
40
1
40
1
41
1
10
15.5042151955661
20
-6.95999999999989
30
0
41
1
10
15.5129073314962
20
-6.9599999942119
30
0
41
1
10
15.5216086784979
20
-6.9605203794689
30
0
41
1
10
15.5302725796263
20
-6.96156100863089
30
0
41
1
10
15.5388553500442
20
-6.9631010261769
30
0
41
1
10
15.5473201594157
20
-6.96510535304088
30
0
0
SPLINE
5
115
100
AcDbEntity
8
1
62
256
6
ByLayer
370
18
48
1
60
0
100
AcDbSpline
70
4
71
2
72
6
73
3
40
0
40
0
40
0
40
1
40
1
40
1
41
1
10
16.8399688943771
20
-8.03999999999991
30
0
41
1
10
16.8672220174479
20
-8.04008148075937
30
0
41
1
10
16.8934591961737
20
-8.04681483480988
30
0
0
SPLINE
5
116
100
AcDbEntity
8
1
62
256
6
ByLayer
370
18
48
1
60
0
100
AcDbSpline
70
4
71
11
72
24
73
12
40
0
40
0
40
0
40
0
40
0
40
0
40
0
40
0
40
0
40
0
40
0
40
0
40
1
40
1
40
1
40
1
40
1
40
1
40
1
40
1
40
1
40
1
40
1
40
1
41
1
10
19.5999999999961
20
-8.00269703718115
30
0
41
1
10
19.5999999999961
20
-8.03231474589316
30
0
41
1
10
19.5951819640784
20
-8.06193245241815
30
0
41
1
10
19.5855458934813
20
-8.09067691795215
30
0
41
1
10
19.5712693544425
20
-8.11767488118517
30
0
41
1
10
19.5527074863479
20
-8.14209448549016
30
0
41
1
10
19.5303817736604
20
-8.16318661530417
30
0
41
1
10
19.50495761701
20
-8.18032263691015
30
0
41
1
10
19.4772121568912
20
-8.19302478862116
30
0
41
1
10
19.4479953656577
20
-8.20098641692917
30
0
41
1
10
19.4181881431402
20
-8.20408078540916
30
0
41
1
10
19.3886610644784
20
-8.20235866884417
30
0
0
SPLINE
5
117
100
AcDbEntity
8
1
62
256
6
ByLayer
370
18
48
1
60
0
100
AcDbSpline
70
4
71
3
72
12
73
8
40
0
40
0
40
0
40
0
40
0.49578557572896
40
0.49578557572896
40
0.900238279923944
40
0.900238279923944
40
1
40
1
40
1
40
1
41
1
10
7.68165710202985
20
-0.939836787650592
30
0
41
1
10
7.71421807449735
20
-0.889108012957138
30
0
41
1
10
7.75652477541934
20
-0.844623351453606
30
0
41
1
10
7.85028738532992
20
-0.782660731175639
30
0
41
1
10
7.89981637672622
20
-0.761163650635865
30
0
41
1
10
7.96827575553436
20
-0.74566202596543
30
0
41
1
10
7.98233602202336
20
-0.743106579894146
30
0
41
1
10
7.99668977973073
20
-0.741126350896451
30
0
0
SPLINE
5
118
100
AcDbEntity
8
1
62
256
6
ByLayer
370
18
48
1
60
0
100
AcDbSpline
70
4
71
3
72
14
73
10
40
0
40
0
40
0
40
0
40
0.28216992257611
40
0.28216992257611
40
0.566902245317971
40
0.566902245317971
40
0.824523972080266
40
0.824523972080266
40
1
40
1
40
1
40
1
41
1
10
7.68165710202985
20
-0.939836787650592
30
0
41
1
10
7.66632167801646
20
-0.963728803479654
30
0
41
1
10
7.64607914429453
20
-0.984190953985433
30
0
41
1
10
7.59820094687657
20
-1.01392759952171
30
0
41
1
10
7.56972889440559
20
-1.02350316007329
30
0
41
1
10
7.51205476870106
20
-1.02813981766084
30
0
41
1
10
7.48229847947698
20
-1.02450486817401
30
0
41
1
10
7.43338165054942
20
-1.00833834362939
30
0
41
1
10
7.41345776887252
20
-0.998904333551309
30
0
41
1
10
7.39453747454371
20
-0.987046762837423
30
0
0
SPLINE
5
119
100
AcDbEntity
8
1
62
256
6
ByLayer
370
18
48
1
60
0
100
AcDbSpline
70
4
71
3
72
16
73
12
40
0
40
0
40
0
40
0
40
0.0569446172825015
40
0.0569446172825015
40
0.279906644834076
40
0.279906644834076
40
0.505321967306688
40
0.505321967306688
40
0.744915047128816
40
0.744915047128816
40
1
40
1
40
1
40
1
41
1
10
7.39453747454371
20
-0.987046762837423
30
0
41
1
10
7.38842616670058
20
-0.983216734422172
30
0
41
1
10
7.38239508018214
20
-0.979124426221631
30
0
41
1
10
7.35347774299012
20
-0.957958650749617
30
0
41
1
10
7.3318685537233
20
-0.937131063762081
30
0
41
1
10
7.29446677501943
20
-0.890861023804064
30
0
41
1
10
7.27824961269064
20
-0.864795361716091
30
0
41
1
10
7.25197173462098
20
-0.809561963343299
30
0
41
1
10
7.24200829581565
20
-0.779621704693682
30
0
41
1
10
7.22928775341879
20
-0.719203916954285
30
0
41
1
10
7.22685886858557
20
-0.688100734855169
30
0
41
1
10
7.22823562078756
20
-0.659004041776399
30
0
0
SPLINE
5
11A
100
AcDbEntity
8
1
62
256
6
ByLayer
370
18
48
1
60
0
100
AcDbSpline
70
4
71
3
72
18
73
14
40
0
40
0
40
0
40
0
40
0.212491592102414
40
0.212491592102414
40
0.386618191488472
40
0.386618191488472
40
0.562426295050811
40
0.562426295050811
40
0.715388354469455
40
0.715388354469455
40
0.918249128147156
40
0.918249128147156
40
1
40
1
40
1
40
1
41
1
10
6.78020098142409
20
0.180662587869051
30
0
41
1
10
6.82992888021053
20
0.162101293062562
30
0
41
1
10
6.87985488400787
20
0.132118191088864
30
0
41
1
10
6.96633769484427
20
0.0569034763478271
30
0
41
1
10
7.00464851856825
20
0.0144193565813566
30
0
41
1
10
7.07494451377016
20
-0.0840459444130204
30
0
41
1
10
7.1078878398022
20
-0.141736286893917
30
0
41
1
10
7.15870327135372
20
-0.254203910713102
30
0
41
1
10
7.1785990194409
20
-0.30969071403797
30
0
41
1
10
7.21319089874626
20
-0.43636233775942
30
0
41
1
10
7.22477193241681
20
-0.508919161560897
30
0
41
1
10
7.22946564659645
20
-0.605006572745054
30
0
41
1
10
7.22949705821287
20
-0.632344445699943
30
0
41
1
10
7.22823562078756
20
-0.65900404177637
30
0
0
SPLINE
5
11B
100
AcDbEntity
8
1
62
256
6
ByLayer
370
18
48
1
60
0
100
AcDbSpline
70
4
71
3
72
14
73
10
40
0
40
0
40
0
40
0
40
0.283961457856589
40
0.283961457856589
40
0.570284934646625
40
0.570284934646625
40
0.829450869060467
40
0.829450869060467
40
1
40
1
40
1
40
1
41
1
10
6.78020098142409
20
0.180662587869051
30
0
41
1
10
6.7567105293719
20
0.189430567540796
30
0
41
1
10
6.73339756249609
20
0.204188691790335
30
0
41
1
10
6.69136606156709
20
0.244684456045832
30
0
41
1
10
6.67206647072564
20
0.27119050668972
30
0
41
1
10
6.64343590915044
20
0.329566773783398
30
0
41
1
10
6.63294203538058
20
0.361604397389129
30
0
41
1
10
6.62310546481507
20
0.416857989121183
30
0
41
1
10
6.62107913024533
20
0.439770339203903
30
0
41
1
10
6.62107913024533
20
0.462499999999494
30
0
0
SPLINE
5
11C
100
AcDbEntity
8
1
62
256
6
ByLayer
370
18
48
1
60
0
100
AcDbSpline
70
4
71
3
72
16
73
12
40
0
40
0
40
0
40
0
40
0.0630415689509331
40
0.0630415689509331
40
0.285914332024982
40
0.285914332024982
40
0.511588305408909
40
0.511588305408909
40
0.751723061839373
40
0.751723061839373
40
1
40
1
40
1
40
1
41
1
10
6.62107913024533
20
0.462499999999494
30
0
41
1
10
6.62107913024533
20
0.47093365383239
30
0
41
1
10
6.62135340394363
20
0.479376968349925
30
0
41
1
10
6.62381625991742
20
0.517253792431006
30
0
41
1
10
6.62921355126801
20
0.54662160877001
30
0
41
1
10
6.64587031020068
20
0.600867789842795
30
0
41
1
10
6.65739661844609
20
0.626384549643319
30
0
41
1
10
6.68534039593263
20
0.671952916501283
30
0
41
1
10
6.70235365057547
20
0.692140568252654
30
0
41
1
10
6.73926691630604
20
0.72445144864713
30
0
41
1
10
6.75964772682079
20
0.736665762467766
30
0
41
1
10
6.78020098142406
20
0.744337412129909
30
0
0
SPLINE
5
11D
100
AcDbEntity
8
1
62
256
6
ByLayer
370
18
48
1
60
0
100
AcDbSpline
70
4
71
3
72
18
73
14
40
0
40
0
40
0
40
0
40
0.2124916957553
40
0.2124916957553
40
0.386618276853804
40
0.386618276853804
40
0.562426360907932
40
0.562426360907932
40
0.715388416645935
40
0.715388416645935
40
0.918249208689861
40
0.918249208689861
40
1
40
1
40
1
40
1
41
1
10
7.22823562078756
20
1.58400404177533
30
0
41
1
10
7.23147940604636
20
1.51544891329831
30
0
41
1
10
7.22604744775688
20
1.44168502551105
30
0
41
1
10
7.19974206246062
20
1.30552215337229
30
0
41
1
10
7.18146203809653
20
1.24194876008056
30
0
41
1
10
7.13383089135993
20
1.11940553953065
30
0
41
1
10
7.10361710852428
20
1.05873246432156
30
0
41
1
10
7.04109647661735
20
0.958795746403183
30
0
41
1
10
7.00883374448134
20
0.916531777744694
30
0
41
1
10
6.93174242098129
20
0.833896705691075
30
0
41
1
10
6.88493019628217
20
0.797018098058061
30
0
41
1
10
6.81884110463957
20
0.760450670800367
30
0
41
1
10
6.79953906833012
20
0.751555491735445
30
0
41
1
10
6.78020098142409
20
0.744337412129909
30
0
0
SPLINE
5
11E
100
AcDbEntity
8
1
62
256
6
ByLayer
370
18
48
1
60
0
100
AcDbSpline
70
4
71
3
72
14
73
10
40
0
40
0
40
0
40
0
40
0.283961749036709
40
0.283961749036709
40
0.570285189259021
40
0.570285189259021
40
0.829451094335675
40
0.829451094335675
40
1
40
1
40
1
40
1
41
1
10
7.22823562078756
20
1.58400404177533
30
0
41
1
10
7.22670332152299
20
1.61638811302802
30
0
41
1
10
7.22990721025505
20
1.65132554195841
30
0
41
1
10
7.24666329515574
20
1.72100421461349
30
0
41
1
10
7.2606150341864
20
1.75681482284142
30
0
41
1
10
7.29653238698296
20
1.81940846986978
30
0
41
1
10
7.31819931186294
20
1.84764373353275
30
0
41
1
10
7.35872581961911
20
1.88677613243124
30
0
41
1
10
7.37631585744955
20
1.90062706135291
30
0
41
1
10
7.39453747454371
20
1.91204676283638
30
0
0
SPLINE
5
11F
100
AcDbEntity
8
1
62
256
6
ByLayer
370
18
48
1
60
0
100
AcDbSpline
70
4
71
3
72
16
73
12
40
0
40
0
40
0
40
0
40
0.0624450082614072
40
0.0624450082614072
40
0.283207995985768
40
0.283207995985768
40
0.506745688833534
40
0.506745688833534
40
0.74460728473698
40
0.74460728473698
40
1
40
1
40
1
40
1
41
1
10
7.39453747454371
20
1.91204676283638
30
0
41
1
10
7.401298487014
20
1.9162839687736
30
0
41
1
10
7.40817249213225
20
1.92020925194512
30
0
41
1
10
7.43948193420229
20
1.93639408653544
30
0
41
1
10
7.46509645255171
20
1.94491558862811
30
0
41
1
10
7.51494794169054
20
1.95288000158095
30
0
41
1
10
7.53979741261736
20
1.9523323211786
30
0
41
1
10
7.58690626744604
20
1.9426814267176
30
0
41
1
10
7.60949505149688
20
1.93294293260328
30
0
41
1
10
7.6499150168728
20
1.90526136963393
30
0
41
1
10
7.66777631063619
20
1.88646254037789
30
0
41
1
10
7.68165710202985
20
1.86483678764958
30
0
0
SPLINE
5
120
100
AcDbEntity
8
1
62
256
6
ByLayer
370
18
48
1
60
0
100
AcDbSpline
70
4
71
3
72
12
73
8
40
0
40
0
40
0
40
0
40
0.422118641229887
40
0.422118641229887
40
0.843213633747397
40
0.843213633747397
40
1
40
1
40
1
40
1
41
1
10
7.99668977973073
20
1.66612635089541
30
0
41
1
10
7.93693838667778
20
1.6743695889094
30
0
41
1
10
7.88200929564616
20
1.69296260794078
30
0
41
1
10
7.78854132989565
20
1.7450690802807
30
0
41
1
10
7.74851749042699
20
1.77910935904219
30
0
41
1
10
7.70342936596464
20
1.83308295421338
30
0
41
1
10
7.69206711347394
20
1.84861837999512
30
0
41
1
10
7.68165710202985
20
1.86483678764958
30
0
0
SPLINE
5
121
100
AcDbEntity
8
1
62
256
6
ByLayer
370
18
48
1
60
0
100
AcDbSpline
70
4
71
3
72
12
73
8
40
0
40
0
40
0
40
0
40
0.422118641229828
40
0.422118641229828
40
0.843213633747329
40
0.843213633747329
40
1
40
1
40
1
40
1
41
1
10
8.1510134806264
20
-0.741126350896451
30
0
41
1
10
8.21633448879524
20
-0.74936958891044
30
0
41
1
10
8.28377356075615
20
-0.767962607941826
30
0
41
1
10
8.41026035039002
20
-0.820069080281712
30
0
41
1
10
8.4710577960287
20
-0.854109359043207
30
0
41
1
10
8.54703130374179
20
-0.908082954214393
30
0
41
1
10
8.56710920016707
20
-0.923618379996157
30
0
41
1
10
8.58642346338536
20
-0.939836787650592
30
0
0
SPLINE
5
122
100
AcDbEntity
8
1
62
256
6
ByLayer
370
18
48
1
60
0
100
AcDbSpline
70
4
71
3
72
16
73
12
40
0
40
0
40
0
40
0
40
0.0624450082613888
40
0.0624450082613888
40
0.283207995985753
40
0.283207995985753
40
0.506745688833496
40
0.506745688833496
40
0.744607284736919
40
0.744607284736919
40
1
40
1
40
1
40
1
41
1
10
8.95646825030937
20
-0.987046762837423
30
0
41
1
10
8.94970723783911
20
-0.991283968774638
30
0
41
1
10
8.94270239223391
20
-0.995209251946164
30
0
41
1
10
8.91021688764656
20
-1.01139408653648
30
0
41
1
10
8.88202834310192
20
-1.01991558862915
30
0
41
1
10
8.82411979046475
20
-1.02788000158196
30
0
41
1
10
8.79365325364049
20
-1.02733232117964
30
0
41
1
10
8.73263237750288
20
-1.01768142671864
30
0
41
1
10
8.70143113036906
20
-1.00794293260429
30
0
41
1
10
8.64139973561555
20
-0.980261369634974
30
0
41
1
10
8.61217725434858
20
-0.961462540378932
30
0
41
1
10
8.58642346338536
20
-0.939836787650592
30
0
0
SPLINE
5
123
100
AcDbEntity
8
1
62
256
6
ByLayer
370
18
48
1
60
0
100
AcDbSpline
70
4
71
3
72
14
73
10
40
0
40
0
40
0
40
0
40
0.283961749036713
40
0.283961749036713
40
0.570285189259029
40
0.570285189259029
40
0.829451094335677
40
0.829451094335677
40
1
40
1
40
1
40
1
41
1
10
9.0411479527198
20
-0.65900404177637
30
0
41
1
10
9.05570574374511
20
-0.691388113029035
30
0
41
1
10
9.06490393432335
20
-0.726325541959426
30
0
41
1
10
9.06988943072415
20
-0.796004214614527
30
0
41
1
10
9.06558056610882
20
-0.83181482284246
30
0
41
1
10
9.04374470029344
20
-0.894408469870825
30
0
41
1
10
9.02712478664651
20
-0.922643733533789
30
0
41
1
10
8.99131515494452
20
-0.961776132432277
30
0
41
1
10
8.97468986740353
20
-0.975627061353919
30
0
41
1
10
8.95646825030937
20
-0.987046762837423
30
0
0
SPLINE
5
124
100
AcDbEntity
8
1
62
256
6
ByLayer
370
18
48
1
60
0
100
AcDbSpline
70
4
71
3
72
18
73
14
40
0
40
0
40
0
40
0
40
0.212491695754831
40
0.212491695754831
40
0.386618276852949
40
0.386618276852949
40
0.56242636090669
40
0.56242636090669
40
0.715388416644358
40
0.715388416644358
40
0.918249208687837
40
0.918249208687837
40
1
40
1
40
1
40
1
41
1
10
9.0411479527198
20
-0.65900404177637
30
0
41
1
10
9.01032998587758
20
-0.590448913299355
30
0
41
1
10
8.98972008901453
20
-0.516685025512089
30
0
41
1
10
8.97800837676252
20
-0.380522153373335
30
0
41
1
10
8.98234191894795
20
-0.316948760081601
30
0
41
1
10
9.01384556590995
20
-0.194405539531687
30
0
41
1
10
9.04198335112523
20
-0.133732464322577
30
0
41
1
10
9.11298751939495
20
-0.0337957464042233
30
0
41
1
10
9.15418679266841
20
0.0084682222542654
30
0
41
1
10
9.25972669965876
20
0.0911032943078851
30
0
41
1
10
9.32878950907016
20
0.127981901940927
30
0
41
1
10
9.42937681797875
20
0.164549329198877
30
0
41
1
10
9.45912151723647
20
0.173444508263998
30
0
41
1
10
9.48918259208571
20
0.18066258786962
30
0
0
SPLINE
5
125
100
AcDbEntity
8
1
62
256
6
ByLayer
370
18
48
1
60
0
100
AcDbSpline
70
4
71
3
72
16
73
12
40
0
40
0
40
0
40
0
40
0.0630415689509251
40
0.0630415689509251
40
0.28591433202496
40
0.28591433202496
40
0.511588305408878
40
0.511588305408878
40
0.751723061839334
40
0.751723061839334
40
1
40
1
40
1
40
1
41
1
10
9.72992659460778
20
0.462499999999494
30
0
41
1
10
9.72992659460778
20
0.45406634616657
30
0
41
1
10
9.72952148128797
20
0.445623031649035
30
0
41
1
10
9.725882567512
20
0.407746207567953
30
0
41
1
10
9.71791125288465
20
0.378378391228949
30
0
41
1
10
9.69319743591424
20
0.324132210156165
30
0
41
1
10
9.67605406452637
20
0.298615450355669
30
0
41
1
10
9.63419827114947
20
0.253047083497677
30
0
41
1
10
9.60857255621664
20
0.232859431746306
30
0
41
1
10
9.55241619777883
20
0.20054855135183
30
0
41
1
10
9.52113264629548
20
0.188334237531194
30
0
41
1
10
9.4891825920833
20
0.180662587869051
30
0
0
SPLINE
5
126
100
AcDbEntity
8
1
62
256
6
ByLayer
370
18
48
1
60
0
100
AcDbSpline
70
4
71
3
72
14
73
10
40
0
40
0
40
0
40
0
40
0.283961457856579
40
0.283961457856579
40
0.570284934646611
40
0.570284934646611
40
0.829450869060461
40
0.829450869060461
40
1
40
1
40
1
40
1
41
1
10
9.4891825920833
20
0.744337412129909
30
0
41
1
10
9.52569852257813
20
0.735569432458163
30
0
41
1
10
9.56141355654043
20
0.720811308208624
30
0
41
1
10
9.62518663492372
20
0.680315543953157
30
0
41
1
10
9.65412910492458
20
0.653809493309268
30
0
41
1
10
9.69684116234455
20
0.59543322621559
30
0
41
1
10
9.71238205167268
20
0.563395602609859
30
0
41
1
10
9.72693550716608
20
0.508142010877805
30
0
41
1
10
9.72992659460778
20
0.485229660795056
30
0
41
1
10
9.72992659460778
20
0.462499999999494
30
0
0
SPLINE
5
127
100
AcDbEntity
8
1
62
256
6
ByLayer
370
18
48
1
60
0
100
AcDbSpline
70
4
71
3
72
18
73
14
40
0
40
0
40
0
40
0
40
0.212491592101867
40
0.212491592101867
40
0.386618191487481
40
0.386618191487481
40
0.562426295049365
40
0.562426295049365
40
0.715388354467615
40
0.715388354467615
40
0.918249128144792
40
0.918249128144792
40
1
40
1
40
1
40
1
41
1
10
9.4891825920833
20
0.744337412129909
30
0
41
1
10
9.41188052519644
20
0.762898706936397
30
0
41
1
10
9.33591267855098
20
0.792881808910096
30
0
41
1
10
9.21141276957189
20
0.868096523651133
30
0
41
1
10
9.15915545700273
20
0.910580643417603
30
0
41
1
10
9.07273194896263
20
1.00904594441198
30
0
41
1
10
9.0377126189255
20
1.06673628689288
30
0
41
1
10
8.99538071532149
20
1.17920391071206
30
0
41
1
10
8.98442150492679
20
1.23469071403693
30
0
41
1
10
8.97827820148635
20
1.36136233775838
30
0
41
1
10
8.98894774758193
20
1.43391916155986
30
0
41
1
10
9.01875225534027
20
1.5300065727449
30
0
41
1
10
9.02916351674665
20
1.55734444570064
30
0
41
1
10
9.04114795272093
20
1.58400404177786
30
0
0
SPLINE
5
128
100
AcDbEntity
8
1
62
256
6
ByLayer
370
18
48
1
60
0
100
AcDbSpline
70
4
71
3
72
12
73
8
40
0
40
0
40
0
40
0
40
0.495785575728942
40
0.495785575728942
40
0.90023827992392
40
0.90023827992392
40
1
40
1
40
1
40
1
41
1
10
8.58642346338539
20
1.86483678764958
30
0
41
1
10
8.52601131146227
20
1.8141080129561
30
0
41
1
10
8.45734413111217
20
1.76962335145257
30
0
41
1
10
8.32503572421425
20
1.70766073117463
30
0
41
1
10
8.2613183784151
20
1.68616365063485
30
0
41
1
10
8.18248722605895
20
1.67066202596439
30
0
41
1
10
8.16670519719651
20
1.66810657989311
30
0
41
1
10
8.1510134806264
20
1.66612635089541
30
0
0
SPLINE
5
129
100
AcDbEntity
8
1
62
256
6
ByLayer
370
18
48
1
60
0
100
AcDbSpline
70
4
71
3
72
14
73
10
40
0
40
0
40
0
40
0
40
0.282169922576106
40
0.282169922576106
40
0.566902245317966
40
0.566902245317966
40
0.824523972080243
40
0.824523972080243
40
1
40
1
40
1
40
1
41
1
10
8.58642346338539
20
1.86483678764958
30
0
41
1
10
8.61487611375466
20
1.88872880347864
30
0
41
1
10
8.6476280180228
20
1.90919095398439
30
0
41
1
10
8.71749097771752
20
1.9389275995207
30
0
41
1
10
8.7557439414534
20
1.94850316007225
30
0
41
1
10
8.82775789745145
20
1.9531398176598
30
0
41
1
10
8.86268740043093
20
1.94950486817297
30
0
41
1
10
8.91658253504738
20
1.93333834362835
30
0
41
1
10
8.93754795598059
20
1.92390433355027
30
0
41
1
10
8.9564682503094
20
1.91204676283638
30
0
0
SPLINE
5
12A
100
AcDbEntity
8
1
62
256
6
ByLayer
370
18
48
1
60
0
100
AcDbSpline
70
4
71
3
72
16
73
12
40
0
40
0
40
0
40
0
40
0.0569446172824801
40
0.0569446172824801
40
0.279906644834041
40
0.279906644834041
40
0.505321967306638
40
0.505321967306638
40
0.744915047128755
40
0.744915047128755
40
1
40
1
40
1
40
1
41
1
10
8.9564682503094
20
1.91204676283638
30
0
41
1
10
8.96257955815253
20
1.90821673442113
30
0
41
1
10
8.96850379021819
20
1.90412442622059
30
0
41
1
10
8.99638006552365
20
1.88295865074858
30
0
41
1
10
9.01550030164844
20
1.86213106376104
30
0
41
1
10
9.04500405312277
20
1.81586102380302
30
0
41
1
10
9.05568434178176
20
1.78979536171508
30
0
41
1
10
9.06820786214647
20
1.73456196334226
30
0
41
1
10
9.06964010290895
20
1.70462170469267
30
0
41
1
10
9.06298464209667
20
1.64420391695324
30
0
41
1
10
9.05422795041571
20
1.61310073485413
30
0
41
1
10
9.0411479527198
20
1.58400404177533
30
0
0
LINE
5
74
100
AcDbEntity
8
80
62
256
6
ByLayer
370
18
48
1
60
0
100
AcDbLine
10
0
20
0
30
0
11
-5
21
0
31
0
39
0
210
0
220
0
230
1
0
LINE
5
75
100
AcDbEntity
8
81
62
256
6
ByLayer
370
18
48
1
60
0
100
AcDbLine
10
19.6
20
-8.075
30
0
11
24.6
21
-8.075
31
0
39
0
210
0
220
0
230
1
0
LINE
5
76
100
AcDbEntity
8
1
62
256
6
ByLayer
370
18
48
1
60
0
100
AcDbLine
10
7.950739
20
-2.5375
30
0
11
8.100582
21
-2.5375
31
0
39
0
210
0
220
0
230
1
0
LINE
5
78
100
AcDbEntity
8
1
62
256
6
ByLayer
370
18
48
1
60
0
100
AcDbLine
10
8.100582
20
3.4625
30
0
11
7.950739
21
3.4625
31
0
39
0
210
0
220
0
230
1
0
LINE
5
79
100
AcDbEntity
8
SK1
62
256
6
ByLayer
370
18
48
1
60
0
100
AcDbLine
10
-50.4
20
-5.026066
30
0
11
-50.4
21
7.925
31
0
39
0
210
0
220
0
230
1
0
LINE
5
7B
100
AcDbEntity
8
SK1
62
256
6
ByLayer
370
18
48
1
60
0
100
AcDbLine
10
0
20
7.925397
30
0
11
-0.25
21
7.925
31
0
39
0
210
0
220
0
230
1
0
LINE
5
7C
100
AcDbEntity
8
SK1
62
256
6
ByLayer
370
18
48
1
60
0
100
AcDbLine
10
0
20
-8
30
0
11
0
21
7.925397
31
0
39
0
210
0
220
0
230
1
0
LINE
5
7D
100
AcDbEntity
8
SK1
62
256
6
ByLayer
370
18
48
1
60
0
100
AcDbLine
10
-47.4
20
-8
30
0
11
-50.4
21
-5.026066
31
0
39
0
210
0
220
0
230
1
0
LINE
5
7E
100
AcDbEntity
8
SK1
62
256
6
ByLayer
370
18
48
1
60
0
100
AcDbLine
10
-0.25
20
-8
30
0
11
0
21
-8
31
0
39
0
210
0
220
0
230
1
0
LINE
5
7F
100
AcDbEntity
8
SK1
62
256
6
ByLayer
370
18
48
1
60
0
100
AcDbLine
10
-50.4
20
7.925
30
0
11
-0.25
21
7.925
31
0
39
0
210
0
220
0
230
1
0
LINE
5
80
100
AcDbEntity
8
SK1
62
256
6
ByLayer
370
18
48
1
60
0
100
AcDbLine
10
-0.25
20
-8
30
0
11
-47.4
21
-8
31
0
39
0
210
0
220
0
230
1
0
LINE
5
81
100
AcDbEntity
8
SK1
62
256
6
ByLayer
370
18
48
1
60
0
100
AcDbLine
10
-0.25
20
7.925
30
0
11
-0.25
21
-8
31
0
39
0
210
0
220
0
230
1
0
LINE
5
82
100
AcDbEntity
8
1
62
256
6
ByLayer
370
18
48
1
60
0
100
AcDbLine
10
19.074707
20
-6.2
30
0
11
11.304986
21
5.632967
31
0
39
0
210
0
220
0
230
1
0
LINE
5
83
100
AcDbEntity
8
1
62
256
6
ByLayer
370
18
48
1
60
0
100
AcDbLine
10
11.304986
20
-6
30
0
11
11.304986
21
5.632967
31
0
39
0
210
0
220
0
230
1
0
LINE
5
84
100
AcDbEntity
8
1
62
256
6
ByLayer
370
18
48
1
60
0
100
AcDbLine
10
11.304986
20
5.632967
30
0
11
10.921316
21
6.217281
31
0
39
0
210
0
220
0
230
1
0
LINE
5
85
100
AcDbEntity
8
1
62
256
6
ByLayer
370
18
48
1
60
0
100
AcDbLine
10
10.921313
20
-6
30
0
11
11.304986
21
-6
31
0
39
0
210
0
220
0
230
1
0
LINE
5
86
100
AcDbEntity
8
1
62
256
6
ByLayer
370
18
48
1
60
0
100
AcDbLine
10
11.304986
20
-6
30
0
11
12.329386
21
-6
31
0
39
0
210
0
220
0
230
1
0
LINE
5
87
100
AcDbEntity
8
1
62
256
6
ByLayer
370
18
48
1
60
0
100
AcDbLine
10
19.369376
20
-6.648768
30
0
11
19.353645
21
-6.624811
31
0
39
0
210
0
220
0
230
1
0
LINE
5
88
100
AcDbEntity
8
1
62
256
6
ByLayer
370
18
48
1
60
0
100
AcDbLine
10
12.283149
20
-6.2
30
0
11
19.074707
21
-6.2
31
0
39
0
210
0
220
0
230
1
0
LINE
5
89
100
AcDbEntity
8
1
62
256
6
ByLayer
370
18
48
1
60
0
100
AcDbLine
10
9.467643
20
-7
30
0
11
8.652733
21
-7
31
0
39
0
210
0
220
0
230
1
0
LINE
5
8A
100
AcDbEntity
8
1
62
256
6
ByLayer
370
18
48
1
60
0
100
AcDbLine
10
9.467643
20
-8
30
0
11
14.384984
21
-8
31
0
39
0
210
0
220
0
230
1
0
LINE
5
8B
100
AcDbEntity
8
1
62
256
6
ByLayer
370
18
48
1
60
0
100
AcDbLine
10
0
20
-8
30
0
11
0
21
7.925397
31
0
39
0
210
0
220
0
230
1
0
LINE
5
8C
100
AcDbEntity
8
1
62
256
6
ByLayer
370
18
48
1
60
0
100
AcDbLine
10
14.384984
20
-8
30
0
11
14.485506
21
-7.666903
31
0
39
0
210
0
220
0
230
1
0
LINE
5
8D
100
AcDbEntity
8
1
62
256
6
ByLayer
370
18
48
1
60
0
100
AcDbLine
10
9.467643
20
-7
30
0
11
10.958498
21
-7
31
0
39
0
210
0
220
0
230
1
0
LINE
5
8E
100
AcDbEntity
8
1
62
256
6
ByLayer
370
18
48
1
60
0
100
AcDbLine
10
6.517159
20
-6.2
30
0
11
10.672836
21
-6.2
31
0
39
0
210
0
220
0
230
1
0
LINE
5
8F
100
AcDbEntity
8
1
62
256
6
ByLayer
370
18
48
1
60
0
100
AcDbLine
10
6.517159
20
3.123112
30
0
11
6.517159
21
7.942453
31
0
39
0
210
0
220
0
230
1
0
LINE
5
90
100
AcDbEntity
8
1
62
256
6
ByLayer
370
18
48
1
60
0
100
AcDbLine
10
4
20
7.942453
30
0
11
6.517159
21
7.942453
31
0
39
0
210
0
220
0
230
1
0
LINE
5
91
100
AcDbEntity
8
1
62
256
6
ByLayer
370
18
48
1
60
0
100
AcDbLine
10
10.672836
20
2.05026
30
0
11
10.672836
21
6.595706
31
0
39
0
210
0
220
0
230
1
0
LINE
5
92
100
AcDbEntity
8
1
62
256
6
ByLayer
370
18
48
1
60
0
100
AcDbLine
10
0.143063
20
7.925624
30
0
11
4
21
7.942453
31
0
39
0
210
0
220
0
230
1
0
LINE
5
93
100
AcDbEntity
8
1
62
256
6
ByLayer
370
18
48
1
60
0
100
AcDbLine
10
10.81206
20
6.383674
30
0
11
10.81206
21
1.190658
31
0
39
0
210
0
220
0
230
1
0
LINE
5
94
100
AcDbEntity
8
1
62
256
6
ByLayer
370
18
48
1
60
0
100
AcDbLine
10
10.81206
20
-0.266359
30
0
11
10.81206
21
-6
31
0
39
0
210
0
220
0
230
1
0
LINE
5
95
100
AcDbEntity
8
1
62
256
6
ByLayer
370
18
48
1
60
0
100
AcDbLine
10
0
20
-8
30
0
11
0.143063
21
-8
31
0
39
0
210
0
220
0
230
1
0
LINE
5
96
100
AcDbEntity
8
1
62
256
6
ByLayer
370
18
48
1
60
0
100
AcDbLine
10
0.143063
20
-8
30
0
11
0.143063
21
7.925624
31
0
39
0
210
0
220
0
230
1
0
LINE
5
97
100
AcDbEntity
8
1
62
256
6
ByLayer
370
18
48
1
60
0
100
AcDbLine
10
9.792331
20
7.93668
30
0
11
10.672836
21
6.595706
31
0
39
0
210
0
220
0
230
1
0
LINE
5
98
100
AcDbEntity
8
1
62
256
6
ByLayer
370
18
48
1
60
0
100
AcDbLine
10
11.450888
20
-7
30
0
11
14.384984
21
-7
31
0
39
0
210
0
220
0
230
1
0
LINE
5
99
100
AcDbEntity
8
1
62
256
6
ByLayer
370
18
48
1
60
0
100
AcDbLine
10
9.467643
20
-7
30
0
11
9.467643
21
-8
31
0
39
0
210
0
220
0
230
1
0
LINE
5
9A
100
AcDbEntity
8
1
62
256
6
ByLayer
370
18
48
1
60
0
100
AcDbLine
10
9.467643
20
-8
30
0
11
4
21
-8
31
0
39
0
210
0
220
0
230
1
0
LINE
5
9B
100
AcDbEntity
8
1
62
256
6
ByLayer
370
18
48
1
60
0
100
AcDbLine
10
6.517159
20
-6.2
30
0
11
6.517159
21
-2.198112
31
0
39
0
210
0
220
0
230
1
0
LINE
5
9C
100
AcDbEntity
8
1
62
256
6
ByLayer
370
18
48
1
60
0
100
AcDbLine
10
10.921321
20
6.217274
30
0
11
10.81206
21
6.383674
31
0
39
0
210
0
220
0
230
1
0
LINE
5
9D
100
AcDbEntity
8
1
62
256
6
ByLayer
370
18
48
1
60
0
100
AcDbLine
10
4
20
-8
30
0
11
0.143063
21
-8
31
0
39
0
210
0
220
0
230
1
0
LINE
5
9E
100
AcDbEntity
8
1
62
256
6
ByLayer
370
18
48
1
60
0
100
AcDbLine
10
10.75697
20
-6
30
0
11
10.760677
21
-6.2
31
0
39
0
210
0
220
0
230
1
0
LINE
5
9F
100
AcDbEntity
8
1
62
256
6
ByLayer
370
18
48
1
60
0
100
AcDbLine
10
10.672836
20
-6.2
30
0
11
10.672836
21
-1.12526
31
0
39
0
210
0
220
0
230
1
0
LINE
5
A0
100
AcDbEntity
8
1
62
256
6
ByLayer
370
18
48
1
60
0
100
AcDbLine
10
10.81206
20
6.383674
30
0
11
10.672836
21
6.595706
31
0
39
0
210
0
220
0
230
1
0
LINE
5
A1
100
AcDbEntity
8
1
62
256
6
ByLayer
370
18
48
1
60
0
100
AcDbLine
10
10.921321
20
6.217274
30
0
11
10.921321
21
-6
31
0
39
0
210
0
220
0
230
1
0
LINE
5
A2
100
AcDbEntity
8
1
62
256
6
ByLayer
370
18
48
1
60
0
100
AcDbLine
10
0.143063
20
7.925624
30
0
11
0
21
7.925397
31
0
39
0
210
0
220
0
230
1
0
LINE
5
A3
100
AcDbEntity
8
1
62
256
6
ByLayer
370
18
48
1
60
0
100
AcDbLine
10
10.81206
20
-6
30
0
11
10.921321
21
-6
31
0
39
0
210
0
220
0
230
1
0
LINE
5
A4
100
AcDbEntity
8
1
62
256
6
ByLayer
370
18
48
1
60
0
100
AcDbLine
10
9.792331
20
7.93668
30
0
11
6.517159
21
7.942453
31
0
39
0
210
0
220
0
230
1
0
LINE
5
A5
100
AcDbEntity
8
1
62
256
6
ByLayer
370
18
48
1
60
0
100
AcDbLine
10
10.75697
20
-6
30
0
11
10.81206
21
-6
31
0
39
0
210
0
220
0
230
1
0
LINE
5
A6
100
AcDbEntity
8
1
62
256
6
ByLayer
370
18
48
1
60
0
100
AcDbLine
10
4
20
-8
30
0
11
4
21
7.942453
31
0
39
0
210
0
220
0
230
1
0
LINE
5
A7
100
AcDbEntity
8
1
62
256
6
ByLayer
370
18
48
1
60
0
100
AcDbLine
10
10.672836
20
-6.2
30
0
11
10.760677
21
-6.2
31
0
39
0
210
0
220
0
230
1
0
LINE
5
A8
100
AcDbEntity
8
1
62
256
6
ByLayer
370
18
48
1
60
0
100
AcDbLine
10
14.384984
20
-7
30
0
11
14.485506
21
-7.333097
31
0
39
0
210
0
220
0
230
1
0
LINE
5
A9
100
AcDbEntity
8
1
62
256
6
ByLayer
370
18
48
1
60
0
100
AcDbLine
10
14.482241
20
-7.322394
30
0
11
17.056232
21
-7.322394
31
0
39
0
210
0
220
0
230
1
0
LINE
5
AA
100
AcDbEntity
8
1
62
256
6
ByLayer
370
18
48
1
60
0
100
AcDbLine
10
15.54732
20
-6.965105
30
0
11
17.056232
21
-7.322394
31
0
39
0
210
0
220
0
230
1
0
LINE
5
AB
100
AcDbEntity
8
1
62
256
6
ByLayer
370
18
48
1
60
0
100
AcDbLine
10
19.388662
20
-6.647641
30
0
11
18.186783
21
-6.717739
31
0
39
0
210
0
220
0
230
1
0
LINE
5
AC
100
AcDbEntity
8
1
62
256
6
ByLayer
370
18
48
1
60
0
100
AcDbLine
10
19.388662
20
-8.202359
30
0
11
18.186783
21
-8.132261
31
0
39
0
210
0
220
0
230
1
0
LINE
5
AD
100
AcDbEntity
8
1
62
256
6
ByLayer
370
18
48
1
60
0
100
AcDbLine
10
15.54732
20
-7.884895
30
0
11
17.056232
21
-7.527606
31
0
39
0
210
0
220
0
230
1
0
LINE
5
AE
100
AcDbEntity
8
1
62
256
6
ByLayer
370
18
48
1
60
0
100
AcDbLine
10
9.608727
20
-8
30
0
11
9.608727
21
-8.04
31
0
39
0
210
0
220
0
230
1
0
LINE
5
AF
100
AcDbEntity
8
1
62
256
6
ByLayer
370
18
48
1
60
0
100
AcDbLine
10
8.274732
20
-8.046815
30
0
11
8.037464
21
-8.108899
31
0
39
0
210
0
220
0
230
1
0
LINE
5
B0
100
AcDbEntity
8
1
62
256
6
ByLayer
370
18
48
1
60
0
100
AcDbLine
10
18.186783
20
-6.717739
30
0
11
17.752571
21
-6.705656
31
0
39
0
210
0
220
0
230
1
0
LINE
5
B1
100
AcDbEntity
8
1
62
256
6
ByLayer
370
18
48
1
60
0
100
AcDbLine
10
5.619187
20
-8.002698
30
0
11
5.619187
21
-7.99999
31
0
39
0
210
0
220
0
230
1
0
LINE
5
B2
100
AcDbEntity
8
1
62
256
6
ByLayer
370
18
48
1
60
0
100
AcDbLine
10
5.830524
20
-8.202359
30
0
11
7.032403
21
-8.132261
31
0
39
0
210
0
220
0
230
1
0
LINE
5
B3
100
AcDbEntity
8
1
62
256
6
ByLayer
370
18
48
1
60
0
100
AcDbLine
10
7.997515
20
-8.115074
30
0
11
7.423369
21
-8.144344
31
0
39
0
210
0
220
0
230
1
0
LINE
5
B4
100
AcDbEntity
8
1
62
256
6
ByLayer
370
18
48
1
60
0
100
AcDbLine
10
9.651638
20
-7.999999
30
0
11
9.651638
21
-8.04
31
0
39
0
210
0
220
0
230
1
0
LINE
5
B5
100
AcDbEntity
8
1
62
256
6
ByLayer
370
18
48
1
60
0
100
AcDbLine
10
16.839969
20
-8.04
30
0
11
15.54732
21
-8.04
31
0
39
0
210
0
220
0
230
1
0
LINE
5
B6
100
AcDbEntity
8
1
62
256
6
ByLayer
370
18
48
1
60
0
100
AcDbLine
10
16.893459
20
-8.046815
30
0
11
17.132887
21
-8.108899
31
0
39
0
210
0
220
0
230
1
0
LINE
5
B7
100
AcDbEntity
8
1
62
256
6
ByLayer
370
18
48
1
60
0
100
AcDbLine
10
15.504215
20
-7.89
30
0
11
15.504215
21
-8.04
31
0
39
0
210
0
220
0
230
1
0
LINE
5
B8
100
AcDbEntity
8
1
62
256
6
ByLayer
370
18
48
1
60
0
100
AcDbLine
10
14.509209
20
-7.527606
30
0
11
17.056232
21
-7.527606
31
0
39
0
210
0
220
0
230
1
0
LINE
5
B9
100
AcDbEntity
8
1
62
256
6
ByLayer
370
18
48
1
60
0
100
AcDbLine
10
16.839969
20
-6.81
30
0
11
15.54732
21
-6.81
31
0
39
0
210
0
220
0
230
1
0
LINE
5
BA
100
AcDbEntity
8
1
62
256
6
ByLayer
370
18
48
1
60
0
100
AcDbLine
10
15.54732
20
-7.884895
30
0
11
15.54732
21
-8.04
31
0
39
0
210
0
220
0
230
1
0
LINE
5
BB
100
AcDbEntity
8
1
62
256
6
ByLayer
370
18
48
1
60
0
100
AcDbLine
10
18.186783
20
-8.132261
30
0
11
17.752571
21
-8.144344
31
0
39
0
210
0
220
0
230
1
0
LINE
5
BC
100
AcDbEntity
8
1
62
256
6
ByLayer
370
18
48
1
60
0
100
AcDbLine
10
7.423369
20
-8.144344
30
0
11
7.423369
21
-7.999981
31
0
39
0
210
0
220
0
230
1
0
LINE
5
BD
100
AcDbEntity
8
1
62
256
6
ByLayer
370
18
48
1
60
0
100
AcDbLine
10
7.032403
20
-8.132261
30
0
11
7.423369
21
-8.144344
31
0
39
0
210
0
220
0
230
1
0
LINE
5
BE
100
AcDbEntity
8
1
62
256
6
ByLayer
370
18
48
1
60
0
100
AcDbLine
10
17.173199
20
-8.115074
30
0
11
17.752571
21
-8.144344
31
0
39
0
210
0
220
0
230
1
0
LINE
5
BF
100
AcDbEntity
8
1
62
256
6
ByLayer
370
18
48
1
60
0
100
AcDbLine
10
15.504215
20
-7.89
30
0
11
14.418105
21
-7.89
31
0
39
0
210
0
220
0
230
1
0
LINE
5
C0
100
AcDbEntity
8
1
62
256
6
ByLayer
370
18
48
1
60
0
100
AcDbLine
10
7.032403
20
-8.132261
30
0
11
7.032403
21
-7.999981
31
0
39
0
210
0
220
0
230
1
0
LINE
5
C1
100
AcDbEntity
8
1
62
256
6
ByLayer
370
18
48
1
60
0
100
AcDbLine
10
15.504215
20
-6.96
30
0
11
11.32456
21
-6.96
31
0
39
0
210
0
220
0
230
1
0
LINE
5
C2
100
AcDbEntity
8
1
62
256
6
ByLayer
370
18
48
1
60
0
100
AcDbLine
10
18.186783
20
-8.132261
30
0
11
18.186783
21
-6.717739
31
0
39
0
210
0
220
0
230
1
0
LINE
5
C3
100
AcDbEntity
8
1
62
256
6
ByLayer
370
18
48
1
60
0
100
AcDbLine
10
15.54732
20
-6.965105
30
0
11
15.54732
21
-6.81
31
0
39
0
210
0
220
0
230
1
0
LINE
5
C4
100
AcDbEntity
8
1
62
256
6
ByLayer
370
18
48
1
60
0
100
AcDbLine
10
15.504215
20
-8.04
30
0
11
9.651638
21
-8.04
31
0
39
0
210
0
220
0
230
1
0
LINE
5
C5
100
AcDbEntity
8
1
62
256
6
ByLayer
370
18
48
1
60
0
100
AcDbLine
10
8.327739
20
-8.04
30
0
11
9.608727
21
-8.04
31
0
39
0
210
0
220
0
230
1
0
LINE
5
C6
100
AcDbEntity
8
1
62
256
6
ByLayer
370
18
48
1
60
0
100
AcDbLine
10
19.6
20
-8.002698
30
0
11
19.6
21
-6.847302
31
0
39
0
210
0
220
0
230
1
0
LINE
5
C7
100
AcDbEntity
8
1
62
256
6
ByLayer
370
18
48
1
60
0
100
AcDbLine
10
16.893459
20
-6.803185
30
0
11
17.132887
21
-6.741101
31
0
39
0
210
0
220
0
230
1
0
LINE
5
C8
100
AcDbEntity
8
1
62
256
6
ByLayer
370
18
48
1
60
0
100
AcDbLine
10
17.173199
20
-6.734926
30
0
11
17.752571
21
-6.705656
31
0
39
0
210
0
220
0
230
1
0
LINE
5
C9
100
AcDbEntity
8
1
62
256
6
ByLayer
370
18
48
1
60
0
100
AcDbLine
10
17.752571
20
-8.144344
30
0
11
17.752571
21
-6.705656
31
0
39
0
210
0
220
0
230
1
0
LINE
5
CA
100
AcDbEntity
8
1
62
256
6
ByLayer
370
18
48
1
60
0
100
AcDbLine
10
15.504215
20
-6.81
30
0
11
11.054244
21
-6.81
31
0
39
0
210
0
220
0
230
1
0
LINE
5
CB
100
AcDbEntity
8
1
62
256
6
ByLayer
370
18
48
1
60
0
100
AcDbLine
10
15.504215
20
-6.96
30
0
11
15.504215
21
-6.81
31
0
39
0
210
0
220
0
230
1
0
LINE
5
CC
100
AcDbEntity
8
1
62
256
6
ByLayer
370
18
48
1
60
0
100
AcDbLine
10
8.705859
20
0.744337
30
0
11
9.489183
21
0.744337
31
0
39
0
210
0
220
0
230
1
0
LINE
5
CD
100
AcDbEntity
8
1
62
256
6
ByLayer
370
18
48
1
60
0
100
AcDbLine
10
8.705859
20
0.180663
30
0
11
9.489183
21
0.180663
31
0
39
0
210
0
220
0
230
1
0
LINE
5
CE
100
AcDbEntity
8
1
62
256
6
ByLayer
370
18
48
1
60
0
100
AcDbLine
10
8.257825
20
-0.659004
30
0
11
9.041148
21
-0.659004
31
0
39
0
210
0
220
0
230
1
0
LINE
5
CF
100
AcDbEntity
8
1
62
256
6
ByLayer
370
18
48
1
60
0
100
AcDbLine
10
7.996684
20
-0.741126
30
0
11
8.151013
21
-0.741126
31
0
39
0
210
0
220
0
230
1
0
LINE
5
D0
100
AcDbEntity
8
1
62
256
6
ByLayer
370
18
48
1
60
0
100
AcDbLine
10
8.151013
20
1.666126
30
0
11
7.996684
21
1.666126
31
0
39
0
210
0
220
0
230
1
0
LINE
5
D1
100
AcDbEntity
8
1
62
256
6
ByLayer
370
18
48
1
60
0
100
AcDbLine
10
7.99669
20
-0.741126
30
0
11
7.274207
21
-0.741126
31
0
39
0
210
0
220
0
230
1
0
LINE
5
D2
100
AcDbEntity
8
1
62
256
6
ByLayer
370
18
48
1
60
0
100
AcDbLine
10
7.274207
20
1.666126
30
0
11
7.99669
21
1.666126
31
0
39
0
210
0
220
0
230
1
0
LINE
5
D3
100
AcDbEntity
8
1
62
256
6
ByLayer
370
18
48
1
60
0
100
AcDbLine
10
7.340057
20
-0.939837
30
0
11
7.681657
21
-0.939837
31
0
39
0
210
0
220
0
230
1
0
LINE
5
D4
100
AcDbEntity
8
1
62
256
6
ByLayer
370
18
48
1
60
0
100
AcDbLine
10
8.257825
20
1.584004
30
0
11
9.041148
21
1.584004
31
0
39
0
210
0
220
0
230
1
0
LINE
5
D5
100
AcDbEntity
8
1
62
256
6
ByLayer
370
18
48
1
60
0
100
AcDbLine
10
7.337661
20
1.864837
30
0
11
7.681657
21
1.864837
31
0
39
0
210
0
220
0
230
1
0
MTEXT
5
12B
100
AcDbEntity
8
SK6
62
256
6
ByLayer
370
18
48
1
60
0
100
AcDbMText
10
-42.025
20
16.991938
30
0
210
0
220
0
230
1
1
\W0.7345;QS-LF123D08-1616B
40
3.5
41
0
44
1.084337
50
0
71
7
72
5
7
iso_b_vert
0
DIMENSION
5
13D
100
AcDbEntity
8
SK2
62
256
6
ByLayer
370
13
48
1
60
0
100
AcDbDimension
2
DimnDraft3D1
10
-60.15
20
-7.925
30
0
11
-60.15
21
-4.644079
31
0
70
32
71
5
72
1
41
1
210
0
220
0
230
1
3
Standard
100
AcDbAlignedDimension
13
-51.9
23
8.075
33
0
14
-51.9
24
-7.925
34
0
50
90
100
AcDbRotatedDimension
1001
ACAD
1000
DSTYLE
1002
{
1070
    74
1070
     0
1070
   279
1070
     0
1070
   172
1070
     1
1070
   173
1070
     1
1070
   340
1005
12C
1070
   271
1070
     3
1070
   272
1070
     3
1070
    77
1070
     1
1070
    73
1070
     0
1070
   171
1070
     4
1070
   274
1070
     4
1070
   177
1070
     2
1070
   176
1070
     2
1070
   178
1070
     7
1070
    78
1070
     8
1070
    41
1041
3.0
1070
   147
1041
2.25
1070
    42
1041
1.5
1070
    44
1041
3.0
1070
   140
1041
4.5
1070
   343
1005
13E
1070
   344
1005
13E
1002
}
0
DIMENSION
5
152
100
AcDbEntity
8
2
62
256
6
ByLayer
370
13
48
1
60
0
100
AcDbDimension
2
DimnDraft3D2
10
33.85
20
-6.425
30
0
11
33.85
21
-24.5
31
0
70
32
71
5
72
1
41
1
210
0
220
0
230
1
3
Standard
100
AcDbAlignedDimension
13
21.1
23
-7.925
33
0
14
21.1
24
-6.425
34
0
50
90
100
AcDbRotatedDimension
1001
ACAD
1000
DSTYLE
1002
{
1070
    74
1070
     0
1070
   279
1070
     0
1070
   172
1070
     1
1070
   173
1070
     1
1070
   340
1005
12C
1070
   271
1070
     3
1070
   272
1070
     3
1070
    77
1070
     1
1070
    73
1070
     0
1070
   171
1070
     4
1070
   274
1070
     4
1070
   177
1070
     2
1070
   176
1070
     2
1070
   178
1070
     7
1070
    78
1070
     8
1070
    41
1041
3.0
1070
   147
1041
2.25
1070
    42
1041
1.5
1070
    44
1041
3.0
1070
   140
1041
4.5
1070
   343
1005
13E
1070
   344
1005
13E
1002
}
0
DIMENSION
5
160
100
AcDbEntity
8
2
62
256
6
ByLayer
370
13
48
1
60
0
100
AcDbDimension
2
DimnDraft3D3
10
43.85
20
8.075
30
0
11
43.85
21
0.075
31
0
70
32
71
5
72
1
41
1
210
0
220
0
230
1
3
Standard
100
AcDbAlignedDimension
13
21.1
23
-7.925
33
0
14
1.5
24
8.075
34
0
50
90
100
AcDbRotatedDimension
1001
ACAD
1000
DSTYLE
1002
{
1070
    74
1070
     0
1070
   279
1070
     0
1070
   172
1070
     1
1070
   173
1070
     1
1070
   340
1005
12C
1070
   271
1070
     3
1070
   272
1070
     3
1070
    77
1070
     1
1070
    73
1070
     0
1070
   171
1070
     4
1070
   274
1070
     4
1070
   177
1070
     2
1070
   176
1070
     2
1070
   178
1070
     7
1070
    78
1070
     8
1070
    41
1041
3.0
1070
   147
1041
2.25
1070
    42
1041
1.5
1070
    44
1041
3.0
1070
   140
1041
4.5
1070
   343
1005
13E
1070
   344
1005
13E
1002
}
0
DIMENSION
5
16E
100
AcDbEntity
8
SK2
62
256
6
ByLayer
370
13
48
1
60
0
100
AcDbDimension
2
DimnDraft3D4
10
19.6
20
-32.175
30
0
11
-20.681579
21
-32.175
31
0
70
32
71
5
72
1
41
1
210
0
220
0
230
1
3
Standard
100
AcDbAlignedDimension
13
-50.4
23
-9.425
33
0
14
19.6
24
-9.425
34
0
50
0
100
AcDbRotatedDimension
1001
ACAD
1000
DSTYLE
1002
{
1070
   279
1070
     0
1070
   172
1070
     1
1070
   173
1070
     1
1070
   340
1005
12C
1070
   271
1070
     3
1070
   272
1070
     3
1070
    77
1070
     1
1070
    73
1070
     0
1070
   171
1070
     4
1070
   274
1070
     4
1070
   177
1070
     2
1070
   176
1070
     2
1070
   178
1070
     7
1070
    78
1070
     8
1070
    41
1041
3.0
1070
   147
1041
2.25
1070
    42
1041
1.5
1070
    44
1041
3.0
1070
   140
1041
4.5
1070
   343
1005
13E
1070
   344
1005
13E
1002
}
0
DIMENSION
5
17C
100
AcDbEntity
8
2
62
256
6
ByLayer
370
13
48
1
60
0
100
AcDbDimension
2
DimnDraft3D5
10
0
20
-22.175
30
0
11
5.080921
21
-22.175
31
0
70
32
71
5
72
1
41
1
210
0
220
0
230
1
3
Standard
100
AcDbAlignedDimension
13
19.6
23
-9.425
33
0
14
0
24
-9.425
34
0
50
0
100
AcDbRotatedDimension
1001
ACAD
1000
DSTYLE
1002
{
1070
   279
1070
     0
1070
   172
1070
     1
1070
   173
1070
     1
1070
   340
1005
12C
1070
   271
1070
     3
1070
   272
1070
     3
1070
    77
1070
     1
1070
    73
1070
     0
1070
   171
1070
     4
1070
   274
1070
     4
1070
   177
1070
     2
1070
   176
1070
     2
1070
   178
1070
     7
1070
    78
1070
     8
1070
    41
1041
3.0
1070
   147
1041
2.25
1070
    42
1041
1.5
1070
    44
1041
3.0
1070
   140
1041
4.5
1070
   343
1005
13E
1070
   344
1005
13E
1002
}
0
DIMENSION
5
18A
100
AcDbEntity
8
2
62
256
6
ByLayer
370
13
48
1
60
0
100
AcDbDimension
2
DimnDraft3D6
10
11.6
20
17.825
30
0
11
33.7
21
17.825
31
0
70
32
71
5
72
1
41
1
210
0
220
0
230
1
3
Standard
100
AcDbAlignedDimension
13
19.6
23
-4.925
33
0
14
11.6
24
9.575
34
0
50
0
100
AcDbRotatedDimension
1001
ACAD
1000
DSTYLE
1002
{
1070
   279
1070
     0
1070
   172
1070
     1
1070
   173
1070
     1
1070
   340
1005
12C
1070
   271
1070
     3
1070
   272
1070
     3
1070
    77
1070
     1
1070
    73
1070
     0
1070
   171
1070
     4
1070
   274
1070
     4
1070
   177
1070
     2
1070
   176
1070
     2
1070
   178
1070
     7
1070
    78
1070
     8
1070
    41
1041
3.0
1070
   147
1041
2.25
1070
    42
1041
1.5
1070
    44
1041
3.0
1070
   140
1041
4.5
1070
   343
1005
13E
1070
   344
1005
13E
1002
}
0
ENDSEC
0
SECTION
2
OBJECTS
0
DICTIONARY
5
1f4
330
0
100
AcDbDictionary
280
0
281
1
3
ACAD_GROUP
350
1f5
3
ACAD_MLINESTYLE
350
1f6
0
DICTIONARY
5
1f5
330
0
100
AcDbDictionary
280
0
281
1
0
DICTIONARY
5
1f6
330
0
100
AcDbDictionary
280
0
281
1
3
Standard
350
18
0
MLINESTYLE
5
18
330
1f6
100
AcDbMlineStyle
2
Standard
70
0
3

62
256
51
90
52
90
71
2
49
-0.5
62
256
6
ByLayer
49
0.5
62
256
6
ByLayer
0
RASTERVARIABLES
5
1e3
330

100
AcDbRasterVariables
90
0
70
1
71
1
72
1
0
ENDSEC
0
EOF
