0
SECTION
2
HEADER
9
$ACADVER
1
AC1015
9
$DWGCODEPAGE
3
ANSI_1252
9
$HANDSEED
5
24a
9
$ANGBASE
50
0
9
$ANGDIR
70
0
9
$ATTMODE
70
1
9
$AUNITS
70
0
9
$AUPREC
70
0
9
$CECOLOR
62
256
9
$CELTSCALE
40
1
9
$CELTYPE
6
ByLayer
9
$CELWEIGHT
370
18
9
$CLAYER
8
0
9
$CMLJUST
70
0
9
$CMLSCALE
40
1
9
$CMLSTYLE
2
Standard
9
$DIMSTYLE
2
Standard
9
$TEXTSIZE
40
0.2
9
$TEXTSTYLE
7
Standard
9
$LUNITS
70
2
9
$LUPREC
70
4
9
$EXTNAMES
290
1
9
$INSUNITS
70
4
9
$LTSCALE
40
1
9
$LWDISPLAY
290
1
9
$PDMODE
70
0
9
$PDSIZE
40
0
9
$PLINEGEN
70
0
0
ENDSEC
0
SECTION
2
CLASSES
0
CLASS
1
RASTERVARIABLES
2
AcDbRasterVariables
3
ISM
90
0
280
0
281
0
0
ENDSEC
0
SECTION
2
TABLES
0
TABLE
2
VPORT
5
240
100
AcDbSymbolTable
0
VPORT
5
1
100
AcDbSymbolTableRecord
100
AcDbViewportTableRecord
2
*Active
70
0
10
0
20
0
11
1
21
1
12
-1
22
1
13
0
23
0
14
0.5
24
0.5
15
10
25
10
16
0
26
0
36
1
17
0
27
0
37
0
0
ENDTAB
0
TABLE
2
LTYPE
5
241
100
AcDbSymbolTable
0
LTYPE
5
14
100
AcDbSymbolTableRecord
100
AcDbLinetypeTableRecord
70
0
2
ByBlock
3

72
65
73
0
40
0
0
LTYPE
5
15
100
AcDbSymbolTableRecord
100
AcDbLinetypeTableRecord
70
0
2
ByLayer
3

72
65
73
0
40
0
0
LTYPE
5
16
100
AcDbSymbolTableRecord
100
AcDbLinetypeTableRecord
70
0
2
CONTINUOUS
3
Solid line
72
65
73
0
40
0
0
LTYPE
5
6A
100
AcDbSymbolTableRecord
100
AcDbLinetypeTableRecord
70
0
2
CENTER
3
____ _ ____ _ ____ _ ____
72
65
73
4
40
47.5
49
22
74
0
49
-8.5
74
0
49
8.5
74
0
49
-8.5
74
0
0
LTYPE
5
6B
100
AcDbSymbolTableRecord
100
AcDbLinetypeTableRecord
70
0
2
DASHED
3
__ __ __ __ __ __ __ __ __
72
65
73
2
40
25.72
49
12.86
74
0
49
-12.86
74
0
0
ENDTAB
0
TABLE
2
LAYER
5
242
100
AcDbSymbolTable
0
LAYER
5
10
100
AcDbSymbolTableRecord
100
AcDbLayerTableRecord
2
0
70
0
62
7
6
CONTINUOUS
290
1
370
-3
390
0
0
LAYER
5
6D
100
AcDbSymbolTableRecord
100
AcDbLayerTableRecord
2
81
70
0
62
-3
6
CONTINUOUS
290
1
370
-3
390
0
0
LAYER
5
6F
100
AcDbSymbolTableRecord
100
AcDbLayerTableRecord
2
80
70
0
62
-6
6
CONTINUOUS
290
1
370
-3
390
0
0
LAYER
5
72
100
AcDbSymbolTableRecord
100
AcDbLayerTableRecord
2
1
70
0
62
4
6
CONTINUOUS
290
1
370
-3
390
0
0
LAYER
5
EF
100
AcDbSymbolTableRecord
100
AcDbLayerTableRecord
2
2
70
0
62
7
6
CONTINUOUS
290
1
370
-3
390
0
0
LAYER
5
22d
100
AcDbSymbolTableRecord
100
AcDbLayerTableRecord
2
SK1
70
0
62
4
6
CONTINUOUS
290
1
370
-3
390
0
0
LAYER
5
22e
100
AcDbSymbolTableRecord
100
AcDbLayerTableRecord
2
SK6
70
0
62
5
6
CONTINUOUS
290
1
370
-3
390
0
0
LAYER
5
22f
100
AcDbSymbolTableRecord
100
AcDbLayerTableRecord
2
SK2
70
0
62
7
6
CONTINUOUS
290
1
370
-3
390
0
0
ENDTAB
0
TABLE
2
STYLE
5
243
100
AcDbSymbolTable
0
STYLE
5
11
100
AcDbSymbolTableRecord
100
AcDbTextStyleTableRecord
2
Standard
3
txt
70
0
71
0
40
0
41
1
42
0
50
0
0
STYLE
5
19F
100
AcDbSymbolTableRecord
100
AcDbTextStyleTableRecord
2
iso_b_vert
3
simplex.shx
70
0
71
0
40
0
41
1
42
0
50
0
0
STYLE
5
1A0
100
AcDbSymbolTableRecord
100
AcDbTextStyleTableRecord
2
DWGDirectTextStyle
3
simplex
70
0
71
0
40
0
41
1
42
0
50
0
0
ENDTAB
0
TABLE
2
DIMSTYLE
5
244
100
AcDbSymbolTable
100
AcDbDimStyleTable
0
DIMSTYLE
105
27
100
AcDbSymbolTableRecord
100
AcDbDimStyleTableRecord
2
Standard
70
0
3
<>
41
0.18
42
0.0625
44
0.18
140
0.18
147
0.09
73
0
74
0
77
1
271
2
275
0
278
52
280
0
340
11
0
ENDTAB
0
TABLE
2
VIEW
5
245
100
AcDbSymbolTable
0
ENDTAB
0
TABLE
2
UCS
5
246
100
AcDbSymbolTable
0
ENDTAB
0
TABLE
2
APPID
5
247
100
AcDbSymbolTable
0
APPID
5
12
100
AcDbSymbolTableRecord
100
AcDbRegAppTableRecord
2
ACAD
70
0
0
ENDTAB
0
TABLE
2
BLOCK_RECORD
5
248
100
AcDbSymbolTable
0
BLOCK_RECORD
5
1F
100
AcDbSymbolTableRecord
100
AcDbBlockTableRecord
2
*Model_Space
340
0
70
0
0
BLOCK_RECORD
5
1B
100
AcDbSymbolTableRecord
100
AcDbBlockTableRecord
2
*Paper_Space
340
0
70
0
0
BLOCK_RECORD
5
23
100
AcDbSymbolTableRecord
100
AcDbBlockTableRecord
2
*Paper_Space0
340
0
70
0
0
BLOCK_RECORD
5
1AB
100
AcDbSymbolTableRecord
100
AcDbBlockTableRecord
2
DimnDraft3D1
340
0
70
0
0
BLOCK_RECORD
5
1B6
100
AcDbSymbolTableRecord
100
AcDbBlockTableRecord
2
DimnDraft3D2
340
0
70
0
0
BLOCK_RECORD
5
1C0
100
AcDbSymbolTableRecord
100
AcDbBlockTableRecord
2
DimnDraft3D3
340
0
70
0
0
BLOCK_RECORD
5
1CA
100
AcDbSymbolTableRecord
100
AcDbBlockTableRecord
2
DimnDraft3D4
340
0
70
0
0
ENDTAB
0
ENDSEC
0
SECTION
2
BLOCKS
0
BLOCK
5
20
100
AcDbEntity
8
0
100
AcDbBlockBegin
2
*Model_Space
70
0
10
0
20
0
30
0
3
*Model_Space
0
ENDBLK
5
21
100
AcDbEntity
8
0
100
AcDbBlockEnd
0
BLOCK
5
1C
100
AcDbEntity
8
0
100
AcDbBlockBegin
2
*Paper_Space
70
0
10
0
20
0
30
0
3
*Paper_Space
0
ENDBLK
5
1D
100
AcDbEntity
8
0
100
AcDbBlockEnd
0
BLOCK
5
24
100
AcDbEntity
8
0
100
AcDbBlockBegin
2
*Paper_Space0
70
0
10
0
20
0
30
0
3
*Paper_Space0
0
ENDBLK
5
25
100
AcDbEntity
8
0
100
AcDbBlockEnd
0
BLOCK
5
1B3
100
AcDbEntity
8
0
100
AcDbBlockBegin
2
DimnDraft3D1
70
0
10
0
20
0
30
0
3
DimnDraft3D1
0
MTEXT
5
1AC
100
AcDbEntity
8
SK2
62
256
6
ByLayer
370
18
48
1
60
0
100
AcDbMText
10
-32.737427
20
-42.730403
30
0
210
0
220
0
230
1
1
\W0.5296;115
40
4.5
41
0
44
1.084337
50
0
71
7
72
5
7
iso_b_vert
0
LINE
5
1AE
100
AcDbEntity
8
SK2
62
256
6
ByLayer
370
13
48
1
60
0
100
AcDbLine
10
-84
20
-1.5875
30
0
11
-84
21
-45.855403
31
0
39
0
210
0
220
0
230
1
0
LINE
5
1AF
100
AcDbEntity
8
SK2
62
256
6
ByLayer
370
13
48
1
60
0
100
AcDbLine
10
31
20
-1.5875
30
0
11
31
21
-45.855403
31
0
39
0
210
0
220
0
230
1
0
LINE
5
1B0
100
AcDbEntity
8
SK2
62
256
6
ByLayer
370
13
48
1
60
0
100
AcDbLine
10
-84
20
-43.855403
30
0
11
31
21
-43.855403
31
0
39
0
210
0
220
0
230
1
0
SOLID
5
1B1
100
AcDbEntity
8
SK2
62
256
6
ByLayer
370
13
48
1
60
0
100
AcDbTrace
10
-84
20
-43.855403
30
0
11
-80.500002
21
-43.394619
31
0
12
-80.499998
22
-44.316187
32
0
13
-84
23
-43.855403
33
0
39
0
210
0
220
0
230
1
0
SOLID
5
1B2
100
AcDbEntity
8
SK2
62
256
6
ByLayer
370
13
48
1
60
0
100
AcDbTrace
10
31
20
-43.855403
30
0
11
27.500002
21
-44.316187
31
0
12
27.499998
22
-43.394619
32
0
13
31
23
-43.855403
33
0
39
0
210
0
220
0
230
1
0
ENDBLK
5
1B4
100
AcDbEntity
8
0
100
AcDbBlockEnd
0
BLOCK
5
1BD
100
AcDbEntity
8
0
100
AcDbBlockBegin
2
DimnDraft3D2
70
0
10
0
20
0
30
0
3
DimnDraft3D2
0
MTEXT
5
1B7
100
AcDbEntity
8
2
62
256
6
ByLayer
370
18
48
1
60
0
100
AcDbMText
10
59.342367
20
-2.925457
30
0
210
0
220
0
230
1
1
\W0.6740;32
40
4.5
41
0
44
1.084337
50
90
71
7
72
5
7
iso_b_vert
0
LINE
5
1B8
100
AcDbEntity
8
2
62
256
6
ByLayer
370
13
48
1
60
0
100
AcDbLine
10
32.5875
20
-12.4625
30
0
11
62.467367
21
-12.4625
31
0
39
0
210
0
220
0
230
1
0
LINE
5
1B9
100
AcDbEntity
8
2
62
256
6
ByLayer
370
13
48
1
60
0
100
AcDbLine
10
42.5875
20
19.5375
30
0
11
62.467367
21
19.5375
31
0
39
0
210
0
220
0
230
1
0
LINE
5
1BA
100
AcDbEntity
8
2
62
256
6
ByLayer
370
13
48
1
60
0
100
AcDbLine
10
60.467367
20
-12.4625
30
0
11
60.467367
21
19.5375
31
0
39
0
210
0
220
0
230
1
0
SOLID
5
1BB
100
AcDbEntity
8
2
62
256
6
ByLayer
370
13
48
1
60
0
100
AcDbTrace
10
60.467367
20
-12.4625
30
0
11
60.006583
21
-8.962502
31
0
12
60.928151
22
-8.962498
32
0
13
60.467367
23
-12.4625
33
0
39
0
210
0
220
0
230
1
0
SOLID
5
1BC
100
AcDbEntity
8
2
62
256
6
ByLayer
370
13
48
1
60
0
100
AcDbTrace
10
60.467367
20
19.5375
30
0
11
60.928151
21
16.037502
31
0
12
60.006583
22
16.037498
32
0
13
60.467367
23
19.5375
33
0
39
0
210
0
220
0
230
1
0
ENDBLK
5
1BE
100
AcDbEntity
8
0
100
AcDbBlockEnd
0
BLOCK
5
1C7
100
AcDbEntity
8
0
100
AcDbBlockBegin
2
DimnDraft3D3
70
0
10
0
20
0
30
0
3
DimnDraft3D3
0
MTEXT
5
1C1
100
AcDbEntity
8
SK2
62
256
6
ByLayer
370
18
48
1
60
0
100
AcDbMText
10
-96.829654
20
-2.281535
30
0
210
0
220
0
230
1
1
\W0.6740;25
40
4.5
41
0
44
1.084337
50
90
71
7
72
5
7
iso_b_vert
0
LINE
5
1C2
100
AcDbEntity
8
SK2
62
256
6
ByLayer
370
13
48
1
60
0
100
AcDbLine
10
-85.5875
20
12.4625
30
0
11
-97.704654
21
12.4625
31
0
39
0
210
0
220
0
230
1
0
LINE
5
1C3
100
AcDbEntity
8
SK2
62
256
6
ByLayer
370
13
48
1
60
0
100
AcDbLine
10
-85.5875
20
-12.4625
30
0
11
-97.704654
21
-12.4625
31
0
39
0
210
0
220
0
230
1
0
LINE
5
1C4
100
AcDbEntity
8
SK2
62
256
6
ByLayer
370
13
48
1
60
0
100
AcDbLine
10
-95.704654
20
12.4625
30
0
11
-95.704654
21
-12.4625
31
0
39
0
210
0
220
0
230
1
0
SOLID
5
1C5
100
AcDbEntity
8
SK2
62
256
6
ByLayer
370
13
48
1
60
0
100
AcDbTrace
10
-95.704654
20
12.4625
30
0
11
-95.24387
21
8.962502
31
0
12
-96.165438
22
8.962498
32
0
13
-95.704654
23
12.4625
33
0
39
0
210
0
220
0
230
1
0
SOLID
5
1C6
100
AcDbEntity
8
SK2
62
256
6
ByLayer
370
13
48
1
60
0
100
AcDbTrace
10
-95.704654
20
-12.4625
30
0
11
-96.165438
21
-8.962502
31
0
12
-95.24387
22
-8.962498
32
0
13
-95.704654
23
-12.4625
33
0
39
0
210
0
220
0
230
1
0
ENDBLK
5
1C8
100
AcDbEntity
8
0
100
AcDbBlockEnd
0
BLOCK
5
1D1
100
AcDbEntity
8
0
100
AcDbBlockBegin
2
DimnDraft3D4
70
0
10
0
20
0
30
0
3
DimnDraft3D4
0
MTEXT
5
1CB
100
AcDbEntity
8
2
62
256
6
ByLayer
370
18
48
1
60
0
100
AcDbMText
10
41.07907
20
8.412094
30
0
210
0
220
0
230
1
1
\W0.8531;95%%d
40
4.5
41
0
44
1.084337
50
53.6756750758012
71
7
72
5
7
iso_b_vert
0
LINE
5
1CC
100
AcDbEntity
8
2
62
256
6
ByLayer
370
13
48
1
60
0
100
AcDbLine
10
40.933723
20
19.5375
30
0
11
48.835666
21
19.5375
31
0
39
0
210
0
220
0
230
1
0
LINE
5
1CD
100
AcDbEntity
8
2
62
256
6
ByLayer
370
13
48
1
60
0
100
AcDbLine
10
30.52188
20
13.722019
30
0
11
29.538572
21
1.761808
31
0
39
0
210
0
220
0
230
1
0
ARC
5
1CE
100
AcDbEntity
8
2
62
256
6
ByLayer
370
13
48
1
60
0
100
AcDbCircle
39
0
10
31
20
19.5375
30
0
40
15.8356663774515
210
0
220
0
230
1
100
AcDbArc
50
265.3
51
0
0
SOLID
5
1CF
100
AcDbEntity
8
2
62
256
6
ByLayer
370
13
48
1
60
0
100
AcDbTrace
10
46.835666
20
19.5375
30
0
11
47.103239
21
16.017455
31
0
12
46.183066
22
16.068142
32
0
13
46.835666
23
19.5375
33
0
39
0
210
0
220
0
230
1
0
SOLID
5
1D0
100
AcDbEntity
8
2
62
256
6
ByLayer
370
13
48
1
60
0
100
AcDbTrace
10
29.702449
20
3.755083
30
0
11
33.213611
21
4.121215
31
0
12
33.188736
22
3.199983
32
0
13
29.702449
23
3.755083
33
0
39
0
210
0
220
0
230
1
0
ENDBLK
5
1D2
100
AcDbEntity
8
0
100
AcDbBlockEnd
0
ENDSEC
0
SECTION
2
ENTITIES
0
ARC
5
FA
100
AcDbEntity
8
1
62
256
6
ByLayer
370
18
48
1
60
0
100
AcDbCircle
39
0
10
-0.372277
20
14.0625
30
0
40
1.6000000000002
210
0
220
0
230
-1
100
AcDbArc
50
196.05154
51
270
0
ARC
5
FB
100
AcDbEntity
8
1
62
256
6
ByLayer
370
18
48
1
60
0
100
AcDbCircle
39
0
10
2.510478
20
22.8125
30
0
40
10.200000000003
210
0
220
0
230
-1
100
AcDbArc
50
209.365032
51
244.318367
0
ELLIPSE
5
FC
100
AcDbEntity
8
1
62
256
6
ByLayer
370
18
48
1
60
0
100
AcDbEllipse
10
26.291034
20
7.90277
30
0
11
-0.779866847605806
21
0.469209837361663
31
0
210
0
220
0
230
-1
40
0.991433
41
0.256739700858577
42
1.00206784900287
0
ELLIPSE
5
FD
100
AcDbEntity
8
1
62
256
6
ByLayer
370
18
48
1
60
0
100
AcDbEllipse
10
-26.671965
20
44.963322
30
0
11
-32.1872792877618
21
-49.8416088504672
31
0
210
-3.58971286639873E-16
220
-3.25008177701399E-17
230
1
40
0.991753
41
1.2146400668239
42
1.24015583221586
0
ELLIPSE
5
FE
100
AcDbEntity
8
1
62
256
6
ByLayer
370
13
48
1
60
0
100
AcDbEllipse
10
5.610756
20
-0.616649
30
0
11
4.97935580561345
21
-3.21562485009781
31
0
210
0
220
0
230
1
40
0.991816
41
-2.25071687020602
42
-0.366691132231544
0
ELLIPSE
5
FF
100
AcDbEntity
8
1
62
256
6
ByLayer
370
13
48
1
60
0
100
AcDbEllipse
10
5.711917
20
-0.460002
30
0
11
-3.64038174081834
21
2.35092699670526
31
0
210
0
220
0
230
1
40
0.991816
41
-0.284854204699558
42
2.77490152135825
0
ELLIPSE
5
100
100
AcDbEntity
8
1
62
256
6
ByLayer
370
13
48
1
60
0
100
AcDbEllipse
10
19.346041
20
12.185154
30
0
11
-0.203186744050111
21
-2.19059698416717
31
0
210
0
220
0
230
1
40
0.094469
41
-1.17069637536101
42
-0.106972687587427
0
ELLIPSE
5
101
100
AcDbEntity
8
1
62
256
6
ByLayer
370
13
48
1
60
0
100
AcDbEllipse
10
5.610756
20
-0.616649
30
0
11
4.97935580561345
21
-3.21562485009781
31
0
210
0
220
0
230
1
40
0.991816
41
2.85673844889024
42
-2.89312370898411
0
ELLIPSE
5
102
100
AcDbEntity
8
1
62
256
6
ByLayer
370
13
48
1
60
0
100
AcDbEllipse
10
-27.12798
20
44.257189
30
0
11
-50.2959836448998
21
32.4807105943952
31
0
210
0
220
0
230
1
40
0.991816
41
2.77490152135825
42
2.96862830074088
0
ELLIPSE
5
103
100
AcDbEntity
8
1
62
256
6
ByLayer
370
13
48
1
60
0
100
AcDbEllipse
10
42.089715
20
-42.379381
30
0
11
-50.2959836448997
21
32.4807105943951
31
0
210
0
220
0
230
1
40
0.991816
41
-0.478213979195195
42
-0.284854204699557
0
ELLIPSE
5
104
100
AcDbEntity
8
1
62
256
6
ByLayer
370
18
48
1
60
0
100
AcDbEllipse
10
21.845452
20
8.65147
30
0
11
-2.75234509895989
21
0.272204338810547
31
0
210
0
220
0
230
-1
40
0.24586
41
-2.46539280617585
42
-1.60870926730136
0
ELLIPSE
5
105
100
AcDbEntity
8
1
62
256
6
ByLayer
370
18
48
1
60
0
100
AcDbEllipse
10
18.230728
20
15.001945
30
0
11
-2.13979989198621
21
1.28741869531555
31
0
210
0
220
0
230
-1
40
0.991433
41
2.68509225656917
42
-2.61455050084749
0
ELLIPSE
5
106
100
AcDbEntity
8
1
62
256
6
ByLayer
370
18
48
1
60
0
100
AcDbEllipse
10
24.413395
20
9.895611
30
0
11
-2.66767000884984
21
0.367673564392011
31
0
210
0
220
0
230
-1
40
0.245023
41
-2.55619695371332
42
-2.25958134795831
0
ELLIPSE
5
107
100
AcDbEntity
8
1
62
256
6
ByLayer
370
18
48
1
60
0
100
AcDbEllipse
10
19.072667
20
8.769048
30
0
11
-1.33486947113438
21
-2.21813413009146
31
0
210
0
220
0
230
-1
40
0.840613
41
2.2205515844859
42
2.28870056329206
0
ELLIPSE
5
108
100
AcDbEntity
8
1
62
256
6
ByLayer
370
18
48
1
60
0
100
AcDbEllipse
10
22.681488
20
1.668368
30
0
11
-1.38609150095356
21
0.895125885551474
31
0
210
0
220
0
230
1
40
0.991816
41
0
42
6.28318530717959
0
ELLIPSE
5
109
100
AcDbEntity
8
1
62
256
6
ByLayer
370
13
48
1
60
0
100
AcDbEllipse
10
-14.390763
20
-17.008371
30
0
11
34.8338486072274
21
-22.4953977138305
31
0
210
0
220
0
230
1
40
0.991816
41
1.2344088405133
42
1.2801010944187
0
ELLIPSE
5
10A
100
AcDbEntity
8
1
62
256
6
ByLayer
370
18
48
1
60
0
100
AcDbEllipse
10
22.719582
20
1.727356
30
0
11
-1.84812200127141
21
1.1935011807353
31
0
210
0
220
0
230
1
40
0.991816
41
-2.56443062120847
42
-0.0291654299811527
0
ELLIPSE
5
10B
100
AcDbEntity
8
1
62
256
6
ByLayer
370
18
48
1
60
0
100
AcDbEllipse
10
22.719582
20
1.727356
30
0
11
-1.84812200127141
21
1.1935011807353
31
0
210
0
220
0
230
1
40
0.991816
41
-3.11234417451713
42
-2.56443062120847
0
ELLIPSE
5
10C
100
AcDbEntity
8
1
62
256
6
ByLayer
370
18
48
1
60
0
100
AcDbEllipse
10
-2.510579
20
22.812556
30
0
11
-8.91515807429363
21
4.9560392534451
31
0
210
0
220
0
230
-1
40
0.999994
41
3.13693417991489
42
-3.13644667369108
0
ELLIPSE
5
10D
100
AcDbEntity
8
1
62
256
6
ByLayer
370
18
48
1
60
0
100
AcDbEllipse
10
20.662896
20
10.611159
30
0
11
-2.1704764658104
21
1.30587537194499
31
0
210
0
220
0
230
-1
40
0.991433
41
-0.629303007439287
42
0.52704215274086
0
ELLIPSE
5
10E
100
AcDbEntity
8
1
62
256
6
ByLayer
370
18
48
1
60
0
100
AcDbEllipse
10
12.95808
20
18.309933
30
0
11
-2.02542994442333
21
-0.130954968487379
31
0
210
0
220
0
230
-1
40
0.006113
41
1.30348671427244
42
1.87762469619854
0
ELLIPSE
5
10F
100
AcDbEntity
8
1
62
256
6
ByLayer
370
18
48
1
60
0
100
AcDbEllipse
10
13.668559
20
18.321356
30
0
11
-3.03814491725882
21
-0.196432452771351
31
0
210
0
220
0
230
-1
40
0.006113
41
-1.66539368541696
42
-0.0945973586242615
0
ELLIPSE
5
110
100
AcDbEntity
8
1
62
256
6
ByLayer
370
18
48
1
60
0
100
AcDbEllipse
10
19.174932
20
9.356045
30
0
11
-0.0905607788971299
21
1.27679077974865
31
0
210
0
220
0
230
-1
40
0.369973
41
-2.03797501637499
42
-1.11952794521509
0
ELLIPSE
5
111
100
AcDbEntity
8
1
62
256
6
ByLayer
370
18
48
1
60
0
100
AcDbEllipse
10
19.165497
20
15.708002
30
0
11
-3.08324741945624
21
-0.443121053068623
31
0
210
0
220
0
230
-1
40
0.96233
41
1.65403099534517
42
1.83674189988758
0
ELLIPSE
5
112
100
AcDbEntity
8
1
62
256
6
ByLayer
370
18
48
1
60
0
100
AcDbEllipse
10
21.548131
20
18.811094
30
0
11
-0.544558910829946
21
-0.0317071290937607
31
0
210
0
220
0
230
-1
40
0.016048
41
-0.805455605214805
42
-0.269928950769214
0
ELLIPSE
5
113
100
AcDbEntity
8
1
62
256
6
ByLayer
370
18
48
1
60
0
100
AcDbEllipse
10
70.042602
20
-6.221008
30
0
11
-43.9005012370506
21
15.7045775428264
31
0
210
0
220
0
230
-1
40
0.036559
41
0.342144477959348
42
0.394780655918575
0
ELLIPSE
5
114
100
AcDbEntity
8
1
62
256
6
ByLayer
370
18
48
1
60
0
100
AcDbEllipse
10
13.692085
20
6.92943
30
0
11
-2.41282270286769
21
1.55818000261695
31
0
210
0
220
0
230
1
40
0.991816
41
-0.747286193812526
42
-0.742999846893093
0
ELLIPSE
5
115
100
AcDbEntity
8
1
62
256
6
ByLayer
370
13
48
1
60
0
100
AcDbEllipse
10
13.692085
20
6.92943
30
0
11
-2.41282270286769
21
1.55818000261695
31
0
210
0
220
0
230
1
40
0.991816
41
-0.742999846893092
42
-0.478213979195197
0
ELLIPSE
5
116
100
AcDbEntity
8
1
62
256
6
ByLayer
370
13
48
1
60
0
100
AcDbEllipse
10
18.0543
20
2.610468
30
0
11
-1.17312726609248
21
1.08801305945764
31
0
210
0
220
0
230
1
40
0.125768
41
0.109417034200198
42
1.59294689839538
0
ELLIPSE
5
117
100
AcDbEntity
8
1
62
256
6
ByLayer
370
18
48
1
60
0
100
AcDbEllipse
10
17.828692
20
14.215485
30
0
11
-1.82027655154696
21
-3.024728359216
31
0
210
0
220
0
230
-1
40
0.840613
41
-1.29650453222291
42
-0.852892090297783
0
ELLIPSE
5
118
100
AcDbEntity
8
1
62
256
6
ByLayer
370
18
48
1
60
0
100
AcDbEllipse
10
-64.531545
20
6.261289
30
0
11
-99.5733414818142
21
-2.33217639483574
31
0
210
0
220
0
230
-1
40
0.020746
41
2.72701499980286
42
2.7735586073375
0
ELLIPSE
5
119
100
AcDbEntity
8
1
62
256
6
ByLayer
370
13
48
1
60
0
100
AcDbEllipse
10
9.22644
20
-5.217523
30
0
11
-0.939960690214909
21
1.29478720292205
31
0
210
0
220
0
230
1
40
0.119185
41
0.133385751519537
42
1.61691561571471
0
ELLIPSE
5
11A
100
AcDbEntity
8
1
62
256
6
ByLayer
370
13
48
1
60
0
100
AcDbEllipse
10
11.476699
20
10.807888
30
0
11
-0.789178076387428
21
1.39183259185487
31
0
210
0
220
0
230
1
40
0.11335
41
1.62996623716526
42
3.11349610136044
0
ELLIPSE
5
11B
100
AcDbEntity
8
1
62
256
6
ByLayer
370
18
48
1
60
0
100
AcDbEllipse
10
23.861795
20
10.385408
30
0
11
-2.19803629919761
21
1.32245684983874
31
0
210
0
220
0
230
-1
40
0.991433
41
-2.88485295278102
42
-2.19195965670897
0
ELLIPSE
5
11C
100
AcDbEntity
8
1
62
256
6
ByLayer
370
18
48
1
60
0
100
AcDbEllipse
10
21.241354
20
15.86036
30
0
11
-0.205294257968973
21
0.804857499603294
31
0
210
0
220
0
230
-1
40
0.245318
41
-0.619263118411868
42
-0.0837364640895458
0
ELLIPSE
5
11D
100
AcDbEntity
8
1
62
256
6
ByLayer
370
18
48
1
60
0
100
AcDbEllipse
10
-67.741527
20
-60.125958
30
0
11
75.9545713516804
21
60.7945263482716
31
0
210
-3.67067347762024E-16
220
-2.99840880592744E-17
230
1
40
0.411148
41
-0.0627813842342491
42
0.115003224655441
0
ELLIPSE
5
11E
100
AcDbEntity
8
1
62
256
6
ByLayer
370
18
48
1
60
0
100
AcDbEllipse
10
6.331182
20
0.498922
30
0
11
-1.92771274619753
21
-2.98503964293027
31
0
210
-3.58971286639873E-16
220
-3.25008177701399E-17
230
1
40
0.991753
41
-1.86644194372152
42
1.2146400668239
0
ELLIPSE
5
11F
100
AcDbEntity
8
1
62
256
6
ByLayer
370
18
48
1
60
0
100
AcDbEllipse
10
20.709347
20
10.11586
30
0
11
-2.17122185465073
21
1.30632383795507
31
0
210
0
220
0
230
-1
40
0.991433
41
-2.19195965672905
42
-0.629303007437921
0
ELLIPSE
5
120
100
AcDbEntity
8
1
62
256
6
ByLayer
370
13
48
1
60
0
100
AcDbEllipse
10
18.278813
20
8.350403
30
0
11
-1.26049703405693
21
-0.985468024409565
31
0
210
0
220
0
230
1
40
0.042142
41
0.463670617912705
42
1.44987760535978
0
ELLIPSE
5
121
100
AcDbEntity
8
1
62
256
6
ByLayer
370
13
48
1
60
0
100
AcDbEllipse
10
14.661236
20
5.466003
30
0
11
3.7517967676628
21
-2.42287785600949
31
0
210
0
220
0
230
1
40
0.991816
41
-0.172964352848916
42
1.23440884051331
0
ELLIPSE
5
122
100
AcDbEntity
8
1
62
256
6
ByLayer
370
13
48
1
60
0
100
AcDbEllipse
10
17.079307
20
9.81492
30
0
11
1.21448498929798
21
1.04164591429616
31
0
210
0
220
0
230
1
40
0.036593
41
-2.64149853881494
42
-1.69350222321102
0
ELLIPSE
5
123
100
AcDbEntity
8
1
62
256
6
ByLayer
370
18
48
1
60
0
100
AcDbEllipse
10
28.58832
20
7.978839
30
0
11
-0.760241885629368
21
0.457402405704596
31
0
210
0
220
0
230
-1
40
0.991433
41
1.00206784812292
42
1.38575513847812
0
ELLIPSE
5
124
100
AcDbEntity
8
1
62
256
6
ByLayer
370
13
48
1
60
0
100
AcDbEllipse
10
14.762398
20
5.62265
30
0
11
-2.41282270286769
21
1.55818000261695
31
0
210
0
220
0
230
1
40
0.991816
41
2.96862830074088
42
-2.39431456461611
0
ELLIPSE
5
125
100
AcDbEntity
8
1
62
256
6
ByLayer
370
13
48
1
60
0
100
AcDbEllipse
10
1.839127
20
4.028833
30
0
11
-1.0433069730411
21
1.21305834979353
31
0
210
0
220
0
230
1
40
0.122528
41
1.60695488139681
42
3.09048474559199
0
ELLIPSE
5
126
100
AcDbEntity
8
1
62
256
6
ByLayer
370
18
48
1
60
0
100
AcDbEllipse
10
42.226575
20
-42.167454
30
0
11
-32.4061110757891
21
-50.1804672014758
31
0
210
-3.58971286639873E-16
220
-3.25008177701399E-17
230
1
40
0.991753
41
-1.8835124567657
42
-1.86644194372153
0
ELLIPSE
5
127
100
AcDbEntity
8
1
62
256
6
ByLayer
370
13
48
1
60
0
100
AcDbEllipse
10
13.590923
20
6.772783
30
0
11
3.7517967676628
21
-2.42287785600949
31
0
210
0
220
0
230
1
40
0.991816
41
1.2801010944187
42
2.6633786743946
0
ELLIPSE
5
128
100
AcDbEntity
8
1
62
256
6
ByLayer
370
18
48
1
60
0
100
AcDbEllipse
10
-27.049498
20
85.668231
30
0
11
-560.245869950766
21
-562.617276795695
31
0
210
0
220
0
230
-1
40
0.125902
41
-1.54596104513749
42
-1.52157797105789
0
ELLIPSE
5
129
100
AcDbEntity
8
1
62
256
6
ByLayer
370
18
48
1
60
0
100
AcDbEllipse
10
22.234745
20
0.976591
30
0
11
-1.38609150095356
21
0.895125885551473
31
0
210
0
220
0
230
1
40
0.991816
41
-2.56443062120847
42
-0.254280127260574
0
ELLIPSE
5
12A
100
AcDbEntity
8
1
62
256
6
ByLayer
370
18
48
1
60
0
100
AcDbEllipse
10
22.234745
20
0.976591
30
0
11
-1.38609150095356
21
0.895125885551473
31
0
210
0
220
0
230
1
40
0.991816
41
-2.88732769680727
42
-2.56443062120847
0
ELLIPSE
5
12B
100
AcDbEntity
8
1
62
256
6
ByLayer
370
18
48
1
60
0
100
AcDbEllipse
10
43.843635
20
157.343844
30
0
11
-15.2876442278218
21
-157.276679627521
31
0
210
0
220
0
230
-1
40
0.059891
41
-0.125122555277213
42
-0.0734739179515499
0
ELLIPSE
5
12C
100
AcDbEntity
8
1
62
256
6
ByLayer
370
18
48
1
60
0
100
AcDbEllipse
10
13.225963
20
18.321257
30
0
11
-3.03814491723128
21
-0.196432452769619
31
0
210
0
220
0
230
-1
40
0.006113
41
-0.0945973586249301
42
1.30348671432887
0
ELLIPSE
5
12D
100
AcDbEntity
8
1
62
256
6
ByLayer
370
18
48
1
60
0
100
AcDbEllipse
10
19.139824
20
8.837753
30
0
11
-0.593442361457216
21
2.50442961089815
31
0
210
0
220
0
230
-1
40
0.240405
41
-1.10251630135824
42
-0.875532971119177
0
ELLIPSE
5
12E
100
AcDbEntity
8
1
62
256
6
ByLayer
370
13
48
1
60
0
100
AcDbEllipse
10
41.988553
20
-42.536028
30
0
11
51.6349577096947
21
-33.3454084477878
31
0
210
0
220
0
230
1
40
0.991816
41
2.6633786743946
42
2.85673844889024
0
ELLIPSE
5
12F
100
AcDbEntity
8
1
62
256
6
ByLayer
370
18
48
1
60
0
100
AcDbEllipse
10
22.788845
20
1.834609
30
0
11
1.84812200127141
21
-1.1935011807353
31
0
210
0
220
0
230
1
40
0.991816
41
0
42
6.28318530717959
0
ELLIPSE
5
130
100
AcDbEntity
8
1
62
256
6
ByLayer
370
18
48
1
60
0
100
AcDbEllipse
10
19.643423
20
12.15757
30
0
11
-0.203186744050111
21
-2.19059698416717
31
0
210
0
220
0
230
1
40
0.094469
41
-1.29019954358115
42
-0.21017866446853
0
ELLIPSE
5
131
100
AcDbEntity
8
1
62
256
6
ByLayer
370
13
48
1
60
0
100
AcDbEllipse
10
-27.229141
20
44.100542
30
0
11
51.6349577096948
21
-33.3454084477878
31
0
210
0
220
0
230
1
40
0.991816
41
-0.366691132231544
42
-0.172964352848917
0
ELLIPSE
5
132
100
AcDbEntity
8
SK1
62
256
6
ByLayer
370
13
48
1
60
0
100
AcDbEllipse
10
5.610756
20
-0.616649
30
0
11
4.97935580561345
21
-3.21562485009781
31
0
210
0
220
0
230
1
40
0.991816
41
-2.89312370898411
42
-2.25071687020602
0
ELLIPSE
5
133
100
AcDbEntity
8
1
62
256
6
ByLayer
370
18
48
1
60
0
100
AcDbEllipse
10
35.130027
20
19.547025
30
0
11
-65.5937928590656
21
-5.41432183558454
31
0
210
0
220
0
230
-1
40
0.016638
41
-1.47724753496424
42
-1.45918038477729
0
ELLIPSE
5
134
100
AcDbEntity
8
1
62
256
6
ByLayer
370
13
48
1
60
0
100
AcDbEllipse
10
40.372736
20
19.219236
30
0
11
-14.3515376332422
21
-5.70044881335118
31
0
210
0
220
0
230
-1
40
0.734741
41
-0.161583989936747
42
-0.0247312858123868
0
ELLIPSE
5
135
100
AcDbEntity
8
1
62
256
6
ByLayer
370
13
48
1
60
0
100
AcDbEllipse
10
24.762806
20
14.617953
30
0
11
0.770985958331764
21
0.213496257707839
31
0
210
0
220
0
230
1
40
0.197129
41
-1.54609191316085
42
-0.742976620310763
0
ELLIPSE
5
136
100
AcDbEntity
8
1
62
256
6
ByLayer
370
18
48
1
60
0
100
AcDbEllipse
10
18.683238
20
13.851004
30
0
11
-1.06211252571648
21
-11.4508478717829
31
0
210
0
220
0
230
1
40
0.094469
41
1.30576142577141
42
1.3914944639757
0
ELLIPSE
5
137
100
AcDbEntity
8
1
62
256
6
ByLayer
370
13
48
1
60
0
100
AcDbEllipse
10
16.376819
20
21.286484
30
0
11
-6.18992445691761
21
10.5754262604725
31
0
210
0
220
0
230
-1
40
0.805483
41
2.25259902352422
42
2.66312657048215
0
ELLIPSE
5
138
100
AcDbEntity
8
1
62
256
6
ByLayer
370
18
48
1
60
0
100
AcDbEllipse
10
18.768627
20
13.006139
30
0
11
-65.3044510640575
21
-4.92316387051534
31
0
210
0
220
0
230
-1
40
0.05521
41
-1.63761118374986
42
-1.61954412376329
0
ELLIPSE
5
139
100
AcDbEntity
8
1
62
256
6
ByLayer
370
18
48
1
60
0
100
AcDbEllipse
10
30.952524
20
15.798103
30
0
11
0.184715221863735
21
1.99145180378834
31
0
210
0
220
0
230
1
40
0.094469
41
1.68429958649045
42
1.726617035822
0
ELLIPSE
5
13A
100
AcDbEntity
8
1
62
256
6
ByLayer
370
18
48
1
60
0
100
AcDbEllipse
10
23.510205
20
8.775233
30
0
11
-0.938289151857448
21
0.345851799918161
31
0
210
0
220
0
230
1
40
0.938407
41
-2.86466400963702
42
-1.11933475764269
0
ELLIPSE
5
13B
100
AcDbEntity
8
1
62
256
6
ByLayer
370
18
48
1
60
0
100
AcDbEllipse
10
32.189115
20
19.81983
30
0
11
1.06211252571648
21
11.450847871783
31
0
210
0
220
0
230
1
40
0.094469
41
2.20217390253232
42
2.28973054996875
0
ELLIPSE
5
13C
100
AcDbEntity
8
1
62
256
6
ByLayer
370
18
48
1
60
0
100
AcDbEllipse
10
18.633733
20
-3.129272
30
0
11
-1.06211252571648
21
-11.4508478717829
31
0
210
0
220
0
230
1
40
0.094469
41
2.89184736577123
42
2.96411440000274
0
ELLIPSE
5
13D
100
AcDbEntity
8
1
62
256
6
ByLayer
370
18
48
1
60
0
100
AcDbEllipse
10
20.196422
20
13.292178
30
0
11
-0.300162235528571
21
-3.23610918115605
31
0
210
0
220
0
230
1
40
0.094469
41
0
42
1.36099689295999
0
ELLIPSE
5
13E
100
AcDbEntity
8
1
62
256
6
ByLayer
370
18
48
1
60
0
100
AcDbEllipse
10
20.196422
20
13.292178
30
0
11
-0.300162235528571
21
-3.23610918115605
31
0
210
0
220
0
230
1
40
0.094469
41
-1.12822442246005
42
0
0
ELLIPSE
5
13F
100
AcDbEntity
8
1
62
256
6
ByLayer
370
13
48
1
60
0
100
AcDbEllipse
10
40.835563
20
19.017837
30
0
11
-14.5038339836335
21
-4.55827006443066
31
0
210
0
220
0
230
-1
40
0.704957
41
-0.2384899440307
42
-0.0937706123837145
0
ELLIPSE
5
140
100
AcDbEntity
8
1
62
256
6
ByLayer
370
18
48
1
60
0
100
AcDbEllipse
10
29.624749
20
9.203373
30
0
11
-0.791101018137016
21
0.0647938392331919
31
0
210
0
220
0
230
1
40
0.112753
41
3.04637312030299
42
-1.49148293488229
0
ELLIPSE
5
141
100
AcDbEntity
8
1
62
256
6
ByLayer
370
18
48
1
60
0
100
AcDbEllipse
10
30.952524
20
15.798103
30
0
11
0.184715221863735
21
1.99145180378834
31
0
210
0
220
0
230
1
40
0.094469
41
1.726617035822
42
2.3475247022483
0
ELLIPSE
5
142
100
AcDbEntity
8
1
62
256
6
ByLayer
370
13
48
1
60
0
100
AcDbEllipse
10
13.172469
20
-0.175471
30
0
11
-12.5863407087281
21
-9.56274981110688
31
0
210
0
220
0
230
-1
40
0.049704
41
-3.0813361983755
42
-2.93036343957421
0
ELLIPSE
5
143
100
AcDbEntity
8
1
62
256
6
ByLayer
370
18
48
1
60
0
100
AcDbEllipse
10
30.210548
20
18.748063
30
0
11
0.561767697903998
21
-0.560763868389933
31
0
210
0
220
0
230
1
40
0.989122
41
0.697393562217056
42
0.990313068784761
0
ELLIPSE
5
144
100
AcDbEntity
8
1
62
256
6
ByLayer
370
18
48
1
60
0
100
AcDbEllipse
10
27.226404
20
9.411496
30
0
11
0.996662700015138
21
-0.0816300336796124
31
0
210
0
220
0
230
1
40
0.112753
41
-3.14158568810596
42
-1.49148293488229
0
ELLIPSE
5
145
100
AcDbEntity
8
1
62
256
6
ByLayer
370
18
48
1
60
0
100
AcDbEllipse
10
21.91182
20
18.821429
30
0
11
0.792366890033291
21
-0.0468377420353612
31
0
210
0
220
0
230
1
40
0.332367
41
1.29593143330117
42
3.04126068529551
0
ELLIPSE
5
146
100
AcDbEntity
8
1
62
256
6
ByLayer
370
13
48
1
60
0
100
AcDbEllipse
10
13.063158
20
13.535346
30
0
11
-10.3058304199016
21
8.31996820694849
31
0
210
0
220
0
230
-1
40
0.803166
41
2.12906962031172
42
2.27378895190674
0
ELLIPSE
5
147
100
AcDbEntity
8
1
62
256
6
ByLayer
370
18
48
1
60
0
100
AcDbEllipse
10
23.196516
20
12.595436
30
0
11
1.06211252571648
21
11.450847871783
31
0
210
0
220
0
230
1
40
0.094469
41
1.39331807320783
42
1.81144825771926
0
ELLIPSE
5
148
100
AcDbEntity
8
1
62
256
6
ByLayer
370
13
48
1
60
0
100
AcDbEllipse
10
13.66009
20
-0.807014
30
0
11
-12.6530132637069
21
-10.3628582551153
31
0
210
0
220
0
230
-1
40
0.046651
41
-3.03076357727149
42
-2.91607874967719
0
ELLIPSE
5
149
100
AcDbEntity
8
1
62
256
6
ByLayer
370
13
48
1
60
0
100
AcDbEllipse
10
37.521902
20
11.266698
30
0
11
-12.1863843097302
21
-6.31784124816242
31
0
210
0
220
0
230
-1
40
0.760906
41
0.405065363876822
42
0.815592910836346
0
ELLIPSE
5
14A
100
AcDbEntity
8
1
62
256
6
ByLayer
370
18
48
1
60
0
100
AcDbEllipse
10
19.528838
20
6.816971
30
0
11
-0.184715221863736
21
-1.99145180378834
31
0
210
0
220
0
230
1
40
0.094469
41
2.81876360028677
42
-2.80119659113496
0
ELLIPSE
5
14B
100
AcDbEntity
8
1
62
256
6
ByLayer
370
13
48
1
60
0
100
AcDbEllipse
10
37.98473
20
11.065299
30
0
11
-12.484670944982
21
-4.95892701412948
31
0
210
0
220
0
230
-1
40
0.734741
41
0.266069377615876
42
0.707631562534167
0
ELLIPSE
5
14C
100
AcDbEntity
8
1
62
256
6
ByLayer
370
18
48
1
60
0
100
AcDbEllipse
10
30.210548
20
18.748063
30
0
11
0.561767697903998
21
-0.560763868389933
31
0
210
0
220
0
230
1
40
0.989122
41
2.14980330764369
42
2.4427228142114
0
ELLIPSE
5
14D
100
AcDbEntity
8
1
62
256
6
ByLayer
370
13
48
1
60
0
100
AcDbEllipse
10
20.704085
20
13.24509
30
0
11
0.252862944353776
21
2.72616604935806
31
0
210
0
220
0
230
1
40
0.094469
41
1.83910779872359
42
2.06186621771054
0
ELLIPSE
5
14E
100
AcDbEntity
8
1
62
256
6
ByLayer
370
18
48
1
60
0
100
AcDbEllipse
10
22.182151
20
9.914377
30
0
11
0.281486745557235
21
-0.103755539975448
31
0
210
0
220
0
230
1
40
0.938407
41
-2.86466400963701
42
-1.11933475764271
0
ELLIPSE
5
14F
100
AcDbEntity
8
1
62
256
6
ByLayer
370
13
48
1
60
0
100
AcDbEllipse
10
26.591987
20
13.058374
30
0
11
0.733138971621423
21
0.320167531598509
31
0
210
0
220
0
230
1
40
0.511841
41
1.21154307277249
42
2.01465836562258
0
ELLIPSE
5
150
100
AcDbEntity
8
1
62
256
6
ByLayer
370
18
48
1
60
0
100
AcDbEllipse
10
21.709606
20
12.733352
30
0
11
-1.06211252571648
21
-11.4508478717829
31
0
210
0
220
0
230
1
40
0.094469
41
-1.83583122781839
42
-1.74827458038196
0
ELLIPSE
5
151
100
AcDbEntity
8
1
62
256
6
ByLayer
370
13
48
1
60
0
100
AcDbEllipse
10
25.602265
20
13.786069
30
0
11
0.137779192381499
21
0.788046251273808
31
0
210
0
220
0
230
1
40
0.103346
41
-1.67752137543759
42
-1.01125977119933
0
ELLIPSE
5
152
100
AcDbEntity
8
1
62
256
6
ByLayer
370
18
48
1
60
0
100
AcDbEllipse
10
21.117943
20
8.87784
30
0
11
0.74476701428685
21
-0.274519866185038
31
0
210
0
220
0
230
1
40
0.938407
41
-2.86466400963702
42
-1.1193347576427
0
ELLIPSE
5
153
100
AcDbEntity
8
1
62
256
6
ByLayer
370
18
48
1
60
0
100
AcDbEllipse
10
30.702206
20
19.957746
30
0
11
-1.06211252571648
21
-11.4508478717829
31
0
210
0
220
0
230
1
40
0.094469
41
-1.3575489355689
42
-0.939418751057466
0
ELLIPSE
5
154
100
AcDbEntity
8
1
62
256
6
ByLayer
370
18
48
1
60
0
100
AcDbEllipse
10
20.743508
20
12.5324
30
0
11
-0.184715221863736
21
-1.99145180378834
31
0
210
0
220
0
230
1
40
0.094469
41
-1.89362538009793
42
-1.23040026434008
0
ELLIPSE
5
155
100
AcDbEntity
8
1
62
256
6
ByLayer
370
13
48
1
60
0
100
AcDbEllipse
10
13.659428
20
13.589762
30
0
11
-8.92586153106005
21
10.1965934704983
31
0
210
0
220
0
230
-1
40
0.815574
41
1.96744122262386
42
2.10429392677322
0
ELLIPSE
5
156
100
AcDbEntity
8
1
62
256
6
ByLayer
370
18
48
1
60
0
100
AcDbEllipse
10
29.925599
20
6.825445
30
0
11
0.184715221863735
21
1.99145180378834
31
0
210
0
220
0
230
1
40
0.094469
41
0.113503259695558
42
0.221931056377405
0
ELLIPSE
5
157
100
AcDbEntity
8
1
62
256
6
ByLayer
370
18
48
1
60
0
100
AcDbEllipse
10
30.210548
20
18.748063
30
0
11
0.561767697903998
21
-0.560763868389933
31
0
210
0
220
0
230
1
40
0.989122
41
0.990313068784761
42
2.14980330764369
0
ELLIPSE
5
158
100
AcDbEntity
8
1
62
256
6
ByLayer
370
13
48
1
60
0
100
AcDbEllipse
10
15.78055
20
21.232068
30
0
11
-7.76477385238185
21
8.87020732796421
31
0
210
0
220
0
230
-1
40
0.815574
41
2.39509459025103
42
2.83665677516752
0
ELLIPSE
5
159
100
AcDbEntity
8
1
62
256
6
ByLayer
370
18
48
1
60
0
100
AcDbEllipse
10
22.230417
20
12.394483
30
0
11
0.184715221863735
21
1.99145180378834
31
0
210
0
220
0
230
1
40
0.094469
41
1.24796727349187
42
1.91119238924971
0
ELLIPSE
5
15A
100
AcDbEntity
8
1
62
256
6
ByLayer
370
18
48
1
60
0
100
AcDbEllipse
10
32.413366
20
-2.546456
30
0
11
-65.8470479416814
21
4.78115728204983
31
0
210
0
220
0
230
-1
40
0.173071
41
1.48037257967477
42
1.49843963605787
0
ELLIPSE
5
15B
100
AcDbEntity
8
1
62
256
6
ByLayer
370
13
48
1
60
0
100
AcDbEllipse
10
25.690426
20
13.771205
30
0
11
0.127893516915425
21
0.789710863753946
31
0
210
0
220
0
230
1
40
0.050952
41
-1.66350397746829
42
-0.997242373230115
0
ELLIPSE
5
15C
100
AcDbEntity
8
1
62
256
6
ByLayer
370
18
48
1
60
0
100
AcDbEllipse
10
80.030524
20
15.382345
30
0
11
-65.8470491517159
21
4.78115750812779
31
0
210
0
220
0
230
-1
40
0.173071
41
-0.714634919754417
42
-0.659920379054162
0
ELLIPSE
5
15D
100
AcDbEntity
8
1
62
256
6
ByLayer
370
18
48
1
60
0
100
AcDbEllipse
10
-26.131804
20
17.170837
30
0
11
-63.2574798093327
21
9.8998908166806
31
0
210
0
220
0
230
-1
40
0.168639
41
2.40908705488508
42
2.46380159506835
0
ELLIPSE
5
15E
100
AcDbEntity
8
1
62
256
6
ByLayer
370
18
48
1
60
0
100
AcDbEllipse
10
28.502659
20
9.171047
30
0
11
-0.298998810004542
21
0.0244890101038836
31
0
210
0
220
0
230
1
40
0.112753
41
-3.14157977548647
42
-1.49148293488229
0
POINT
5
6C
100
AcDbEntity
8
81
62
256
6
ByLayer
370
18
48
1
60
0
100
AcDbPoint
10
31
20
19.5375
30
0
39
0
210
0
220
0
230
1
50
360
0
POINT
5
6E
100
AcDbEntity
8
80
62
256
6
ByLayer
370
18
48
1
60
0
100
AcDbPoint
10
0
20
0
30
0
39
0
210
0
220
0
230
1
50
360
0
SPLINE
5
15F
100
AcDbEntity
8
1
62
256
6
ByLayer
370
18
48
1
60
0
100
AcDbSpline
70
4
71
3
72
19
73
15
40
0
40
0
40
0
40
0
40
0.125
40
0.125
40
0.25
40
0.374999999999999
40
0.374999999999999
40
0.499999999999999
40
0.499999999999999
40
0.749999999999999
40
0.749999999999999
40
0.874999999999999
40
0.874999999999999
40
1
40
1
40
1
40
1
41
1
10
28.3566059597883
20
9.18052428670086
30
0
41
1
10
28.3800531396687
20
9.17981284543436
30
0
41
1
10
28.4037745214449
20
9.17880485501328
30
0
41
1
10
28.4509586379025
20
9.17619616641687
30
0
41
1
10
28.4981080790329
20
9.17298907019153
30
0
41
1
10
28.5451856444747
20
9.16853715832579
30
0
41
1
10
28.5922256935247
20
9.16343565453778
30
0
41
1
10
28.6154129871491
20
9.16058962777282
30
0
41
1
10
28.6825751905889
20
9.15143193445238
30
0
41
1
10
28.7248413266691
20
9.14443390100837
30
0
41
1
10
28.7853798855379
20
9.13282985286295
30
0
41
1
10
28.8051172339863
20
9.12876552128463
30
0
41
1
10
28.8431257441578
20
9.12043600136121
30
0
41
1
10
28.8614876868814
20
9.11615460566591
30
0
41
1
10
28.8793201233222
20
9.11176700852516
30
0
0
SPLINE
5
160
100
AcDbEntity
8
1
62
256
6
ByLayer
370
18
48
1
60
0
100
AcDbSpline
70
4
71
3
72
32
73
28
40
0
40
0
40
0
40
0
40
0.0624999999999968
40
0.0624999999999968
40
0.124999999999994
40
0.124999999999994
40
0.249999999999988
40
0.249999999999988
40
0.312499999999986
40
0.312499999999986
40
0.343749999999985
40
0.343749999999985
40
0.374999999999984
40
0.374999999999984
40
0.499999999999983
40
0.499999999999983
40
0.562499999999983
40
0.562499999999983
40
0.624999999999983
40
0.624999999999983
40
0.749999999999986
40
0.749999999999986
40
0.81249999999999
40
0.81249999999999
40
0.874999999999993
40
0.874999999999993
40
1
40
1
40
1
40
1
41
1
10
20.4672719119706
20
7.85677398660675
30
0
41
1
10
20.4040135938846
20
7.8566353431527
30
0
41
1
10
20.3404596287962
20
7.85954200915091
30
0
41
1
10
20.2127829584083
20
7.87159031364331
30
0
41
1
10
20.1483329533836
20
7.88081050535382
30
0
41
1
10
19.9575945521507
20
7.91753688895324
30
0
41
1
10
19.8333819914915
20
7.9539402625694
30
0
41
1
10
19.6516129987045
20
8.02618312580054
30
0
41
1
10
19.5917862539848
20
8.05322209687088
30
0
41
1
10
19.5032525931916
20
8.09835898059166
30
0
41
1
10
19.473902823832
20
8.11419629619633
30
0
41
1
10
19.4162272504663
20
8.14707513528478
30
0
41
1
10
19.3878280578521
20
8.16415138196035
30
0
41
1
10
19.2479984482498
20
8.25266517760829
30
0
41
1
10
19.1430130220199
20
8.33342374447383
30
0
41
1
10
18.9960047336483
20
8.46944471638525
30
0
41
1
10
18.948635436354
20
8.51741725305703
30
0
41
1
10
18.8580989576757
20
8.61794195997052
30
0
41
1
10
18.815392871696
20
8.66995604859554
30
0
41
1
10
18.6947311834494
20
8.83106913800864
30
0
41
1
10
18.6241749921677
20
8.94520122400576
30
0
41
1
10
18.5333520360222
20
9.12648964137736
30
0
41
1
10
18.5054717752891
20
9.18894405184213
30
0
41
1
10
18.4556575018104
20
9.31548757224778
30
0
41
1
10
18.433715260434
20
9.37948856808507
30
0
41
1
10
18.3765233413695
20
9.573604784835
30
0
41
1
10
18.3498492035395
20
9.7058193099304
30
0
41
1
10
18.3347112042729
20
9.84082510534057
30
0
0
SPLINE
5
161
100
AcDbEntity
8
1
62
256
6
ByLayer
370
18
48
1
60
0
100
AcDbSpline
70
4
71
3
72
14
73
10
40
0
40
0
40
0
40
0
40
0.25
40
0.25
40
0.5
40
0.5
40
0.75
40
0.75
40
1
40
1
40
1
40
1
41
1
10
23.9502780261258
20
8.01566576887637
30
0
41
1
10
24.0274828124798
20
8.03121525180057
30
0
41
1
10
24.1017264836551
20
8.05179673867374
30
0
41
1
10
24.2403215379658
20
8.10085392240421
30
0
41
1
10
24.3048788526846
20
8.1293169490782
30
0
41
1
10
24.424016468257
20
8.19257537800169
30
0
41
1
10
24.4785957009111
20
8.2273776140961
30
0
41
1
10
24.5769200462685
20
8.30179148907422
30
0
41
1
10
24.6196473767468
20
8.34064663216134
30
0
41
1
10
24.6559406920757
20
8.37990372965163
30
0
0
SPLINE
5
162
100
AcDbEntity
8
1
62
256
6
ByLayer
370
18
48
1
60
0
100
AcDbSpline
70
4
71
3
72
20
73
16
40
0
40
0
40
0
40
0
40
0.177889236751847
40
0.177889236751847
40
0.266833855127778
40
0.266833855127778
40
0.355778473503708
40
0.355778473503708
40
0.444723091879638
40
0.444723091879638
40
0.533667710255569
40
0.533667710255569
40
0.71155694700743
40
0.71155694700743
40
1
40
1
40
1
40
1
41
1
10
19.1676006163301
20
10.0064781308091
30
0
41
1
10
19.1282090818594
20
10.0101318552003
30
0
41
1
10
19.0907008728132
20
10.0187060944614
30
0
41
1
10
19.0370544935195
20
10.0384443735249
30
0
41
1
10
19.0196027526092
20
10.0462174851472
30
0
41
1
10
18.9866351351705
20
10.0635136986674
30
0
41
1
10
18.9709667423603
20
10.0730858438423
30
0
41
1
10
18.9411437097344
20
10.0939642207661
30
0
41
1
10
18.9269066356729
20
10.1053510296249
30
0
41
1
10
18.9003520905949
20
10.129386428323
30
0
41
1
10
18.8880458139439
20
10.1419994815194
30
0
41
1
10
18.8537247802696
20
10.1814627858364
30
0
41
1
10
18.8342042047213
20
10.2100766590304
30
0
41
1
10
18.791417023423
20
10.2893904308283
30
0
41
1
10
18.7738529662821
20
10.3411921054576
30
0
41
1
10
18.7633312454469
20
10.3952507868569
30
0
0
SPLINE
5
163
100
AcDbEntity
8
1
62
256
6
ByLayer
370
18
48
1
60
0
100
AcDbSpline
70
4
71
3
72
27
73
23
40
0
40
0
40
0
40
0
40
0.0312500000000002
40
0.0312500000000002
40
0.0625000000000004
40
0.0937500000000007
40
0.0937500000000007
40
0.125000000000001
40
0.125000000000001
40
0.1875
40
0.1875
40
0.249999999999999
40
0.249999999999999
40
0.375
40
0.375
40
0.5
40
0.5
40
0.625000000000001
40
0.625000000000001
40
0.750000000000001
40
0.750000000000001
40
1
40
1
40
1
40
1
41
1
10
20.8140081680011
20
14.7092024465181
30
0
41
1
10
20.8114560866204
20
14.6780427837707
30
0
41
1
10
20.8086692752623
20
14.6463401944024
30
0
41
1
10
20.8027269179137
20
14.5830220829071
30
0
41
1
10
20.7964755948682
20
14.5203721961258
30
0
41
1
10
20.7896675932469
20
14.4589262824253
30
0
41
1
10
20.7826080195891
20
14.3980244635993
30
0
41
1
10
20.7789377357411
20
14.3677302243634
30
0
41
1
10
20.7676913066258
20
14.2784267501434
30
0
41
1
10
20.7599518324809
20
14.221477902336
30
0
41
1
10
20.7441244381139
20
14.1113070756457
30
0
41
1
10
20.7360059473434
20
14.0579122313622
30
0
41
1
10
20.7114529157339
20
13.9032477414344
30
0
41
1
10
20.6950686474842
20
13.8087386092745
30
0
41
1
10
20.6622830203762
20
13.6291544555951
30
0
41
1
10
20.6458813792107
20
13.5442352691988
30
0
41
1
10
20.6130667615172
20
13.3806540792999
30
0
41
1
10
20.596653704607
20
13.3020364472223
30
0
41
1
10
20.5638195260541
20
13.1492529600281
30
0
41
1
10
20.5474740364907
20
13.0754544143195
30
0
41
1
10
20.4987016863692
20
12.8601620155133
30
0
41
1
10
20.4664768227501
20
12.7243867172952
30
0
41
1
10
20.4344226184578
20
12.5931733152955
30
0
0
SPLINE
5
164
100
AcDbEntity
8
1
62
256
6
ByLayer
370
18
48
1
60
0
100
AcDbSpline
70
4
71
3
72
21
73
17
40
0
40
0
40
0
40
0
40
0.250000000000002
40
0.250000000000002
40
0.281250000000002
40
0.281250000000002
40
0.312500000000002
40
0.312500000000002
40
0.375000000000002
40
0.375000000000002
40
0.500000000000001
40
0.625000000000001
40
0.625000000000001
40
0.75
40
0.75
40
1
40
1
40
1
40
1
41
1
10
0
20
-2.43525789829727
30
0
41
1
10
0
20
-2.12408337369328
30
0
41
1
10
0
20
-1.81173896141175
30
0
41
1
10
0
20
-1.46058149903476
30
0
41
1
10
0
20
-1.42156628448154
30
0
41
1
10
0
20
-1.34354411496417
30
0
41
1
10
0
20
-1.30484460967622
30
0
41
1
10
0
20
-1.18849295667644
30
0
41
1
10
0
20
-1.11094409036545
30
0
41
1
10
0
20
-0.878379034763952
30
0
41
1
10
0
20
-0.568516617980947
30
0
41
1
10
0
20
-0.259210764148207
30
0
41
1
10
0
20
0.0498722351630647
30
0
41
1
10
0
20
0.204302761030647
30
0
41
1
10
0
20
0.667497854644495
30
0
41
1
10
0
20
0.976133164456968
30
0
41
1
10
0
20
1.28572081103516
30
0
0
SPLINE
5
165
100
AcDbEntity
8
1
62
256
6
ByLayer
370
18
48
1
60
0
100
AcDbSpline
70
4
71
3
72
8
73
4
40
0
40
0
40
0
40
0
40
1
40
1
40
1
40
1
41
1
10
15.8820814643914
20
9.06941438957949
30
0
41
1
10
16.2723640387601
20
8.61426140170826
30
0
41
1
10
16.6519574045405
20
8.15012374749284
30
0
41
1
10
17.0208804903709
20
7.67701650936715
30
0
0
SPLINE
5
166
100
AcDbEntity
8
1
62
256
6
ByLayer
370
18
48
1
60
0
100
AcDbSpline
70
4
71
3
72
10
73
6
40
0
40
0
40
0
40
0
40
0.5
40
0.5
40
1
40
1
40
1
40
1
41
1
10
16.9040205983048
20
4.70812388357575
30
0
41
1
10
15.7796906273384
20
3.57620740228788
30
0
41
1
10
14.6107301821885
20
2.50068501823807
30
0
41
1
10
12.1861929414791
20
0.461394896336174
30
0
41
1
10
10.930623866466
20
-0.502386418299807
30
0
41
1
10
9.63162973163685
20
-1.41048730440795
30
0
0
SPLINE
5
167
100
AcDbEntity
8
1
62
256
6
ByLayer
370
18
48
1
60
0
100
AcDbSpline
70
4
71
3
72
32
73
28
40
0
40
0
40
0
40
0
40
0.124999999999998
40
0.124999999999998
40
0.187499999999999
40
0.187499999999999
40
0.249999999999999
40
0.249999999999999
40
0.374999999999999
40
0.374999999999999
40
0.437499999999999
40
0.437499999999999
40
0.499999999999999
40
0.499999999999999
40
0.624999999999999
40
0.624999999999999
40
0.687499999999999
40
0.687499999999999
40
0.71875
40
0.71875
40
0.75
40
0.75
40
0.875000000000001
40
0.875000000000001
40
0.9375
40
0.9375
40
1
40
1
40
1
40
1
41
1
10
12.9726440813221
20
9.61312959796939
30
0
41
1
10
13.08259712069
20
9.6767594343749
30
0
41
1
10
13.1977377219808
20
9.73037561393238
30
0
41
1
10
13.3781901112374
20
9.7957621882166
30
0
41
1
10
13.439637781922
20
9.81503795631446
30
0
41
1
10
13.5652044205418
20
9.84837503625997
30
0
41
1
10
13.6294684745156
20
9.86243190314335
30
0
41
1
10
13.8225957543687
20
9.89582883745757
30
0
41
1
10
13.9529492275891
20
9.90682587134444
30
0
41
1
10
14.150817899687
20
9.90634412768463
30
0
41
1
10
14.2171658905396
20
9.90333877917158
30
0
41
1
10
14.350660180023
20
9.89142903332814
30
0
41
1
10
14.4179598472416
20
9.88246601024264
30
0
41
1
10
14.6169356403182
20
9.8471166690781
30
0
41
1
10
14.7470299738249
20
9.81227898846194
30
0
41
1
10
14.9382782904502
20
9.74309140069678
30
0
41
1
10
15.0013753569106
20
9.71719137428443
30
0
41
1
10
15.0950006440983
20
9.67393031092644
30
0
41
1
10
15.1261170097314
20
9.65873111918171
30
0
41
1
10
15.1874437399165
20
9.6271145875516
30
0
41
1
10
15.2176874505346
20
9.61068652985193
30
0
41
1
10
15.3668376629618
20
9.52549274565294
30
0
41
1
10
15.4795872561632
20
9.44763804686167
30
0
41
1
10
15.6388391105772
20
9.31630001989538
30
0
41
1
10
15.6902683289823
20
9.27008084067927
30
0
41
1
10
15.789693953436
20
9.1725826782473
30
0
41
1
10
15.8371134390396
20
9.12185672864797
30
0
41
1
10
15.8820814643914
20
9.06941438957952
30
0
0
SPLINE
5
168
100
AcDbEntity
8
1
62
256
6
ByLayer
370
18
48
1
60
0
100
AcDbSpline
70
4
71
3
72
14
73
10
40
0
40
0
40
0
40
0
40
0.25
40
0.25
40
0.5
40
0.5
40
0.75
40
0.75
40
1
40
1
40
1
40
1
41
1
10
25.4217722904509
20
8.95537358165629
30
0
41
1
10
25.3988635019545
20
8.93922694222766
30
0
41
1
10
25.3747497008278
20
8.92195752956238
30
0
41
1
10
25.3256415930261
20
8.88617414470016
30
0
41
1
10
25.3004420028048
20
8.86751721179712
30
0
41
1
10
25.2485974317883
20
8.82848993137785
30
0
41
1
10
25.2226605238953
20
8.80864993426235
30
0
41
1
10
25.1713579413487
20
8.76883093187683
30
0
41
1
10
25.1456838574399
20
8.74860993079088
30
0
41
1
10
25.1206836755076
20
8.72866474238708
30
0
0
SPLINE
5
169
100
AcDbEntity
8
1
62
256
6
ByLayer
370
18
48
1
60
0
100
AcDbSpline
70
4
71
3
72
16
73
12
40
0
40
0
40
0
40
0
40
0.125000000000005
40
0.125000000000005
40
0.25000000000001
40
0.25000000000001
40
0.500000000000007
40
0.500000000000007
40
0.750000000000003
40
0.750000000000003
40
1
40
1
40
1
40
1
41
1
10
19.5212296139015
20
11.900851729894
30
0
41
1
10
19.5084702992657
20
11.8946096777913
30
0
41
1
10
19.4957468963177
20
11.8887989783271
30
0
41
1
10
19.471604750028
20
11.878574669046
30
0
41
1
10
19.4600372523231
20
11.8740828317594
30
0
41
1
10
19.4266152317805
20
11.8622366927027
30
0
41
1
10
19.4070557414918
20
11.8568406404957
30
0
41
1
10
19.3714400718935
20
11.849214195166
30
0
41
1
10
19.3555401774181
20
11.8470360587657
30
0
41
1
10
19.3265718155532
20
11.8448273149029
30
0
41
1
10
19.3133744523135
20
11.8447942489731
30
0
41
1
10
19.3011626758249
20
11.845507803524
30
0
0
SPLINE
5
16A
100
AcDbEntity
8
1
62
256
6
ByLayer
370
18
48
1
60
0
100
AcDbSpline
70
4
71
3
72
30
73
26
40
0
40
0
40
0
40
0
40
0.124999999999997
40
0.124999999999997
40
0.187499999999996
40
0.187499999999996
40
0.249999999999995
40
0.249999999999995
40
0.374999999999993
40
0.374999999999993
40
0.437499999999993
40
0.437499999999993
40
0.499999999999993
40
0.499999999999993
40
0.624999999999997
40
0.624999999999997
40
0.687499999999998
40
0.687499999999998
40
0.749999999999999
40
0.749999999999999
40
0.875
40
0.875
40
0.9375
40
0.9375
40
1
40
1
40
1
40
1
41
1
10
18.2973458807702
20
10.3325086086209
30
0
41
1
10
18.2937437816296
20
10.4361539370764
30
0
41
1
10
18.2982427112557
20
10.5380878019271
30
0
41
1
10
18.3167283037512
20
10.6879991584384
30
0
41
1
10
18.3248538428365
20
10.7374685282839
30
0
41
1
10
18.3450487021938
20
10.8352909906265
30
0
41
1
10
18.3571224737068
20
10.8835607704801
30
0
41
1
10
18.3984924544233
20
11.0240873544701
30
0
41
1
10
18.4330771760839
20
11.1129221094789
30
0
41
1
10
18.4944967925441
20
11.2382395496053
30
0
41
1
10
18.5165649476815
20
11.2786827337986
30
0
41
1
10
18.5637656785521
20
11.356703873931
30
0
41
1
10
18.5888040416758
20
11.3940951220341
30
0
41
1
10
18.6669069810886
20
11.4999575884366
30
0
41
1
10
18.7232935706314
20
11.5626961048335
30
0
41
1
10
18.812252420462
20
11.6441337038823
30
0
41
1
10
18.8427943344436
20
11.6692718137562
30
0
41
1
10
18.9040553521159
20
11.714433669455
30
0
41
1
10
18.9347014104815
20
11.7344375168469
30
0
41
1
10
19.0259208035774
20
11.7869228213751
30
0
41
1
10
19.0857674148842
20
11.8118732836139
30
0
41
1
10
19.1711287775272
20
11.834967862875
30
0
41
1
10
19.19894959359
20
11.8402876098528
30
0
41
1
10
19.2522197158965
20
11.8462533910479
30
0
41
1
10
19.2774266913832
20
11.8468947368446
30
0
41
1
10
19.3011626758249
20
11.845507803524
30
0
0
SPLINE
5
16B
100
AcDbEntity
8
1
62
256
6
ByLayer
370
18
48
1
60
0
100
AcDbSpline
70
4
71
3
72
10
73
6
40
0
40
0
40
0
40
0
40
0.5
40
0.5
40
1
40
1
40
1
40
1
41
1
10
4.84308424269415
20
3.85045924752225
30
0
41
1
10
6.10163978393189
20
4.93055838268793
30
0
41
1
10
7.40855108172164
20
5.95091754770883
30
0
41
1
10
10.1185484809151
20
7.87236492147744
30
0
41
1
10
11.521649119925
20
8.77343864854467
30
0
41
1
10
12.9726440813222
20
9.61312959796919
30
0
0
SPLINE
5
16C
100
AcDbEntity
8
1
62
256
6
ByLayer
370
18
48
1
60
0
100
AcDbSpline
70
4
71
3
72
8
73
4
40
0
40
0
40
0
40
0
40
1
40
1
40
1
40
1
41
1
10
18.8020803617579
20
18.7079209297344
30
0
41
1
10
18.7730390242037
20
18.7079144557674
30
0
41
1
10
18.7440293426728
20
18.7058075480019
30
0
41
1
10
18.7151709530077
20
18.7016088555844
30
0
0
SPLINE
5
16D
100
AcDbEntity
8
1
62
256
6
ByLayer
370
18
48
1
60
0
100
AcDbSpline
70
4
71
3
72
12
73
8
40
0
40
0
40
0
40
0
40
0.249999999999999
40
0.249999999999999
40
0.499999999999999
40
0.499999999999999
40
1
40
1
40
1
40
1
41
1
10
19.5212296139015
20
11.900851729894
30
0
41
1
10
19.6078612029262
20
11.9432332298307
30
0
41
1
10
19.6927205621541
20
11.9902307934179
30
0
41
1
10
19.8563336714089
20
12.0915071192842
30
0
41
1
10
19.9352746015254
20
12.1458492039304
30
0
41
1
10
20.1636853620711
20
12.3194635377413
30
0
41
1
10
20.3048143640444
20
12.4492184984651
30
0
41
1
10
20.4344226184578
20
12.5931733152955
30
0
0
SPLINE
5
16E
100
AcDbEntity
8
1
62
256
6
ByLayer
370
18
48
1
60
0
100
AcDbSpline
70
4
71
3
72
17
73
13
40
0
40
0
40
0
40
0
40
0.124999999999999
40
0.124999999999999
40
0.249999999999997
40
0.249999999999997
40
0.499999999999994
40
0.624999999999994
40
0.624999999999994
40
0.749999999999994
40
0.749999999999994
40
1
40
1
40
1
40
1
41
1
10
24.6559406920757
20
8.37990372965149
30
0
41
1
10
24.6733346012907
20
8.39207003212468
30
0
41
1
10
24.6911496740433
20
8.40463649905283
30
0
41
1
10
24.7277427349606
20
8.43068433765924
30
0
41
1
10
24.7466158008317
20
8.44423552834854
30
0
41
1
10
24.8036387579691
20
8.48555182120464
30
0
41
1
10
24.8618626077128
20
8.52846717882321
30
0
41
1
10
24.9220330322688
20
8.57397452441279
30
0
41
1
10
24.9625950826432
20
8.60490987315762
30
0
41
1
10
24.9829201180984
20
8.6205401422136
30
0
41
1
10
25.0429448448788
20
8.66705936476558
30
0
41
1
10
25.0821517031501
20
8.69792386816778
30
0
41
1
10
25.1206836755076
20
8.72866474238711
30
0
0
SPLINE
5
16F
100
AcDbEntity
8
1
62
256
6
ByLayer
370
18
48
1
60
0
100
AcDbSpline
70
4
71
3
72
8
73
4
40
0
40
0
40
0
40
0
40
1
40
1
40
1
40
1
41
1
10
26.0093632285445
20
9.15530677920344
30
0
41
1
10
26.0194312927457
20
9.15601287032092
30
0
41
1
10
26.0295143877946
20
9.1566788638761
30
0
41
1
10
26.0394147811689
20
9.15729439214758
30
0
0
SPLINE
5
170
100
AcDbEntity
8
1
62
256
6
ByLayer
370
18
48
1
60
0
100
AcDbSpline
70
4
71
3
72
8
73
4
40
0
40
0
40
0
40
0
40
1
40
1
40
1
40
1
41
1
10
29.7397045150079
20
8.89286464242809
30
0
41
1
10
29.9019520871895
20
8.83175143481617
30
0
41
1
10
30.0641996291261
20
8.77063811795375
30
0
41
1
10
30.2264471395818
20
8.70952468741805
30
0
0
SPLINE
5
171
100
AcDbEntity
8
1
62
256
6
ByLayer
370
18
48
1
60
0
100
AcDbSpline
70
4
71
3
72
14
73
10
40
0
40
0
40
0
40
0
40
0.25
40
0.25
40
0.5
40
0.5
40
0.75
40
0.75
40
1
40
1
40
1
40
1
41
1
10
26.0093632285445
20
9.15530677920344
30
0
41
1
10
25.9545335161087
20
9.15146147466913
30
0
41
1
10
25.8999020646278
20
9.1441019569375
30
0
41
1
10
25.7941806929717
20
9.12287958976003
30
0
41
1
10
25.7428065232465
20
9.10902605047414
30
0
41
1
10
25.6432349354115
20
9.07498319679428
30
0
41
1
10
25.5947448816974
20
9.05461053104975
30
0
41
1
10
25.5038924598175
20
9.00874921857482
30
0
41
1
10
25.4612847855362
20
8.9832228942102
30
0
41
1
10
25.4217722904509
20
8.95537358165637
30
0
0
SPLINE
5
172
100
AcDbEntity
8
1
62
256
6
ByLayer
370
18
48
1
60
0
100
AcDbSpline
70
4
71
3
72
32
73
28
40
0
40
0
40
0
40
0
40
0.0625000000000011
40
0.0625000000000011
40
0.125000000000002
40
0.125000000000002
40
0.250000000000004
40
0.250000000000004
40
0.281250000000004
40
0.281250000000004
40
0.312500000000004
40
0.312500000000004
40
0.375000000000004
40
0.375000000000004
40
0.500000000000005
40
0.500000000000005
40
0.562500000000005
40
0.562500000000005
40
0.625000000000004
40
0.625000000000004
40
0.750000000000002
40
0.750000000000002
40
0.875
40
0.875
40
0.9375
40
0.9375
40
1
40
1
40
1
40
1
41
1
10
17.0208804903709
20
7.67701650936715
30
0
41
1
10
17.0639239225796
20
7.62181758006764
30
0
41
1
10
17.104696034058
20
7.56458975832328
30
0
41
1
10
17.1815447392798
20
7.44593958260731
30
0
41
1
10
17.217245018855
20
7.38506079223555
30
0
41
1
10
17.3153558872122
20
7.19964490360508
30
0
41
1
10
17.3693219532052
20
7.0716263514787
30
0
41
1
10
17.4224818743147
20
6.90611130897875
30
0
41
1
10
17.4323934929246
20
6.8727316344895
30
0
41
1
10
17.4507535918921
20
6.80541090532185
30
0
41
1
10
17.4592106670824
20
6.77141477227278
30
0
41
1
10
17.4821231052952
20
6.66962664705159
30
0
41
1
10
17.4942203370498
20
6.60172387389008
30
0
41
1
10
17.5212875853017
20
6.39790247346127
30
0
41
1
10
17.5271048844266
20
6.26187117537526
30
0
41
1
10
17.5173569606041
20
6.05766307898756
30
0
41
1
10
17.5109696887101
20
5.98958914039449
30
0
41
1
10
17.4923080485779
20
5.85614440026333
30
0
41
1
10
17.4800261076651
20
5.79041929856692
30
0
41
1
10
17.4345673399759
20
5.5961783596675
30
0
41
1
10
17.392785834229
20
5.47044305942924
30
0
41
1
10
17.2862645770661
20
5.22752595960645
30
0
41
1
10
17.2229867245546
20
5.11360044400925
30
0
41
1
10
17.1139883397071
20
4.95339009211287
30
0
41
1
10
17.0752935328255
20
4.90177718870152
30
0
41
1
10
16.9931675879178
20
4.80215197889729
30
0
41
1
10
16.9495547457832
20
4.7539652765148
30
0
41
1
10
16.9040205983048
20
4.70812388357572
30
0
0
SPLINE
5
173
100
AcDbEntity
8
1
62
256
6
ByLayer
370
18
48
1
60
0
100
AcDbSpline
70
4
71
3
72
10
73
6
40
0
40
0
40
0
40
0
40
0.5
40
0.5
40
1
40
1
40
1
40
1
41
1
10
20.4672719119706
20
7.85677398660675
30
0
41
1
10
20.5095520035654
20
7.85686665201604
30
0
41
1
10
20.5532235215215
20
7.85783915144191
30
0
41
1
10
20.6410001611459
20
7.86163762365968
30
0
41
1
10
20.685076650054
20
7.86444618957412
30
0
41
1
10
20.7293404682842
20
7.86816002707525
30
0
0
SPLINE
5
174
100
AcDbEntity
8
1
62
256
6
ByLayer
370
18
48
1
60
0
100
AcDbSpline
70
4
71
3
72
8
73
4
40
0
40
0
40
0
40
0
40
1
40
1
40
1
40
1
41
1
10
18.7939584221346
20
8.7511031849956
30
0
41
1
10
18.7981844395182
20
8.73491190343489
30
0
41
1
10
18.8020037598386
20
8.71871080330803
30
0
41
1
10
18.8053198784755
20
8.70248301464019
30
0
0
SPLINE
5
175
100
AcDbEntity
8
SK1
62
256
6
ByLayer
370
18
48
1
60
0
100
AcDbSpline
70
4
71
3
72
21
73
17
40
0
40
0
40
0
40
0
40
0.250000000000002
40
0.250000000000002
40
0.281250000000002
40
0.281250000000002
40
0.312500000000002
40
0.312500000000002
40
0.375000000000002
40
0.375000000000002
40
0.500000000000001
40
0.625000000000001
40
0.625000000000001
40
0.750000000000001
40
0.750000000000001
40
1
40
1
40
1
40
1
41
1
10
0
20
-2.43525789829727
30
0
41
1
10
0
20
-2.12408337369328
30
0
41
1
10
0
20
-1.81173896141175
30
0
41
1
10
0
20
-1.46058149903476
30
0
41
1
10
0
20
-1.42156628448154
30
0
41
1
10
0
20
-1.34354411496417
30
0
41
1
10
0
20
-1.30484460967622
30
0
41
1
10
0
20
-1.18849295667644
30
0
41
1
10
0
20
-1.11094409036545
30
0
41
1
10
0
20
-0.878379034763952
30
0
41
1
10
0
20
-0.568516617980947
30
0
41
1
10
0
20
-0.259210764148207
30
0
41
1
10
0
20
0.0498722351630647
30
0
41
1
10
0
20
0.204302761030675
30
0
41
1
10
0
20
0.667497854644523
30
0
41
1
10
0
20
0.976133164456968
30
0
41
1
10
0
20
1.28572081103516
30
0
0
SPLINE
5
176
100
AcDbEntity
8
1
62
256
6
ByLayer
370
18
48
1
60
0
100
AcDbSpline
70
4
71
3
72
22
73
18
40
0
40
0
40
0
40
0
40
0.125
40
0.125
40
0.25
40
0.25
40
0.375
40
0.375
40
0.5
40
0.5
40
0.625
40
0.625
40
0.75
40
0.75
40
0.875
40
0.875
40
1
40
1
40
1
40
1
41
1
10
21.8927944567484
20
9.96373410005296
30
0
41
1
10
21.8913104797967
20
9.94235768912534
30
0
41
1
10
21.8922200185057
20
9.92116921495563
30
0
41
1
10
21.8986510577884
20
9.8791524281942
30
0
41
1
10
21.9042923454596
20
9.85810558270217
30
0
41
1
10
21.9198520319963
20
9.81818438218977
30
0
41
1
10
21.9297438560464
20
9.79914497316241
30
0
41
1
10
21.9538614436862
20
9.76294953654093
30
0
41
1
10
21.9678482508827
20
9.74621245163479
30
0
41
1
10
21.998968432457
20
9.71608829837081
30
0
41
1
10
22.0164316324779
20
9.70244220945074
30
0
41
1
10
22.0534873419095
20
9.67936125868772
30
0
41
1
10
22.0730476390199
20
9.6698565185917
30
0
41
1
10
22.1142520525361
20
9.6549551423127
30
0
41
1
10
22.1356796159238
20
9.64969552706668
30
0
41
1
10
22.1786263769432
20
9.64383215320038
30
0
41
1
10
22.2005186878864
20
9.64315910486661
30
0
41
1
10
22.2222996121615
20
9.64486013483304
30
0
0
SPLINE
5
177
100
AcDbEntity
8
1
62
256
6
ByLayer
370
18
48
1
60
0
100
AcDbSpline
70
4
71
3
72
12
73
8
40
0
40
0
40
0
40
0
40
0.499999999999996
40
0.499999999999996
40
0.749999999999998
40
0.749999999999998
40
1
40
1
40
1
40
1
41
1
10
25.7427496668996
20
18.6365167922069
30
0
41
1
10
25.6919615986467
20
18.6064823131704
30
0
41
1
10
25.6388962721215
20
18.5884666243051
30
0
41
1
10
25.5564594165436
20
18.5764259028697
30
0
41
1
10
25.5284909772753
20
18.5750022637584
30
0
41
1
10
25.472948610762
20
18.5770543741376
30
0
41
1
10
25.4452036870151
20
18.58049781745
30
0
41
1
10
25.4174837682706
20
18.5862431619192
30
0
0
SPLINE
5
178
100
AcDbEntity
8
1
62
256
6
ByLayer
370
18
48
1
60
0
100
AcDbSpline
70
4
71
3
72
24
73
20
40
0
40
0
40
0
40
0
40
0.250000000000019
40
0.250000000000019
40
0.375000000000022
40
0.375000000000022
40
0.500000000000025
40
0.500000000000025
40
0.562500000000026
40
0.562500000000026
40
0.625000000000027
40
0.625000000000027
40
0.750000000000015
40
0.750000000000015
40
0.812500000000012
40
0.812500000000012
40
0.875000000000008
40
0.875000000000008
40
1
40
1
40
1
40
1
41
1
10
27.5013638217885
20
12.1731766423197
30
0
41
1
10
27.4397627857597
20
12.1916885173948
30
0
41
1
10
27.3768947276324
20
12.2045691946503
30
0
41
1
10
27.2801875330763
20
12.2090196883827
30
0
41
1
10
27.2481767276603
20
12.2079296181643
30
0
41
1
10
27.1847283368923
20
12.1991907863605
30
0
41
1
10
27.1528863890592
20
12.1913460137131
30
0
41
1
10
27.1079314937096
20
12.1739266043621
30
0
41
1
10
27.0933681954594
20
12.167193052743
30
0
41
1
10
27.0651292148426
20
12.1517744265655
30
0
41
1
10
27.0513563335171
20
12.1430134818573
30
0
41
1
10
27.0122385137317
20
12.1142201385919
30
0
41
1
10
26.9892086013753
20
12.0918844643899
30
0
41
1
10
26.9587272774479
20
12.0541954770389
30
0
41
1
10
26.9492763533889
20
12.0409447412046
30
0
41
1
10
26.9320865220051
20
12.0138669369086
30
0
41
1
10
26.9242735341493
20
11.9999524382989
30
0
41
1
10
26.9028810544286
20
11.9572259206917
30
0
41
1
10
26.8913323708084
20
11.9274384096399
30
0
41
1
10
26.8819756322024
20
11.896598005017
30
0
0
SPLINE
5
179
100
AcDbEntity
8
1
62
256
6
ByLayer
370
18
48
1
60
0
100
AcDbSpline
70
4
71
3
72
8
73
4
40
0
40
0
40
0
40
0
40
1
40
1
40
1
40
1
41
1
10
25.4174837682706
20
18.5862431619193
30
0
41
1
10
25.3831785041731
20
18.5847266441233
30
0
41
1
10
25.3485880100628
20
18.585532352844
30
0
41
1
10
25.3137066345795
20
18.5887062991521
30
0
0
SPLINE
5
17A
100
AcDbEntity
8
1
62
256
6
ByLayer
370
18
48
1
60
0
100
AcDbSpline
70
4
71
3
72
22
73
18
40
0
40
0
40
0
40
0
40
0.125
40
0.125
40
0.25
40
0.25
40
0.375
40
0.375
40
0.5
40
0.5
40
0.625
40
0.625
40
0.75
40
0.75
40
0.875
40
0.875
40
1
40
1
40
1
40
1
41
1
10
29.4201738236572
20
17.6324124695814
30
0
41
1
10
29.4217257632144
20
17.6539191686839
30
0
41
1
10
29.42089719839
20
17.6752628743896
30
0
41
1
10
29.4146512113697
20
17.7176344168484
30
0
41
1
10
29.4091153908618
20
17.7388834488824
30
0
41
1
10
29.393775897084
20
17.7792267714202
30
0
41
1
10
29.3839992944713
20
17.7984870664871
30
0
41
1
10
29.3601144806419
20
17.835128743724
30
0
41
1
10
29.3462425435916
20
17.8520860412248
30
0
41
1
10
29.3153352839577
20
17.8826183779419
30
0
41
1
10
29.2979719740937
20
17.896455961966
30
0
41
1
10
29.2610844337461
20
17.9198593024146
30
0
41
1
10
29.2415928718378
20
17.9294958117971
30
0
41
1
10
29.2004886755393
20
17.9445893101745
30
0
41
1
10
29.179091516811
20
17.9499072128795
30
0
41
1
10
29.1361621455903
20
17.9558039239776
30
0
41
1
10
29.1142571328295
20
17.9564526222056
30
0
41
1
10
29.0924421089844
20
17.9546862214267
30
0
0
SPLINE
5
17B
100
AcDbEntity
8
1
62
256
6
ByLayer
370
13
48
1
60
0
100
AcDbSpline
70
4
71
1
72
4
73
2
40
0
40
0
40
1
40
1
41
1
10
30.050791824035
20
15.6542504275852
30
0
41
1
10
30.3125416305315
20
18.8500872674314
30
0
0
SPLINE
5
17C
100
AcDbEntity
8
1
62
256
6
ByLayer
370
18
48
1
60
0
100
AcDbSpline
70
4
71
3
72
24
73
20
40
0
40
0
40
0
40
0
40
0.125000000000004
40
0.125000000000004
40
0.187500000000003
40
0.187500000000003
40
0.250000000000003
40
0.250000000000003
40
0.375000000000003
40
0.375000000000003
40
0.500000000000002
40
0.500000000000002
40
0.625000000000002
40
0.625000000000002
40
0.750000000000001
40
0.750000000000001
40
0.875000000000001
40
0.875000000000001
40
1
40
1
40
1
40
1
41
1
10
24.4272315321088
20
9.11429145988751
30
0
41
1
10
24.4068004063722
20
9.16238242592291
30
0
41
1
10
24.3825764308448
20
9.20893146773778
30
0
41
1
10
24.3404523711949
20
9.27637438069812
30
0
41
1
10
24.3253668438433
20
9.29855360857118
30
0
41
1
10
24.2936007293492
20
9.34152768619839
30
0
41
1
10
24.276944718189
20
9.36230954673968
30
0
41
1
10
24.2247105451971
20
9.42258257675181
30
0
41
1
10
24.1868806753635
20
9.46001441523288
30
0
41
1
10
24.1051285658488
20
9.52927899225884
30
0
41
1
10
24.0609248223761
20
9.56120368198231
30
0
41
1
10
23.9693816439527
20
9.61707083433757
30
0
41
1
10
23.9217260928033
20
9.64133679821185
30
0
41
1
10
23.8226217045115
20
9.6824815746854
30
0
41
1
10
23.7707360899055
20
9.69941804175366
30
0
41
1
10
23.6664660665192
20
9.72459160289264
30
0
41
1
10
23.6138109642276
20
9.73301186689554
30
0
41
1
10
23.5074642036212
20
9.74156496446784
30
0
41
1
10
23.4534772505887
20
9.74165826466384
30
0
41
1
10
23.3998903979612
20
9.73741931654257
30
0
0
SPLINE
5
17D
100
AcDbEntity
8
1
62
256
6
ByLayer
370
18
48
1
60
0
100
AcDbSpline
70
4
71
3
72
8
73
4
40
0
40
0
40
0
40
0
40
1
40
1
40
1
40
1
41
1
10
26.268374116112
20
9.52334416081123
30
0
41
1
10
26.2570386694246
20
9.51359849554052
30
0
41
1
10
26.2455654711485
20
9.50217330016167
30
0
41
1
10
26.2339681664168
20
9.48923494235115
30
0
0
SPLINE
5
17E
100
AcDbEntity
8
1
62
256
6
ByLayer
370
18
48
1
60
0
100
AcDbSpline
70
4
71
3
72
12
73
8
40
0
40
0
40
0
40
0
40
0.499999999999997
40
0.499999999999997
40
0.749999999999998
40
0.749999999999998
40
1
40
1
40
1
40
1
41
1
10
25.7645897981473
20
9.33225037809223
30
0
41
1
10
25.8257598513164
20
9.38218771187908
30
0
41
1
10
25.8900214846373
20
9.42166735678893
30
0
41
1
10
25.9902679468041
20
9.46785010558813
30
0
41
1
10
26.0243481275799
20
9.48099030029783
30
0
41
1
10
26.0921551063836
20
9.50245014827303
30
0
41
1
10
26.1260896515823
20
9.51087256083582
30
0
41
1
10
26.1600537689353
20
9.51709769975119
30
0
0
SPLINE
5
17F
100
AcDbEntity
8
1
62
256
6
ByLayer
370
18
48
1
60
0
100
AcDbSpline
70
4
71
3
72
24
73
20
40
0
40
0
40
0
40
0
40
0.124999999999998
40
0.124999999999998
40
0.187499999999998
40
0.187499999999998
40
0.249999999999998
40
0.249999999999998
40
0.374999999999998
40
0.374999999999998
40
0.499999999999999
40
0.499999999999999
40
0.624999999999999
40
0.624999999999999
40
0.749999999999999
40
0.749999999999999
40
0.875
40
0.875
40
1
40
1
40
1
40
1
41
1
10
26.8916255406706
20
18.4931442591934
30
0
41
1
10
26.9113124676231
20
18.4436266218205
30
0
41
1
10
26.9348917351746
20
18.3958416381984
30
0
41
1
10
26.9761734498356
20
18.3267839020517
30
0
41
1
10
26.9909979964334
20
18.3041043592505
30
0
41
1
10
27.0222862680669
20
18.2602142297196
30
0
41
1
10
27.0387253709558
20
18.2390165437025
30
0
41
1
10
27.0903656912999
20
18.1776050644354
30
0
41
1
10
27.1278751596211
20
18.1395589980572
30
0
41
1
10
27.2090986397542
20
18.0692810084821
30
0
41
1
10
27.2530941387387
20
18.036957102247
30
0
41
1
10
27.3443129665336
20
17.980468151315
30
0
41
1
10
27.3918497532634
20
17.9559745093027
30
0
41
1
10
27.4907749928078
20
17.9144862945052
30
0
41
1
10
27.5426002105121
20
17.8974340431461
30
0
41
1
10
27.6467948560521
20
17.8721159783947
30
0
41
1
10
27.6994340794868
20
17.8636652737211
30
0
41
1
10
27.8057869258022
20
17.8551238427988
30
0
41
1
10
27.8597961329073
20
17.8550732049239
30
0
41
1
10
27.9134285573987
20
17.8593995168964
30
0
0
SPLINE
5
180
100
AcDbEntity
8
1
62
256
6
ByLayer
370
18
48
1
60
0
100
AcDbSpline
70
4
71
3
72
12
73
8
40
0
40
0
40
0
40
0
40
0.499999999999992
40
0.499999999999992
40
0.749999999999996
40
0.749999999999996
40
1
40
1
40
1
40
1
41
1
10
24.9813374633151
20
8.69282747002759
30
0
41
1
10
24.920167410146
20
8.64289013624074
30
0
41
1
10
24.8565534636165
20
8.59217361077435
30
0
41
1
10
24.7580859481241
20
8.5151274700365
30
0
41
1
10
24.7247382843655
20
8.48927865391121
30
0
41
1
10
24.6586224564591
20
8.4384786049514
30
0
41
1
10
24.6256498799301
20
8.41336675671766
30
0
41
1
10
24.5927585639622
20
8.38852931755713
30
0
0
SPLINE
5
181
100
AcDbEntity
8
1
62
256
6
ByLayer
370
18
48
1
60
0
100
AcDbSpline
70
4
71
3
72
34
73
30
40
0
40
0
40
0
40
0
40
0.0625000000000121
40
0.0625000000000121
40
0.093750000000018
40
0.093750000000018
40
0.125000000000024
40
0.125000000000024
40
0.187500000000034
40
0.187500000000034
40
0.218750000000036
40
0.218750000000036
40
0.250000000000038
40
0.250000000000038
40
0.312500000000033
40
0.312500000000033
40
0.375000000000029
40
0.375000000000029
40
0.437500000000025
40
0.437500000000025
40
0.500000000000021
40
0.500000000000021
40
0.625000000000013
40
0.625000000000013
40
0.68750000000001
40
0.68750000000001
40
0.750000000000006
40
0.750000000000006
40
1
40
1
40
1
40
1
41
1
10
29.7518240835539
20
11.5253105732811
30
0
41
1
10
29.7884575813923
20
11.5151965656548
30
0
41
1
10
29.8254145673444
20
11.5077703901405
30
0
41
1
10
29.8813353050603
20
11.5006732824067
30
0
41
1
10
29.9000568066896
20
11.4989842891596
30
0
41
1
10
29.9376672019915
20
11.4970003196024
30
0
41
1
10
29.9565108716861
20
11.4967183574084
30
0
41
1
10
30.0118951607083
20
11.4979521387028
30
0
41
1
10
30.0477665664583
20
11.5015019765869
30
0
41
1
10
30.1001225855704
20
11.5106375542181
30
0
41
1
10
30.1174012620555
20
11.5143429695681
30
0
41
1
10
30.1509035599131
20
11.5228559935268
30
0
41
1
10
30.1671823888501
20
11.5276673541521
30
0
41
1
10
30.21471914815
20
11.5436436672016
30
0
41
1
10
30.2447857378164
20
11.5563959327041
30
0
41
1
10
30.3014328034404
20
11.5853750335178
30
0
41
1
10
30.3276101060667
20
11.6013704396735
30
0
41
1
10
30.3764437755379
20
11.6359087140969
30
0
41
1
10
30.3990939978555
20
11.6544555949505
30
0
41
1
10
30.4413330950756
20
11.6938370242496
30
0
41
1
10
30.4609878321973
20
11.714774327308
30
0
41
1
10
30.514839838051
20
11.7795222628185
30
0
41
1
10
30.5443666707624
20
11.8255051694223
30
0
41
1
10
30.5814039124824
20
11.8979699611036
30
0
41
1
10
30.5925215414323
20
11.9227134885565
30
0
41
1
10
30.6125189381625
20
11.9733144520546
30
0
41
1
10
30.6214133868843
20
11.9992378039247
30
0
41
1
10
30.6603122648761
20
12.130209111641
30
0
41
1
10
30.6744555740762
20
12.239918903928
30
0
41
1
10
30.6755962983736
20
12.3539999375668
30
0
0
SPLINE
5
182
100
AcDbEntity
8
1
62
256
6
ByLayer
370
18
48
1
60
0
100
AcDbSpline
70
4
71
3
72
8
73
4
40
0
40
0
40
0
40
0
40
1
40
1
40
1
40
1
41
1
10
24.4847966303409
20
8.37606464985004
30
0
41
1
10
24.4907324735663
20
8.47948938957492
30
0
41
1
10
24.4968710770144
20
8.58346580831349
30
0
41
1
10
24.5031923560515
20
8.68793925890265
30
0
0
SPLINE
5
183
100
AcDbEntity
8
1
62
256
6
ByLayer
370
13
48
1
60
0
100
AcDbSpline
70
4
71
3
72
8
73
4
40
0
40
0
40
0
40
0
40
1
40
1
40
1
40
1
41
1
10
30.0441152500343
20
15.5706473105196
30
0
41
1
10
30.2754122322872
20
15.5491935784675
30
0
41
1
10
30.5067092145401
20
15.5277398464153
30
0
41
1
10
30.738006196793
20
15.5062861143632
30
0
0
SPLINE
5
184
100
AcDbEntity
8
1
62
256
6
ByLayer
370
13
48
1
60
0
100
AcDbSpline
70
4
71
3
72
8
73
4
40
0
40
0
40
0
40
0
40
1
40
1
40
1
40
1
41
1
10
25.7444193698717
20
14.1922909370496
30
0
41
1
10
25.7607277152654
20
14.1929541602861
30
0
41
1
10
25.7771286817046
20
14.193594455632
30
0
41
1
10
25.7936218814211
20
14.1942446821619
30
0
0
SPLINE
5
185
100
AcDbEntity
8
1
62
256
6
ByLayer
370
18
48
1
60
0
100
AcDbSpline
70
4
71
3
72
8
73
4
40
0
40
0
40
0
40
0
40
1
40
1
40
1
40
1
41
1
10
25.3137066345795
20
18.5887062991521
30
0
41
1
10
25.312071485641
20
18.5840980204117
30
0
41
1
10
25.3104377597853
20
18.5795138681098
30
0
41
1
10
25.3088054396799
20
18.5749535484025
30
0
0
SPLINE
5
186
100
AcDbEntity
8
1
62
256
6
ByLayer
370
13
48
1
60
0
100
AcDbSpline
70
4
71
1
72
4
73
2
40
0
40
0
40
1
40
1
41
1
10
30.3125416305315
20
18.8500872674314
30
0
41
1
10
30.982445536841
20
18.9051633941496
30
0
0
SPLINE
5
187
100
AcDbEntity
8
1
62
256
6
ByLayer
370
18
48
1
60
0
100
AcDbSpline
70
4
71
3
72
8
73
4
40
0
40
0
40
0
40
0
40
1
40
1
40
1
40
1
41
1
10
26.746948053804
20
19.2588761634559
30
0
41
1
10
26.7813492971997
20
19.2610215871474
30
0
41
1
10
26.8164337198245
20
19.2634523529638
30
0
41
1
10
26.852214857743
20
19.2661741144866
30
0
0
SPLINE
5
188
100
AcDbEntity
8
1
62
256
6
ByLayer
370
13
48
1
60
0
100
AcDbSpline
70
4
71
1
72
4
73
2
40
0
40
0
40
1
40
1
41
1
10
30.3125416305315
20
18.8500872674314
30
0
41
1
10
30.3674095373278
20
19.5199975157409
30
0
0
SPLINE
5
189
100
AcDbEntity
8
1
62
256
6
ByLayer
370
18
48
1
60
0
100
AcDbSpline
70
4
71
3
72
28
73
24
40
0
40
0
40
0
40
0
40
0.0704602742235945
40
0.0704602742235945
40
0.140920548447189
40
0.140920548447189
40
0.211380822670784
40
0.211380822670784
40
0.281841096894378
40
0.281841096894378
40
0.352301371117973
40
0.352301371117973
40
0.422761645341567
40
0.422761645341567
40
0.493221919565162
40
0.493221919565162
40
0.563682193788756
40
0.563682193788756
40
0.704602742235946
40
0.704602742235946
40
0.845523290683137
40
0.845523290683137
40
1
40
1
40
1
40
1
41
1
10
21.2975262747671
20
19.013219522609
30
0
41
1
10
21.2607326667203
20
19.020254353555
30
0
41
1
10
21.2236476039754
20
19.0258923464014
30
0
41
1
10
21.1488700836997
20
19.0342443745565
30
0
41
1
10
21.1107528773871
20
19.0369464371757
30
0
41
1
10
21.0374411460561
20
19.0391214374351
30
0
41
1
10
21.0019193291536
20
19.0386650400941
30
0
41
1
10
20.9330106690511
20
19.0349103067302
30
0
41
1
10
20.9002126702586
20
19.0316295849268
30
0
41
1
10
20.8386472805457
20
19.022850106104
30
0
41
1
10
20.809475603854
20
19.0172864753066
30
0
41
1
10
20.7554274859735
20
19.0044996808866
30
0
41
1
10
20.7306015458975
20
18.9973154648192
30
0
41
1
10
20.6846185122049
20
18.9817205553249
30
0
41
1
10
20.6634671202115
20
18.973307475771
30
0
41
1
10
20.6244040828337
20
18.9554867118121
30
0
41
1
10
20.6065513910048
20
18.9460904969701
30
0
41
1
10
20.5583160276682
20
18.91730305268
30
0
41
1
10
20.5327334665605
20
18.8971287097775
30
0
41
1
10
20.4917976182624
20
18.8557373957343
30
0
41
1
10
20.4764519790025
20
18.834379280832
30
0
41
1
10
20.4540410281486
20
18.7900730115881
30
0
41
1
10
20.4476489951041
20
18.7670855353465
30
0
41
1
10
20.445910995512
20
18.7443864106058
30
0
0
SPLINE
5
18A
100
AcDbEntity
8
1
62
256
6
ByLayer
370
18
48
1
60
0
100
AcDbSpline
70
4
71
3
72
12
73
8
40
0
40
0
40
0
40
0
40
0.500000000000003
40
0.500000000000003
40
0.750000000000002
40
0.750000000000002
40
1
40
1
40
1
40
1
41
1
10
24.5031923560515
20
8.68793925890265
30
0
41
1
10
24.5075659260705
20
8.76022240739232
30
0
41
1
10
24.503256202958
20
8.83199937196204
30
0
41
1
10
24.4841219482469
20
8.9391082030287
30
0
41
1
10
24.4755621368107
20
8.97486769310987
30
0
41
1
10
24.4544062607037
20
9.04525650575948
30
0
41
1
10
24.4418132670381
20
9.07996884211983
30
0
41
1
10
24.4272315321088
20
9.11429145988751
30
0
0
SPLINE
5
18B
100
AcDbEntity
8
1
62
256
6
ByLayer
370
13
48
1
60
0
100
AcDbSpline
70
4
71
1
72
4
73
2
40
0
40
0
40
1
40
1
41
1
10
26.9683674922207
20
19.2743150697609
30
0
41
1
10
27.0329463185007
20
18.5804554511539
30
0
0
SPLINE
5
18C
100
AcDbEntity
8
1
62
256
6
ByLayer
370
13
48
1
60
0
100
AcDbSpline
70
4
71
1
72
4
73
2
40
0
40
0
40
1
40
1
41
1
10
27.0329463185007
20
18.5804554511539
30
0
41
1
10
30.3125416305315
20
18.8500872674314
30
0
0
SPLINE
5
18D
100
AcDbEntity
8
1
62
256
6
ByLayer
370
13
48
1
60
0
100
AcDbSpline
70
4
71
3
72
22
73
18
40
0
40
0
40
0
40
0
40
0.249999999999981
40
0.249999999999981
40
0.499999999999963
40
0.499999999999963
40
0.562499999999967
40
0.562499999999967
40
0.624999999999972
40
0.624999999999972
40
0.687499999999977
40
0.687499999999977
40
0.749999999999981
40
0.749999999999981
40
0.874999999999991
40
0.874999999999991
40
1
40
1
40
1
40
1
41
1
10
25.3590756238892
20
14.6723695174218
30
0
41
1
10
25.3617564781558
20
14.6140066541896
30
0
41
1
10
25.3684244284138
20
14.556360557856
30
0
41
1
10
25.3953427838195
20
14.4434960678021
30
0
41
1
10
25.4159628331114
20
14.3874711671519
30
0
41
1
10
25.4559115791219
20
14.3261500761629
30
0
41
1
10
25.4646922187929
20
14.3142347214639
30
0
41
1
10
25.4835103506291
20
14.291899949765
30
0
41
1
10
25.4935776499231
20
14.28141959569
30
0
41
1
10
25.5151298530448
20
14.2619398620897
30
0
41
1
10
25.5267153226447
20
14.2528774757526
30
0
41
1
10
25.5508962390458
20
14.2367070124629
30
0
41
1
10
25.5634349349263
20
14.2296117480001
30
0
41
1
10
25.6023257317923
20
14.2111440906011
30
0
41
1
10
25.6302743705737
20
14.2025723258185
30
0
41
1
10
25.6868329195758
20
14.1926351667422
30
0
41
1
10
25.7157088480549
20
14.1911233455654
30
0
41
1
10
25.7444193698717
20
14.1922909370495
30
0
0
SPLINE
5
18E
100
AcDbEntity
8
1
62
256
6
ByLayer
370
18
48
1
60
0
100
AcDbSpline
70
4
71
3
72
8
73
4
40
0
40
0
40
0
40
0
40
1
40
1
40
1
40
1
41
1
10
26.2339681664169
20
9.48923494235117
30
0
41
1
10
26.2306089991755
20
9.48548733816901
30
0
41
1
10
26.2287801918122
20
9.48168077724918
30
0
41
1
10
26.2284654169339
20
9.47778712112671
30
0
0
SPLINE
5
18F
100
AcDbEntity
8
1
62
256
6
ByLayer
370
18
48
1
60
0
100
AcDbSpline
70
4
71
3
72
12
73
8
40
0
40
0
40
0
40
0
40
0.267597175326239
40
0.267597175326239
40
0.633798587663119
40
0.633798587663119
40
1
40
1
40
1
40
1
41
1
10
26.2291849862845
20
9.47168719478302
30
0
41
1
10
26.230269928809
20
9.46820405041603
30
0
41
1
10
26.2325016729359
20
9.46464350914908
30
0
41
1
10
26.2404779843351
20
9.45598282182661
30
0
41
1
10
26.2472785456155
20
9.45074500384271
30
0
41
1
10
26.2650217722191
20
9.43956310317668
30
0
41
1
10
26.2759571049602
20
9.43360994186628
30
0
41
1
10
26.2889426634441
20
9.4269797895023
30
0
0
SPLINE
5
190
100
AcDbEntity
8
1
62
256
6
ByLayer
370
13
48
1
60
0
100
AcDbSpline
70
4
71
3
72
8
73
4
40
0
40
0
40
0
40
0
40
1
40
1
40
1
40
1
41
1
10
25.7186505552066
20
13.6916090107511
30
0
41
1
10
25.7019496917527
20
13.6901933080994
30
0
41
1
10
25.6852541505499
20
13.6889882962009
30
0
41
1
10
25.6685668692369
20
13.687966004227
30
0
0
SPLINE
5
191
100
AcDbEntity
8
1
62
256
6
ByLayer
370
18
48
1
60
0
100
AcDbSpline
70
4
71
3
72
8
73
4
40
0
40
0
40
0
40
0
40
1
40
1
40
1
40
1
41
1
10
19.4372215801401
20
10.6240048899307
30
0
41
1
10
19.439862286252
20
10.6674990923665
30
0
41
1
10
19.443829740057
20
10.7110639843646
30
0
41
1
10
19.4490085042855
20
10.7547013856997
30
0
0
SPLINE
5
192
100
AcDbEntity
8
1
62
256
6
ByLayer
370
18
48
1
60
0
100
AcDbSpline
70
4
71
3
72
12
73
8
40
0
40
0
40
0
40
0
40
0.49999999999999
40
0.49999999999999
40
0.749999999999995
40
0.749999999999995
40
1
40
1
40
1
40
1
41
1
10
26.3930658098447
20
19.0210934700421
30
0
41
1
10
26.4438538780975
20
19.0511279490786
30
0
41
1
10
26.4996111779833
20
19.0867828366945
30
0
41
1
10
26.5894418497095
20
19.1472716573855
30
0
41
1
10
26.6204548412562
20
19.1686447742783
30
0
41
1
10
26.6830261193119
20
19.2126497198541
30
0
41
1
10
26.7147692626717
20
19.2354046748743
30
0
41
1
10
26.746948053804
20
19.2588761634559
30
0
0
SPLINE
5
193
100
AcDbEntity
8
1
62
256
6
ByLayer
370
18
48
1
60
0
100
AcDbSpline
70
4
71
3
72
12
73
8
40
0
40
0
40
0
40
0
40
0.49999999999999
40
0.49999999999999
40
0.749999999999995
40
0.749999999999995
40
1
40
1
40
1
40
1
41
1
10
26.8252953223286
20
18.9379588781046
30
0
41
1
10
26.8192007234801
20
18.8623764195996
30
0
41
1
10
26.8217479959526
20
18.787220737051
30
0
41
1
10
26.8383103909649
20
18.6751815048676
30
0
41
1
10
26.8460284845907
20
18.6378083939369
30
0
41
1
10
26.8656634458357
20
18.5645039011134
30
0
41
1
10
26.8775749418884
20
18.5284850951221
30
0
41
1
10
26.8916255406706
20
18.4931442591934
30
0
0
SPLINE
5
194
100
AcDbEntity
8
1
62
256
6
ByLayer
370
13
48
1
60
0
100
AcDbSpline
70
4
71
3
72
22
73
18
40
0
40
0
40
0
40
0
40
0.250000000000012
40
0.250000000000012
40
0.500000000000024
40
0.500000000000024
40
0.562500000000021
40
0.562500000000021
40
0.625000000000018
40
0.625000000000018
40
0.687500000000015
40
0.687500000000015
40
0.750000000000011
40
0.750000000000011
40
0.875000000000006
40
0.875000000000006
40
1
40
1
40
1
40
1
41
1
10
26.1291595556896
20
13.2597736525682
30
0
41
1
10
26.1243661705086
20
13.314086674052
30
0
41
1
10
26.1155780559657
20
13.3676682950324
30
0
41
1
10
26.0842759224358
20
13.4721288334366
30
0
41
1
10
26.0613602973779
20
13.5237529849616
30
0
41
1
10
26.0185054968333
20
13.5795030043533
30
0
41
1
10
26.0091368587264
20
13.5902911326541
30
0
41
1
10
25.9891603231295
20
13.61040517855
30
0
41
1
10
25.9785199567409
20
13.619786930456
30
0
41
1
10
25.9558329188449
20
13.6370911213386
30
0
41
1
10
25.943681242748
20
13.6450680576623
30
0
41
1
10
25.9184023362793
20
13.6591336116299
30
0
41
1
10
25.9053336515941
20
13.6652128574523
30
0
41
1
10
25.8649054871556
20
13.6807332938969
30
0
41
1
10
25.8359931481204
20
13.6874575905576
30
0
41
1
10
25.7777049368487
20
13.6940788888235
30
0
41
1
10
25.7480520973603
20
13.694101327469
30
0
41
1
10
25.7186505552066
20
13.6916090107511
30
0
0
SPLINE
5
195
100
AcDbEntity
8
1
62
256
6
ByLayer
370
18
48
1
60
0
100
AcDbSpline
70
4
71
3
72
28
73
24
40
0
40
0
40
0
40
0
40
0.0625000000000016
40
0.0625000000000016
40
0.125000000000003
40
0.125000000000003
40
0.187500000000005
40
0.187500000000005
40
0.250000000000006
40
0.250000000000006
40
0.312500000000008
40
0.312500000000008
40
0.37500000000001
40
0.37500000000001
40
0.437500000000011
40
0.437500000000011
40
0.500000000000013
40
0.500000000000013
40
0.625000000000011
40
0.625000000000011
40
0.75000000000001
40
0.75000000000001
40
1
40
1
40
1
40
1
41
1
10
22.0166611636276
20
16.9440878936767
30
0
41
1
10
21.9815776245173
20
16.9565212681663
30
0
41
1
10
21.9455249811387
20
16.9654069680336
30
0
41
1
10
21.8714130534835
20
16.9758538308668
30
0
41
1
10
21.8329049664328
20
16.9773275099893
30
0
41
1
10
21.75741580609
20
16.9726416449625
30
0
41
1
10
21.720126200663
20
16.9666114109427
30
0
41
1
10
21.6464038472898
20
16.947610269388
30
0
41
1
10
21.6105934736063
20
16.934761603115
30
0
41
1
10
21.5420632097136
20
16.9037299089894
30
0
41
1
10
21.5088893234778
20
16.8853221318158
30
0
41
1
10
21.4461338275699
20
16.844397979564
30
0
41
1
10
21.4166245388801
20
16.8219920438558
30
0
41
1
10
21.3607202090358
20
16.7739117178531
30
0
41
1
10
21.3343300300647
20
16.7482323713897
30
0
41
1
10
21.2842955508629
20
16.6939647998813
30
0
41
1
10
21.2607178422136
20
16.6654113903035
30
0
41
1
10
21.195010274151
20
16.5776851651814
30
0
41
1
10
21.1572643714536
20
16.5158669279213
30
0
41
1
10
21.0911750843773
20
16.3869053242215
30
0
41
1
10
21.0627539819877
20
16.3193105728844
30
0
41
1
10
20.9912662169573
20
16.1142197201109
30
0
41
1
10
20.9609137581275
20
15.9735581971257
30
0
41
1
10
20.9438357377503
20
15.8296550580128
30
0
0
SPLINE
5
196
100
AcDbEntity
8
1
62
256
6
ByLayer
370
18
48
1
60
0
100
AcDbSpline
70
4
71
3
72
8
73
4
40
0
40
0
40
0
40
0
40
1
40
1
40
1
40
1
41
1
10
24.5927585639622
20
8.38852931755713
30
0
41
1
10
24.5569176512454
20
8.38362396600795
30
0
41
1
10
24.5209313005756
20
8.37946415290259
30
0
41
1
10
24.4847966303409
20
8.37606464985004
30
0
0
SPLINE
5
197
100
AcDbEntity
8
1
62
256
6
ByLayer
370
18
48
1
60
0
100
AcDbSpline
70
4
71
3
72
8
73
4
40
0
40
0
40
0
40
0
40
1
40
1
40
1
40
1
41
1
10
26.1600537689353
20
9.5170976997511
30
0
41
1
10
26.1959177742
20
9.52160241289667
30
0
41
1
10
26.2320229637036
20
9.52370046127493
30
0
41
1
10
26.268374116112
20
9.52334416081123
30
0
0
SPLINE
5
198
100
AcDbEntity
8
1
62
256
6
ByLayer
370
13
48
1
60
0
100
AcDbSpline
70
4
71
3
72
22
73
18
40
0
40
0
40
0
40
0
40
0.124999999999999
40
0.124999999999999
40
0.249999999999997
40
0.249999999999997
40
0.312499999999994
40
0.312499999999994
40
0.37499999999999
40
0.37499999999999
40
0.499999999999992
40
0.499999999999992
40
0.624999999999994
40
0.624999999999994
40
0.749999999999996
40
0.749999999999996
40
1
40
1
40
1
40
1
41
1
10
25.6685668692369
20
13.6879660042271
30
0
41
1
10
25.6176898332066
20
13.6965874060217
30
0
41
1
10
25.5673452319688
20
13.7086452830713
30
0
41
1
10
25.4700146180812
20
13.7395195790814
30
0
41
1
10
25.4228660913579
20
13.7583335331742
30
0
41
1
10
25.3545223659237
20
13.7918319687136
30
0
41
1
10
25.3321383791287
20
13.8038792494777
30
0
41
1
10
25.2881920548178
20
13.8297919062786
30
0
41
1
10
25.2665294950893
20
13.8437303963838
30
0
41
1
10
25.2036564904579
20
13.8877807377589
30
0
41
1
10
25.1646516151954
20
13.9199938826593
30
0
41
1
10
25.092056799837
20
13.9896830906951
30
0
41
1
10
25.0584685290646
20
14.0271608094095
30
0
41
1
10
24.9964724266536
20
14.1071147179046
30
0
41
1
10
24.9679731093638
20
14.1498369016675
30
0
41
1
10
24.8921075666296
20
14.2812782930383
30
0
41
1
10
24.8533153477471
20
14.3742230617618
30
0
41
1
10
24.823924341348
20
14.4712891715388
30
0
0
SPLINE
5
199
100
AcDbEntity
8
1
62
256
6
ByLayer
370
13
48
1
60
0
100
AcDbSpline
70
4
71
3
72
22
73
18
40
0
40
0
40
0
40
0
40
0.125000000000001
40
0.125000000000001
40
0.250000000000003
40
0.250000000000003
40
0.312500000000003
40
0.312500000000003
40
0.375000000000004
40
0.375000000000004
40
0.500000000000004
40
0.500000000000004
40
0.625000000000004
40
0.625000000000004
40
0.750000000000004
40
0.750000000000004
40
1
40
1
40
1
40
1
41
1
10
25.7936218814211
20
14.1942446821619
30
0
41
1
10
25.8447936036459
20
14.1861882105395
30
0
41
1
10
25.8956962041175
20
14.1752000497139
30
0
41
1
10
25.9946859099628
20
14.1475063272182
30
0
41
1
10
26.0429341517232
20
14.130800589312
30
0
41
1
10
26.1133632173533
20
14.1012998693693
30
0
41
1
10
26.1365151446414
20
14.0907247741471
30
0
41
1
10
26.1821507422249
20
14.0680505501557
30
0
41
1
10
26.20473962287
20
14.0558878698598
30
0
41
1
10
26.2705955270081
20
14.0175559162588
30
0
41
1
10
26.3118509103691
20
13.9896571232055
30
0
41
1
10
26.3894636737409
20
13.929587606516
30
0
41
1
10
26.4258195136232
20
13.8974154749749
30
0
41
1
10
26.4938785756768
20
13.8290846044728
30
0
41
1
10
26.5256938677052
20
13.7927193326212
30
0
41
1
10
26.6120123054323
20
13.6813167346453
30
0
41
1
10
26.6585148562086
20
13.6031531100863
30
0
41
1
10
26.6963276308382
20
13.5222320083385
30
0
0
SPLINE
5
19A
100
AcDbEntity
8
1
62
256
6
ByLayer
370
18
48
1
60
0
100
AcDbSpline
70
4
71
3
72
8
73
4
40
0
40
0
40
0
40
0
40
1
40
1
40
1
40
1
41
1
10
26.852214857743
20
19.2661741144866
30
0
41
1
10
26.8430714317949
20
19.1566002565012
30
0
41
1
10
26.8341040666204
20
19.0472009408678
30
0
41
1
10
26.8252953223286
20
18.9379588781046
30
0
0
SPLINE
5
19B
100
AcDbEntity
8
1
62
256
6
ByLayer
370
18
48
1
60
0
100
AcDbSpline
70
4
71
3
72
24
73
20
40
0
40
0
40
0
40
0
40
0.249999999999996
40
0.249999999999996
40
0.375000000000001
40
0.375000000000001
40
0.500000000000005
40
0.500000000000005
40
0.562500000000006
40
0.562500000000006
40
0.625000000000006
40
0.625000000000006
40
0.750000000000014
40
0.750000000000014
40
0.812500000000009
40
0.812500000000009
40
0.875000000000004
40
0.875000000000004
40
1
40
1
40
1
40
1
41
1
10
24.1901319227115
20
16.148628575222
30
0
41
1
10
24.2496429626446
20
16.1261100589258
30
0
41
1
10
24.3102435165517
20
16.1088824472928
30
0
41
1
10
24.4031189463173
20
16.0970862428242
30
0
41
1
10
24.4338040555504
20
16.0956348781642
30
0
41
1
10
24.4944776023044
20
16.0990541763903
30
0
41
1
10
24.5248495782852
20
16.1040809295067
30
0
41
1
10
24.567587195798
20
16.1172496913097
30
0
41
1
10
24.5814077991122
20
16.1225594545537
30
0
41
1
10
24.6081538069047
20
16.1351159670305
30
0
41
1
10
24.6211707613684
20
16.1424277570102
30
0
41
1
10
24.6580540946279
20
16.1669374626934
30
0
41
1
10
24.6796480208831
20
16.1865202699797
30
0
41
1
10
24.7080469048658
20
16.2202171016801
30
0
41
1
10
24.7168171370651
20
16.2321629125581
30
0
41
1
10
24.7327022859911
20
16.2567395664804
30
0
41
1
10
24.7398863154259
20
16.2694483160743
30
0
41
1
10
24.7594531180364
20
16.308674906968
30
0
41
1
10
24.7698658123556
20
16.3362846620091
30
0
41
1
10
24.7781521096909
20
16.365072969918
30
0
0
SPLINE
5
19C
100
AcDbEntity
8
1
62
256
6
ByLayer
370
13
48
1
60
0
100
AcDbSpline
70
4
71
3
72
8
73
4
40
0
40
0
40
0
40
0
40
1
40
1
40
1
40
1
41
1
10
30.050791824035
20
15.6542504275852
30
0
41
1
10
30.0485035931287
20
15.626312249803
30
0
41
1
10
30.0462774042095
20
15.5984362264405
30
0
41
1
10
30.0441152500343
20
15.5706473105196
30
0
0
SPLINE
5
19D
100
AcDbEntity
8
1
62
256
6
ByLayer
370
18
48
1
60
0
100
AcDbSpline
70
4
71
3
72
24
73
20
40
0
40
0
40
0
40
0
40
0.125000000000006
40
0.125000000000006
40
0.187500000000009
40
0.187500000000009
40
0.250000000000011
40
0.250000000000011
40
0.375000000000009
40
0.375000000000009
40
0.500000000000008
40
0.500000000000008
40
0.625000000000006
40
0.625000000000006
40
0.750000000000004
40
0.750000000000004
40
0.875000000000002
40
0.875000000000002
40
1
40
1
40
1
40
1
41
1
10
26.2889426634441
20
9.4269797895023
30
0
41
1
10
26.3071373144533
20
9.41768998432769
30
0
41
1
10
26.3292329639455
20
9.40806580459062
30
0
41
1
10
26.3683243327855
20
9.3932378049617
30
0
41
1
10
26.3824214543442
20
9.38820667703914
30
0
41
1
10
26.4122895807514
20
9.37816127066623
30
0
41
1
10
26.4280364758968
20
9.37315189183343
30
0
41
1
10
26.4776586128978
20
9.35819572921628
30
0
41
1
10
26.5139001473351
20
9.34832031981216
30
0
41
1
10
26.5927770846824
20
9.32893782568948
30
0
41
1
10
26.6356910530941
20
9.3193897669203
30
0
41
1
10
26.7250453839213
20
9.30149748038082
30
0
41
1
10
26.7717881171853
20
9.29306822289675
30
0
41
1
10
26.8694257108881
20
9.27737123355962
30
0
41
1
10
26.9207565818378
20
9.27005915328991
30
0
41
1
10
27.0243177274575
20
9.25718409027809
30
0
41
1
10
27.0768114369214
20
9.25156387091513
30
0
41
1
10
27.1832180775804
20
9.24197189929379
30
0
41
1
10
27.237429355176
20
9.23798673600177
30
0
41
1
10
27.2914375206684
20
9.2349162215821
30
0
0
LINE
5
70
100
AcDbEntity
8
81
62
256
6
ByLayer
370
18
48
1
60
0
100
AcDbLine
10
31
20
19.5375
30
0
11
41
21
19.5375
31
0
39
0
210
0
220
0
230
1
0
LINE
5
71
100
AcDbEntity
8
1
62
256
6
ByLayer
370
18
48
1
60
0
100
AcDbLine
10
17.582643
20
6.10612
30
0
11
17.486816
21
6.638859
31
0
39
0
210
0
220
0
230
1
0
LINE
5
73
100
AcDbEntity
8
1
62
256
6
ByLayer
370
18
48
1
60
0
100
AcDbLine
10
13.531373
20
9.839183
30
0
11
12.972538
21
9.698866
31
0
39
0
210
0
220
0
230
1
0
LINE
5
74
100
AcDbEntity
8
1
62
256
6
ByLayer
370
18
48
1
60
0
100
AcDbLine
10
20.456926
20
18.793153
30
0
11
20.438916
21
18.744291
31
0
39
0
210
0
220
0
230
1
0
LINE
5
75
100
AcDbEntity
8
1
62
256
6
ByLayer
370
18
48
1
60
0
100
AcDbLine
10
19.437263
20
10.623652
30
0
11
19.295931
21
8.232696
31
0
39
0
210
0
220
0
230
1
0
LINE
5
76
100
AcDbEntity
8
1
62
256
6
ByLayer
370
18
48
1
60
0
100
AcDbLine
10
18.762816
20
18.706632
30
0
11
6.425875
21
17.899898
31
0
39
0
210
0
220
0
230
1
0
LINE
5
77
100
AcDbEntity
8
1
62
256
6
ByLayer
370
18
48
1
60
0
100
AcDbLine
10
16.542603
20
-12.4625
30
0
11
29.288712
21
0.424295
31
0
39
0
210
0
220
0
230
1
0
LINE
5
78
100
AcDbEntity
8
1
62
256
6
ByLayer
370
18
48
1
60
0
100
AcDbLine
10
19.783237
20
11.923264
30
0
11
20.347997
21
12.501048
31
0
39
0
210
0
220
0
230
1
0
LINE
5
79
100
AcDbEntity
8
1
62
256
6
ByLayer
370
18
48
1
60
0
100
AcDbLine
10
19.19844
20
18.70801
30
0
11
18.802081
21
18.707921
31
0
39
0
210
0
220
0
230
1
0
LINE
5
7A
100
AcDbEntity
8
1
62
256
6
ByLayer
370
18
48
1
60
0
100
AcDbLine
10
30.41585
20
9.138579
30
0
11
30.671271
21
12.25714
31
0
39
0
210
0
220
0
230
1
0
LINE
5
7B
100
AcDbEntity
8
1
62
256
6
ByLayer
370
18
48
1
60
0
100
AcDbLine
10
28.800263
20
9.129533
30
0
11
28.801658
21
9.146558
31
0
39
0
210
0
220
0
230
1
0
LINE
5
7C
100
AcDbEntity
8
80
62
256
6
ByLayer
370
18
48
1
60
0
100
AcDbLine
10
0
20
0
30
0
11
-6.6
21
0
31
0
39
0
210
0
220
0
230
1
0
LINE
5
7D
100
AcDbEntity
8
1
62
256
6
ByLayer
370
13
48
1
60
0
100
AcDbLine
10
19.52123
20
11.900852
30
0
11
19.438157
21
12.822177
31
0
39
0
210
0
220
0
230
1
0
LINE
5
7E
100
AcDbEntity
8
1
62
256
6
ByLayer
370
13
48
1
60
0
100
AcDbLine
10
28.560983
20
8.86026
30
0
11
28.356606
21
9.180524
31
0
39
0
210
0
220
0
230
1
0
LINE
5
7F
100
AcDbEntity
8
1
62
256
6
ByLayer
370
18
48
1
60
0
100
AcDbLine
10
18.996882
20
18.701672
30
0
11
13.569071
21
18.36129
31
0
39
0
210
0
220
0
230
1
0
LINE
5
80
100
AcDbEntity
8
1
62
256
6
ByLayer
370
13
48
1
60
0
100
AcDbLine
10
12.972644
20
9.61313
30
0
11
12.261134
21
9.414091
31
0
39
0
210
0
220
0
230
1
0
LINE
5
81
100
AcDbEntity
8
1
62
256
6
ByLayer
370
18
48
1
60
0
100
AcDbLine
10
19.399507
20
9.984968
30
0
11
19.167601
21
10.006478
31
0
39
0
210
0
220
0
230
1
0
LINE
5
82
100
AcDbEntity
8
1
62
256
6
ByLayer
370
18
48
1
60
0
100
AcDbLine
10
16.136269
20
-12.4625
30
0
11
16.542603
21
-12.4625
31
0
39
0
210
0
220
0
230
1
0
LINE
5
83
100
AcDbEntity
8
1
62
256
6
ByLayer
370
13
48
1
60
0
100
AcDbLine
10
26.039415
20
9.157294
30
0
11
26.262991
21
8.806944
31
0
39
0
210
0
220
0
230
1
0
LINE
5
84
100
AcDbEntity
8
1
62
256
6
ByLayer
370
18
48
1
60
0
100
AcDbLine
10
21.023427
20
18.778205
30
0
11
20.958324
21
18.77819
31
0
39
0
210
0
220
0
230
1
0
LINE
5
85
100
AcDbEntity
8
1
62
256
6
ByLayer
370
18
48
1
60
0
100
AcDbLine
10
21.171237
20
18.782826
30
0
11
21.194281
21
18.782831
31
0
39
0
210
0
220
0
230
1
0
LINE
5
86
100
AcDbEntity
8
1
62
256
6
ByLayer
370
18
48
1
60
0
100
AcDbLine
10
21.020265
20
16.658185
30
0
11
21.194281
21
18.782831
31
0
39
0
210
0
220
0
230
1
0
LINE
5
87
100
AcDbEntity
8
1
62
256
6
ByLayer
370
13
48
1
60
0
100
AcDbLine
10
12.415467
20
18.223277
30
0
11
12.422316
21
18.287286
31
0
39
0
210
0
220
0
230
1
0
LINE
5
88
100
AcDbEntity
8
1
62
256
6
ByLayer
370
18
48
1
60
0
100
AcDbLine
10
16.136269
20
-12.4625
30
0
11
0
21
-12.4625
31
0
39
0
210
0
220
0
230
1
0
LINE
5
89
100
AcDbEntity
8
1
62
256
6
ByLayer
370
13
48
1
60
0
100
AcDbLine
10
28.87932
20
9.111767
30
0
11
28.894188
21
8.803857
31
0
39
0
210
0
220
0
230
1
0
LINE
5
8A
100
AcDbEntity
8
1
62
256
6
ByLayer
370
13
48
1
60
0
100
AcDbLine
10
18.297346
20
10.332509
30
0
11
18.146171
21
10.40032
31
0
39
0
210
0
220
0
230
1
0
LINE
5
8B
100
AcDbEntity
8
1
62
256
6
ByLayer
370
13
48
1
60
0
100
AcDbLine
10
8.433677
20
-2.333723
30
0
11
8.274305
21
-3.949136
31
0
39
0
210
0
220
0
230
1
0
LINE
5
8C
100
AcDbEntity
8
1
62
256
6
ByLayer
370
18
48
1
60
0
100
AcDbLine
10
6.428659
20
17.900079
30
0
11
6.427569
21
17.898102
31
0
39
0
210
0
220
0
230
1
0
LINE
5
8D
100
AcDbEntity
8
1
62
256
6
ByLayer
370
18
48
1
60
0
100
AcDbLine
10
13.956726
20
18.321421
30
0
11
20.958324
21
18.77819
31
0
39
0
210
0
220
0
230
1
0
LINE
5
8E
100
AcDbEntity
8
1
62
256
6
ByLayer
370
18
48
1
60
0
100
AcDbLine
10
20.960388
20
16.495739
30
0
11
21.020265
21
16.658185
31
0
39
0
210
0
220
0
230
1
0
LINE
5
8F
100
AcDbEntity
8
1
62
256
6
ByLayer
370
18
48
1
60
0
100
AcDbLine
10
18.146171
20
10.40032
30
0
11
18.191758
21
9.904949
31
0
39
0
210
0
220
0
230
1
0
LINE
5
90
100
AcDbEntity
8
1
62
256
6
ByLayer
370
13
48
1
60
0
100
AcDbLine
10
20.72934
20
7.86816
30
0
11
20.919754
21
7.605088
31
0
39
0
210
0
220
0
230
1
0
LINE
5
91
100
AcDbEntity
8
1
62
256
6
ByLayer
370
18
48
1
60
0
100
AcDbLine
10
0
20
-12.4625
30
0
11
0
21
-2.435258
31
0
39
0
210
0
220
0
230
1
0
LINE
5
92
100
AcDbEntity
8
1
62
256
6
ByLayer
370
13
48
1
60
0
100
AcDbLine
10
25.654854
20
8.552935
30
0
11
25.120684
21
8.728665
31
0
39
0
210
0
220
0
230
1
0
LINE
5
93
100
AcDbEntity
8
1
62
256
6
ByLayer
370
18
48
1
60
0
100
AcDbLine
10
21.040548
20
18.767791
30
0
11
20.714059
21
14.781521
31
0
39
0
210
0
220
0
230
1
0
LINE
5
94
100
AcDbEntity
8
1
62
256
6
ByLayer
370
13
48
1
60
0
100
AcDbLine
10
18.54637
20
11.07331
30
0
11
19.301163
21
11.845508
31
0
39
0
210
0
220
0
230
1
0
LINE
5
95
100
AcDbEntity
8
1
62
256
6
ByLayer
370
18
48
1
60
0
100
AcDbLine
10
21.194281
20
18.782831
30
0
11
21.040548
21
18.767791
31
0
39
0
210
0
220
0
230
1
0
LINE
5
96
100
AcDbEntity
8
1
62
256
6
ByLayer
370
18
48
1
60
0
100
AcDbLine
10
21.8829
20
7.964946
30
0
11
20.72934
21
7.86816
31
0
39
0
210
0
220
0
230
1
0
LINE
5
97
100
AcDbEntity
8
1
62
256
6
ByLayer
370
18
48
1
60
0
100
AcDbLine
10
6.378957
20
17.810706
30
0
11
21.040548
21
18.767791
31
0
39
0
210
0
220
0
230
1
0
LINE
5
98
100
AcDbEntity
8
1
62
256
6
ByLayer
370
13
48
1
60
0
100
AcDbLine
10
16.873245
20
3.675864
30
0
11
16.904021
21
4.708124
31
0
39
0
210
0
220
0
230
1
0
LINE
5
99
100
AcDbEntity
8
1
62
256
6
ByLayer
370
18
48
1
60
0
100
AcDbLine
10
0
20
1.285721
30
0
11
0
21
12.4625
31
0
39
0
210
0
220
0
230
1
0
LINE
5
9A
100
AcDbEntity
8
1
62
256
6
ByLayer
370
18
48
1
60
0
100
AcDbLine
10
0.372277
20
12.4625
30
0
11
0
21
12.4625
31
0
39
0
210
0
220
0
230
1
0
LINE
5
9B
100
AcDbEntity
8
1
62
256
6
ByLayer
370
18
48
1
60
0
100
AcDbLine
10
28.894188
20
8.803857
30
0
11
30.428215
21
8.229694
31
0
39
0
210
0
220
0
230
1
0
LINE
5
9C
100
AcDbEntity
8
1
62
256
6
ByLayer
370
18
48
1
60
0
100
AcDbLine
10
20.959577
20
16.486528
30
0
11
20.814008
21
14.709202
31
0
39
0
210
0
220
0
230
1
0
LINE
5
9D
100
AcDbEntity
8
1
62
256
6
ByLayer
370
18
48
1
60
0
100
AcDbLine
10
29.85102
20
1.18243
30
0
11
30.428215
21
8.229694
31
0
39
0
210
0
220
0
230
1
0
LINE
5
9E
100
AcDbEntity
8
1
62
256
6
ByLayer
370
13
48
1
60
0
100
AcDbLine
10
18.191758
20
9.904949
30
0
11
18.334711
21
9.840825
31
0
39
0
210
0
220
0
230
1
0
LINE
5
9F
100
AcDbEntity
8
1
62
256
6
ByLayer
370
13
48
1
60
0
100
AcDbLine
10
19.167601
20
10.006478
30
0
11
19.064891
21
8.416482
31
0
39
0
210
0
220
0
230
1
0
LINE
5
A0
100
AcDbEntity
8
1
62
256
6
ByLayer
370
18
48
1
60
0
100
AcDbLine
10
18.853402
20
11.219587
30
0
11
18.710347
21
9.882712
31
0
39
0
210
0
220
0
230
1
0
LINE
5
A1
100
AcDbEntity
8
1
62
256
6
ByLayer
370
13
48
1
60
0
100
AcDbLine
10
24.0748
20
7.843628
30
0
11
23.950278
21
8.015666
31
0
39
0
210
0
220
0
230
1
0
LINE
5
A2
100
AcDbEntity
8
1
62
256
6
ByLayer
370
13
48
1
60
0
100
AcDbLine
10
18.715171
20
18.701609
30
0
11
18.996882
21
18.701672
31
0
39
0
210
0
220
0
230
1
0
LINE
5
A3
100
AcDbEntity
8
1
62
256
6
ByLayer
370
18
48
1
60
0
100
AcDbLine
10
10.201515
20
18.123949
30
0
11
10.644111
21
18.124048
31
0
39
0
210
0
220
0
230
1
0
LINE
5
A4
100
AcDbEntity
8
1
62
256
6
ByLayer
370
13
48
1
60
0
100
AcDbLine
10
4.060852
20
3.197506
30
0
11
2.873478
21
2.810828
31
0
39
0
210
0
220
0
230
1
0
LINE
5
A5
100
AcDbEntity
8
1
62
256
6
ByLayer
370
13
48
1
60
0
100
AcDbLine
10
18.760316
20
8.756291
30
0
11
18.793958
21
8.751103
31
0
39
0
210
0
220
0
230
1
0
LINE
5
A6
100
AcDbEntity
8
1
62
256
6
ByLayer
370
18
48
1
60
0
100
AcDbLine
10
26.262991
20
8.806944
30
0
11
28.560983
21
8.86026
31
0
39
0
210
0
220
0
230
1
0
LINE
5
A7
100
AcDbEntity
8
1
62
256
6
ByLayer
370
18
48
1
60
0
100
AcDbLine
10
30.226447
20
8.709525
30
0
11
30.428215
21
8.229694
31
0
39
0
210
0
220
0
230
1
0
LINE
5
A8
100
AcDbEntity
8
1
62
256
6
ByLayer
370
18
48
1
60
0
100
AcDbLine
10
20.919754
20
7.605088
30
0
11
24.0748
21
7.843628
31
0
39
0
210
0
220
0
230
1
0
LINE
5
A9
100
AcDbEntity
8
1
62
256
6
ByLayer
370
13
48
1
60
0
100
AcDbLine
10
20.714059
20
14.781521
30
0
11
20.814008
21
14.709202
31
0
39
0
210
0
220
0
230
1
0
LINE
5
AA
100
AcDbEntity
8
1
62
256
6
ByLayer
370
13
48
1
60
0
100
AcDbLine
10
13.569071
20
18.36129
30
0
11
13.562062
21
18.295787
31
0
39
0
210
0
220
0
230
1
0
LINE
5
AB
100
AcDbEntity
8
1
62
256
6
ByLayer
370
13
48
1
60
0
100
AcDbLine
10
18.715171
20
18.701609
30
0
11
6.427569
21
17.898102
31
0
39
0
210
0
220
0
230
1
0
LINE
5
AC
100
AcDbEntity
8
SK1
62
256
6
ByLayer
370
18
48
1
60
0
100
AcDbLine
10
-2.19272
20
-12.4625
30
0
11
-0.170081
21
-12.4625
31
0
39
0
210
0
220
0
230
1
0
LINE
5
AE
100
AcDbEntity
8
SK1
62
256
6
ByLayer
370
18
48
1
60
0
100
AcDbLine
10
-0.170081
20
-12.4625
30
0
11
-0.879024
21
12.4625
31
0
39
0
210
0
220
0
230
1
0
LINE
5
AF
100
AcDbEntity
8
SK1
62
256
6
ByLayer
370
18
48
1
60
0
100
AcDbLine
10
-81
20
-12.4625
30
0
11
-84
21
-9.4625
31
0
39
0
210
0
220
0
230
1
0
LINE
5
B0
100
AcDbEntity
8
SK1
62
256
6
ByLayer
370
18
48
1
60
0
100
AcDbLine
10
-81
20
12.4625
30
0
11
-84
21
9.4625
31
0
39
0
210
0
220
0
230
1
0
LINE
5
B1
100
AcDbEntity
8
SK1
62
256
6
ByLayer
370
18
48
1
60
0
100
AcDbLine
10
0
20
1.285721
30
0
11
0
21
12.4625
31
0
39
0
210
0
220
0
230
1
0
LINE
5
B2
100
AcDbEntity
8
SK1
62
256
6
ByLayer
370
18
48
1
60
0
100
AcDbLine
10
-84
20
-9.4625
30
0
11
-84
21
9.4625
31
0
39
0
210
0
220
0
230
1
0
LINE
5
B3
100
AcDbEntity
8
SK1
62
256
6
ByLayer
370
18
48
1
60
0
100
AcDbLine
10
-2.19272
20
12.4625
30
0
11
-0.879024
21
12.4625
31
0
39
0
210
0
220
0
230
1
0
LINE
5
B4
100
AcDbEntity
8
SK1
62
256
6
ByLayer
370
18
48
1
60
0
100
AcDbLine
10
0
20
12.4625
30
0
11
-0.879024
21
12.4625
31
0
39
0
210
0
220
0
230
1
0
LINE
5
B5
100
AcDbEntity
8
SK1
62
256
6
ByLayer
370
18
48
1
60
0
100
AcDbLine
10
-3.738201
20
-12.4625
30
0
11
-2.19272
21
-12.4625
31
0
39
0
210
0
220
0
230
1
0
LINE
5
B6
100
AcDbEntity
8
SK1
62
256
6
ByLayer
370
18
48
1
60
0
100
AcDbLine
10
0
20
-12.4625
30
0
11
-0.170081
21
-12.4625
31
0
39
0
210
0
220
0
230
1
0
LINE
5
B7
100
AcDbEntity
8
SK1
62
256
6
ByLayer
370
18
48
1
60
0
100
AcDbLine
10
0
20
-12.4625
30
0
11
0
21
-2.435258
31
0
39
0
210
0
220
0
230
1
0
LINE
5
B8
100
AcDbEntity
8
SK1
62
256
6
ByLayer
370
18
48
1
60
0
100
AcDbLine
10
-3.738201
20
12.4625
30
0
11
-2.19272
21
12.4625
31
0
39
0
210
0
220
0
230
1
0
LINE
5
B9
100
AcDbEntity
8
SK1
62
256
6
ByLayer
370
13
48
1
60
0
100
AcDbLine
10
-3.738201
20
-12.4625
30
0
11
-3.738201
21
12.4625
31
0
39
0
210
0
220
0
230
1
0
LINE
5
BA
100
AcDbEntity
8
SK1
62
256
6
ByLayer
370
13
48
1
60
0
100
AcDbLine
10
-2.19272
20
12.4625
30
0
11
-2.19272
21
-12.4625
31
0
39
0
210
0
220
0
230
1
0
LINE
5
BB
100
AcDbEntity
8
SK1
62
256
6
ByLayer
370
18
48
1
60
0
100
AcDbLine
10
-81
20
12.4625
30
0
11
-3.738201
21
12.4625
31
0
39
0
210
0
220
0
230
1
0
LINE
5
BC
100
AcDbEntity
8
SK1
62
256
6
ByLayer
370
18
48
1
60
0
100
AcDbLine
10
-81
20
-12.4625
30
0
11
-3.738201
21
-12.4625
31
0
39
0
210
0
220
0
230
1
0
LINE
5
BD
100
AcDbEntity
8
1
62
256
6
ByLayer
370
18
48
1
60
0
100
AcDbLine
10
30.411572
20
9.130392
30
0
11
30.087818
21
8.806059
31
0
39
0
210
0
220
0
230
1
0
LINE
5
BE
100
AcDbEntity
8
1
62
256
6
ByLayer
370
18
48
1
60
0
100
AcDbLine
10
19.43459
20
8.142317
30
0
11
19.640146
21
8.699985
31
0
39
0
210
0
220
0
230
1
0
LINE
5
BF
100
AcDbEntity
8
1
62
256
6
ByLayer
370
13
48
1
60
0
100
AcDbLine
10
19.954864
20
7.930047
30
0
11
20.33112
21
8.950821
31
0
39
0
210
0
220
0
230
1
0
LINE
5
C0
100
AcDbEntity
8
1
62
256
6
ByLayer
370
18
48
1
60
0
100
AcDbLine
10
24.981337
20
8.692827
30
0
11
25.76459
21
9.33225
31
0
39
0
210
0
220
0
230
1
0
LINE
5
C1
100
AcDbEntity
8
1
62
256
6
ByLayer
370
18
48
1
60
0
100
AcDbLine
10
24.778152
20
16.365073
30
0
11
25.417484
21
18.586243
31
0
39
0
210
0
220
0
230
1
0
LINE
5
C2
100
AcDbEntity
8
1
62
256
6
ByLayer
370
18
48
1
60
0
100
AcDbLine
10
26.881976
20
11.896598
30
0
11
26.160054
21
9.517098
31
0
39
0
210
0
220
0
230
1
0
LINE
5
C3
100
AcDbEntity
8
1
62
256
6
ByLayer
370
13
48
1
60
0
100
AcDbLine
10
29.931716
20
8.820538
30
0
11
30.087818
21
8.806059
31
0
39
0
210
0
220
0
230
1
0
LINE
5
C4
100
AcDbEntity
8
1
62
256
6
ByLayer
370
13
48
1
60
0
100
AcDbLine
10
27.296195
20
9.293005
30
0
11
27.291438
21
9.234916
31
0
39
0
210
0
220
0
230
1
0
LINE
5
C5
100
AcDbEntity
8
1
62
256
6
ByLayer
370
18
48
1
60
0
100
AcDbLine
10
24.483035
20
8.371286
30
0
11
21.211069
21
8.129199
31
0
39
0
210
0
220
0
230
1
0
LINE
5
C6
100
AcDbEntity
8
1
62
256
6
ByLayer
370
13
48
1
60
0
100
AcDbLine
10
29.569353
20
9.297425
30
0
11
29.751824
21
11.525311
31
0
39
0
210
0
220
0
230
1
0
LINE
5
C7
100
AcDbEntity
8
1
62
256
6
ByLayer
370
13
48
1
60
0
100
AcDbLine
10
19.449009
20
10.754701
30
0
11
19.299783
21
8.230205
31
0
39
0
210
0
220
0
230
1
0
LINE
5
C8
100
AcDbEntity
8
1
62
256
6
ByLayer
370
18
48
1
60
0
100
AcDbLine
10
25.313707
20
18.588706
30
0
11
25.312886
21
18.574829
31
0
39
0
210
0
220
0
230
1
0
LINE
5
C9
100
AcDbEntity
8
1
62
256
6
ByLayer
370
18
48
1
60
0
100
AcDbLine
10
19.763696
20
8.700012
30
0
11
19.870144
21
8.123992
31
0
39
0
210
0
220
0
230
1
0
LINE
5
CA
100
AcDbEntity
8
1
62
256
6
ByLayer
370
13
48
1
60
0
100
AcDbLine
10
22.110606
20
13.042821
30
0
11
20.623697
21
13.180738
31
0
39
0
210
0
220
0
230
1
0
LINE
5
CB
100
AcDbEntity
8
1
62
256
6
ByLayer
370
18
48
1
60
0
100
AcDbLine
10
20.623697
20
13.180738
30
0
11
20.723736
21
13.982837
31
0
39
0
210
0
220
0
230
1
0
LINE
5
CC
100
AcDbEntity
8
1
62
256
6
ByLayer
370
18
48
1
60
0
100
AcDbLine
10
20.813265
20
14.700658
30
0
11
20.832358
21
14.853738
31
0
39
0
210
0
220
0
230
1
0
LINE
5
CD
100
AcDbEntity
8
1
62
256
6
ByLayer
370
18
48
1
60
0
100
AcDbLine
10
24.484797
20
8.376065
30
0
11
24.483035
21
8.371286
31
0
39
0
210
0
220
0
230
1
0
LINE
5
CE
100
AcDbEntity
8
1
62
256
6
ByLayer
370
13
48
1
60
0
100
AcDbLine
10
20.943836
20
15.829655
30
0
11
20.987569
21
16.569506
31
0
39
0
210
0
220
0
230
1
0
LINE
5
CF
100
AcDbEntity
8
1
62
256
6
ByLayer
370
13
48
1
60
0
100
AcDbLine
10
21.118274
20
18.780679
30
0
11
21.124997
21
18.89441
31
0
39
0
210
0
220
0
230
1
0
LINE
5
D0
100
AcDbEntity
8
1
62
256
6
ByLayer
370
18
48
1
60
0
100
AcDbLine
10
20.33112
20
8.950821
30
0
11
20.504502
21
11.883981
31
0
39
0
210
0
220
0
230
1
0
LINE
5
D1
100
AcDbEntity
8
1
62
256
6
ByLayer
370
18
48
1
60
0
100
AcDbLine
10
24.388568
20
8.17963
30
0
11
24.592759
21
8.388529
31
0
39
0
210
0
220
0
230
1
0
LINE
5
D2
100
AcDbEntity
8
1
62
256
6
ByLayer
370
18
48
1
60
0
100
AcDbLine
10
21.124997
20
18.89441
30
0
11
21.082619
21
18.779439
31
0
39
0
210
0
220
0
230
1
0
LINE
5
D3
100
AcDbEntity
8
1
62
256
6
ByLayer
370
18
48
1
60
0
100
AcDbLine
10
21.991412
20
11.746065
30
0
11
21.884769
21
9.941961
31
0
39
0
210
0
220
0
230
1
0
LINE
5
D4
100
AcDbEntity
8
1
62
256
6
ByLayer
370
13
48
1
60
0
100
AcDbLine
10
22.2223
20
9.64486
30
0
11
22.217348
21
9.631427
31
0
39
0
210
0
220
0
230
1
0
LINE
5
D5
100
AcDbEntity
8
1
62
256
6
ByLayer
370
18
48
1
60
0
100
AcDbLine
10
26.268374
20
9.523344
30
0
11
26.26957
21
9.537941
31
0
39
0
210
0
220
0
230
1
0
LINE
5
D6
100
AcDbEntity
8
1
62
256
6
ByLayer
370
13
48
1
60
0
100
AcDbLine
10
29.243386
20
14.548715
30
0
11
30.688871
21
14.414641
31
0
39
0
210
0
220
0
230
1
0
LINE
5
D7
100
AcDbEntity
8
1
62
256
6
ByLayer
370
18
48
1
60
0
100
AcDbLine
10
25.312886
20
18.574829
30
0
11
22.141865
21
19.062187
31
0
39
0
210
0
220
0
230
1
0
LINE
5
D8
100
AcDbEntity
8
1
62
256
6
ByLayer
370
18
48
1
60
0
100
AcDbLine
10
30.688871
20
14.414641
30
0
11
30.688986
21
13.141877
31
0
39
0
210
0
220
0
230
1
0
LINE
5
D9
100
AcDbEntity
8
1
62
256
6
ByLayer
370
13
48
1
60
0
100
AcDbLine
10
21.892794
20
9.963734
30
0
11
21.884769
21
9.941961
31
0
39
0
210
0
220
0
230
1
0
LINE
5
DA
100
AcDbEntity
8
1
62
256
6
ByLayer
370
18
48
1
60
0
100
AcDbLine
10
26.968367
20
19.274315
30
0
11
30.13732
21
19.53485
31
0
39
0
210
0
220
0
230
1
0
LINE
5
DB
100
AcDbEntity
8
1
62
256
6
ByLayer
370
13
48
1
60
0
100
AcDbLine
10
30.050792
20
15.65425
30
0
11
29.299333
21
15.723951
31
0
39
0
210
0
220
0
230
1
0
LINE
5
DC
100
AcDbEntity
8
1
62
256
6
ByLayer
370
18
48
1
60
0
100
AcDbLine
10
25.74275
20
18.636517
30
0
11
26.393066
21
19.021093
31
0
39
0
210
0
220
0
230
1
0
LINE
5
DD
100
AcDbEntity
8
1
62
256
6
ByLayer
370
18
48
1
60
0
100
AcDbLine
10
26.850683
20
19.26464
30
0
11
26.968367
21
19.274315
31
0
39
0
210
0
220
0
230
1
0
LINE
5
DE
100
AcDbEntity
8
1
62
256
6
ByLayer
370
13
48
1
60
0
100
AcDbLine
10
28.478361
20
9.165561
30
0
11
28.481722
21
9.206594
31
0
39
0
210
0
220
0
230
1
0
LINE
5
DF
100
AcDbEntity
8
1
62
256
6
ByLayer
370
13
48
1
60
0
100
AcDbLine
10
22.141865
20
19.062187
30
0
11
22.016661
21
16.944088
31
0
39
0
210
0
220
0
230
1
0
LINE
5
E0
100
AcDbEntity
8
1
62
256
6
ByLayer
370
18
48
1
60
0
100
AcDbLine
10
23.392881
20
9.718402
30
0
11
22.217348
21
9.631427
31
0
39
0
210
0
220
0
230
1
0
LINE
5
E1
100
AcDbEntity
8
1
62
256
6
ByLayer
370
13
48
1
60
0
100
AcDbLine
10
23.392881
20
9.718402
30
0
11
23.39989
21
9.737419
31
0
39
0
210
0
220
0
230
1
0
LINE
5
E2
100
AcDbEntity
8
1
62
256
6
ByLayer
370
18
48
1
60
0
100
AcDbLine
10
27.296195
20
9.293005
30
0
11
28.481722
21
9.206594
31
0
39
0
210
0
220
0
230
1
0
LINE
5
E3
100
AcDbEntity
8
1
62
256
6
ByLayer
370
18
48
1
60
0
100
AcDbLine
10
30.688986
20
13.141877
30
0
11
29.202077
21
13.279793
31
0
39
0
210
0
220
0
230
1
0
LINE
5
E4
100
AcDbEntity
8
1
62
256
6
ByLayer
370
18
48
1
60
0
100
AcDbLine
10
24.483035
20
8.371286
30
0
11
24.501478
21
8.683288
31
0
39
0
210
0
220
0
230
1
0
LINE
5
E5
100
AcDbEntity
8
1
62
256
6
ByLayer
370
18
48
1
60
0
100
AcDbLine
10
30.99737
20
18.675082
30
0
11
30.744683
21
15.589889
31
0
39
0
210
0
220
0
230
1
0
LINE
5
E6
100
AcDbEntity
8
1
62
256
6
ByLayer
370
13
48
1
60
0
100
AcDbLine
10
21.211069
20
8.129199
30
0
11
21.127152
21
7.901533
31
0
39
0
210
0
220
0
230
1
0
LINE
5
E7
100
AcDbEntity
8
1
62
256
6
ByLayer
370
13
48
1
60
0
100
AcDbLine
10
19.765859
20
8.688324
30
0
11
19.640146
21
8.699985
31
0
39
0
210
0
220
0
230
1
0
LINE
5
E8
100
AcDbEntity
8
1
62
256
6
ByLayer
370
18
48
1
60
0
100
AcDbLine
10
20.832358
20
14.853738
30
0
11
22.319267
21
14.715821
31
0
39
0
210
0
220
0
230
1
0
LINE
5
E9
100
AcDbEntity
8
1
62
256
6
ByLayer
370
13
48
1
60
0
100
AcDbLine
10
24.503192
20
8.687939
30
0
11
24.501478
21
8.683288
31
0
39
0
210
0
220
0
230
1
0
LINE
5
EA
100
AcDbEntity
8
1
62
256
6
ByLayer
370
18
48
1
60
0
100
AcDbLine
10
22.110606
20
13.042821
30
0
11
22.319267
21
14.715821
31
0
39
0
210
0
220
0
230
1
0
LINE
5
EB
100
AcDbEntity
8
1
62
256
6
ByLayer
370
18
48
1
60
0
100
AcDbLine
10
26.26957
20
9.537941
30
0
11
29.569353
21
9.297425
31
0
39
0
210
0
220
0
230
1
0
LINE
5
EC
100
AcDbEntity
8
1
62
256
6
ByLayer
370
13
48
1
60
0
100
AcDbLine
10
21.991412
20
11.746065
30
0
11
20.504502
21
11.883981
31
0
39
0
210
0
220
0
230
1
0
LINE
5
ED
100
AcDbEntity
8
1
62
256
6
ByLayer
370
13
48
1
60
0
100
AcDbLine
10
30.744683
20
15.589889
30
0
11
30.050792
21
15.65425
31
0
39
0
210
0
220
0
230
1
0
LINE
5
EE
100
AcDbEntity
8
2
62
256
6
ByLayer
370
13
48
1
60
0
100
AcDbLine
10
31
20
-29.010575
30
0
11
0
21
-29.010575
31
0
39
0
210
0
220
0
230
1
0
LINE
5
F0
100
AcDbEntity
8
2
62
256
6
ByLayer
370
13
48
1
60
0
100
AcDbLine
10
0
20
-3.944817
30
0
11
0
21
-31.010575
31
0
39
0
210
0
220
0
230
1
0
LINE
5
F1
100
AcDbEntity
8
2
62
256
6
ByLayer
370
13
48
1
60
0
100
AcDbLine
10
31
20
-1.5875
30
0
11
31
21
-31.010575
31
0
39
0
210
0
220
0
230
1
0
LINE
5
F2
100
AcDbEntity
8
1
62
256
6
ByLayer
370
18
48
1
60
1
100
AcDbLine
10
0
20
-29.010575
30
0
11
3.499998
21
-28.549791
31
0
39
0
210
0
220
0
230
1
0
LINE
5
F3
100
AcDbEntity
8
1
62
256
6
ByLayer
370
18
48
1
60
1
100
AcDbLine
10
3.499998
20
-28.549791
30
0
11
3.500002
21
-29.471359
31
0
39
0
210
0
220
0
230
1
0
LINE
5
F4
100
AcDbEntity
8
1
62
256
6
ByLayer
370
18
48
1
60
1
100
AcDbLine
10
3.500002
20
-29.471359
30
0
11
0
21
-29.010575
31
0
39
0
210
0
220
0
230
1
0
LINE
5
F5
100
AcDbEntity
8
1
62
256
6
ByLayer
370
18
48
1
60
1
100
AcDbLine
10
31
20
-29.010575
30
0
11
27.500002
21
-29.471359
31
0
39
0
210
0
220
0
230
1
0
LINE
5
F6
100
AcDbEntity
8
1
62
256
6
ByLayer
370
18
48
1
60
1
100
AcDbLine
10
27.500002
20
-29.471359
30
0
11
27.499998
21
-28.549791
31
0
39
0
210
0
220
0
230
1
0
LINE
5
F7
100
AcDbEntity
8
1
62
256
6
ByLayer
370
18
48
1
60
1
100
AcDbLine
10
27.499998
20
-28.549791
30
0
11
31
21
-29.010575
31
0
39
0
210
0
220
0
230
1
0
LINE
5
F8
100
AcDbEntity
8
2
62
256
6
ByLayer
370
18
48
1
60
1
100
AcDbLine
10
39.345223
20
19.5375
30
0
11
39.346223
21
19.5375
31
0
39
0
210
0
220
0
230
1
0
LINE
5
F9
100
AcDbEntity
8
2
62
256
6
ByLayer
370
18
48
1
60
1
100
AcDbLine
10
30.65204
20
15.305177
30
0
11
30.651958
21
15.304181
31
0
39
0
210
0
220
0
230
1
0
LINE
5
1A3
100
AcDbEntity
8
1
62
256
6
ByLayer
370
18
48
1
60
1
100
AcDbLine
10
0
20
-29.010575
30
0
11
3.499998
21
-28.549791
31
0
39
0
210
0
220
0
230
1
0
LINE
5
1A4
100
AcDbEntity
8
1
62
256
6
ByLayer
370
18
48
1
60
1
100
AcDbLine
10
3.499998
20
-28.549791
30
0
11
3.500002
21
-29.471359
31
0
39
0
210
0
220
0
230
1
0
LINE
5
1A5
100
AcDbEntity
8
1
62
256
6
ByLayer
370
18
48
1
60
1
100
AcDbLine
10
3.500002
20
-29.471359
30
0
11
0
21
-29.010575
31
0
39
0
210
0
220
0
230
1
0
LINE
5
1A7
100
AcDbEntity
8
1
62
256
6
ByLayer
370
18
48
1
60
1
100
AcDbLine
10
31
20
-29.010575
30
0
11
27.500002
21
-29.471359
31
0
39
0
210
0
220
0
230
1
0
LINE
5
1A8
100
AcDbEntity
8
1
62
256
6
ByLayer
370
18
48
1
60
1
100
AcDbLine
10
27.500002
20
-29.471359
30
0
11
27.499998
21
-28.549791
31
0
39
0
210
0
220
0
230
1
0
LINE
5
1A9
100
AcDbEntity
8
1
62
256
6
ByLayer
370
18
48
1
60
1
100
AcDbLine
10
27.499998
20
-28.549791
30
0
11
31
21
-29.010575
31
0
39
0
210
0
220
0
230
1
0
MTEXT
5
19E
100
AcDbEntity
8
SK6
62
256
6
ByLayer
370
18
48
1
60
0
100
AcDbMText
10
-75.596713
20
-20.437299
30
0
210
0
220
0
230
1
1
\W0.7325;QS-3-80LR252531-10C
40
3.5
41
0
44
1.084337
50
0
71
7
72
5
7
iso_b_vert
0
MTEXT
5
1A2
100
AcDbEntity
8
2
62
256
6
ByLayer
370
18
48
1
60
0
100
AcDbMText
10
14.499342
20
-27.885575
30
0
210
0
220
0
230
1
1
\W0.6351;31
40
4.5
41
0
44
1.084337
50
0
71
7
72
5
7
iso_b_vert
0
HATCH
5
1A6
100
AcDbEntity
8
2
62
256
6
ByLayer
370
13
48
1
60
0
100
AcDbHatch
10
0
20
0
30
0
210
0
220
0
230
1
2
ANSI31
70
0
71
0
91
1
92
5
93
3
72
1
10
0
20
-29.0105751904333
11
3.49999830744682
21
-28.5497914488805
72
1
10
3.49999830744682
20
-28.5497914488805
11
3.50000169255318
21
-29.4713589319861
72
1
10
3.50000169255318
20
-29.4713589319861
11
0
21
-29.0105751904333
97
0
75
0
76
1
52
0
41
0.02
77
0
78
1
53
45
43
0
44
0
45
-0.0449012806053457
46
0.0449012806053458
79
0
47
0
98
1
10
0
20
0
0
HATCH
5
1AA
100
AcDbEntity
8
2
62
256
6
ByLayer
370
13
48
1
60
0
100
AcDbHatch
10
0
20
0
30
0
210
0
220
0
230
1
2
ANSI31
70
0
71
0
91
1
92
5
93
3
72
1
10
31
20
-29.0105751904333
11
27.5000016925532
21
-29.4713589319861
72
1
10
27.5000016925532
20
-29.4713589319861
11
27.4999983074468
21
-28.5497914488805
72
1
10
27.4999983074468
20
-28.5497914488805
11
31
21
-29.0105751904333
97
0
75
0
76
1
52
0
41
0.02
77
0
78
1
53
44.9999999999999
43
0
44
0
45
-0.0449012806053457
46
0.0449012806053458
79
0
47
0
98
1
10
0
20
0
0
DIMENSION
5
1B5
100
AcDbEntity
8
SK2
62
256
6
ByLayer
370
13
48
1
60
0
100
AcDbDimension
2
DimnDraft3D1
10
31
20
-43.855403
30
0
11
-30.617691
21
-43.855403
31
0
70
32
71
5
72
1
41
1
210
0
220
0
230
1
3
Standard
100
AcDbAlignedDimension
13
-84
23
-1.5875
33
0
14
31
24
-1.5875
34
0
50
0
100
AcDbRotatedDimension
1001
ACAD
1000
DSTYLE
1002
{
1070
   279
1070
     0
1070
   172
1070
     1
1070
   173
1070
     1
1070
   340
1005
19F
1070
   271
1070
     0
1070
   272
1070
     2
1070
    77
1070
     1
1070
    73
1070
     0
1070
   171
1070
     3
1070
   274
1070
     4
1070
   177
1070
   150
1070
   176
1070
     9
1070
   178
1070
    35
1070
    78
1070
     8
1070
    48
1040
-0.005
1070
    41
1041
3.5
1070
   147
1041
2.25
1070
    42
1041
1.5875
1070
    44
1041
2.0
1070
   140
1041
4.5
1070
   343
1005
0
1070
   344
1005
0
1002
}
0
DIMENSION
5
1BF
100
AcDbEntity
8
2
62
256
6
ByLayer
370
13
48
1
60
0
100
AcDbDimension
2
DimnDraft3D2
10
60.467367
20
19.5375
30
0
11
60.467367
21
-1.362299
31
0
70
32
71
5
72
1
41
1
210
0
220
0
230
1
3
Standard
100
AcDbAlignedDimension
13
32.5875
23
-12.4625
33
0
14
42.5875
24
19.5375
34
0
50
90
100
AcDbRotatedDimension
1001
ACAD
1000
DSTYLE
1002
{
1070
    74
1070
     0
1070
   279
1070
     0
1070
   172
1070
     1
1070
   173
1070
     1
1070
   340
1005
19F
1070
   271
1070
     0
1070
   272
1070
     2
1070
    77
1070
     1
1070
    73
1070
     0
1070
   171
1070
     3
1070
   274
1070
     4
1070
   177
1070
   150
1070
   176
1070
     9
1070
   178
1070
    35
1070
    78
1070
     8
1070
    48
1040
-0.005
1070
    41
1041
3.5
1070
   147
1041
2.25
1070
    42
1041
1.5875
1070
    44
1041
2.0
1070
   140
1041
4.5
1070
   343
1005
0
1070
   344
1005
0
1002
}
0
DIMENSION
5
1C9
100
AcDbEntity
8
SK2
62
256
6
ByLayer
370
13
48
1
60
0
100
AcDbDimension
2
DimnDraft3D3
10
-95.704654
20
-12.4625
30
0
11
-95.704654
21
-0.718377
31
0
70
32
71
5
72
1
41
1
210
0
220
0
230
1
3
Standard
100
AcDbAlignedDimension
13
-85.5875
23
12.4625
33
0
14
-85.5875
24
-12.4625
34
0
50
90
100
AcDbRotatedDimension
1001
ACAD
1000
DSTYLE
1002
{
1070
    74
1070
     0
1070
   279
1070
     0
1070
   172
1070
     1
1070
   173
1070
     1
1070
   340
1005
19F
1070
   271
1070
     0
1070
   272
1070
     2
1070
    77
1070
     1
1070
    73
1070
     0
1070
   171
1070
     3
1070
   274
1070
     4
1070
   177
1070
   150
1070
   176
1070
     9
1070
   178
1070
    35
1070
    78
1070
     8
1070
    48
1040
-0.005
1070
    41
1041
3.5
1070
   147
1041
2.25
1070
    42
1041
1.5875
1070
    44
1041
2.0
1070
   140
1041
4.5
1070
   343
1005
0
1070
   344
1005
0
1002
}
0
DIMENSION
5
1D3
100
AcDbEntity
8
2
62
256
6
ByLayer
370
13
48
1
60
0
100
AcDbDimension
2
DimnDraft3D4
10
30.651958
20
15.304181
30
0
11
40.132884
21
12.822758
31
0
70
34
71
5
72
1
41
1
210
0
220
0
230
1
3
Standard
100
AcDb2LineAngularDimension
13
39.345223
23
19.5375
33
0
14
39.346223
24
19.5375
34
0
15
30.65204
25
15.305177
35
0
16
41.72895
26
7.89027
36
0
40
0
0
ENDSEC
0
SECTION
2
OBJECTS
0
DICTIONARY
5
23d
330
0
100
AcDbDictionary
280
0
281
1
3
ACAD_GROUP
350
23e
3
ACAD_MLINESTYLE
350
23f
0
DICTIONARY
5
23e
330
0
100
AcDbDictionary
280
0
281
1
0
DICTIONARY
5
23f
330
0
100
AcDbDictionary
280
0
281
1
3
Standard
350
18
0
MLINESTYLE
5
18
330
23f
100
AcDbMlineStyle
2
Standard
70
0
3

62
256
51
90
52
90
71
2
49
-0.5
62
256
6
ByLayer
49
0.5
62
256
6
ByLayer
0
RASTERVARIABLES
5
22c
330

100
AcDbRasterVariables
90
0
70
1
71
1
72
1
0
ENDSEC
0
EOF
