0
SECTION
2
HEADER
9
$ACADVER
1
AC1015
9
$DWGCODEPAGE
3
ANSI_1252
9
$HANDSEED
5
242
9
$ANGBASE
50
0
9
$ANGDIR
70
0
9
$ATTMODE
70
1
9
$AUNITS
70
0
9
$AUPREC
70
0
9
$CECOLOR
62
256
9
$CELTSCALE
40
1
9
$CELTYPE
6
ByLayer
9
$CELWEIGHT
370
18
9
$CLAYER
8
0
9
$CMLJUST
70
0
9
$CMLSCALE
40
1
9
$CMLSTYLE
2
Standard
9
$DIMSTYLE
2
Standard
9
$TEXTSIZE
40
0.2
9
$TEXTSTYLE
7
Standard
9
$LUNITS
70
2
9
$LUPREC
70
4
9
$EXTNAMES
290
1
9
$INSUNITS
70
4
9
$LTSCALE
40
1
9
$LWDISPLAY
290
1
9
$PDMODE
70
0
9
$PDSIZE
40
0
9
$PLINEGEN
70
0
0
ENDSEC
0
SECTION
2
CLASSES
0
CLASS
1
RASTERVARIABLES
2
AcDbRasterVariables
3
ISM
90
0
280
0
281
0
0
ENDSEC
0
SECTION
2
TABLES
0
TABLE
2
VPORT
5
238
100
AcDbSymbolTable
0
VPORT
5
1
100
AcDbSymbolTableRecord
100
AcDbViewportTableRecord
2
*Active
70
0
10
0
20
0
11
1
21
1
12
-1
22
1
13
0
23
0
14
0.5
24
0.5
15
10
25
10
16
0
26
0
36
1
17
0
27
0
37
0
0
ENDTAB
0
TABLE
2
LTYPE
5
239
100
AcDbSymbolTable
0
LTYPE
5
14
100
AcDbSymbolTableRecord
100
AcDbLinetypeTableRecord
70
0
2
ByBlock
3

72
65
73
0
40
0
0
LTYPE
5
15
100
AcDbSymbolTableRecord
100
AcDbLinetypeTableRecord
70
0
2
ByLayer
3

72
65
73
0
40
0
0
LTYPE
5
16
100
AcDbSymbolTableRecord
100
AcDbLinetypeTableRecord
70
0
2
CONTINUOUS
3
Solid line
72
65
73
0
40
0
0
LTYPE
5
6A
100
AcDbSymbolTableRecord
100
AcDbLinetypeTableRecord
70
0
2
CENTER
3
____ _ ____ _ ____ _ ____
72
65
73
4
40
47.5
49
22
74
0
49
-8.5
74
0
49
8.5
74
0
49
-8.5
74
0
0
LTYPE
5
6B
100
AcDbSymbolTableRecord
100
AcDbLinetypeTableRecord
70
0
2
DASHED
3
__ __ __ __ __ __ __ __ __
72
65
73
2
40
25.72
49
12.86
74
0
49
-12.86
74
0
0
ENDTAB
0
TABLE
2
LAYER
5
23a
100
AcDbSymbolTable
0
LAYER
5
10
100
AcDbSymbolTableRecord
100
AcDbLayerTableRecord
2
0
70
0
62
7
6
CONTINUOUS
290
1
370
-3
390
0
0
LAYER
5
6D
100
AcDbSymbolTableRecord
100
AcDbLayerTableRecord
2
80
70
0
62
-6
6
CONTINUOUS
290
1
370
-3
390
0
0
LAYER
5
6F
100
AcDbSymbolTableRecord
100
AcDbLayerTableRecord
2
81
70
0
62
-3
6
CONTINUOUS
290
1
370
-3
390
0
0
LAYER
5
72
100
AcDbSymbolTableRecord
100
AcDbLayerTableRecord
2
1
70
0
62
4
6
CONTINUOUS
290
1
370
-3
390
0
0
LAYER
5
E8
100
AcDbSymbolTableRecord
100
AcDbLayerTableRecord
2
2
70
0
62
7
6
CONTINUOUS
290
1
370
-3
390
0
0
LAYER
5
225
100
AcDbSymbolTableRecord
100
AcDbLayerTableRecord
2
SK1
70
0
62
4
6
CONTINUOUS
290
1
370
-3
390
0
0
LAYER
5
226
100
AcDbSymbolTableRecord
100
AcDbLayerTableRecord
2
SK6
70
0
62
5
6
CONTINUOUS
290
1
370
-3
390
0
0
LAYER
5
227
100
AcDbSymbolTableRecord
100
AcDbLayerTableRecord
2
SK2
70
0
62
7
6
CONTINUOUS
290
1
370
-3
390
0
0
ENDTAB
0
TABLE
2
STYLE
5
23b
100
AcDbSymbolTable
0
STYLE
5
11
100
AcDbSymbolTableRecord
100
AcDbTextStyleTableRecord
2
Standard
3
txt
70
0
71
0
40
0
41
1
42
0
50
0
0
STYLE
5
197
100
AcDbSymbolTableRecord
100
AcDbTextStyleTableRecord
2
iso_b_vert
3
simplex.shx
70
0
71
0
40
0
41
1
42
0
50
0
0
STYLE
5
198
100
AcDbSymbolTableRecord
100
AcDbTextStyleTableRecord
2
DWGDirectTextStyle
3
simplex
70
0
71
0
40
0
41
1
42
0
50
0
0
ENDTAB
0
TABLE
2
DIMSTYLE
5
23c
100
AcDbSymbolTable
100
AcDbDimStyleTable
0
DIMSTYLE
105
27
100
AcDbSymbolTableRecord
100
AcDbDimStyleTableRecord
2
Standard
70
0
3
<>
41
0.18
42
0.0625
44
0.18
140
0.18
147
0.09
73
0
74
0
77
1
271
2
275
0
278
52
280
0
340
11
0
ENDTAB
0
TABLE
2
VIEW
5
23d
100
AcDbSymbolTable
0
ENDTAB
0
TABLE
2
UCS
5
23e
100
AcDbSymbolTable
0
ENDTAB
0
TABLE
2
APPID
5
23f
100
AcDbSymbolTable
0
APPID
5
12
100
AcDbSymbolTableRecord
100
AcDbRegAppTableRecord
2
ACAD
70
0
0
ENDTAB
0
TABLE
2
BLOCK_RECORD
5
240
100
AcDbSymbolTable
0
BLOCK_RECORD
5
1F
100
AcDbSymbolTableRecord
100
AcDbBlockTableRecord
2
*Model_Space
340
0
70
0
0
BLOCK_RECORD
5
1B
100
AcDbSymbolTableRecord
100
AcDbBlockTableRecord
2
*Paper_Space
340
0
70
0
0
BLOCK_RECORD
5
23
100
AcDbSymbolTableRecord
100
AcDbBlockTableRecord
2
*Paper_Space0
340
0
70
0
0
BLOCK_RECORD
5
1A3
100
AcDbSymbolTableRecord
100
AcDbBlockTableRecord
2
DimnDraft3D1
340
0
70
0
0
BLOCK_RECORD
5
1AE
100
AcDbSymbolTableRecord
100
AcDbBlockTableRecord
2
DimnDraft3D2
340
0
70
0
0
BLOCK_RECORD
5
1B8
100
AcDbSymbolTableRecord
100
AcDbBlockTableRecord
2
DimnDraft3D3
340
0
70
0
0
BLOCK_RECORD
5
1C2
100
AcDbSymbolTableRecord
100
AcDbBlockTableRecord
2
DimnDraft3D4
340
0
70
0
0
ENDTAB
0
ENDSEC
0
SECTION
2
BLOCKS
0
BLOCK
5
20
100
AcDbEntity
8
0
100
AcDbBlockBegin
2
*Model_Space
70
0
10
0
20
0
30
0
3
*Model_Space
0
ENDBLK
5
21
100
AcDbEntity
8
0
100
AcDbBlockEnd
0
BLOCK
5
1C
100
AcDbEntity
8
0
100
AcDbBlockBegin
2
*Paper_Space
70
0
10
0
20
0
30
0
3
*Paper_Space
0
ENDBLK
5
1D
100
AcDbEntity
8
0
100
AcDbBlockEnd
0
BLOCK
5
24
100
AcDbEntity
8
0
100
AcDbBlockBegin
2
*Paper_Space0
70
0
10
0
20
0
30
0
3
*Paper_Space0
0
ENDBLK
5
25
100
AcDbEntity
8
0
100
AcDbBlockEnd
0
BLOCK
5
1AB
100
AcDbEntity
8
0
100
AcDbBlockBegin
2
DimnDraft3D1
70
0
10
0
20
0
30
0
3
DimnDraft3D1
0
MTEXT
5
1A4
100
AcDbEntity
8
SK2
62
256
6
ByLayer
370
18
48
1
60
0
100
AcDbMText
10
-25.584591
20
27.381018
30
0
210
0
220
0
230
1
1
\W0.6217;103
40
4.5
41
0
44
1.084337
50
0
71
7
72
5
7
iso_b_vert
0
LINE
5
1A6
100
AcDbEntity
8
SK2
62
256
6
ByLayer
370
13
48
1
60
0
100
AcDbLine
10
-69
20
1.5875
30
0
11
-69
21
28.256018
31
0
39
0
210
0
220
0
230
1
0
LINE
5
1A7
100
AcDbEntity
8
SK2
62
256
6
ByLayer
370
13
48
1
60
0
100
AcDbLine
10
34
20
1.5875
30
0
11
34
21
28.256018
31
0
39
0
210
0
220
0
230
1
0
LINE
5
1A8
100
AcDbEntity
8
SK2
62
256
6
ByLayer
370
13
48
1
60
0
100
AcDbLine
10
-69
20
26.256018
30
0
11
34
21
26.256018
31
0
39
0
210
0
220
0
230
1
0
SOLID
5
1A9
100
AcDbEntity
8
SK2
62
256
6
ByLayer
370
13
48
1
60
0
100
AcDbTrace
10
-69
20
26.256018
30
0
11
-65.500002
21
26.716802
31
0
12
-65.499998
22
25.795234
32
0
13
-69
23
26.256018
33
0
39
0
210
0
220
0
230
1
0
SOLID
5
1AA
100
AcDbEntity
8
SK2
62
256
6
ByLayer
370
13
48
1
60
0
100
AcDbTrace
10
34
20
26.256018
30
0
11
30.500002
21
25.795234
31
0
12
30.499998
22
26.716802
32
0
13
34
23
26.256018
33
0
39
0
210
0
220
0
230
1
0
ENDBLK
5
1AC
100
AcDbEntity
8
0
100
AcDbBlockEnd
0
BLOCK
5
1B5
100
AcDbEntity
8
0
100
AcDbBlockBegin
2
DimnDraft3D2
70
0
10
0
20
0
30
0
3
DimnDraft3D2
0
MTEXT
5
1AF
100
AcDbEntity
8
2
62
256
6
ByLayer
370
18
48
1
60
0
100
AcDbMText
10
57.696784
20
3.477917
30
0
210
0
220
0
230
1
1
\W0.6740;25
40
4.5
41
0
44
1.084337
50
90
71
7
72
5
7
iso_b_vert
0
LINE
5
1B0
100
AcDbEntity
8
2
62
256
6
ByLayer
370
13
48
1
60
0
100
AcDbLine
10
35.5875
20
9.9625
30
0
11
60.821784
21
9.9625
31
0
39
0
210
0
220
0
230
1
0
LINE
5
1B1
100
AcDbEntity
8
2
62
256
6
ByLayer
370
13
48
1
60
0
100
AcDbLine
10
45.5875
20
-15.0375
30
0
11
60.821784
21
-15.0375
31
0
39
0
210
0
220
0
230
1
0
LINE
5
1B2
100
AcDbEntity
8
2
62
256
6
ByLayer
370
13
48
1
60
0
100
AcDbLine
10
58.821784
20
9.9625
30
0
11
58.821784
21
-15.0375
31
0
39
0
210
0
220
0
230
1
0
SOLID
5
1B3
100
AcDbEntity
8
2
62
256
6
ByLayer
370
13
48
1
60
0
100
AcDbTrace
10
58.821784
20
9.9625
30
0
11
59.282568
21
6.462502
31
0
12
58.361
22
6.462498
32
0
13
58.821784
23
9.9625
33
0
39
0
210
0
220
0
230
1
0
SOLID
5
1B4
100
AcDbEntity
8
2
62
256
6
ByLayer
370
13
48
1
60
0
100
AcDbTrace
10
58.821784
20
-15.0375
30
0
11
58.361
21
-11.537502
31
0
12
59.282568
22
-11.537498
32
0
13
58.821784
23
-15.0375
33
0
39
0
210
0
220
0
230
1
0
ENDBLK
5
1B6
100
AcDbEntity
8
0
100
AcDbBlockEnd
0
BLOCK
5
1BF
100
AcDbEntity
8
0
100
AcDbBlockBegin
2
DimnDraft3D3
70
0
10
0
20
0
30
0
3
DimnDraft3D3
0
MTEXT
5
1B9
100
AcDbEntity
8
SK2
62
256
6
ByLayer
370
18
48
1
60
0
100
AcDbMText
10
-81.829654
20
-2.281535
30
0
210
0
220
0
230
1
1
\W0.6740;20
40
4.5
41
0
44
1.084337
50
90
71
7
72
5
7
iso_b_vert
0
LINE
5
1BA
100
AcDbEntity
8
SK2
62
256
6
ByLayer
370
13
48
1
60
0
100
AcDbLine
10
-70.5875
20
9.9625
30
0
11
-82.704654
21
9.9625
31
0
39
0
210
0
220
0
230
1
0
LINE
5
1BB
100
AcDbEntity
8
SK2
62
256
6
ByLayer
370
13
48
1
60
0
100
AcDbLine
10
-70.5875
20
-9.9625
30
0
11
-82.704654
21
-9.9625
31
0
39
0
210
0
220
0
230
1
0
LINE
5
1BC
100
AcDbEntity
8
SK2
62
256
6
ByLayer
370
13
48
1
60
0
100
AcDbLine
10
-80.704654
20
9.9625
30
0
11
-80.704654
21
-9.9625
31
0
39
0
210
0
220
0
230
1
0
SOLID
5
1BD
100
AcDbEntity
8
SK2
62
256
6
ByLayer
370
13
48
1
60
0
100
AcDbTrace
10
-80.704654
20
9.9625
30
0
11
-80.24387
21
6.462502
31
0
12
-81.165438
22
6.462498
32
0
13
-80.704654
23
9.9625
33
0
39
0
210
0
220
0
230
1
0
SOLID
5
1BE
100
AcDbEntity
8
SK2
62
256
6
ByLayer
370
13
48
1
60
0
100
AcDbTrace
10
-80.704654
20
-9.9625
30
0
11
-81.165438
21
-6.462502
31
0
12
-80.24387
22
-6.462498
32
0
13
-80.704654
23
-9.9625
33
0
39
0
210
0
220
0
230
1
0
ENDBLK
5
1C0
100
AcDbEntity
8
0
100
AcDbBlockEnd
0
BLOCK
5
1C9
100
AcDbEntity
8
0
100
AcDbBlockBegin
2
DimnDraft3D4
70
0
10
0
20
0
30
0
3
DimnDraft3D4
0
MTEXT
5
1C3
100
AcDbEntity
8
2
62
256
6
ByLayer
370
18
48
1
60
0
100
AcDbMText
10
19.814761
20
-21.549364
30
0
210
0
220
0
230
1
1
\W0.8531;95%%d
40
4.5
41
0
44
1.084337
50
305.713457915011
71
7
72
5
7
iso_b_vert
0
LINE
5
1C4
100
AcDbEntity
8
2
62
256
6
ByLayer
370
13
48
1
60
0
100
AcDbLine
10
27.434651
20
-14.49773
30
0
11
15.618182
21
-13.526239
31
0
39
0
210
0
220
0
230
1
0
LINE
5
1C5
100
AcDbEntity
8
2
62
256
6
ByLayer
370
13
48
1
60
0
100
AcDbLine
10
34
20
-1.5875
30
0
11
34
21
-33.481337
31
0
39
0
210
0
220
0
230
1
0
ARC
5
1C6
100
AcDbEntity
8
2
62
256
6
ByLayer
370
13
48
1
60
0
100
AcDbCircle
39
0
10
34
20
-15.0375
30
0
40
16.4438373540296
210
0
220
0
230
1
100
AcDbArc
50
175.3
51
270
0
SOLID
5
1C7
100
AcDbEntity
8
2
62
256
6
ByLayer
370
13
48
1
60
0
100
AcDbTrace
10
17.611457
20
-13.690116
30
0
11
17.970496
21
-17.202011
31
0
12
17.049316
22
-17.175275
32
0
13
17.611457
23
-13.690116
33
0
39
0
210
0
220
0
230
1
0
SOLID
5
1C8
100
AcDbEntity
8
2
62
256
6
ByLayer
370
13
48
1
60
0
100
AcDbTrace
10
34
20
-31.481337
30
0
11
30.480503
21
-31.756019
31
0
12
30.529331
22
-30.835746
32
0
13
34
23
-31.481337
33
0
39
0
210
0
220
0
230
1
0
ENDBLK
5
1CA
100
AcDbEntity
8
0
100
AcDbBlockEnd
0
ENDSEC
0
SECTION
2
ENTITIES
0
ARC
5
F1
100
AcDbEntity
8
1
62
256
6
ByLayer
370
18
48
1
60
0
100
AcDbCircle
39
0
10
-0.4
20
-46.371802
30
0
40
36.2593015844741
210
0
220
0
230
1
100
AcDbArc
50
84.710768
51
87.609191
0
ARC
5
F2
100
AcDbEntity
8
1
62
256
6
ByLayer
370
18
48
1
60
0
100
AcDbCircle
39
0
10
-26.982268
20
33.948992
30
0
40
48.6006916043722
210
0
220
0
230
-1
100
AcDbArc
50
275.064623
51
288.824825
0
ARC
5
F3
100
AcDbEntity
8
1
62
256
6
ByLayer
370
18
48
1
60
0
100
AcDbCircle
39
0
10
0.4
20
-46.371802
30
0
40
36.2593015836329
210
0
220
0
230
-1
100
AcDbArc
50
99.9982
51
108.824825
0
ARC
5
F4
100
AcDbEntity
8
1
62
256
6
ByLayer
370
18
48
1
60
0
100
AcDbCircle
39
0
10
-2.942507
20
11.5625
30
0
40
1.60000000000006
210
0
220
0
230
-1
100
AcDbArc
50
195
51
270
0
ARC
5
F5
100
AcDbEntity
8
1
62
256
6
ByLayer
370
18
48
1
60
0
100
AcDbCircle
39
0
10
-0.372277
20
-11.5625
30
0
40
1.6
210
0
220
0
230
-1
100
AcDbArc
50
90
51
117.560415
0
ELLIPSE
5
F6
100
AcDbEntity
8
1
62
256
6
ByLayer
370
13
48
1
60
0
100
AcDbEllipse
10
23.503069
20
3.614479
30
0
11
1.30182530667291
21
0.93018862114411
31
0
210
0
220
0
230
1
40
0.118889
41
1.61755968186984
42
3.101089546065
0
ELLIPSE
5
F7
100
AcDbEntity
8
1
62
256
6
ByLayer
370
13
48
1
60
0
100
AcDbEllipse
10
-6.384643
20
26.925441
30
0
11
-22.5642600004006
21
-34.7892813626406
31
0
210
0
220
0
230
1
40
0.991822
41
1.32327108078288
42
1.36794777985423
0
ELLIPSE
5
F8
100
AcDbEntity
8
1
62
256
6
ByLayer
370
18
48
1
60
0
100
AcDbEllipse
10
16.191633
20
-6.752178
30
0
11
1.19715469339488
21
1.84575747054769
31
0
210
0
220
0
230
1
40
0.991822
41
-0.999150016744405
42
-0.0291831326252816
0
ELLIPSE
5
F9
100
AcDbEntity
8
1
62
256
6
ByLayer
370
18
48
1
60
0
100
AcDbEllipse
10
16.191633
20
-6.752178
30
0
11
1.19715469339488
21
1.84575747054769
31
0
210
0
220
0
230
1
40
0.991822
41
-3.11236175087524
42
-0.999150016744411
0
ELLIPSE
5
FA
100
AcDbEntity
8
1
62
256
6
ByLayer
370
18
48
1
60
0
100
AcDbEllipse
10
22.36586
20
-10.325671
30
0
11
-0.470673712599605
21
-0.778983310213693
31
0
210
0
220
0
230
-1
40
0.99144
41
-2.88641693531138
42
-2.1410887871697
0
ELLIPSE
5
FB
100
AcDbEntity
8
1
62
256
6
ByLayer
370
13
48
1
60
0
100
AcDbEllipse
10
19.872715
20
1.010342
30
0
11
1.56294985995547
21
2.40973568079453
31
0
210
0
220
0
230
1
40
0.991822
41
-0.747622083239801
42
-0.372208202110978
0
ELLIPSE
5
FC
100
AcDbEntity
8
1
62
256
6
ByLayer
370
13
48
1
60
0
100
AcDbEllipse
10
26.652603
20
-3.380005
30
0
11
-2.1905328473917
21
0.203877032786969
31
0
210
0
220
0
230
1
40
0.094636
41
-1.16941203388117
42
-0.106865600745942
0
ELLIPSE
5
FD
100
AcDbEntity
8
1
62
256
6
ByLayer
370
18
48
1
60
0
100
AcDbEllipse
10
25.07608
20
-4.698438
30
0
11
-1.30994953718557
21
-2.16801746024634
31
0
210
0
220
0
230
-1
40
0.99144
41
2.51072566377284
42
-2.61611448322676
0
ELLIPSE
5
FE
100
AcDbEntity
8
1
62
256
6
ByLayer
370
18
48
1
60
0
100
AcDbEllipse
10
13.26309
20
7.049602
30
0
11
-2.94968671656919
21
1.91316104804251
31
0
210
4.61453103282278E-16
220
1.5039458458112E-16
230
1
40
0.991759
41
-1.77592063151597
42
1.32022269833035
0
ELLIPSE
5
FF
100
AcDbEntity
8
1
62
256
6
ByLayer
370
13
48
1
60
0
100
AcDbEllipse
10
-26.426336
20
-32.247713
30
0
11
-33.4474844858085
21
-51.568894731256
31
0
210
0
220
0
230
1
40
0.991822
41
2.76938445147882
42
2.94750326061516
0
ELLIPSE
5
100
100
AcDbEntity
8
1
62
256
6
ByLayer
370
18
48
1
60
0
100
AcDbEllipse
10
22.4412
20
-12.622957
30
0
11
-0.458829442474695
21
-0.759380582453463
31
0
210
0
220
0
230
-1
40
0.99144
41
-2.14108878705022
42
-1.75740149668709
0
ELLIPSE
5
101
100
AcDbEntity
8
1
62
256
6
ByLayer
370
13
48
1
60
0
100
AcDbEllipse
10
53.543602
20
44.95526
30
0
11
32.5801396433682
21
50.2316337813484
31
0
210
0
220
0
230
1
40
0.991822
41
2.88012753565436
42
3.05832225134644
0
ELLIPSE
5
102
100
AcDbEntity
8
1
62
256
6
ByLayer
370
18
48
1
60
0
100
AcDbEllipse
10
26.624927
20
-3.677374
30
0
11
-2.1905328473917
21
0.203877032786969
31
0
210
0
220
0
230
1
40
0.094636
41
-1.28879281587186
42
-0.208550834003384
0
ELLIPSE
5
103
100
AcDbEntity
8
1
62
256
6
ByLayer
370
13
48
1
60
0
100
AcDbEllipse
10
18.688866
20
-0.142204
30
0
11
1.56294985995547
21
2.40973568079453
31
0
210
0
220
0
230
1
40
0.991822
41
3.05832225134645
42
-2.39397797923104
0
ELLIPSE
5
104
100
AcDbEntity
8
1
62
256
6
ByLayer
370
13
48
1
60
0
100
AcDbEllipse
10
15.972819
20
-3.685417
30
0
11
0.980156078465965
21
1.26463198672429
31
0
210
0
220
0
230
1
40
0.127185
41
0.0979689081917552
42
1.58149877238695
0
ELLIPSE
5
105
100
AcDbEntity
8
1
62
256
6
ByLayer
370
18
48
1
60
0
100
AcDbEllipse
10
29.467712
20
-2.267665
30
0
11
-1.291435278074
21
-2.13737564093896
31
0
210
0
220
0
230
-1
40
0.99144
41
-0.458064379400106
42
0.525478170362673
0
ELLIPSE
5
106
100
AcDbEntity
8
1
62
256
6
ByLayer
370
13
48
1
60
0
100
AcDbEllipse
10
8.026506
20
3.704729
30
0
11
1.19026631135227
21
1.06923622649995
31
0
210
0
220
0
230
1
40
0.12329
41
0.120517480433517
42
1.6040473446287
0
ELLIPSE
5
107
100
AcDbEntity
8
1
62
256
6
ByLayer
370
13
48
1
60
0
100
AcDbEllipse
10
12.192236
20
7.744156
30
0
11
-3.18596689464126
21
-4.91208214706645
31
0
210
0
220
0
230
1
40
0.991822
41
2.94750326061515
42
-0.261465117935437
0
ELLIPSE
5
108
100
AcDbEntity
8
1
62
256
6
ByLayer
370
18
48
1
60
0
100
AcDbEllipse
10
24.580758
20
-4.744735
30
0
11
-1.31039940235839
21
-2.16876200460639
31
0
210
0
220
0
230
-1
40
0.99144
41
0.948069014480177
42
2.51072566377132
0
ELLIPSE
5
109
100
AcDbEntity
8
1
62
256
6
ByLayer
370
13
48
1
60
0
100
AcDbEllipse
10
18.532474
20
-0.040769
30
0
11
-2.43029470239591
21
-3.74699663070206
31
0
210
0
220
0
230
1
40
0.991822
41
-0.0832704022433473
42
1.32327108078288
0
ELLIPSE
5
10A
100
AcDbEntity
8
1
62
256
6
ByLayer
370
18
48
1
60
0
100
AcDbEllipse
10
28.681941
20
-1.864814
30
0
11
-3.02395815231616
21
1.82152212259678
31
0
210
0
220
0
230
-1
40
0.84059
41
-1.29611922108394
42
-0.852971452168339
0
ELLIPSE
5
10B
100
AcDbEntity
8
1
62
256
6
ByLayer
370
18
48
1
60
0
100
AcDbEllipse
10
16.13274
20
-6.713981
30
0
11
0.897866020046158
21
1.38431810291077
31
0
210
0
220
0
230
1
40
0.991822
41
0
42
6.28318530717959
0
ELLIPSE
5
10C
100
AcDbEntity
8
1
62
256
6
ByLayer
370
13
48
1
60
0
100
AcDbEllipse
10
21.711448
20
-3.406878
30
0
11
-1.09041776766482
21
1.17089243398396
31
0
210
0
220
0
230
1
40
0.031269
41
0.498461461255153
42
1.44667958820686
0
ELLIPSE
5
10D
100
AcDbEntity
8
1
62
256
6
ByLayer
370
18
48
1
60
0
100
AcDbEllipse
10
32.779168
20
3.005633
30
0
11
-0.130280672179061
21
2.02548050624441
31
0
210
0
220
0
230
-1
40
0.006276
41
1.30334400154764
42
1.87748198360986
0
ELLIPSE
5
10E
100
AcDbEntity
8
1
62
256
6
ByLayer
370
18
48
1
60
0
100
AcDbEllipse
10
24.360282
20
-8.447721
30
0
11
-0.369069837330554
21
-2.6678630639661
31
0
210
0
220
0
230
-1
40
0.245166
41
0.585118225837074
42
0.881733831578935
0
ELLIPSE
5
10F
100
AcDbEntity
8
1
62
256
6
ByLayer
370
18
48
1
60
0
100
AcDbEllipse
10
32.790254
20
2.737597
30
0
11
-0.195421008354101
21
3.03822076068849
31
0
210
0
220
0
230
-1
40
0.006276
41
-0.094740071254063
42
1.3033440016929
0
ELLIPSE
5
110
100
AcDbEntity
8
1
62
256
6
ByLayer
370
18
48
1
60
0
100
AcDbEllipse
10
30.325544
20
-5.278167
30
0
11
-0.804729116804286
21
-0.204760331083519
31
0
210
0
220
0
230
-1
40
0.245253
41
2.52203066468582
42
3.05755731900005
0
ELLIPSE
5
111
100
AcDbEntity
8
1
62
256
6
ByLayer
370
18
48
1
60
0
100
AcDbEllipse
10
-26.034083
20
-32.502128
30
0
11
-50.0993181409977
21
32.4943199772512
31
0
210
4.61453103282278E-16
220
1.5039458458112E-16
230
1
40
0.991759
41
-1.79660165489636
42
-1.77592063151596
0
ELLIPSE
5
112
100
AcDbEntity
8
1
62
256
6
ByLayer
370
13
48
1
60
0
100
AcDbEllipse
10
19.716323
20
1.111778
30
0
11
-2.43029470239591
21
-3.74699663070206
31
0
210
0
220
0
230
1
40
0.991822
41
1.36794777985423
42
2.76938445147882
0
ELLIPSE
5
113
100
AcDbEntity
8
1
62
256
6
ByLayer
370
18
48
1
60
0
100
AcDbEllipse
10
44.141015
20
-173.886087
30
0
11
-11.682331602702
21
181.140670423423
31
0
210
0
220
0
230
-1
40
0.00521
41
-0.0286000713397503
42
0.0631364491202862
0
ELLIPSE
5
114
100
AcDbEntity
8
1
62
256
6
ByLayer
370
18
48
1
60
0
100
AcDbEllipse
10
20.752823
20
80.496066
30
0
11
-2.30057792661564
21
99.5729726385209
31
0
210
0
220
0
230
-1
40
0.020765
41
2.72699784037218
42
2.77354144891283
0
ELLIPSE
5
115
100
AcDbEntity
8
1
62
256
6
ByLayer
370
18
48
1
60
0
100
AcDbEllipse
10
33.276124
20
-5.585967
30
0
11
-0.0314355445888494
21
0.544658898709765
31
0
210
0
220
0
230
-1
40
0.016469
41
-0.805835769864201
42
-0.270309115546918
0
ELLIPSE
5
116
100
AcDbEntity
8
1
62
256
6
ByLayer
370
13
48
1
60
0
100
AcDbEllipse
10
12.348628
20
7.64272
30
0
11
2.31862205220082
21
3.57482119715892
31
0
210
0
220
0
230
1
40
0.991822
41
-0.194089392974646
42
2.88012753565435
0
ELLIPSE
5
117
100
AcDbEntity
8
1
62
256
6
ByLayer
370
18
48
1
60
0
100
AcDbEllipse
10
54.128017
20
44.57621
30
0
11
-49.8602448676036
21
32.3392575186801
31
0
210
4.61453103282278E-16
220
1.5039458458112E-16
230
1
40
0.991759
41
1.32022269833035
42
1.34398094106995
0
ELLIPSE
5
118
100
AcDbEntity
8
1
62
256
6
ByLayer
370
18
48
1
60
0
100
AcDbEllipse
10
24.84931
20
-7.897232
30
0
11
-1.326582747125
21
-2.19554607020651
31
0
210
0
220
0
230
-1
40
0.99144
41
0.255175718456947
42
0.948069014529358
0
ELLIPSE
5
119
100
AcDbEntity
8
1
62
256
6
ByLayer
370
18
48
1
60
0
100
AcDbEllipse
10
-16.929685
20
-137.793458
30
0
11
-1004.82794807422
21
592.901172428613
31
0
210
0
220
0
230
-1
40
0.128565
41
1.53279652530372
42
1.54408920506486
0
ELLIPSE
5
11A
100
AcDbEntity
8
1
62
256
6
ByLayer
370
18
48
1
60
0
100
AcDbEllipse
10
32.789494
20
2.294287
30
0
11
-0.195421008353277
21
3.03822076067633
31
0
210
0
220
0
230
-1
40
0.006276
41
-1.66553639805274
42
-0.0947400712536265
0
ELLIPSE
5
11B
100
AcDbEntity
8
1
62
256
6
ByLayer
370
13
48
1
60
0
100
AcDbEllipse
10
-26.269944
20
-32.349148
30
0
11
32.5801396433682
21
50.2316337813484
31
0
210
0
220
0
230
1
40
0.991822
41
-0.372208202110976
42
-0.194089392974634
0
ELLIPSE
5
11C
100
AcDbEntity
8
1
62
256
6
ByLayer
370
18
48
1
60
0
100
AcDbEllipse
10
-54.039931
20
76.333991
30
0
11
68.1509907519664
21
-70.7237991621086
31
0
210
4.48555171554441E-16
220
1.62422803410205E-16
230
1
40
0.407265
41
-0.0778559624546525
42
0.0974954992600175
0
ELLIPSE
5
11D
100
AcDbEntity
8
1
62
256
6
ByLayer
370
18
48
1
60
0
100
AcDbEllipse
10
23.116778
20
-5.879577
30
0
11
-0.273653448423685
21
-2.75260318797954
31
0
210
0
220
0
230
-1
40
0.246006
41
0.675933994922822
42
1.53261753379738
0
ELLIPSE
5
11E
100
AcDbEntity
8
1
62
256
6
ByLayer
370
18
48
1
60
0
100
AcDbEllipse
10
30.175253
20
-3.200875
30
0
11
-0.439952918817992
21
3.08384281775644
31
0
210
0
220
0
230
-1
40
0.962276
41
1.65336022019339
42
1.83845716143966
0
ELLIPSE
5
11F
100
AcDbEntity
8
1
62
256
6
ByLayer
370
13
48
1
60
0
100
AcDbEllipse
10
16.429366
20
11.843425
30
0
11
1.11500852343713
21
1.14749988787039
31
0
210
0
220
0
230
1
40
0.125231
41
1.59561013876246
42
3.07914000295764
0
ELLIPSE
5
120
100
AcDbEntity
8
1
62
256
6
ByLayer
370
18
48
1
60
0
100
AcDbEllipse
10
23.303899
20
-3.174061
30
0
11
-2.50437400111622
21
-0.592144887534661
31
0
210
0
220
0
230
-1
40
0.240275
41
2.03877397757986
42
2.26575730782346
0
ELLIPSE
5
121
100
AcDbEntity
8
1
62
256
6
ByLayer
370
18
48
1
60
0
100
AcDbEllipse
10
23.823404
20
-3.208114
30
0
11
-1.27680210832833
21
-0.0901326060577931
31
0
210
0
220
0
230
-1
40
0.369996
41
1.10363606262614
42
2.02208313378757
0
ELLIPSE
5
122
100
AcDbEntity
8
1
62
256
6
ByLayer
370
13
48
1
60
0
100
AcDbEllipse
10
53.387211
20
45.056695
30
0
11
-33.4474844858085
21
-51.568894731256
31
0
210
0
220
0
230
1
40
0.991822
41
-0.261465117935439
42
-0.0832704022433544
0
ELLIPSE
5
123
100
AcDbEntity
8
1
62
256
6
ByLayer
370
18
48
1
60
0
100
AcDbEllipse
10
23.235244
20
-3.106853
30
0
11
-2.21756931169385
21
1.33578288990694
31
0
210
0
220
0
230
-1
40
0.84059
41
2.22084833564182
42
2.28862120141997
0
ELLIPSE
5
124
100
AcDbEntity
8
1
62
256
6
ByLayer
370
13
48
1
60
0
100
AcDbEllipse
10
23.038195
20
-2.115212
30
0
11
1.14125477370351
21
-1.12139981340241
31
0
210
0
220
0
230
1
40
0.025712
41
-2.61958923261307
42
-1.69617677157957
0
ELLIPSE
5
125
100
AcDbEntity
8
1
62
256
6
ByLayer
370
18
48
1
60
0
100
AcDbEllipse
10
15.442093
20
-6.266028
30
0
11
0.897866020046157
21
1.38431810291077
31
0
210
0
220
0
230
1
40
0.991822
41
-0.999150016744412
42
-0.254199886323755
0
ELLIPSE
5
126
100
AcDbEntity
8
1
62
256
6
ByLayer
370
18
48
1
60
0
100
AcDbEllipse
10
15.442093
20
-6.266028
30
0
11
0.897866020046157
21
1.38431810291077
31
0
210
0
220
0
230
1
40
0.991822
41
-2.8874433506646
42
-0.999150016744415
0
ELLIPSE
5
127
100
AcDbEntity
8
1
62
256
6
ByLayer
370
18
48
1
60
0
100
AcDbEllipse
10
-0.4
20
-46.371801
30
0
11
-36.2593012814297
21
-4.10854030584507E-14
31
0
210
0
220
0
230
-1
40
1
41
1.70601447939787
42
1.74529784384827
0
ELLIPSE
5
128
100
AcDbEntity
8
1
62
256
6
ByLayer
370
18
48
1
60
0
100
AcDbEllipse
10
16.29871
20
-6.821628
30
0
11
-1.19715469339487
21
-1.8457574705477
31
0
210
0
220
0
230
1
40
0.991822
41
0
42
6.28318530717959
0
ELLIPSE
5
129
100
AcDbEntity
8
1
62
256
6
ByLayer
370
18
48
1
60
0
100
AcDbEllipse
10
8.228318
20
-54.072
30
0
11
-15.7181533267469
21
-43.8944011156091
31
0
210
0
220
0
230
-1
40
0.036583
41
-2.7994969643445
42
-2.74686078589562
0
ELLIPSE
5
12A
100
AcDbEntity
8
1
62
256
6
ByLayer
370
13
48
1
60
0
100
AcDbEllipse
10
27.711059
20
-4.739431
30
0
11
2.72608623207489
21
-0.253721998635456
31
0
210
0
220
0
230
1
40
0.094636
41
1.83979532329475
42
2.06598998245227
0
ELLIPSE
5
12B
100
AcDbEntity
8
1
62
256
6
ByLayer
370
18
48
1
60
0
100
AcDbEllipse
10
24.379075
20
-6.217189
30
0
11
-0.103998703345398
21
-0.281396996612395
31
0
210
0
220
0
230
1
40
0.938438
41
-2.86409315812733
42
-1.11876390613304
0
ELLIPSE
5
12C
100
AcDbEntity
8
1
62
256
6
ByLayer
370
18
48
1
60
0
100
AcDbEllipse
10
27.196462
20
-5.747313
30
0
11
-11.4505126113657
21
1.06572085320461
31
0
210
0
220
0
230
1
40
0.094636
41
-1.83597054073867
42
-1.74841389330224
0
ELLIPSE
5
12D
100
AcDbEntity
8
1
62
256
6
ByLayer
370
13
48
1
60
0
100
AcDbEllipse
10
14.291723
20
2.795343
30
0
11
-9.55888970157292
21
12.5892102873737
31
0
210
0
220
0
230
-1
40
0.049557
41
-3.08131494777427
42
-2.93022486534225
0
ELLIPSE
5
12E
100
AcDbEntity
8
1
62
256
6
ByLayer
370
13
48
1
60
0
100
AcDbEllipse
10
28.055306
20
2.302376
30
0
11
-10.2018216832521
21
-8.91692774506648
31
0
210
0
220
0
230
-1
40
0.81568
41
-1.17465702432122
42
-1.03780432019106
0
ELLIPSE
5
12F
100
AcDbEntity
8
1
62
256
6
ByLayer
370
18
48
1
60
0
100
AcDbEllipse
10
27.058079
20
-7.234155
30
0
11
11.4505126113657
21
-1.06572085320461
31
0
210
0
220
0
230
1
40
0.094636
41
1.39317876028755
42
1.81130894479898
0
ELLIPSE
5
130
100
AcDbEntity
8
1
62
256
6
ByLayer
370
18
48
1
60
0
100
AcDbEllipse
10
34.41831
20
-14.741877
30
0
11
-11.4505126113657
21
1.06572085320461
31
0
210
0
220
0
230
1
40
0.094636
41
-1.35768824848918
42
-0.939558063977741
0
ELLIPSE
5
131
100
AcDbEntity
8
1
62
256
6
ByLayer
370
18
48
1
60
0
100
AcDbEllipse
10
11.337434
20
-2.663648
30
0
11
-11.4505126113657
21
1.06572085320461
31
0
210
0
220
0
230
1
40
0.094636
41
2.89154254899232
42
2.96397508708245
0
ELLIPSE
5
132
100
AcDbEntity
8
1
62
256
6
ByLayer
370
18
48
1
60
0
100
AcDbEllipse
10
26.85897
20
-6.266465
30
0
11
1.99139349762882
21
-0.185342757079063
31
0
210
0
220
0
230
1
40
0.094636
41
1.24782796057158
42
1.91105307632943
0
ELLIPSE
5
133
100
AcDbEntity
8
1
62
256
6
ByLayer
370
13
48
1
60
0
100
AcDbEllipse
10
35.697401
20
0.179231
30
0
11
-8.87475544862982
21
-7.75700218115587
31
0
210
0
220
0
230
-1
40
0.81568
41
-0.7470036569827
42
-0.3054414720661
0
ELLIPSE
5
134
100
AcDbEntity
8
1
62
256
6
ByLayer
370
13
48
1
60
0
100
AcDbEllipse
10
33.676678
20
-24.412111
30
0
11
-5.69161655671432
21
14.3558624438498
31
0
210
0
220
0
230
-1
40
0.73479
41
-0.161845757250883
42
-0.024993053082466
0
ELLIPSE
5
135
100
AcDbEntity
8
1
62
256
6
ByLayer
370
18
48
1
60
0
100
AcDbEllipse
10
31.648951
20
42.091937
30
0
11
-9.91812340404482
21
-63.2516238326791
31
0
210
0
220
0
230
-1
40
0.168655
41
-0.732511291445511
42
-0.677796751656026
0
ELLIPSE
5
136
100
AcDbEntity
8
1
62
256
6
ByLayer
370
13
48
1
60
0
100
AcDbEllipse
10
35.751541
20
-0.417138
30
0
11
-10.5794159990841
21
-6.18041617677486
31
0
210
0
220
0
230
-1
40
0.805524
41
-0.889585750253957
42
-0.479058203294792
0
ELLIPSE
5
137
100
AcDbEntity
8
1
62
256
6
ByLayer
370
18
48
1
60
0
100
AcDbEllipse
10
33.210548
20
-14.248063
30
0
11
-0.561767697904006
21
-0.560763868389926
31
0
210
0
220
0
230
1
40
0.989122
41
2.15127958480506
42
2.44419909137275
0
ELLIPSE
5
138
100
AcDbEntity
8
1
62
256
6
ByLayer
370
18
48
1
60
0
100
AcDbEllipse
10
11.914691
20
-16.444508
30
0
11
-4.80363355503629
21
-65.8462604415174
31
0
210
0
220
0
230
-1
40
0.173071
41
-1.66122540673847
42
-1.64315834784671
0
ELLIPSE
5
139
100
AcDbEntity
8
1
62
256
6
ByLayer
370
18
48
1
60
0
100
AcDbEllipse
10
30.259998
20
-14.989417
30
0
11
1.99139349762882
21
-0.185342757079063
31
0
210
0
220
0
230
1
40
0.094636
41
1.68416027357017
42
1.72647772290173
0
ELLIPSE
5
13A
100
AcDbEntity
8
1
62
256
6
ByLayer
370
13
48
1
60
0
100
AcDbEllipse
10
28.234949
20
-9.726533
30
0
11
0.78966966662693
21
-0.128147639889751
31
0
210
0
220
0
230
1
40
0.051128
41
-1.66363114510427
42
-0.997369540866074
0
ELLIPSE
5
13B
100
AcDbEntity
8
1
62
256
6
ByLayer
370
18
48
1
60
0
100
AcDbEllipse
10
33.210548
20
-14.248063
30
0
11
-0.561767697904006
21
-0.560763868389926
31
0
210
0
220
0
230
1
40
0.989122
41
0.698869839378413
42
0.991789345946116
0
ELLIPSE
5
13C
100
AcDbEntity
8
1
62
256
6
ByLayer
370
18
48
1
60
0
100
AcDbEllipse
10
28.320151
20
-2.716269
30
0
11
-11.4505126113657
21
1.06572085320461
31
0
210
0
220
0
230
1
40
0.094636
41
1.30562211285112
42
1.39114035580863
0
ELLIPSE
5
13D
100
AcDbEntity
8
1
62
256
6
ByLayer
370
18
48
1
60
0
100
AcDbEllipse
10
23.23946
20
-7.544904
30
0
11
0.346662344484659
21
0.937989988707982
31
0
210
0
220
0
230
1
40
0.938438
41
-2.86409315812736
42
-1.11876390613303
0
ELLIPSE
5
13E
100
AcDbEntity
8
1
62
256
6
ByLayer
370
18
48
1
60
0
100
AcDbEllipse
10
34.006223
20
-19.169595
30
0
11
-5.39396727871899
21
65.5949305017586
31
0
210
0
220
0
230
-1
40
0.016609
41
-1.47722183539268
42
-1.45915481528798
0
ELLIPSE
5
13F
100
AcDbEntity
8
1
62
256
6
ByLayer
370
13
48
1
60
0
100
AcDbEllipse
10
28.24984
20
-9.638378
30
0
11
0.788002768293782
21
-0.13802766810077
31
0
210
0
220
0
230
1
40
0.103523
41
-1.67764683359542
42
-1.01138522935721
0
ELLIPSE
5
140
100
AcDbEntity
8
1
62
256
6
ByLayer
370
13
48
1
60
0
100
AcDbEllipse
10
29.08197
20
-8.799222
30
0
11
0.213226534690159
21
-0.771060597426705
31
0
210
0
220
0
230
1
40
0.197315
41
-1.54598273020944
42
-0.742867437359356
0
ELLIPSE
5
141
100
AcDbEntity
8
1
62
256
6
ByLayer
370
18
48
1
60
0
100
AcDbEllipse
10
23.633778
20
-12.537345
30
0
11
0.0245815525890118
21
0.298991216045411
31
0
210
0
220
0
230
1
40
0.112614
41
-3.14158182314043
42
-1.49164959339927
0
ELLIPSE
5
142
100
AcDbEntity
8
1
62
256
6
ByLayer
370
18
48
1
60
0
100
AcDbEllipse
10
26.997353
20
-4.779623
30
0
11
-1.99139349762882
21
0.185342757079063
31
0
210
0
220
0
230
1
40
0.094636
41
-1.89376469301821
42
-1.23053957726036
0
ELLIPSE
5
143
100
AcDbEntity
8
1
62
256
6
ByLayer
370
13
48
1
60
0
100
AcDbEllipse
10
27.52177
20
-10.627912
30
0
11
0.319961464140763
21
-0.733228928415198
31
0
210
0
220
0
230
1
40
0.511668
41
1.21145077635436
42
2.01456606920445
0
ELLIPSE
5
144
100
AcDbEntity
8
1
62
256
6
ByLayer
370
18
48
1
60
0
100
AcDbEllipse
10
27.470166
20
-2.806472
30
0
11
-4.90330445210461
21
65.3045202899186
31
0
210
0
220
0
230
-1
40
0.055183
41
-1.63758585378777
42
-1.6195187812733
0
ELLIPSE
5
145
100
AcDbEntity
8
1
62
256
6
ByLayer
370
18
48
1
60
0
100
AcDbEllipse
10
23.874463
20
-11.261353
30
0
11
-0.0819385086300396
21
-0.996637386818037
31
0
210
0
220
0
230
1
40
0.112614
41
-3.14158478311439
42
-1.49164959339926
0
ELLIPSE
5
146
100
AcDbEntity
8
1
62
256
6
ByLayer
370
18
48
1
60
0
100
AcDbEllipse
10
21.283427
20
-3.561974
30
0
11
-1.99139349762882
21
0.185342757079063
31
0
210
0
220
0
230
1
40
0.094636
41
2.81862428736648
42
-2.80133590405526
0
ELLIPSE
5
147
100
AcDbEntity
8
1
62
256
6
ByLayer
370
13
48
1
60
0
100
AcDbEllipse
10
25.523392
20
-22.021561
30
0
11
-4.9512436732818
21
12.4884331862166
31
0
210
0
220
0
230
-1
40
0.73479
41
0.265807610420848
42
0.707369795337714
0
ELLIPSE
5
148
100
AcDbEntity
8
1
62
256
6
ByLayer
370
13
48
1
60
0
100
AcDbEllipse
10
25.724848
20
-21.558895
30
0
11
-6.30996846816515
21
12.1910348343908
31
0
210
0
220
0
230
-1
40
0.760982
41
0.404775992181544
42
0.815303539140358
0
ELLIPSE
5
149
100
AcDbEntity
8
1
62
256
6
ByLayer
370
13
48
1
60
0
100
AcDbEllipse
10
28.001167
20
2.898745
30
0
11
-8.32451434001045
21
-10.2993973088296
31
0
210
0
220
0
230
-1
40
0.80331
41
-1.0128482205478
42
-0.868128888927129
0
ELLIPSE
5
14A
100
AcDbEntity
8
1
62
256
6
ByLayer
370
18
48
1
60
0
100
AcDbEllipse
10
30.259998
20
-14.989417
30
0
11
1.99139349762882
21
-0.185342757079063
31
0
210
0
220
0
230
1
40
0.094636
41
1.72647772290173
42
2.34738538932801
0
ELLIPSE
5
14B
100
AcDbEntity
8
1
62
256
6
ByLayer
370
18
48
1
60
0
100
AcDbEllipse
10
27.758306
20
-4.231791
30
0
11
-3.23601443364683
21
0.301181980253477
31
0
210
0
220
0
230
1
40
0.094636
41
0
42
1.36080062670603
0
ELLIPSE
5
14C
100
AcDbEntity
8
1
62
256
6
ByLayer
370
18
48
1
60
0
100
AcDbEllipse
10
27.758306
20
-4.231791
30
0
11
-3.23601443364683
21
0.301181980253477
31
0
210
0
220
0
230
1
40
0.094636
41
-1.12783162721769
42
-2.88775590261674E-15
0
ELLIPSE
5
14D
100
AcDbEntity
8
1
62
256
6
ByLayer
370
18
48
1
60
0
100
AcDbEllipse
10
34.279927
20
-16.228719
30
0
11
11.4505126113657
21
-1.06572085320461
31
0
210
0
220
0
230
1
40
0.094636
41
2.20203458961204
42
2.28959123704847
0
ELLIPSE
5
14E
100
AcDbEntity
8
1
62
256
6
ByLayer
370
18
48
1
60
0
100
AcDbEllipse
10
23.342811
20
-5.152717
30
0
11
-0.275163235934698
21
-0.744529553536961
31
0
210
0
220
0
230
1
40
0.938438
41
-2.86409315812735
42
-1.11876390613304
0
ELLIPSE
5
14F
100
AcDbEntity
8
1
62
256
6
ByLayer
370
18
48
1
60
0
100
AcDbEllipse
10
33.210548
20
-14.248063
30
0
11
-0.561767697904006
21
-0.560763868389926
31
0
210
0
220
0
230
1
40
0.989122
41
0.991789345946116
42
2.15127958480506
0
ELLIPSE
5
150
100
AcDbEntity
8
1
62
256
6
ByLayer
370
18
48
1
60
0
100
AcDbEllipse
10
23.665568
20
-13.659614
30
0
11
0.0650386912250938
21
0.791080925786817
31
0
210
0
220
0
230
1
40
0.112614
41
3.04620646178598
42
-1.49164959339926
0
ELLIPSE
5
151
100
AcDbEntity
8
1
62
256
6
ByLayer
370
18
48
1
60
0
100
AcDbEllipse
10
29.827437
20
-64.067969
30
0
11
-4.80363469170167
21
-65.8462715387257
31
0
210
0
220
0
230
-1
40
0.173071
41
2.42695239396204
42
2.48166693429933
0
ELLIPSE
5
152
100
AcDbEntity
8
1
62
256
6
ByLayer
370
18
48
1
60
0
100
AcDbEllipse
10
33.286346
20
-5.949651
30
0
11
-0.0470525403363313
21
-0.79235416383578
31
0
210
0
220
0
230
1
40
0.332231
41
1.29575928468659
42
3.04108853668095
0
ELLIPSE
5
153
100
AcDbEntity
8
1
62
256
6
ByLayer
370
18
48
1
60
0
100
AcDbEllipse
10
21.287991
20
-13.959233
30
0
11
1.99139349762882
21
-0.185342757079063
31
0
210
0
220
0
230
1
40
0.094636
41
0.113363946775266
42
0.222038618699381
0
ELLIPSE
5
154
100
AcDbEntity
8
1
62
256
6
ByLayer
370
13
48
1
60
0
100
AcDbEllipse
10
13.660011
20
2.30792
30
0
11
-10.3589668955023
21
12.6561533729258
31
0
210
0
220
0
230
-1
40
0.046498
41
-3.03074726613099
42
-2.91601761748287
0
ELLIPSE
5
155
100
AcDbEntity
8
1
62
256
6
ByLayer
370
13
48
1
60
0
100
AcDbEllipse
10
33.475222
20
-24.874777
30
0
11
-4.54988719159105
21
14.5073715569529
31
0
210
0
220
0
230
-1
40
0.704986
41
-0.23871491688561
42
-0.0939955852647331
0
POINT
5
6C
100
AcDbEntity
8
80
62
256
6
ByLayer
370
18
48
1
60
0
100
AcDbPoint
10
0
20
0
30
0
39
0
210
0
220
0
230
1
50
360
0
POINT
5
6E
100
AcDbEntity
8
81
62
256
6
ByLayer
370
18
48
1
60
0
100
AcDbPoint
10
34
20
-15.0375
30
0
39
0
210
0
220
0
230
1
50
360
0
SPLINE
5
156
100
AcDbEntity
8
1
62
256
6
ByLayer
370
18
48
1
60
0
100
AcDbSpline
70
4
71
3
72
8
73
4
40
0
40
0
40
0
40
0
40
1
40
1
40
1
40
1
41
1
10
23.6188049471685
20
-10.0440956768288
30
0
41
1
10
23.6195080698747
20
-10.0541636355157
30
0
41
1
10
23.6201711463465
20
-10.064246555644
30
0
41
1
10
23.6207838656324
20
-10.0741467094403
30
0
0
SPLINE
5
157
100
AcDbEntity
8
1
62
256
6
ByLayer
370
18
48
1
60
0
100
AcDbSpline
70
4
71
3
72
8
73
4
40
0
40
0
40
0
40
0
40
1
40
1
40
1
40
1
41
1
10
22.1597956787168
20
-1.04189811434836
30
0
41
1
10
21.7486600215018
20
-1.46013777909107
30
0
41
1
10
21.3281475231976
20
-1.86883748074217
30
0
41
1
10
20.8982757723454
20
-2.26801543605464
30
0
0
SPLINE
5
158
100
AcDbEntity
8
1
62
256
6
ByLayer
370
18
48
1
60
0
100
AcDbSpline
70
4
71
3
72
14
73
10
40
0
40
0
40
0
40
0
40
0.25
40
0.25
40
0.5
40
0.5
40
0.75
40
0.75
40
1
40
1
40
1
40
1
41
1
10
23.419028200873
20
-9.45647558267146
30
0
41
1
10
23.4028865112262
20
-9.43356406560932
30
0
41
1
10
23.3856227649422
20
-9.40944684654664
30
0
41
1
10
23.3498519441255
20
-9.3603305524982
30
0
41
1
10
23.3312019503583
20
-9.33512617296461
30
0
41
1
10
23.2921900195226
20
-9.28327046451918
30
0
41
1
10
23.2723582276691
20
-9.25732735529255
30
0
41
1
10
23.2325564160541
20
-9.20601135696054
30
0
41
1
10
23.2123445081932
20
-9.18032997271817
30
0
41
1
10
23.1924085997088
20
-9.15532217315135
30
0
0
SPLINE
5
159
100
AcDbEntity
8
1
62
256
6
ByLayer
370
18
48
1
60
0
100
AcDbSpline
70
4
71
3
72
32
73
28
40
0
40
0
40
0
40
0
40
0.125000000000001
40
0.125000000000001
40
0.187500000000001
40
0.187500000000001
40
0.250000000000002
40
0.250000000000002
40
0.375000000000001
40
0.375000000000001
40
0.437500000000001
40
0.437500000000001
40
0.500000000000001
40
0.500000000000001
40
0.625
40
0.625
40
0.65625
40
0.65625
40
0.6875
40
0.6875
40
0.75
40
0.75
40
0.875
40
0.875
40
0.9375
40
0.9375
40
1
40
1
40
1
40
1
41
1
10
22.4261587021361
20
1.93144099291982
30
0
41
1
10
22.5020346728568
20
1.82799924192918
30
0
41
1
10
22.5684321710176
20
1.7179694050902
30
0
41
1
10
22.6535745907477
20
1.54293108075206
30
0
41
1
10
22.6795332655627
20
1.48291065729325
30
0
41
1
10
22.7263924940936
20
1.3593874012985
30
0
41
1
10
22.7469471858394
20
1.29679285693945
30
0
41
1
10
22.800155661802
20
1.10665376753713
30
0
41
1
10
22.8244296368144
20
0.976739737784698
30
0
41
1
10
22.8436481088967
20
0.777109723771957
30
0
41
1
10
22.8471736589929
20
0.709700171245885
30
0
41
1
10
22.8481840843852
20
0.573508426506805
30
0
41
1
10
22.8456676319828
20
0.505664426733517
30
0
41
1
10
22.8292650425652
20
0.302886211587293
30
0
41
1
10
22.8065946280354
20
0.16869989094792
30
0
41
1
10
22.7632385522117
20
0.0022971131579368
30
0
41
1
10
22.7538109018344
20
-0.0309164651372384
30
0
41
1
10
22.7334107660465
20
-0.097205631760886
30
0
41
1
10
22.7224052408734
20
-0.130369063436433
30
0
41
1
10
22.6873202994527
20
-0.228796746397364
30
0
41
1
10
22.6611757403242
20
-0.293071713287276
30
0
41
1
10
22.5746716102766
20
-0.48195454316803
30
0
41
1
10
22.5063065393258
20
-0.602651756014836
30
0
41
1
10
22.3873015635941
20
-0.77564092055934
30
0
41
1
10
22.3446472431373
20
-0.832196342441563
30
0
41
1
10
22.2553499013506
20
-0.940398161203547
30
0
41
1
10
22.2086010307126
20
-0.992249455327567
30
0
41
1
10
22.1597956787169
20
-1.04189811434836
30
0
0
SPLINE
5
15A
100
AcDbEntity
8
1
62
256
6
ByLayer
370
18
48
1
60
0
100
AcDbSpline
70
4
71
3
72
8
73
4
40
0
40
0
40
0
40
0
40
1
40
1
40
1
40
1
41
1
10
33.1758757945163
20
-2.84002895075656
30
0
41
1
10
33.1759268139173
20
-2.810320912598
30
0
41
1
10
33.1737710066222
20
-2.78064228175944
30
0
41
1
10
33.1694176905658
20
-2.7511218321406
30
0
0
SPLINE
5
15B
100
AcDbEntity
8
1
62
256
6
ByLayer
370
18
48
1
60
0
100
AcDbSpline
70
4
71
3
72
20
73
16
40
0
40
0
40
0
40
0
40
0.17796049620127
40
0.17796049620127
40
0.266940744301908
40
0.266940744301908
40
0.355920992402545
40
0.355920992402545
40
0.444901240503183
40
0.444901240503183
40
0.53388148860382
40
0.53388148860382
40
0.711841984805106
40
0.711841984805106
40
1
40
1
40
1
40
1
41
1
10
24.473948463387
20
-3.20088731376501
30
0
41
1
10
24.4776145424349
20
-3.16149755776397
30
0
41
1
10
24.4862000191342
20
-3.12399324095901
30
0
41
1
10
24.5059536106537
20
-3.07035564183735
30
0
41
1
10
24.5137315663964
20
-3.05290733814098
30
0
41
1
10
24.5310366704984
20
-3.01994733151648
30
0
41
1
10
24.5406129063814
20
-3.00428313423362
30
0
41
1
10
24.561498810486
20
-2.9744692190051
30
0
41
1
10
24.572889074415
20
-2.96023710172861
30
0
41
1
10
24.5969306516151
20
-2.93369298569687
30
0
41
1
10
24.6095464280987
20
-2.92139216611278
30
0
41
1
10
24.6490169304066
20
-2.88708815560199
30
0
41
1
10
24.6776343264607
20
-2.86757985788449
30
0
41
1
10
24.7568862443585
20
-2.82486321216783
30
0
41
1
10
24.8086130779674
20
-2.80733306369098
30
0
41
1
10
24.8625890476519
20
-2.79682900003905
30
0
0
SPLINE
5
15C
100
AcDbEntity
8
1
62
256
6
ByLayer
370
18
48
1
60
0
100
AcDbSpline
70
4
71
3
72
16
73
12
40
0
40
0
40
0
40
0
40
0.124999999999999
40
0.124999999999999
40
0.249999999999998
40
0.249999999999998
40
0.499999999999999
40
0.499999999999999
40
0.749999999999999
40
0.749999999999999
40
1
40
1
40
1
40
1
41
1
10
26.3665596463834
20
-3.55678387919758
30
0
41
1
10
26.3603212507533
20
-3.54402304849987
30
0
41
1
10
26.3545139452439
20
-3.53129852172003
30
0
41
1
10
26.3442956065465
20
-3.5071549751633
30
0
41
1
10
26.3398063917899
20
-3.49558717828691
30
0
41
1
10
26.3279671923692
20
-3.46216530240102
30
0
41
1
10
26.3225743390538
20
-3.44260726324313
30
0
41
1
10
26.3149525668781
20
-3.4069961091397
30
0
41
1
10
26.3127758723652
20
-3.39109927724672
30
0
41
1
10
26.3105688817506
20
-3.36213794622114
30
0
41
1
10
26.310536130063
20
-3.34894458985932
30
0
41
1
10
26.3112496216912
20
-3.33673711885191
30
0
0
SPLINE
5
15D
100
AcDbEntity
8
1
62
256
6
ByLayer
370
18
48
1
60
0
100
AcDbSpline
70
4
71
3
72
8
73
4
40
0
40
0
40
0
40
0
40
1
40
1
40
1
40
1
41
1
10
23.2186172974774
20
-2.82691193622011
30
0
41
1
10
23.202659667563
20
-2.8310713250356
30
0
41
1
10
23.1866925389989
20
-2.83483582381427
30
0
41
1
10
23.17069979794
20
-2.83811306109837
30
0
0
SPLINE
5
15E
100
AcDbEntity
8
1
62
256
6
ByLayer
370
18
48
1
60
0
100
AcDbSpline
70
4
71
3
72
14
73
10
40
0
40
0
40
0
40
0
40
0.25
40
0.25
40
0.5
40
0.5
40
0.75
40
0.75
40
1
40
1
40
1
40
1
41
1
10
23.6188049471685
20
-10.0440956768288
30
0
41
1
10
23.6149758083175
20
-9.98926653901401
30
0
41
1
10
23.6076321014015
20
-9.93463479833181
30
0
41
1
10
23.5864396639602
20
-9.82891124251154
30
0
41
1
10
23.5726003308841
20
-9.77753518692015
30
0
41
1
10
23.5385841962414
20
-9.67795839781064
30
0
41
1
10
23.5182241129644
20
-9.6294649949422
30
0
41
1
10
23.4723853050725
20
-9.53860484363847
30
0
41
1
10
23.4468689761692
20
-9.49599278391744
30
0
41
1
10
23.4190282008731
20
-9.45647558267154
30
0
0
SPLINE
5
15F
100
AcDbEntity
8
1
62
256
6
ByLayer
370
18
48
1
60
0
100
AcDbSpline
70
4
71
3
72
17
73
13
40
0
40
0
40
0
40
0
40
0.124999999999998
40
0.124999999999998
40
0.249999999999996
40
0.249999999999996
40
0.499999999999995
40
0.624999999999996
40
0.624999999999996
40
0.749999999999998
40
0.749999999999998
40
1
40
1
40
1
40
1
41
1
10
22.8437833715957
20
-8.69048151930667
30
0
41
1
10
22.8559460715627
20
-8.70787731394847
30
0
41
1
10
22.8685086726052
20
-8.72569452852815
30
0
41
1
10
22.8945481772701
20
-8.7622924593133
30
0
41
1
10
22.9080948746789
20
-8.78116827015063
30
0
41
1
10
22.9493969695492
20
-8.83820026509625
30
0
41
1
10
22.9922966139651
20
-8.89643479806267
30
0
41
1
10
23.0377857902764
20
-8.95661857295974
30
0
41
1
10
23.0687084603609
20
-8.99719013798773
30
0
41
1
10
23.0843321610526
20
-9.01752019865253
30
0
41
1
10
23.1308313862193
20
-9.07756048324049
30
0
41
1
10
23.1616820283292
20
-9.11677845997991
30
0
41
1
10
23.1924085997088
20
-9.15532217315135
30
0
0
SPLINE
5
160
100
AcDbEntity
8
1
62
256
6
ByLayer
370
18
48
1
60
0
100
AcDbSpline
70
4
71
3
72
14
73
10
40
0
40
0
40
0
40
0
40
0.25
40
0.25
40
0.5
40
0.5
40
0.75
40
0.75
40
1
40
1
40
1
40
1
41
1
10
22.4796480705074
20
-7.98482829578231
30
0
41
1
10
22.4951811914817
20
-8.06202920112852
30
0
41
1
10
22.5157477882095
20
-8.13627014361688
30
0
41
1
10
22.5647791762108
20
-8.27486159549653
30
0
41
1
10
22.5932312440395
20
-8.33941801796215
30
0
41
1
10
22.6564719671672
20
-8.45855499187002
30
0
41
1
10
22.6912674563493
20
-8.5131344776687
30
0
41
1
10
22.7656725498927
20
-8.61145975326372
30
0
41
1
10
22.8045257606104
20
-8.65418774447977
30
0
41
1
10
22.8437833715959
20
-8.69048151930676
30
0
0
SPLINE
5
161
100
AcDbEntity
8
1
62
256
6
ByLayer
370
18
48
1
60
0
100
AcDbSpline
70
4
71
3
72
8
73
4
40
0
40
0
40
0
40
0
40
1
40
1
40
1
40
1
41
1
10
23.3552676363358
20
-13.7742211963444
30
0
41
1
10
23.2941015215257
20
-13.9364483429584
30
0
41
1
10
23.2329352973562
20
-14.0986754594103
30
0
41
1
10
23.1717689594003
20
-14.2609025444676
30
0
0
SPLINE
5
162
100
AcDbEntity
8
1
62
256
6
ByLayer
370
18
48
1
60
0
100
AcDbSpline
70
4
71
2
72
6
73
3
40
0
40
0
40
0
40
1
40
1
40
1
41
0.500000559427761
10
22.6934191549389
20
-14.4620917311841
30
0
41
0.499999440572239
10
22.6926267367211
20
-14.4620215290348
30
0
41
0.500000559427761
10
22.6918343207906
20
-14.4619513009431
30
0
0
SPLINE
5
163
100
AcDbEntity
8
1
62
256
6
ByLayer
370
18
48
1
60
0
100
AcDbSpline
70
4
71
3
72
32
73
28
40
0
40
0
40
0
40
0
40
0.0625000000000002
40
0.0625000000000002
40
0.125000000000001
40
0.125000000000001
40
0.250000000000001
40
0.250000000000001
40
0.312500000000002
40
0.312500000000002
40
0.343750000000003
40
0.343750000000003
40
0.375000000000003
40
0.375000000000003
40
0.5
40
0.5
40
0.5625
40
0.5625
40
0.624999999999999
40
0.624999999999999
40
0.75
40
0.75
40
0.812499999999999
40
0.812499999999999
40
0.874999999999999
40
0.874999999999999
40
1
40
1
40
1
40
1
41
1
10
22.3219308968313
20
-4.50173905779465
30
0
41
1
10
22.3218094183541
20
-4.43848429861458
30
0
41
1
10
22.3247334398635
20
-4.37493479858776
30
0
41
1
10
22.3368168185488
20
-4.24726892850592
30
0
41
1
10
22.3460548204072
20
-4.18282530050556
30
0
41
1
10
22.3828342022894
20
-3.99210858087412
30
0
41
1
10
22.4192724724118
20
-3.86791385534707
30
0
41
1
10
22.4915668770228
20
-3.68617671433225
30
0
41
1
10
22.5186228939284
20
-3.62636144196389
30
0
41
1
10
22.563785116627
20
-3.53784632620477
30
0
41
1
10
22.5796308517714
20
-3.50850297216806
30
0
41
1
10
22.6125262727821
20
-3.45084054568315
30
0
41
1
10
22.6296107027865
20
-3.42244809917386
30
0
41
1
10
22.7181648770466
20
-3.28265307509767
30
0
41
1
10
22.7989540392786
20
-3.1776980317008
30
0
41
1
10
22.9350181769882
20
-3.03073949253621
30
0
41
1
10
22.9830046811156
20
-2.98338752714275
30
0
41
1
10
23.0835561859325
20
-2.89288697281651
30
0
41
1
10
23.135582968106
20
-2.85019928817471
30
0
41
1
10
23.2967320502189
20
-2.72959410811072
30
0
41
1
10
23.4108853648846
20
-2.65907731675989
30
0
41
1
10
23.592201269774
20
-2.56831619929494
30
0
41
1
10
23.6546641498496
20
-2.54045712296406
30
0
41
1
10
23.7812228437654
20
-2.49068556820942
30
0
41
1
10
23.8452305455852
20
-2.46876483285095
30
0
41
1
10
24.0393642693297
20
-2.41163790131017
30
0
41
1
10
24.1715870049192
20
-2.38500770890977
30
0
41
1
10
24.3065973835964
20
-2.36991441071467
30
0
0
SPLINE
5
164
100
AcDbEntity
8
1
62
256
6
ByLayer
370
18
48
1
60
0
100
AcDbSpline
70
4
71
3
72
10
73
6
40
0
40
0
40
0
40
0
40
0.5
40
0.5
40
1
40
1
40
1
40
1
41
1
10
22.3219308968313
20
-4.50173905779468
30
0
41
1
10
22.3220120896498
20
-4.5440167707163
30
0
41
1
10
22.3229723303855
20
-4.58768652791673
30
0
41
1
10
22.3267453043785
20
-4.67546109260675
30
0
41
1
10
22.3295406466094
20
-4.71953725517517
30
0
41
1
10
22.3332407879737
20
-4.76380145501949
30
0
0
SPLINE
5
165
100
AcDbEntity
8
1
62
256
6
ByLayer
370
18
48
1
60
0
100
AcDbSpline
70
4
71
3
72
19
73
15
40
0
40
0
40
0
40
0
40
0.125
40
0.125
40
0.250000000000001
40
0.375000000000001
40
0.375000000000001
40
0.500000000000002
40
0.500000000000002
40
0.750000000000006
40
0.750000000000006
40
0.875000000000003
40
0.875000000000003
40
1
40
1
40
1
40
1
41
1
10
23.6432526124062
20
-12.3913458217245
30
0
41
1
10
23.6425326569315
20
-12.4147935832513
30
0
41
1
10
23.6415162753155
20
-12.4385152363591
30
0
41
1
10
23.6388913743517
20
-12.4856992159932
30
0
41
1
10
23.6356685536892
20
-12.532847847492
30
0
41
1
10
23.6312019451503
20
-12.5799231908726
30
0
41
1
10
23.6260862805704
20
-12.6269602812497
30
0
41
1
10
23.6232335393944
20
-12.6501457419674
30
0
41
1
10
23.6140571204897
20
-12.7173016137876
30
0
41
1
10
23.6070482797129
20
-12.7595623833019
30
0
41
1
10
23.5954299271432
20
-12.8200915619857
30
0
41
1
10
23.5913611406238
20
-12.8398255513074
30
0
41
1
10
23.5830233995721
20
-12.8778270700263
30
0
41
1
10
23.5787382153687
20
-12.89618536762
30
0
41
1
10
23.5743470947679
20
-12.9140140329146
30
0
0
SPLINE
5
166
100
AcDbEntity
8
1
62
256
6
ByLayer
370
18
48
1
60
0
100
AcDbSpline
70
4
71
3
72
30
73
26
40
0
40
0
40
0
40
0
40
0.124999999999999
40
0.124999999999999
40
0.187499999999999
40
0.187499999999999
40
0.249999999999998
40
0.249999999999998
40
0.374999999999998
40
0.374999999999998
40
0.437499999999999
40
0.437499999999999
40
0.5
40
0.5
40
0.625
40
0.625
40
0.6875
40
0.6875
40
0.750000000000001
40
0.750000000000001
40
0.875000000000001
40
0.875000000000001
40
0.937500000000001
40
0.937500000000001
40
1
40
1
40
1
40
1
41
1
10
24.7983080223587
20
-2.33269561433824
30
0
41
1
10
24.901961583468
20
-2.3291204878812
30
0
41
1
10
25.0039014443213
20
-2.33364540527913
30
0
41
1
10
25.1538187158052
20
-2.35216822361684
30
0
41
1
10
25.2032895424726
20
-2.36030587695697
30
0
41
1
10
25.3011139193131
20
-2.38052430274064
30
0
41
1
10
25.3493841502913
20
-2.39260950416693
30
0
41
1
10
25.4899106656222
20
-2.43401210044243
30
0
41
1
10
25.5787434990905
20
-2.46861654991207
30
0
41
1
10
25.7040557854322
20
-2.53006229213162
30
0
41
1
10
25.7444968726995
20
-2.55213857488147
30
0
41
1
10
25.8225131573262
20
-2.5993542760803
30
0
41
1
10
25.8599016555175
20
-2.62439944289409
30
0
41
1
10
25.9657552208304
20
-2.70252039219454
30
0
41
1
10
26.0284868919222
20
-2.75891590973657
30
0
41
1
10
26.1099138937427
20
-2.84788288456008
30
0
41
1
10
26.1350484002488
20
-2.87842662699509
30
0
41
1
10
26.1802032542364
20
-2.93968935973055
30
0
41
1
10
26.2002037113509
20
-2.97033531408732
30
0
41
1
10
26.2526794940573
20
-3.06155151189648
30
0
41
1
10
26.277624477367
20
-3.12139214610673
30
0
41
1
10
26.3007133711331
20
-3.20673875408096
30
0
41
1
10
26.3060316411529
20
-3.23455366092068
30
0
41
1
10
26.3119955133699
20
-3.28781016451677
30
0
41
1
10
26.3126364327095
20
-3.31300950295804
30
0
41
1
10
26.3112496216912
20
-3.33673711885194
30
0
0
SPLINE
5
167
100
AcDbEntity
8
1
62
256
6
ByLayer
370
18
48
1
60
0
100
AcDbSpline
70
4
71
3
72
12
73
8
40
0
40
0
40
0
40
0
40
0.250000000000001
40
0.250000000000001
40
0.500000000000001
40
0.500000000000001
40
1
40
1
40
1
40
1
41
1
10
26.3665596463834
20
-3.55678387919758
30
0
41
1
10
26.4089163200628
20
-3.64342576178891
30
0
41
1
10
26.4558895254592
20
-3.72829704354859
30
0
41
1
10
26.5571189701203
20
-3.89193655734616
30
0
41
1
10
26.6114384759289
20
-3.97089198462362
30
0
41
1
10
26.7849877255375
20
-4.19934982176267
30
0
41
1
10
26.9147028175371
20
-4.34051494598617
30
0
41
1
10
27.0586215277705
20
-4.47016400422569
30
0
0
SPLINE
5
168
100
AcDbEntity
8
1
62
256
6
ByLayer
370
18
48
1
60
0
100
AcDbSpline
70
4
71
3
72
27
73
23
40
0
40
0
40
0
40
0
40
0.031250000000001
40
0.031250000000001
40
0.062500000000002
40
0.0937500000000031
40
0.0937500000000031
40
0.125000000000004
40
0.125000000000004
40
0.187500000000002
40
0.187500000000002
40
0.250000000000001
40
0.250000000000001
40
0.375000000000001
40
0.375000000000001
40
0.500000000000002
40
0.500000000000002
40
0.625000000000002
40
0.625000000000002
40
0.750000000000002
40
0.750000000000002
40
1
40
1
40
1
40
1
41
1
10
29.1742304959912
20
-4.8507395448791
30
0
41
1
10
29.1430711282305
20
-4.84817777852561
30
0
41
1
10
29.1113692080573
20
-4.84538080694736
30
0
41
1
10
29.048053163227
20
-4.83941755073403
30
0
41
1
10
28.9854060422765
20
-4.83314495063809
30
0
41
1
10
28.9239641541277
20
-4.82631499057095
30
0
41
1
10
28.8630669301416
20
-4.81923315053376
30
0
41
1
10
28.8327752842677
20
-4.81555153519267
30
0
41
1
10
28.7434802830555
20
-4.80427101459586
30
0
41
1
10
28.6865379395556
20
-4.79650888591311
30
0
41
1
10
28.5763813542159
20
-4.78063628781118
30
0
41
1
10
28.5229942804482
20
-4.77249516767517
30
0
41
1
10
28.3683543100299
20
-4.74787491713539
30
0
41
1
10
28.2738628394212
20
-4.73144734961627
30
0
41
1
10
28.0943154515289
20
-4.69857678399751
30
0
41
1
10
28.0094153931991
20
-4.68213353101149
30
0
41
1
10
27.8458734162953
20
-4.64923679069213
30
0
41
1
10
27.7672758759317
20
-4.63278323078419
30
0
41
1
10
27.6145332529409
20
-4.59986882957156
30
0
41
1
10
27.5407553878906
20
-4.58348380788649
30
0
41
1
10
27.325525430599
20
-4.53459437860982
30
0
41
1
10
27.1897923558048
20
-4.50229331628324
30
0
41
1
10
27.0586215277705
20
-4.47016400422569
30
0
0
SPLINE
5
169
100
AcDbEntity
8
1
62
256
6
ByLayer
370
18
48
1
60
0
100
AcDbSpline
70
4
71
3
72
32
73
28
40
0
40
0
40
0
40
0
40
0.0625000000000032
40
0.0625000000000032
40
0.125000000000006
40
0.125000000000006
40
0.25000000000001
40
0.25000000000001
40
0.281250000000009
40
0.281250000000009
40
0.312500000000008
40
0.312500000000008
40
0.375000000000007
40
0.375000000000007
40
0.500000000000007
40
0.500000000000007
40
0.562500000000007
40
0.562500000000007
40
0.625000000000007
40
0.625000000000007
40
0.750000000000006
40
0.750000000000006
40
0.875000000000005
40
0.875000000000005
40
0.937500000000002
40
0.937500000000002
40
1
40
1
40
1
40
1
41
1
10
20.8982757723455
20
-2.26801543605464
30
0
41
1
10
20.8470202658525
20
-2.31561118580979
30
0
41
1
10
20.7935370817816
20
-2.36114061064734
30
0
41
1
10
20.6819617184415
20
-2.44792462870029
30
0
41
1
10
20.6244626816986
20
-2.48869775874866
30
0
41
1
10
20.4482739272464
20
-2.60245785468544
30
0
41
1
10
20.3253798204947
20
-2.66737755659824
30
0
41
1
10
20.1649739312791
20
-2.73485767103253
30
0
41
1
10
20.1325507768949
20
-2.74766499662033
30
0
41
1
10
20.0670101179778
20
-2.77188030836948
30
0
41
1
10
20.0338477977569
20
-2.78329836147989
30
0
41
1
10
19.9343477550792
20
-2.81509621898698
30
0
41
1
10
19.8676779470794
20
-2.83315250518558
30
0
41
1
10
19.6667048698595
20
-2.87819170611843
30
0
41
1
10
19.531444994048
20
-2.8961159981487
30
0
41
1
10
19.3266838412879
20
-2.90468925742624
30
0
41
1
10
19.2581356625162
20
-2.90443427376505
30
0
41
1
10
19.1231950352306
20
-2.89783923701228
30
0
41
1
10
19.0564479065359
20
-2.89152333969892
30
0
41
1
10
18.858341090137
20
-2.86376021328525
30
0
41
1
10
18.7289871190639
20
-2.83352770527131
30
0
41
1
10
18.4766021746363
20
-2.74944499345639
30
0
41
1
10
18.3570206515292
20
-2.69677168301746
30
0
41
1
10
18.1870318822695
20
-2.60280292859284
30
0
41
1
10
18.1319423937417
20
-2.5689709154743
30
0
41
1
10
18.0249291373357
20
-2.49627372904325
30
0
41
1
10
17.9728286712235
20
-2.45725610536732
30
0
41
1
10
17.9228505721493
20
-2.41607686500345
30
0
0
SPLINE
5
16A
100
AcDbEntity
8
1
62
256
6
ByLayer
370
18
48
1
60
0
100
AcDbSpline
70
4
71
3
72
10
73
6
40
0
40
0
40
0
40
0
40
0.5
40
0.5
40
1
40
1
40
1
40
1
41
1
10
17.9228505721493
20
-2.41607686500345
30
0
41
1
10
16.7926872908442
20
-1.48488367692036
30
0
41
1
10
15.706217362104
20
-0.511862710604248
30
0
41
1
10
13.6201781488752
20
1.51574469826255
30
0
41
1
10
12.6206007327782
20
2.57032546923776
30
0
41
1
10
11.6643681438127
20
3.66568185705529
30
0
0
SPLINE
5
16B
100
AcDbEntity
8
1
62
256
6
ByLayer
370
18
48
1
60
0
100
AcDbSpline
70
4
71
3
72
8
73
4
40
0
40
0
40
0
40
0
40
1
40
1
40
1
40
1
41
1
10
32.5467409145787
20
6.8480178517915
30
0
41
1
10
32.5456678470753
20
6.86465204936738
30
0
41
1
10
32.5439240499846
20
6.88114972115426
30
0
41
1
10
32.5415076211101
20
6.89751091422954
30
0
0
SPLINE
5
16C
100
AcDbEntity
8
1
62
256
6
ByLayer
370
18
48
1
60
0
100
AcDbSpline
70
4
71
3
72
28
73
24
40
0
40
0
40
0
40
0
40
0.124999999999999
40
0.124999999999999
40
0.249999999999998
40
0.249999999999998
40
0.312499999999998
40
0.312499999999998
40
0.374999999999998
40
0.374999999999998
40
0.499999999999999
40
0.499999999999999
40
0.562499999999999
40
0.562499999999999
40
0.625
40
0.625
40
0.75
40
0.75
40
0.8125
40
0.8125
40
0.875
40
0.875
40
1
40
1
40
1
40
1
41
1
10
4.48798861244947
20
-10.4434768431448
30
0
41
1
10
4.46512417360194
20
-10.440366174403
30
0
41
1
10
4.43557455576186
20
-10.4363666416298
30
0
41
1
10
4.36370270133347
20
-10.4267685146738
30
0
41
1
10
4.32137959652977
20
-10.4211692976693
30
0
41
1
10
4.24796726562491
20
-10.4116297186172
30
0
41
1
10
4.22203403952147
20
-10.4082853200988
30
0
41
1
10
4.16772629426643
20
-10.4013473579683
30
0
41
1
10
4.13929010903033
20
-10.3977457571097
30
0
41
1
10
4.05018902248307
20
-10.3865774926376
30
0
41
1
10
3.98575761157824
20
-10.3786494713188
30
0
41
1
10
3.8813184282256
20
-10.3661285137122
30
0
41
1
10
3.84532864486016
20
-10.3618654839938
30
0
41
1
10
3.77202048012543
20
-10.3532985842527
30
0
41
1
10
3.73456274990806
20
-10.3489779279374
30
0
41
1
10
3.61981459759531
20
-10.3359309870976
30
0
41
1
10
3.54016525724595
20
-10.3271209852604
30
0
41
1
10
3.41582163997546
20
-10.3138178056254
30
0
41
1
10
3.37354124145594
20
-10.3093674940216
30
0
41
1
10
3.28879643983498
20
-10.3006005113928
30
0
41
1
10
3.24615196826179
20
-10.2962643445514
30
0
41
1
10
3.11741163842299
20
-10.2834072383251
30
0
41
1
10
3.03051429336094
20
-10.2750380911787
30
0
41
1
10
2.94250729038691
20
-10.2668906109298
30
0
0
SPLINE
5
16D
100
AcDbEntity
8
1
62
256
6
ByLayer
370
18
48
1
60
0
100
AcDbSpline
70
4
71
3
72
10
73
6
40
0
40
0
40
0
40
0
40
0.5
40
0.5
40
1
40
1
40
1
40
1
41
1
10
16.5911641803247
20
8.64780610614352
30
0
41
1
10
17.6517678664757
20
7.61380420258851
30
0
41
1
10
18.6683958299495
20
6.53702073915818
30
0
41
1
10
20.6137647591714
20
4.29819074929196
30
0
41
1
10
21.542498474113
20
3.13613544887639
30
0
41
1
10
22.4261587021361
20
1.93144099291982
30
0
0
SPLINE
5
16E
100
AcDbEntity
8
1
62
256
6
ByLayer
370
18
48
1
60
0
100
AcDbSpline
70
4
71
3
72
8
73
4
40
0
40
0
40
0
40
0
40
1
40
1
40
1
40
1
41
1
10
23.986559923133
20
-10.3034246639349
30
0
41
1
10
23.976834790127
20
-10.2920692135483
30
0
41
1
10
23.9654301432861
20
-10.2805754892354
30
0
41
1
10
23.9525123486747
20
-10.2689571878702
30
0
0
SPLINE
5
16F
100
AcDbEntity
8
1
62
256
6
ByLayer
370
18
48
1
60
0
100
AcDbSpline
70
4
71
3
72
8
73
4
40
0
40
0
40
0
40
0
40
1
40
1
40
1
40
1
41
1
10
23.9803500792386
20
-10.195101216096
30
0
41
1
10
23.9848427133369
20
-10.2309670031453
30
0
41
1
10
23.9869285568244
20
-10.2670732311122
30
0
41
1
10
23.986559923133
20
-10.3034246639349
30
0
0
SPLINE
5
170
100
AcDbEntity
8
1
62
256
6
ByLayer
370
18
48
1
60
0
100
AcDbSpline
70
4
71
3
72
24
73
20
40
0
40
0
40
0
40
0
40
0.24999999999999
40
0.24999999999999
40
0.374999999999982
40
0.374999999999982
40
0.499999999999974
40
0.499999999999974
40
0.562499999999976
40
0.562499999999976
40
0.624999999999978
40
0.624999999999978
40
0.749999999999981
40
0.749999999999981
40
0.812499999999983
40
0.812499999999983
40
0.874999999999984
40
0.874999999999984
40
1
40
1
40
1
40
1
41
1
10
26.6360228061543
20
-11.5372489078122
30
0
41
1
10
26.654555909079
20
-11.4756529469687
30
0
41
1
10
26.6674581407445
20
-11.4127882050873
30
0
41
1
10
26.6719415094376
20
-11.3160813501151
30
0
41
1
10
26.6708622741536
20
-11.284069862668
30
0
41
1
10
26.6621447977724
20
-11.2206180812199
30
0
41
1
10
26.6543106791443
20
-11.1887733596389
30
0
41
1
10
26.6369061951451
20
-11.1438125820177
30
0
41
1
10
26.6301774586839
20
-11.129247040207
30
0
41
1
10
26.6147681261055
20
-11.1010029771636
30
0
41
1
10
26.6060116914097
20
-11.087227232412
30
0
41
1
10
26.5772310859214
20
-11.0481000679116
30
0
41
1
10
26.5549028122919
20
-11.0250629852869
30
0
41
1
10
26.5172234712268
20
-10.994569652414
30
0
41
1
10
26.503975697633
20
-10.9851145198457
30
0
41
1
10
26.4769032267213
20
-10.9679161112241
30
0
41
1
10
26.4629911227754
20
-10.9600987267454
30
0
41
1
10
26.4202710771998
20
-10.9386927744847
30
0
41
1
10
26.3904869370091
20
-10.9271347344415
30
0
41
1
10
26.3596491406822
20
-10.9177683366494
30
0
0
SPLINE
5
171
100
AcDbEntity
8
1
62
256
6
ByLayer
370
13
48
1
60
0
100
AcDbSpline
70
4
71
3
72
8
73
4
40
0
40
0
40
0
40
0
40
1
40
1
40
1
40
1
41
1
10
30.0331323885587
20
-14.0806418542979
30
0
41
1
10
30.0116061131321
20
-14.3119283938335
30
0
41
1
10
29.9900798377054
20
-14.5432149333692
30
0
41
1
10
29.9685535622787
20
-14.7745014729049
30
0
0
SPLINE
5
172
100
AcDbEntity
8
1
62
256
6
ByLayer
370
18
48
1
60
0
100
AcDbSpline
70
4
71
3
72
8
73
4
40
0
40
0
40
0
40
0
40
1
40
1
40
1
40
1
41
1
10
33.0500349969461
20
-9.45521251060163
30
0
41
1
10
33.048527981033
20
-9.42090851023863
30
0
41
1
10
33.0493433903037
20
-9.38631993712596
30
0
41
1
10
33.0525272397651
20
-9.35144115292616
30
0
0
SPLINE
5
173
100
AcDbEntity
8
1
62
256
6
ByLayer
370
18
48
1
60
0
100
AcDbSpline
70
4
71
3
72
8
73
4
40
0
40
0
40
0
40
0
40
1
40
1
40
1
40
1
41
1
10
22.8399676473989
20
-8.51936902541422
30
0
41
1
10
22.9433963253501
20
-8.52533293122437
30
0
41
1
10
23.0473763714289
20
-8.53150002256967
30
0
41
1
10
23.1518531692672
20
-8.53785017268658
30
0
0
SPLINE
5
174
100
AcDbEntity
8
1
62
256
6
ByLayer
370
18
48
1
60
0
100
AcDbSpline
70
4
71
3
72
34
73
30
40
0
40
0
40
0
40
0
40
0.0625000000000007
40
0.0625000000000007
40
0.0937500000000014
40
0.0937500000000014
40
0.125000000000002
40
0.125000000000002
40
0.187500000000003
40
0.187500000000003
40
0.218750000000004
40
0.218750000000004
40
0.250000000000005
40
0.250000000000005
40
0.312500000000006
40
0.312500000000006
40
0.375000000000008
40
0.375000000000008
40
0.437500000000009
40
0.437500000000009
40
0.500000000000011
40
0.500000000000011
40
0.625000000000009
40
0.625000000000009
40
0.687500000000007
40
0.687500000000007
40
0.750000000000005
40
0.750000000000005
40
1
40
1
40
1
40
1
41
1
10
25.9873817440312
20
-13.7875325686886
30
0
41
1
10
25.9772551288036
20
-13.8241633257024
30
0
41
1
10
25.9698166941934
20
-13.8611179985054
30
0
41
1
10
25.9627017286557
20
-13.9170359033392
30
0
41
1
10
25.9610068715829
20
-13.9357565673782
30
0
41
1
10
25.9590113572199
20
-13.9733655073384
30
0
41
1
10
25.9587237296983
20
-13.9922085627501
30
0
41
1
10
25.9599412029798
20
-14.0475913802013
30
0
41
1
10
25.9634809364333
20
-14.0834622779123
30
0
41
1
10
25.9726024145252
20
-14.135818205363
30
0
41
1
10
25.9763032898431
20
-14.1530969651358
30
0
41
1
10
25.9848077262293
20
-14.1865996453285
30
0
41
1
10
25.9896150234835
20
-14.202878772249
30
0
41
1
10
26.0055797790188
20
-14.2504167259453
30
0
41
1
10
26.0183251579707
20
-14.2804845166902
30
0
41
1
10
26.0472920543245
20
-14.3371347011025
30
0
41
1
10
26.0632822253536
20
-14.3633138950561
30
0
41
1
10
26.0978114428848
20
-14.412151926161
30
0
41
1
10
26.1163545044906
20
-14.434804619602
30
0
41
1
10
26.155729515544
20
-14.4770491949671
30
0
41
1
10
26.176664215645
20
-14.4967069551781
30
0
41
1
10
26.2414060766315
20
-14.5505686100154
30
0
41
1
10
26.2873871519957
20
-14.580102674867
30
0
41
1
10
26.3598516808927
20
-14.6171518079379
30
0
41
1
10
26.3845955417092
20
-14.6282735761655
30
0
41
1
10
26.4351979331672
20
-14.6482795906449
30
0
41
1
10
26.4611223845933
20
-14.6571785296975
30
0
41
1
10
26.5921008683953
20
-14.6961004555895
30
0
41
1
10
26.7018216047345
20
-14.7102641928399
30
0
41
1
10
26.8159174702431
20
-14.7114271613885
30
0
0
SPLINE
5
175
100
AcDbEntity
8
1
62
256
6
ByLayer
370
18
48
1
60
0
100
AcDbSpline
70
4
71
3
72
12
73
8
40
0
40
0
40
0
40
0
40
0.49999999999999
40
0.49999999999999
40
0.749999999999995
40
0.749999999999995
40
1
40
1
40
1
40
1
41
1
10
23.1565607645785
20
-9.01602049578537
30
0
41
1
10
23.1066480316966
20
-8.9548295367868
30
0
41
1
10
23.0559550613032
20
-8.89119627633403
30
0
41
1
10
22.9789429494245
20
-8.79270177445204
30
0
41
1
10
22.9531052504027
20
-8.75934545864257
30
0
41
1
10
22.9023264943432
20
-8.69321337203905
30
0
41
1
10
22.8772248936699
20
-8.66023313149955
30
0
41
1
10
22.8523973222365
20
-8.62733459462851
30
0
0
SPLINE
5
176
100
AcDbEntity
8
1
62
256
6
ByLayer
370
13
48
1
60
0
100
AcDbSpline
70
4
71
3
72
22
73
18
40
0
40
0
40
0
40
0
40
0.250000000000014
40
0.250000000000014
40
0.500000000000028
40
0.500000000000028
40
0.562500000000025
40
0.562500000000025
40
0.625000000000022
40
0.625000000000022
40
0.687500000000019
40
0.687500000000019
40
0.750000000000016
40
0.750000000000016
40
0.875000000000008
40
0.875000000000008
40
1
40
1
40
1
40
1
41
1
10
27.7232259801424
20
-10.1652457478952
30
0
41
1
10
27.7775438272344
20
-10.1604669396331
30
0
41
1
10
27.8311314945613
20
-10.1516932528189
30
0
41
1
10
27.9356083961954
20
-10.1204193238397
30
0
41
1
10
27.9872430371812
20
-10.0975176795191
30
0
41
1
10
28.0430103070739
20
-10.0546779999422
30
0
41
1
10
28.0538021255896
20
-10.0453122890397
30
0
41
1
10
28.0739238744867
20
-10.0253412122051
30
0
41
1
10
28.0833096530359
20
-10.0147033925066
30
0
41
1
10
28.1006222761702
20
-9.99202105175036
30
0
41
1
10
28.1086036556856
20
-9.97987154088693
30
0
41
1
10
28.1226783103701
20
-9.95459645101869
30
0
41
1
10
28.1287621939576
20
-9.94152941516083
30
0
41
1
10
28.1442967935477
20
-9.90110545665846
30
0
41
1
10
28.1510309744239
20
-9.87219493393482
30
0
41
1
10
28.1576718132678
20
-9.81390849423872
30
0
41
1
10
28.1577040062497
20
-9.78425564415693
30
0
41
1
10
28.155221219716
20
-9.75485340756589
30
0
0
SPLINE
5
177
100
AcDbEntity
8
1
62
256
6
ByLayer
370
13
48
1
60
0
100
AcDbSpline
70
4
71
3
72
8
73
4
40
0
40
0
40
0
40
0
40
1
40
1
40
1
40
1
41
1
10
28.655912199072
20
-9.78076905647066
30
0
41
1
10
28.6565706578833
20
-9.79707702940885
30
0
41
1
10
28.6572060903053
20
-9.81347768393141
30
0
41
1
10
28.6578513548569
20
-9.82997064373845
30
0
0
SPLINE
5
178
100
AcDbEntity
8
1
62
256
6
ByLayer
370
18
48
1
60
0
100
AcDbSpline
70
4
71
3
72
12
73
8
40
0
40
0
40
0
40
0
40
0.499999999999996
40
0.499999999999996
40
0.749999999999998
40
0.749999999999998
40
1
40
1
40
1
40
1
41
1
10
33.484740244608
20
-10.4307620765522
30
0
41
1
10
33.5147672879255
20
-10.4815507659756
30
0
41
1
10
33.5504116103544
20
-10.5373120292136
30
0
41
1
10
33.610880682021
20
-10.6271528123839
30
0
41
1
10
33.6322465418701
20
-10.6581698944232
30
0
41
1
10
33.676236054972
20
-10.7207505057195
30
0
41
1
10
33.6989827951306
20
-10.7524989109834
30
0
41
1
10
33.722445594047
20
-10.7846835308648
30
0
0
SPLINE
5
179
100
AcDbEntity
8
1
62
256
6
ByLayer
370
18
48
1
60
0
100
AcDbSpline
70
4
71
3
72
22
73
18
40
0
40
0
40
0
40
0
40
0.125
40
0.125
40
0.25
40
0.25
40
0.375
40
0.375
40
0.5
40
0.5
40
0.625
40
0.625
40
0.75
40
0.75
40
0.875
40
0.875
40
1
40
1
40
1
40
1
41
1
10
24.4285128635749
20
-5.92786329856466
30
0
41
1
10
24.4071361374365
20
-5.92637310727608
30
0
41
1
10
24.3859466021622
20
-5.92727645334341
30
0
41
1
10
24.3439262572783
20
-5.93369514718401
30
0
41
1
10
24.3228768691558
20
-5.93933021660297
30
0
41
1
10
24.2829493229118
20
-5.95487803587693
30
0
41
1
10
24.2639061130631
20
-5.96476416318313
30
0
41
1
10
24.2277017917142
20
-5.98887083563343
30
0
41
1
10
24.210959713251
20
-6.00285255001231
30
0
41
1
10
24.1808247218792
20
-6.03396346344539
30
0
41
1
10
24.1671726758879
20
-6.05142240734469
30
0
41
1
10
24.1440793155741
20
-6.08847078314255
30
0
41
1
10
24.1345681302985
20
-6.10802798307989
30
0
41
1
10
24.1196533828356
20
-6.149227347363
30
0
41
1
10
24.1143869142459
20
-6.17065300211007
30
0
41
1
10
24.1085099943962
20
-6.21359728334664
30
0
41
1
10
24.1078301349986
20
-6.23548899631928
30
0
41
1
10
24.1095244844137
20
-6.25727000797724
30
0
0
SPLINE
5
17A
100
AcDbEntity
8
1
62
256
6
ByLayer
370
13
48
1
60
0
100
AcDbSpline
70
4
71
1
72
4
73
2
40
0
40
0
40
1
40
1
41
1
10
33.7378201267351
20
-11.0060997112192
30
0
41
1
10
33.0439291799765
20
-11.0704609073757
30
0
0
SPLINE
5
17B
100
AcDbEntity
8
1
62
256
6
ByLayer
370
18
48
1
60
0
100
AcDbSpline
70
4
71
3
72
8
73
4
40
0
40
0
40
0
40
0
40
1
40
1
40
1
40
1
41
1
10
33.0525272397651
20
-9.35144115292616
30
0
41
1
10
33.0479196883988
20
-9.34980192086812
30
0
41
1
10
33.0433362827155
20
-9.34816411959122
30
0
41
1
10
33.0387767285251
20
-9.34652773166289
30
0
0
SPLINE
5
17C
100
AcDbEntity
8
1
62
256
6
ByLayer
370
13
48
1
60
0
100
AcDbSpline
70
4
71
3
72
22
73
18
40
0
40
0
40
0
40
0
40
0.124999999999994
40
0.124999999999994
40
0.249999999999989
40
0.249999999999989
40
0.312499999999988
40
0.312499999999988
40
0.374999999999987
40
0.374999999999987
40
0.499999999999989
40
0.499999999999989
40
0.624999999999992
40
0.624999999999992
40
0.749999999999994
40
0.749999999999994
40
1
40
1
40
1
40
1
41
1
10
28.1515942594203
20
-9.70476892421064
30
0
41
1
10
28.1602315435861
20
-9.65389554064495
30
0
41
1
10
28.172305069351
20
-9.60355577866625
30
0
41
1
10
28.203209467839
20
-9.50623715384955
30
0
41
1
10
28.2220379270375
20
-9.45909577814606
30
0
41
1
10
28.2555572545249
20
-9.39076459604479
30
0
41
1
10
28.2676113546683
20
-9.36838509374456
30
0
41
1
10
28.2935373490474
20
-9.32444836657547
30
0
41
1
10
28.3074823874467
20
-9.30279094630433
30
0
41
1
10
28.3515516496761
20
-9.23993412328852
30
0
41
1
10
28.3837764173837
20
-9.20094100546365
30
0
41
1
10
28.4534870051086
20
-9.12837152039597
30
0
41
1
10
28.4909744801519
20
-9.09479682302464
30
0
41
1
10
28.5709460915109
20
-9.03282961688728
30
0
41
1
10
28.6136762440985
20
-9.00434571096076
30
0
41
1
10
28.7451383072907
20
-8.92852754911462
30
0
41
1
10
28.8380928571629
20
-8.88976879332267
30
0
41
1
10
28.9351654686795
20
-8.86041279529462
30
0
0
SPLINE
5
17D
100
AcDbEntity
8
1
62
256
6
ByLayer
370
18
48
1
60
0
100
AcDbSpline
70
4
71
3
72
8
73
4
40
0
40
0
40
0
40
0
40
1
40
1
40
1
40
1
41
1
10
25.0909975186346
20
-3.47087122560512
30
0
41
1
10
25.1345605888627
20
-3.47352813794157
30
0
41
1
10
25.1781941962495
20
-3.47751634929205
30
0
41
1
10
25.2219002071473
20
-3.48271985007207
30
0
0
SPLINE
5
17E
100
AcDbEntity
8
1
62
256
6
ByLayer
370
18
48
1
60
0
100
AcDbSpline
70
4
71
3
72
8
73
4
40
0
40
0
40
0
40
0
40
1
40
1
40
1
40
1
41
1
10
33.729713008235
20
-10.889948704565
30
0
41
1
10
33.6201405153205
20
-10.8807709489529
30
0
41
1
10
33.510742249316
20
-10.8717695689548
30
0
41
1
10
33.4015009519858
20
-10.8629270934929
30
0
0
SPLINE
5
17F
100
AcDbEntity
8
1
62
256
6
ByLayer
370
13
48
1
60
0
100
AcDbSpline
70
4
71
3
72
8
73
4
40
0
40
0
40
0
40
0
40
1
40
1
40
1
40
1
41
1
10
30.11673504548
20
-14.0873441384734
30
0
41
1
10
30.0887971321868
20
-14.0850472238886
30
0
41
1
10
30.0609212622516
20
-14.0828124623532
30
0
41
1
10
30.0331323885587
20
-14.0806418542979
30
0
0
SPLINE
5
180
100
AcDbEntity
8
1
62
256
6
ByLayer
370
18
48
1
60
0
100
AcDbSpline
70
4
71
3
72
28
73
24
40
0
40
0
40
0
40
0
40
0.0625000000000036
40
0.0625000000000036
40
0.125000000000007
40
0.125000000000007
40
0.187500000000011
40
0.187500000000011
40
0.250000000000014
40
0.250000000000014
40
0.312500000000018
40
0.312500000000018
40
0.375000000000021
40
0.375000000000021
40
0.437500000000018
40
0.437500000000018
40
0.500000000000014
40
0.500000000000014
40
0.625000000000012
40
0.625000000000012
40
0.750000000000009
40
0.750000000000009
40
1
40
1
40
1
40
1
41
1
10
31.4087452316317
20
-6.05410194781393
30
0
41
1
10
31.4211890402885
20
-6.01902357479747
30
0
41
1
10
31.430085702125
20
-5.9829747235004
30
0
41
1
10
31.4405555866566
20
-5.90886753707517
30
0
41
1
10
31.4420414743431
20
-5.8703603689857
30
0
41
1
10
31.4373800124717
20
-5.79487005379914
30
0
41
1
10
31.4313620634769
20
-5.75757842787954
30
0
41
1
10
31.412385639044
20
-5.68384932705524
30
0
41
1
10
31.3995491983185
20
-5.6480342687322
30
0
41
1
10
31.3685412764049
20
-5.57949254886978
30
0
41
1
10
31.3501452043881
20
-5.546311808111
30
0
41
1
10
31.3092435348287
20
-5.48354100275751
30
0
41
1
10
31.286848347106
20
-5.45402330119759
30
0
41
1
10
31.2387886806606
20
-5.39810088670913
30
0
41
1
10
31.2131192445359
20
-5.37170103397426
30
0
41
1
10
31.1588707428623
20
-5.32164610173709
30
0
41
1
10
31.1303264692353
20
-5.29805762692374
30
0
41
1
10
31.0426260941655
20
-5.23231698994351
30
0
41
1
10
30.9808232510964
20
-5.19454779666336
30
0
41
1
10
30.8518895074958
20
-5.12841002157617
30
0
41
1
10
30.7843072686614
20
-5.09996355252767
30
0
41
1
10
30.5792493332514
20
-5.02839902738546
30
0
41
1
10
30.4386039847475
20
-4.99799419180437
30
0
41
1
10
30.2947124730516
20
-4.98086291905798
30
0
0
SPLINE
5
181
100
AcDbEntity
8
1
62
256
6
ByLayer
370
13
48
1
60
0
100
AcDbSpline
70
4
71
3
72
8
73
4
40
0
40
0
40
0
40
0
40
1
40
1
40
1
40
1
41
1
10
28.155221219716
20
-9.75485340756589
30
0
41
1
10
28.1538109304642
20
-9.73815214965305
30
0
41
1
10
28.1526112685285
20
-9.72145634481714
30
0
41
1
10
28.1515942594202
20
-9.70476892421064
30
0
0
SPLINE
5
182
100
AcDbEntity
8
1
62
256
6
ByLayer
370
18
48
1
60
0
100
AcDbSpline
70
4
71
3
72
8
73
4
40
0
40
0
40
0
40
0
40
1
40
1
40
1
40
1
41
1
10
23.9525123486748
20
-10.2689571878702
30
0
41
1
10
23.9487640105778
20
-10.2655859218809
30
0
41
1
10
23.9449559897245
20
-10.2637504845147
30
0
41
1
10
23.941060001382
20
-10.263434451809
30
0
0
SPLINE
5
183
100
AcDbEntity
8
1
62
256
6
ByLayer
370
18
48
1
60
0
100
AcDbSpline
70
4
71
3
72
12
73
8
40
0
40
0
40
0
40
0
40
0.267591030155123
40
0.267591030155123
40
0.633795515077561
40
0.633795515077561
40
1
40
1
40
1
40
1
41
1
10
23.9349878403559
20
-10.2641463606929
30
0
41
1
10
23.9315086504024
20
-10.2652259929249
30
0
41
1
10
23.9279516826396
20
-10.2674523377526
30
0
41
1
10
23.9192984120452
20
-10.2754157830648
30
0
41
1
10
23.9140640985341
20
-10.2822088895743
30
0
41
1
10
23.9028876268638
20
-10.2999371946506
30
0
41
1
10
23.8969364058955
20
-10.3108650442483
30
0
41
1
10
23.8903074169136
20
-10.3238430011188
30
0
0
SPLINE
5
184
100
AcDbEntity
8
1
62
256
6
ByLayer
370
13
48
1
60
0
100
AcDbSpline
70
4
71
3
72
22
73
18
40
0
40
0
40
0
40
0
40
0.249999999999979
40
0.249999999999979
40
0.499999999999959
40
0.499999999999959
40
0.562499999999964
40
0.562499999999964
40
0.624999999999969
40
0.624999999999969
40
0.687499999999974
40
0.687499999999974
40
0.749999999999979
40
0.749999999999979
40
0.87499999999999
40
0.87499999999999
40
1
40
1
40
1
40
1
41
1
10
29.1361090535434
20
-9.3955911393324
30
0
41
1
10
29.0777448574826
20
-9.39825328914858
30
0
41
1
10
29.020096220203
20
-9.4049026692322
30
0
41
1
10
28.9072226148942
20
-9.43178425491939
30
0
41
1
10
28.8511910202024
20
-9.45238583830357
30
0
41
1
10
28.7898574834744
20
-9.49231378540264
30
0
41
1
10
28.7779394107351
20
-9.50109034901888
30
0
41
1
10
28.7555988512964
20
-9.519900758766
30
0
41
1
10
28.7451154180661
20
-9.52996439169283
30
0
41
1
10
28.7256291285075
20
-9.55150968039766
30
0
41
1
10
28.7165632351233
20
-9.56309187849155
30
0
41
1
10
28.7003854864925
20
-9.58726683300364
30
0
41
1
10
28.6932864605283
20
-9.5998028445475
30
0
41
1
10
28.6748071818098
20
-9.63868643171867
30
0
41
1
10
28.6662271261577
20
-9.66663137127966
30
0
41
1
10
28.6562732862624
20
-9.72318476923599
30
0
41
1
10
28.6547529952649
20
-9.75205919035452
30
0
41
1
10
28.655912199072
20
-9.78076905647063
30
0
0
SPLINE
5
185
100
AcDbEntity
8
1
62
256
6
ByLayer
370
18
48
1
60
0
100
AcDbSpline
70
4
71
3
72
24
73
20
40
0
40
0
40
0
40
0
40
0.249999999999986
40
0.249999999999986
40
0.374999999999979
40
0.374999999999979
40
0.499999999999973
40
0.499999999999973
40
0.562499999999975
40
0.562499999999975
40
0.624999999999978
40
0.624999999999978
40
0.749999999999989
40
0.749999999999989
40
0.812499999999991
40
0.812499999999991
40
0.874999999999992
40
0.874999999999992
40
1
40
1
40
1
40
1
41
1
10
30.6126382116595
20
-8.22724568142127
30
0
41
1
10
30.5901019230351
20
-8.28674756266679
30
0
41
1
10
30.572856505999
20
-8.34734037000484
30
0
41
1
10
30.5610337618664
20
-8.44020797356029
30
0
41
1
10
30.5595737541285
20
-8.47089117463617
30
0
41
1
10
30.5629762847555
20
-8.53156269049006
30
0
41
1
10
30.5679948142491
20
-8.56193456814003
30
0
41
1
10
30.5811523166647
20
-8.60467373573516
30
0
41
1
10
30.5864584926948
20
-8.61849513150833
30
0
41
1
10
30.5990081799979
20
-8.64524330470866
30
0
41
1
10
30.6063167097866
20
-8.6582616456441
30
0
41
1
10
30.6308173721091
20
-8.69514995780634
30
0
41
1
10
30.6503951530287
20
-8.71674824865366
30
0
41
1
10
30.6840857814717
20
-8.74515507284309
30
0
41
1
10
30.6960297555397
20
-8.75392818359387
30
0
41
1
10
30.7206032331908
20
-8.7698193606268
30
0
41
1
10
30.7333106280172
20
-8.77700655780515
30
0
41
1
10
30.7725337653857
20
-8.79658326588839
30
0
41
1
10
30.8001420277679
20
-8.80700309709795
30
0
41
1
10
30.8289294972086
20
-8.81529696215642
30
0
0
SPLINE
5
186
100
AcDbEntity
8
1
62
256
6
ByLayer
370
18
48
1
60
0
100
AcDbSpline
70
4
71
3
72
22
73
18
40
0
40
0
40
0
40
0
40
0.125
40
0.125
40
0.25
40
0.25
40
0.375
40
0.375
40
0.5
40
0.5
40
0.625
40
0.625
40
0.75
40
0.75
40
0.875
40
0.875
40
1
40
1
40
1
40
1
41
1
10
32.0951153494979
20
-13.4573642473372
30
0
41
1
10
32.1166222514443
20
-13.4589225340188
30
0
41
1
10
32.1379668843755
20
-13.4581003200456
30
0
41
1
10
32.1803416789983
20
-13.4518670400284
30
0
41
1
10
32.2015930792872
20
-13.4463376438378
30
0
41
1
10
32.2419423834981
20
-13.4310104475426
30
0
41
1
10
32.2612062888836
20
-13.4212397667971
30
0
41
1
10
32.2978564659883
20
-13.3973663229583
30
0
41
1
10
32.3148185671242
20
-13.3834997031626
30
0
41
1
10
32.3453613899119
20
-13.3526021276838
30
0
41
1
10
32.3592047658526
20
-13.3352432691099
30
0
41
1
10
32.3826202378075
20
-13.2983633909703
30
0
41
1
10
32.3922630787254
20
-13.2788750605321
30
0
41
1
10
32.4073697825914
20
-13.2377761092744
30
0
41
1
10
32.41269448837
20
-13.2163809185923
30
0
41
1
10
32.4186047167
20
-13.1734540611313
30
0
41
1
10
32.4192602469924
20
-13.1515496215237
30
0
41
1
10
32.4175005831439
20
-13.129734443671
30
0
0
SPLINE
5
187
100
AcDbEntity
8
1
62
256
6
ByLayer
370
18
48
1
60
0
100
AcDbSpline
70
4
71
3
72
28
73
24
40
0
40
0
40
0
40
0
40
0.0702979228867264
40
0.0702979228867264
40
0.140595845773453
40
0.140595845773453
40
0.210893768660179
40
0.210893768660179
40
0.281191691546906
40
0.281191691546906
40
0.351489614433632
40
0.351489614433632
40
0.421787537320359
40
0.421787537320359
40
0.492085460207085
40
0.492085460207085
40
0.562383383093812
40
0.562383383093812
40
0.702979228867265
40
0.702979228867265
40
0.843575074640719
40
0.843575074640719
40
1
40
1
40
1
40
1
41
1
10
33.4795809737328
20
-5.33417871896455
30
0
41
1
10
33.4866287494284
20
-5.29738655655729
30
0
41
1
10
33.4922792216834
20
-5.26030304181202
30
0
41
1
10
33.5006552496593
20
-5.1855288158342
30
0
41
1
10
33.5033689461477
20
-5.14741337788874
30
0
41
1
10
33.5055651508841
20
-5.07410522662212
30
0
41
1
10
33.5051184422122
20
-5.03858523401868
30
0
41
1
10
33.5013813663701
20
-4.96968030815694
30
0
41
1
10
33.4981084562786
20
-4.93688418889587
30
0
41
1
10
33.4893425639605
20
-4.875322543457
30
0
41
1
10
33.4837847939077
20
-4.84615275699207
30
0
41
1
10
33.4710077956755
20
-4.79210838965588
30
0
41
1
10
33.4638275171456
20
-4.76728430401144
30
0
41
1
10
33.4482388755973
20
-4.72130497895421
30
0
41
1
10
33.4398281239743
20
-4.70015544098675
30
0
41
1
10
33.4220105930443
20
-4.66109614415342
30
0
41
1
10
33.4126152710833
20
-4.64324533547003
30
0
41
1
10
33.3838285904308
20
-4.5950155922842
30
0
41
1
10
33.3636522693694
20
-4.56943678386639
30
0
41
1
10
33.3222531068365
20
-4.5285086319808
30
0
41
1
10
33.300889048959
20
-4.51316696022514
30
0
41
1
10
33.2562206321052
20
-4.49058930001695
30
0
41
1
10
33.2328821230906
20
-4.48418711650677
30
0
41
1
10
33.2098406815407
20
-4.4825689216639
30
0
0
SPLINE
5
188
100
AcDbEntity
8
1
62
256
6
ByLayer
370
18
48
1
60
0
100
AcDbSpline
70
4
71
3
72
24
73
20
40
0
40
0
40
0
40
0
40
0.124999999999997
40
0.124999999999997
40
0.187499999999997
40
0.187499999999997
40
0.249999999999996
40
0.249999999999996
40
0.374999999999997
40
0.374999999999997
40
0.499999999999998
40
0.499999999999998
40
0.624999999999998
40
0.624999999999998
40
0.749999999999999
40
0.749999999999999
40
0.874999999999999
40
0.874999999999999
40
1
40
1
40
1
40
1
41
1
10
23.8903074169135
20
-10.3238430011188
30
0
41
1
10
23.8810192418059
20
-10.342027001165
30
0
41
1
10
23.8713951469894
20
-10.3641121541247
30
0
41
1
10
23.8565649223733
20
-10.4031880488592
30
0
41
1
10
23.8515326508868
20
-10.4172800349964
30
0
41
1
10
23.8414841831509
20
-10.4471381206407
30
0
41
1
10
23.8364728924463
20
-10.4628801140415
30
0
41
1
10
23.82150987868
20
-10.5124879029187
30
0
41
1
10
23.8116284215602
20
-10.5487203457729
30
0
41
1
10
23.7922308437871
20
-10.6275801093826
30
0
41
1
10
23.7826736718547
20
-10.6704859679579
30
0
41
1
10
23.7647607515548
20
-10.7598257234038
30
0
41
1
10
23.7563199247284
20
-10.8065619126924
30
0
41
1
10
23.7405972854588
20
-10.9041879472402
30
0
41
1
10
23.7332709904922
20
-10.9555137794013
30
0
41
1
10
23.7203658559834
20
-11.0590667679092
30
0
41
1
10
23.7147297218007
20
-11.1115573117943
30
0
41
1
10
23.7051041734302
20
-11.2179594430787
30
0
41
1
10
23.7011012442467
20
-11.2721693784759
30
0
41
1
10
23.6980123594041
20
-11.3261771729942
30
0
0
SPLINE
5
189
100
AcDbEntity
8
1
62
256
6
ByLayer
370
13
48
1
60
0
100
AcDbSpline
70
4
71
3
72
22
73
18
40
0
40
0
40
0
40
0
40
0.124999999999997
40
0.124999999999997
40
0.249999999999994
40
0.249999999999994
40
0.312499999999994
40
0.312499999999994
40
0.374999999999994
40
0.374999999999994
40
0.499999999999994
40
0.499999999999994
40
0.624999999999994
40
0.624999999999994
40
0.749999999999994
40
0.749999999999994
40
1
40
1
40
1
40
1
41
1
10
28.6578513548569
20
-9.82997064373845
30
0
41
1
10
28.6497785136401
20
-9.88113928926612
30
0
41
1
10
28.6387737815242
20
-9.93203814071563
30
0
41
1
10
28.61104721347
20
-10.0310190990777
30
0
41
1
10
28.5943251522303
20
-10.0792623384772
30
0
41
1
10
28.564800092516
20
-10.1496829351797
30
0
41
1
10
28.5542169082305
20
-10.1728318784
30
0
41
1
10
28.5315265536795
20
-10.2184611793987
30
0
41
1
10
28.5193557935451
20
-10.2410467304622
30
0
41
1
10
28.4809999872753
20
-10.3068922810706
30
0
41
1
10
28.4530858505087
20
-10.3481403041097
30
0
41
1
10
28.3929866576424
20
-10.4257375414204
30
0
41
1
10
28.360800193977
20
-10.4620852152679
30
0
41
1
10
28.2924415963402
20
-10.5301272270551
30
0
41
1
10
28.256062873155
20
-10.5619335865791
30
0
41
1
10
28.1446223209316
20
-10.6482250666235
30
0
41
1
10
28.0664361672493
20
-10.6947092190058
30
0
41
1
10
27.9854946395249
20
-10.7325034399882
30
0
0
SPLINE
5
18A
100
AcDbEntity
8
1
62
256
6
ByLayer
370
13
48
1
60
0
100
AcDbSpline
70
4
71
1
72
4
73
2
40
0
40
0
40
1
40
1
41
1
10
33.0439291799765
20
-11.0704609073757
30
0
41
1
10
33.3125416305315
20
-14.3500872674314
30
0
0
SPLINE
5
18B
100
AcDbEntity
8
1
62
256
6
ByLayer
370
18
48
1
60
0
100
AcDbSpline
70
4
71
3
72
24
73
20
40
0
40
0
40
0
40
0
40
0.124999999999981
40
0.124999999999981
40
0.187499999999977
40
0.187499999999977
40
0.249999999999973
40
0.249999999999973
40
0.374999999999977
40
0.374999999999977
40
0.499999999999982
40
0.499999999999982
40
0.624999999999986
40
0.624999999999986
40
0.749999999999991
40
0.749999999999991
40
0.874999999999995
40
0.874999999999995
40
1
40
1
40
1
40
1
41
1
10
32.9566573690015
20
-10.9291184894617
30
0
41
1
10
32.9071324566345
20
-10.9487899734823
30
0
41
1
10
32.8593389784972
20
-10.9723543083323
30
0
41
1
10
32.7902666661978
20
-11.0136143768085
30
0
41
1
10
32.7675819319671
20
-11.0284318028806
30
0
41
1
10
32.7236809296186
20
-11.059706267387
30
0
41
1
10
32.7024775703301
20
-11.076138687877
30
0
41
1
10
32.6410483842682
20
-11.127759601356
30
0
41
1
10
32.6029896017288
20
-11.1652569814993
30
0
41
1
10
32.5326843725116
20
-11.2464579638592
30
0
41
1
10
32.5003458522787
20
-11.2904430211486
30
0
41
1
10
32.4438268842055
20
-11.3816433729895
30
0
41
1
10
32.4193177324075
20
-11.4291720213212
30
0
41
1
10
32.3777975165013
20
-11.5280831624994
30
0
41
1
10
32.3607286362576
20
-11.579902395457
30
0
41
1
10
32.3353774120693
20
-11.6840876786124
30
0
41
1
10
32.3269100874124
20
-11.7367234645656
30
0
41
1
10
32.3183353410498
20
-11.8430719027675
30
0
41
1
10
32.3182679171071
20
-11.8970801459584
30
0
41
1
10
32.3225776926598
20
-11.9507129173232
30
0
0
SPLINE
5
18C
100
AcDbEntity
8
1
62
256
6
ByLayer
370
13
48
1
60
0
100
AcDbSpline
70
4
71
1
72
4
73
2
40
0
40
0
40
1
40
1
41
1
10
30.1167350454799
20
-14.0873441384734
30
0
41
1
10
33.3125416305315
20
-14.3500872674314
30
0
0
SPLINE
5
18D
100
AcDbEntity
8
1
62
256
6
ByLayer
370
18
48
1
60
0
100
AcDbSpline
70
4
71
3
72
8
73
4
40
0
40
0
40
0
40
0
40
1
40
1
40
1
40
1
41
1
10
33.722445594047
20
-10.7846835308648
30
0
41
1
10
33.7245814236399
20
-10.819083777638
30
0
41
1
10
33.7270020143461
20
-10.8541676538763
30
0
41
1
10
33.729713008235
20
-10.8899487045649
30
0
0
SPLINE
5
18E
100
AcDbEntity
8
1
62
256
6
ByLayer
370
18
48
1
60
0
100
AcDbSpline
70
4
71
3
72
12
73
8
40
0
40
0
40
0
40
0
40
0.500000000000002
40
0.500000000000002
40
0.750000000000001
40
0.750000000000001
40
1
40
1
40
1
40
1
41
1
10
33.1002587774838
20
-9.78043797982406
30
0
41
1
10
33.0702317341663
20
-9.72964929040057
30
0
41
1
10
33.0522240240739
20
-9.67658749232939
30
0
41
1
10
33.0401959477772
20
-9.59416110241935
30
0
41
1
10
33.0387766405421
20
-9.56619704569741
30
0
41
1
10
33.0408374301053
20
-9.51066490752004
30
0
41
1
10
33.0442852468402
20
-9.48292584898002
30
0
41
1
10
33.050034996946
20
-9.45521251060163
30
0
0
SPLINE
5
18F
100
AcDbEntity
8
1
62
256
6
ByLayer
370
18
48
1
60
0
100
AcDbSpline
70
4
71
3
72
12
73
8
40
0
40
0
40
0
40
0
40
0.500000000000023
40
0.500000000000023
40
0.750000000000011
40
0.750000000000011
40
1
40
1
40
1
40
1
41
1
10
33.4015009519858
20
-10.8629270934929
30
0
41
1
10
33.325919023069
20
-10.8568091567039
30
0
41
1
10
33.2507612306982
20
-10.8593330332769
30
0
41
1
10
33.1387148509127
20
-10.8758603616597
30
0
41
1
10
33.1013386633645
20
-10.8835667302655
30
0
41
1
10
33.0280266483565
20
-10.9031787050054
30
0
41
1
10
32.9920033971079
20
-10.9150789123306
30
0
41
1
10
32.9566573690015
20
-10.9291184894617
30
0
0
SPLINE
5
190
100
AcDbEntity
8
1
62
256
6
ByLayer
370
18
48
1
60
0
100
AcDbSpline
70
4
71
3
72
12
73
8
40
0
40
0
40
0
40
0
40
0.49999999999999
40
0.49999999999999
40
0.749999999999995
40
0.749999999999995
40
1
40
1
40
1
40
1
41
1
10
23.1518531692672
20
-8.53785017268658
30
0
41
1
10
23.2241386336534
20
-8.54224371804423
30
0
41
1
10
23.2959206220153
20
-8.53795394729795
30
0
41
1
10
23.4030408529009
20
-8.51884973423341
30
0
41
1
10
23.4388048112642
20
-8.51030000324167
30
0
41
1
10
23.5092036607222
20
-8.48916414202697
30
0
41
1
10
23.5439215691026
20
-8.47658110555676
30
0
41
1
10
23.5782502572086
20
-8.46200935452751
30
0
0
SPLINE
5
191
100
AcDbEntity
8
1
62
256
6
ByLayer
370
18
48
1
60
0
100
AcDbSpline
70
4
71
3
72
24
73
20
40
0
40
0
40
0
40
0
40
0.125000000000002
40
0.125000000000002
40
0.187500000000002
40
0.187500000000002
40
0.250000000000002
40
0.250000000000002
40
0.375000000000001
40
0.375000000000001
40
0.500000000000001
40
0.500000000000001
40
0.625000000000001
40
0.625000000000001
40
0.750000000000001
40
0.750000000000001
40
0.875
40
0.875
40
1
40
1
40
1
40
1
41
1
10
23.5782502572086
20
-8.46200935452754
30
0
41
1
10
23.6263497286685
20
-8.44159221768302
30
0
41
1
10
23.6729083309347
20
-8.41738191520579
30
0
41
1
10
23.7403672127495
20
-8.37527785593974
30
0
41
1
10
23.7625520635479
20
-8.36019893920118
30
0
41
1
10
23.8055378040401
20
-8.32844569820929
30
0
41
1
10
23.8263256964808
20
-8.31179594564557
30
0
41
1
10
23.8866174151416
20
-8.25958001923019
30
0
41
1
10
23.9240624995238
20
-8.22176161156364
30
0
41
1
10
23.9933551902079
20
-8.14003096696891
30
0
41
1
10
24.0252948382329
20
-8.09583725831644
30
0
41
1
10
24.0811925439985
20
-8.00431192212034
30
0
41
1
10
24.1054742140192
20
-7.95666427732314
30
0
41
1
10
24.1466512877993
20
-7.85757363737096
30
0
41
1
10
24.1636044836101
20
-7.80569388950627
30
0
41
1
10
24.1888113288129
20
-7.70143308122894
30
0
41
1
10
24.1972482390526
20
-7.64878138539419
30
0
41
1
10
24.2058346420033
20
-7.54243904479176
30
0
41
1
10
24.205944691473
20
-7.48845309915413
30
0
41
1
10
24.2017222044248
20
-7.43486598869302
30
0
0
SPLINE
5
192
100
AcDbEntity
8
1
62
256
6
ByLayer
370
13
48
1
60
0
100
AcDbSpline
70
4
71
1
72
4
73
2
40
0
40
0
40
1
40
1
41
1
10
33.3125416305315
20
-14.3500872674314
30
0
41
1
10
33.3674095373279
20
-15.0199975157409
30
0
0
SPLINE
5
193
100
AcDbEntity
8
1
62
256
6
ByLayer
370
18
48
1
60
0
100
AcDbSpline
70
4
71
3
72
12
73
8
40
0
40
0
40
0
40
0
40
0.500000000000007
40
0.500000000000007
40
0.750000000000003
40
0.750000000000003
40
1
40
1
40
1
40
1
41
1
10
23.7956686701993
20
-9.79954051944424
30
0
41
1
10
23.8455814030812
20
-9.8607314784428
30
0
41
1
10
23.8850345576629
20
-9.92501145901718
30
0
41
1
10
23.9311752155852
20
-10.0252822525031
30
0
41
1
10
23.9443009734937
20
-10.0593699920512
30
0
41
1
10
23.9657318644331
20
-10.1271907055163
30
0
41
1
10
23.9741396698846
20
-10.1611314789913
30
0
41
1
10
23.9803500792387
20
-10.195101216096
30
0
0
SPLINE
5
194
100
AcDbEntity
8
1
62
256
6
ByLayer
370
18
48
1
60
0
100
AcDbSpline
70
4
71
3
72
8
73
4
40
0
40
0
40
0
40
0
40
1
40
1
40
1
40
1
41
1
10
22.8523973222365
20
-8.62733459462851
30
0
41
1
10
22.8475039450813
20
-8.59149186566145
30
0
41
1
10
22.8433557983004
20
-8.55550429916195
30
0
41
1
10
22.8399676473989
20
-8.51936902541422
30
0
0
SPLINE
5
195
100
AcDbEntity
8
1
62
256
6
ByLayer
370
13
48
1
60
0
100
AcDbSpline
70
4
71
1
72
4
73
2
40
0
40
0
40
1
40
1
41
1
10
33.3125416305315
20
-14.3500872674314
30
0
41
1
10
33.9824455368411
20
-14.4051633941496
30
0
0
LINE
5
70
100
AcDbEntity
8
81
62
256
6
ByLayer
370
18
48
1
60
0
100
AcDbLine
10
34
20
-15.0375
30
0
11
44
21
-15.0375
31
0
39
0
210
0
220
0
230
1
0
LINE
5
71
100
AcDbEntity
8
1
62
256
6
ByLayer
370
18
48
1
60
0
100
AcDbLine
10
19.167702
20
-2.963239
30
0
11
19.700562
21
-2.868297
31
0
39
0
210
0
220
0
230
1
0
LINE
5
73
100
AcDbEntity
8
1
62
256
6
ByLayer
370
18
48
1
60
0
100
AcDbLine
10
22.781231
20
1.170771
30
0
11
22.643808
21
1.723479
31
0
39
0
210
0
220
0
230
1
0
LINE
5
74
100
AcDbEntity
8
1
62
256
6
ByLayer
370
18
48
1
60
0
100
AcDbLine
10
32.462108
20
7.253657
30
0
11
21.345592
21
13.823477
31
0
39
0
210
0
220
0
230
1
0
LINE
5
75
100
AcDbEntity
8
1
62
256
6
ByLayer
370
18
48
1
60
0
100
AcDbLine
10
26.387992
20
-3.817385
30
0
11
26.965505
21
-4.382719
31
0
39
0
210
0
220
0
230
1
0
LINE
5
76
100
AcDbEntity
8
1
62
256
6
ByLayer
370
18
48
1
60
0
100
AcDbLine
10
33.175191
20
-3.239887
30
0
11
33.175876
21
-2.840027
31
0
39
0
210
0
220
0
230
1
0
LINE
5
77
100
AcDbEntity
8
1
62
256
6
ByLayer
370
18
48
1
60
0
100
AcDbLine
10
33.174605
20
-2.79994
30
0
11
32.54677
21
6.847532
31
0
39
0
210
0
220
0
230
1
0
LINE
5
78
100
AcDbEntity
8
1
62
256
6
ByLayer
370
18
48
1
60
0
100
AcDbLine
10
23.600529
20
-14.450695
30
0
11
26.718877
21
-14.707069
31
0
39
0
210
0
220
0
230
1
0
LINE
5
79
100
AcDbEntity
8
1
62
256
6
ByLayer
370
18
48
1
60
0
100
AcDbLine
10
23.592138
20
-12.834934
30
0
11
23.609196
21
-12.836337
31
0
39
0
210
0
220
0
230
1
0
LINE
5
7A
100
AcDbEntity
8
1
62
256
6
ByLayer
370
18
48
1
60
0
100
AcDbLine
10
33.259858
20
-4.493728
30
0
11
33.209732
21
-4.475202
31
0
39
0
210
0
220
0
230
1
0
LINE
5
7B
100
AcDbEntity
8
1
62
256
6
ByLayer
370
18
48
1
60
0
100
AcDbLine
10
25.090635
20
-3.470912
30
0
11
22.699279
21
-3.328906
31
0
39
0
210
0
220
0
230
1
0
LINE
5
7C
100
AcDbEntity
8
80
62
256
6
ByLayer
370
18
48
1
60
0
100
AcDbLine
10
0
20
0
30
0
11
-6.6
21
0
31
0
39
0
210
0
220
0
230
1
0
LINE
5
7D
100
AcDbEntity
8
1
62
256
6
ByLayer
370
18
48
1
60
0
100
AcDbLine
10
25.685112
20
-2.887006
30
0
11
24.350238
21
-2.743688
31
0
39
0
210
0
220
0
230
1
0
LINE
5
7E
100
AcDbEntity
8
1
62
256
6
ByLayer
370
18
48
1
60
0
100
AcDbLine
10
23.171769
20
-14.260903
30
0
11
22.693419
21
-14.462092
31
0
39
0
210
0
220
0
230
1
0
LINE
5
7F
100
AcDbEntity
8
1
62
256
6
ByLayer
370
18
48
1
60
0
100
AcDbLine
10
4.487989
20
11.14839
30
0
11
5.204776
21
13.823477
31
0
39
0
210
0
220
0
230
1
0
LINE
5
80
100
AcDbEntity
8
1
62
256
6
ByLayer
370
13
48
1
60
0
100
AcDbLine
10
22.30742
20
-8.109443
30
0
11
22.479648
21
-7.984828
31
0
39
0
210
0
220
0
230
1
0
LINE
5
81
100
AcDbEntity
8
1
62
256
6
ByLayer
370
18
48
1
60
0
100
AcDbLine
10
23.270058
20
-10.29791
30
0
11
23.322644
21
-12.595894
31
0
39
0
210
0
220
0
230
1
0
LINE
5
82
100
AcDbEntity
8
1
62
256
6
ByLayer
370
18
48
1
60
0
100
AcDbLine
10
33.247844
20
-5.23224
30
0
11
33.232728
21
-5.078628
31
0
39
0
210
0
220
0
230
1
0
LINE
5
83
100
AcDbEntity
8
1
62
256
6
ByLayer
370
13
48
1
60
0
100
AcDbLine
10
24.473948
20
-3.200887
30
0
11
22.883778
21
-3.097719
31
0
39
0
210
0
220
0
230
1
0
LINE
5
84
100
AcDbEntity
8
1
62
256
6
ByLayer
370
18
48
1
60
0
100
AcDbLine
10
32.789
20
2.005656
30
0
11
33.243546
21
-4.996015
31
0
39
0
210
0
220
0
230
1
0
LINE
5
85
100
AcDbEntity
8
1
62
256
6
ByLayer
370
13
48
1
60
0
100
AcDbLine
10
29.246495
20
-4.7509
30
0
11
29.17423
21
-4.85074
31
0
39
0
210
0
220
0
230
1
0
LINE
5
86
100
AcDbEntity
8
1
62
256
6
ByLayer
370
13
48
1
60
0
100
AcDbLine
10
33.169418
20
-2.751122
30
0
11
32.541508
21
6.897511
31
0
39
0
210
0
220
0
230
1
0
LINE
5
87
100
AcDbEntity
8
1
62
256
6
ByLayer
370
13
48
1
60
0
100
AcDbLine
10
22.333241
20
-4.763801
30
0
11
22.069878
21
-4.954357
31
0
39
0
210
0
220
0
230
1
0
LINE
5
88
100
AcDbEntity
8
1
62
256
6
ByLayer
370
13
48
1
60
0
100
AcDbLine
10
32.691273
20
3.548763
30
0
11
32.756998
21
3.541706
31
0
39
0
210
0
220
0
230
1
0
LINE
5
89
100
AcDbEntity
8
1
62
256
6
ByLayer
370
18
48
1
60
0
100
AcDbLine
10
21.067425
20
13.823477
30
0
11
6.341754
21
13.823477
31
0
39
0
210
0
220
0
230
1
0
LINE
5
8A
100
AcDbEntity
8
1
62
256
6
ByLayer
370
13
48
1
60
0
100
AcDbLine
10
25.539615
20
-2.581375
30
0
11
26.31125
21
-3.336737
31
0
39
0
210
0
220
0
230
1
0
LINE
5
8B
100
AcDbEntity
8
1
62
256
6
ByLayer
370
18
48
1
60
0
100
AcDbLine
10
0
20
-9.9625
30
0
11
0.372277
21
-9.9625
31
0
39
0
210
0
220
0
230
1
0
LINE
5
8C
100
AcDbEntity
8
1
62
256
6
ByLayer
370
13
48
1
60
0
100
AcDbLine
10
24.370643
20
-2.227107
30
0
11
24.306597
21
-2.369914
31
0
39
0
210
0
220
0
230
1
0
LINE
5
8D
100
AcDbEntity
8
1
62
256
6
ByLayer
370
18
48
1
60
0
100
AcDbLine
10
30.961316
20
-4.997728
30
0
11
31.123218
21
-5.057564
31
0
39
0
210
0
220
0
230
1
0
LINE
5
8E
100
AcDbEntity
8
1
62
256
6
ByLayer
370
18
48
1
60
0
100
AcDbLine
10
22.069878
20
-4.954357
30
0
11
22.30742
21
-8.109443
31
0
39
0
210
0
220
0
230
1
0
LINE
5
8F
100
AcDbEntity
8
1
62
256
6
ByLayer
370
13
48
1
60
0
100
AcDbLine
10
10.693547
20
4.689968
30
0
11
9.19229
21
4.783853
31
0
39
0
210
0
220
0
230
1
0
LINE
5
90
100
AcDbEntity
8
1
62
256
6
ByLayer
370
13
48
1
60
0
100
AcDbLine
10
23.223744
20
-2.79375
30
0
11
23.218617
21
-2.826912
31
0
39
0
210
0
220
0
230
1
0
LINE
5
91
100
AcDbEntity
8
1
62
256
6
ByLayer
370
18
48
1
60
0
100
AcDbLine
10
33.243434
20
-5.061223
30
0
11
33.243546
21
-4.996015
31
0
39
0
210
0
220
0
230
1
0
LINE
5
92
100
AcDbEntity
8
1
62
256
6
ByLayer
370
18
48
1
60
0
100
AcDbLine
10
33.232728
20
-5.078628
30
0
11
29.246495
21
-4.7509
31
0
39
0
210
0
220
0
230
1
0
LINE
5
93
100
AcDbEntity
8
1
62
256
6
ByLayer
370
13
48
1
60
0
100
AcDbLine
10
24.798308
20
-2.332696
30
0
11
24.866038
21
-2.181675
31
0
39
0
210
0
220
0
230
1
0
LINE
5
94
100
AcDbEntity
8
1
62
256
6
ByLayer
370
18
48
1
60
0
100
AcDbLine
10
33.247883
20
-5.209159
30
0
11
33.247844
21
-5.23224
31
0
39
0
210
0
220
0
230
1
0
LINE
5
95
100
AcDbEntity
8
1
62
256
6
ByLayer
370
18
48
1
60
0
100
AcDbLine
10
32.436472
20
7.178764
30
0
11
33.232728
21
-5.078628
31
0
39
0
210
0
220
0
230
1
0
LINE
5
96
100
AcDbEntity
8
1
62
256
6
ByLayer
370
18
48
1
60
0
100
AcDbLine
10
32.593906
20
5.762077
30
0
11
32.593146
21
5.318767
31
0
39
0
210
0
220
0
230
1
0
LINE
5
97
100
AcDbEntity
8
1
62
256
6
ByLayer
370
18
48
1
60
0
100
AcDbLine
10
21.067425
20
13.823477
30
0
11
21.345592
21
13.823477
31
0
39
0
210
0
220
0
230
1
0
LINE
5
98
100
AcDbEntity
8
1
62
256
6
ByLayer
370
18
48
1
60
0
100
AcDbLine
10
0
20
-9.9625
30
0
11
0
21
9.9625
31
0
39
0
210
0
220
0
230
1
0
LINE
5
99
100
AcDbEntity
8
1
62
256
6
ByLayer
370
18
48
1
60
0
100
AcDbLine
10
0
20
9.9625
30
0
11
2.942507
21
9.9625
31
0
39
0
210
0
220
0
230
1
0
LINE
5
9A
100
AcDbEntity
8
1
62
256
6
ByLayer
370
18
48
1
60
0
100
AcDbLine
10
31.123218
20
-5.057564
30
0
11
33.247844
21
-5.23224
31
0
39
0
210
0
220
0
230
1
0
LINE
5
9B
100
AcDbEntity
8
1
62
256
6
ByLayer
370
18
48
1
60
0
100
AcDbLine
10
6.341754
20
13.823477
30
0
11
5.204776
21
13.823477
31
0
39
0
210
0
220
0
230
1
0
LINE
5
9C
100
AcDbEntity
8
1
62
256
6
ByLayer
370
18
48
1
60
0
100
AcDbLine
10
23.266134
20
-12.929078
30
0
11
22.691834
21
-14.461951
31
0
39
0
210
0
220
0
230
1
0
LINE
5
9D
100
AcDbEntity
8
1
62
256
6
ByLayer
370
13
48
1
60
0
100
AcDbLine
10
23.016237
20
-9.6897
30
0
11
23.192409
21
-9.155322
31
0
39
0
210
0
220
0
230
1
0
LINE
5
9E
100
AcDbEntity
8
1
62
256
6
ByLayer
370
18
48
1
60
0
100
AcDbLine
10
30.95154
20
-4.996861
30
0
11
29.17423
21
-4.85074
31
0
39
0
210
0
220
0
230
1
0
LINE
5
9F
100
AcDbEntity
8
1
62
256
6
ByLayer
370
13
48
1
60
0
100
AcDbLine
10
4.487989
20
11.14839
30
0
11
4.487989
21
-10.443477
31
0
39
0
210
0
220
0
230
1
0
LINE
5
A0
100
AcDbEntity
8
1
62
256
6
ByLayer
370
13
48
1
60
0
100
AcDbLine
10
2.942507
20
-10.266891
30
0
11
2.942507
21
9.9625
31
0
39
0
210
0
220
0
230
1
0
LINE
5
A1
100
AcDbEntity
8
1
62
256
6
ByLayer
370
13
48
1
60
0
100
AcDbLine
10
23.620784
20
-10.074147
30
0
11
23.270058
21
-10.29791
31
0
39
0
210
0
220
0
230
1
0
LINE
5
A2
100
AcDbEntity
8
1
62
256
6
ByLayer
370
13
48
1
60
0
100
AcDbLine
10
32.830618
20
2.394919
30
0
11
32.76336
21
2.40214
31
0
39
0
210
0
220
0
230
1
0
LINE
5
A3
100
AcDbEntity
8
1
62
256
6
ByLayer
370
18
48
1
60
0
100
AcDbLine
10
24.452345
20
-3.433007
30
0
11
24.473948
21
-3.200887
31
0
39
0
210
0
220
0
230
1
0
LINE
5
A4
100
AcDbEntity
8
1
62
256
6
ByLayer
370
13
48
1
60
0
100
AcDbLine
10
23.574347
20
-12.914014
30
0
11
23.266134
21
-12.929078
31
0
39
0
210
0
220
0
230
1
0
LINE
5
A5
100
AcDbEntity
8
1
62
256
6
ByLayer
370
18
48
1
60
0
100
AcDbLine
10
24.866038
20
-2.181675
30
0
11
24.370643
21
-2.227107
31
0
39
0
210
0
220
0
230
1
0
LINE
5
A6
100
AcDbEntity
8
1
62
256
6
ByLayer
370
13
48
1
60
0
100
AcDbLine
10
23.322644
20
-12.595894
30
0
11
23.643253
21
-12.391346
31
0
39
0
210
0
220
0
230
1
0
LINE
5
A7
100
AcDbEntity
8
1
62
256
6
ByLayer
370
13
48
1
60
0
100
AcDbLine
10
22.426159
20
1.931441
30
0
11
22.197834
21
2.69132
31
0
39
0
210
0
220
0
230
1
0
LINE
5
A8
100
AcDbEntity
8
1
62
256
6
ByLayer
370
13
48
1
60
0
100
AcDbLine
10
15.721526
20
9.523963
30
0
11
15.307563
21
10.706877
31
0
39
0
210
0
220
0
230
1
0
LINE
5
A9
100
AcDbEntity
8
1
62
256
6
ByLayer
370
13
48
1
60
0
100
AcDbLine
10
33.169418
20
-2.751122
30
0
11
33.168934
21
-3.033286
31
0
39
0
210
0
220
0
230
1
0
LINE
5
AA
100
AcDbEntity
8
1
62
256
6
ByLayer
370
13
48
1
60
0
100
AcDbLine
10
26.36656
20
-3.556784
30
0
11
27.287524
21
-3.474402
31
0
39
0
210
0
220
0
230
1
0
LINE
5
AB
100
AcDbEntity
8
1
62
256
6
ByLayer
370
18
48
1
60
0
100
AcDbLine
10
5.89524
20
-10.663163
30
0
11
6.341754
21
13.823477
31
0
39
0
210
0
220
0
230
1
0
LINE
5
AC
100
AcDbEntity
8
1
62
256
6
ByLayer
370
13
48
1
60
0
100
AcDbLine
10
16.932543
20
-2.414656
30
0
11
17.922851
21
-2.416077
31
0
39
0
210
0
220
0
230
1
0
LINE
5
AD
100
AcDbEntity
8
1
62
256
6
ByLayer
370
18
48
1
60
0
100
AcDbLine
10
33.168934
20
-3.033286
30
0
11
32.830618
21
2.394919
31
0
39
0
210
0
220
0
230
1
0
LINE
5
AE
100
AcDbEntity
8
1
62
256
6
ByLayer
370
18
48
1
60
0
100
AcDbLine
10
22.42967
20
-5.917371
30
0
11
22.333241
21
-4.763801
31
0
39
0
210
0
220
0
230
1
0
LINE
5
AF
100
AcDbEntity
8
SK1
62
256
6
ByLayer
370
18
48
1
60
0
100
AcDbLine
10
-69
20
-6.9625
30
0
11
-69
21
6.9625
31
0
39
0
210
0
220
0
230
1
0
LINE
5
B1
100
AcDbEntity
8
SK1
62
256
6
ByLayer
370
18
48
1
60
0
100
AcDbLine
10
-66
20
-9.9625
30
0
11
-69
21
-6.9625
31
0
39
0
210
0
220
0
230
1
0
LINE
5
B2
100
AcDbEntity
8
SK1
62
256
6
ByLayer
370
18
48
1
60
0
100
AcDbLine
10
-66
20
9.9625
30
0
11
-69
21
6.9625
31
0
39
0
210
0
220
0
230
1
0
LINE
5
B3
100
AcDbEntity
8
SK1
62
256
6
ByLayer
370
18
48
1
60
0
100
AcDbLine
10
-66
20
-9.9625
30
0
11
0
21
-9.9625
31
0
39
0
210
0
220
0
230
1
0
LINE
5
B4
100
AcDbEntity
8
SK1
62
256
6
ByLayer
370
18
48
1
60
0
100
AcDbLine
10
0
20
-9.9625
30
0
11
0
21
9.9625
31
0
39
0
210
0
220
0
230
1
0
LINE
5
B5
100
AcDbEntity
8
SK1
62
256
6
ByLayer
370
18
48
1
60
0
100
AcDbLine
10
-66
20
9.9625
30
0
11
0
21
9.9625
31
0
39
0
210
0
220
0
230
1
0
LINE
5
B6
100
AcDbEntity
8
1
62
256
6
ByLayer
370
18
48
1
60
0
100
AcDbLine
10
30.828929
20
-8.815297
30
0
11
33.050035
21
-9.455213
31
0
39
0
210
0
220
0
230
1
0
LINE
5
B7
100
AcDbEntity
8
1
62
256
6
ByLayer
370
18
48
1
60
0
100
AcDbLine
10
24.001156
20
-10.304625
30
0
11
23.759517
21
-13.604369
31
0
39
0
210
0
220
0
230
1
0
LINE
5
B8
100
AcDbEntity
8
1
62
256
6
ByLayer
370
18
48
1
60
0
100
AcDbLine
10
33.13732
20
-15.03485
30
0
11
30.052156
21
-14.781204
31
0
39
0
210
0
220
0
230
1
0
LINE
5
B9
100
AcDbEntity
8
1
62
256
6
ByLayer
370
18
48
1
60
0
100
AcDbLine
10
22.839968
20
-8.519369
30
0
11
22.835192
21
-8.517604
31
0
39
0
210
0
220
0
230
1
0
LINE
5
BA
100
AcDbEntity
8
1
62
256
6
ByLayer
370
18
48
1
60
0
100
AcDbLine
10
23.166294
20
-3.797547
30
0
11
22.589981
21
-3.904063
31
0
39
0
210
0
220
0
230
1
0
LINE
5
BB
100
AcDbEntity
8
1
62
256
6
ByLayer
370
13
48
1
60
0
100
AcDbLine
10
23.759517
20
-13.604369
30
0
11
25.987382
21
-13.787533
31
0
39
0
210
0
220
0
230
1
0
LINE
5
BC
100
AcDbEntity
8
1
62
256
6
ByLayer
370
18
48
1
60
0
100
AcDbLine
10
22.643171
20
-8.42252
30
0
11
22.852397
21
-8.627335
31
0
39
0
210
0
220
0
230
1
0
LINE
5
BD
100
AcDbEntity
8
1
62
256
6
ByLayer
370
18
48
1
60
0
100
AcDbLine
10
27.507637
20
-6.146576
30
0
11
29.180482
21
-6.355873
31
0
39
0
210
0
220
0
230
1
0
LINE
5
BE
100
AcDbEntity
8
1
62
256
6
ByLayer
370
18
48
1
60
0
100
AcDbLine
10
23.756101
20
-11.330953
30
0
11
23.669286
21
-12.516465
31
0
39
0
210
0
220
0
230
1
0
LINE
5
BF
100
AcDbEntity
8
1
62
256
6
ByLayer
370
13
48
1
60
0
100
AcDbLine
10
33.526918
20
-6.179886
30
0
11
31.408745
21
-6.054102
31
0
39
0
210
0
220
0
230
1
0
LINE
5
C0
100
AcDbEntity
8
1
62
256
6
ByLayer
370
13
48
1
60
0
100
AcDbLine
10
24.109524
20
-6.25727
30
0
11
24.096099
21
-6.252308
31
0
39
0
210
0
220
0
230
1
0
LINE
5
C1
100
AcDbEntity
8
1
62
256
6
ByLayer
370
13
48
1
60
0
100
AcDbLine
10
24.182716
20
-7.427842
30
0
11
24.201722
21
-7.434866
31
0
39
0
210
0
220
0
230
1
0
LINE
5
C2
100
AcDbEntity
8
1
62
256
6
ByLayer
370
13
48
1
60
0
100
AcDbLine
10
23.628253
20
-12.513092
30
0
11
23.669286
21
-12.516465
31
0
39
0
210
0
220
0
230
1
0
LINE
5
C3
100
AcDbEntity
8
1
62
256
6
ByLayer
370
18
48
1
60
0
100
AcDbLine
10
26.210918
20
-6.026958
30
0
11
24.406752
21
-5.919821
31
0
39
0
210
0
220
0
230
1
0
LINE
5
C4
100
AcDbEntity
8
1
62
256
6
ByLayer
370
18
48
1
60
0
100
AcDbLine
10
26.359649
20
-10.917768
30
0
11
23.98035
21
-10.195101
31
0
39
0
210
0
220
0
230
1
0
LINE
5
C5
100
AcDbEntity
8
1
62
256
6
ByLayer
370
13
48
1
60
0
100
AcDbLine
10
22.395497
20
-3.988757
30
0
11
23.416039
21
-4.365929
31
0
39
0
210
0
220
0
230
1
0
LINE
5
C6
100
AcDbEntity
8
1
62
256
6
ByLayer
370
18
48
1
60
0
100
AcDbLine
10
27.64602
20
-4.659734
30
0
11
28.44483
21
-4.759676
31
0
39
0
210
0
220
0
230
1
0
LINE
5
C7
100
AcDbEntity
8
1
62
256
6
ByLayer
370
18
48
1
60
0
100
AcDbLine
10
29.169068
20
-4.850289
30
0
11
29.318866
21
-4.869031
31
0
39
0
210
0
220
0
230
1
0
LINE
5
C8
100
AcDbEntity
8
1
62
256
6
ByLayer
370
13
48
1
60
0
100
AcDbLine
10
27.507637
20
-6.146576
30
0
11
27.64602
21
-4.659734
31
0
39
0
210
0
220
0
230
1
0
LINE
5
C9
100
AcDbEntity
8
1
62
256
6
ByLayer
370
13
48
1
60
0
100
AcDbLine
10
23.151853
20
-8.53785
30
0
11
23.147205
21
-8.536132
31
0
39
0
210
0
220
0
230
1
0
LINE
5
CA
100
AcDbEntity
8
1
62
256
6
ByLayer
370
18
48
1
60
0
100
AcDbLine
10
33.73782
20
-11.0061
30
0
11
33.99737
21
-14.175082
31
0
39
0
210
0
220
0
230
1
0
LINE
5
CB
100
AcDbEntity
8
1
62
256
6
ByLayer
370
18
48
1
60
0
100
AcDbLine
10
33.100259
20
-9.780438
30
0
11
33.48474
21
-10.430762
31
0
39
0
210
0
220
0
230
1
0
LINE
5
CC
100
AcDbEntity
8
1
62
256
6
ByLayer
370
18
48
1
60
0
100
AcDbLine
10
23.416039
20
-4.365929
30
0
11
26.349301
21
-4.540116
31
0
39
0
210
0
220
0
230
1
0
LINE
5
CD
100
AcDbEntity
8
1
62
256
6
ByLayer
370
18
48
1
60
0
100
AcDbLine
10
23.59234
20
-14.446401
30
0
11
23.268586
21
-14.122068
31
0
39
0
210
0
220
0
230
1
0
LINE
5
CE
100
AcDbEntity
8
1
62
256
6
ByLayer
370
13
48
1
60
0
100
AcDbLine
10
30.052156
20
-14.781204
30
0
11
30.116735
21
-14.087344
31
0
39
0
210
0
220
0
230
1
0
LINE
5
CF
100
AcDbEntity
8
1
62
256
6
ByLayer
370
13
48
1
60
0
100
AcDbLine
10
26.210918
20
-6.026958
30
0
11
26.349301
21
-4.540116
31
0
39
0
210
0
220
0
230
1
0
LINE
5
D0
100
AcDbEntity
8
1
62
256
6
ByLayer
370
18
48
1
60
0
100
AcDbLine
10
22.608759
20
-3.467665
30
0
11
23.166506
21
-3.673797
31
0
39
0
210
0
220
0
230
1
0
LINE
5
D1
100
AcDbEntity
8
1
62
256
6
ByLayer
370
13
48
1
60
0
100
AcDbLine
10
24.428513
20
-5.927863
30
0
11
24.406752
21
-5.919821
31
0
39
0
210
0
220
0
230
1
0
LINE
5
D2
100
AcDbEntity
8
1
62
256
6
ByLayer
370
18
48
1
60
0
100
AcDbLine
10
28.87684
20
-14.725092
30
0
11
27.603886
21
-14.72498
31
0
39
0
210
0
220
0
230
1
0
LINE
5
D3
100
AcDbEntity
8
1
62
256
6
ByLayer
370
13
48
1
60
0
100
AcDbLine
10
23.283162
20
-13.965461
30
0
11
23.268586
21
-14.122068
31
0
39
0
210
0
220
0
230
1
0
LINE
5
D4
100
AcDbEntity
8
1
62
256
6
ByLayer
370
13
48
1
60
0
100
AcDbLine
10
30.116735
20
-14.087344
30
0
11
30.186665
21
-13.335993
31
0
39
0
210
0
220
0
230
1
0
LINE
5
D5
100
AcDbEntity
8
1
62
256
6
ByLayer
370
18
48
1
60
0
100
AcDbLine
10
23.98656
20
-10.303425
30
0
11
24.001156
21
-10.304625
31
0
39
0
210
0
220
0
230
1
0
LINE
5
D6
100
AcDbEntity
8
1
62
256
6
ByLayer
370
13
48
1
60
0
100
AcDbLine
10
30.294712
20
-4.980863
30
0
11
31.034589
21
-5.024799
31
0
39
0
210
0
220
0
230
1
0
LINE
5
D7
100
AcDbEntity
8
1
62
256
6
ByLayer
370
13
48
1
60
0
100
AcDbLine
10
33.245791
20
-5.156107
30
0
11
33.359574
21
-5.162864
31
0
39
0
210
0
220
0
230
1
0
LINE
5
D8
100
AcDbEntity
8
1
62
256
6
ByLayer
370
13
48
1
60
0
100
AcDbLine
10
29.011362
20
-13.279742
30
0
11
28.87684
21
-14.725092
31
0
39
0
210
0
220
0
230
1
0
LINE
5
D9
100
AcDbEntity
8
1
62
256
6
ByLayer
370
18
48
1
60
0
100
AcDbLine
10
33.052527
20
-9.351441
30
0
11
33.03865
21
-9.350617
31
0
39
0
210
0
220
0
230
1
0
LINE
5
DA
100
AcDbEntity
8
1
62
256
6
ByLayer
370
13
48
1
60
0
100
AcDbLine
10
22.594102
20
-5.245635
30
0
11
22.366485
21
-5.161512
31
0
39
0
210
0
220
0
230
1
0
LINE
5
DB
100
AcDbEntity
8
1
62
256
6
ByLayer
370
13
48
1
60
0
100
AcDbLine
10
23.756101
20
-11.330953
30
0
11
23.698012
21
-11.326177
31
0
39
0
210
0
220
0
230
1
0
LINE
5
DC
100
AcDbEntity
8
1
62
256
6
ByLayer
370
18
48
1
60
0
100
AcDbLine
10
23.156561
20
-9.01602
30
0
11
23.795669
21
-9.799541
31
0
39
0
210
0
220
0
230
1
0
LINE
5
DD
100
AcDbEntity
8
1
62
256
6
ByLayer
370
18
48
1
60
0
100
AcDbLine
10
22.835192
20
-8.517604
30
0
11
22.594102
21
-5.245635
31
0
39
0
210
0
220
0
230
1
0
LINE
5
DE
100
AcDbEntity
8
1
62
256
6
ByLayer
370
13
48
1
60
0
100
AcDbLine
10
23.154788
20
-3.799691
30
0
11
23.166506
21
-3.673797
31
0
39
0
210
0
220
0
230
1
0
LINE
5
DF
100
AcDbEntity
8
1
62
256
6
ByLayer
370
18
48
1
60
0
100
AcDbLine
10
33.03865
20
-9.350617
30
0
11
33.526918
21
-6.179886
31
0
39
0
210
0
220
0
230
1
0
LINE
5
E0
100
AcDbEntity
8
1
62
256
6
ByLayer
370
13
48
1
60
0
100
AcDbLine
10
25.2219
20
-3.48272
30
0
11
22.696742
21
-3.332768
31
0
39
0
210
0
220
0
230
1
0
LINE
5
E1
100
AcDbEntity
8
1
62
256
6
ByLayer
370
18
48
1
60
0
100
AcDbLine
10
27.603886
20
-14.72498
30
0
11
27.742269
21
-13.238138
31
0
39
0
210
0
220
0
230
1
0
LINE
5
E2
100
AcDbEntity
8
1
62
256
6
ByLayer
370
18
48
1
60
0
100
AcDbLine
10
24.182716
20
-7.427842
30
0
11
24.096099
21
-6.252308
31
0
39
0
210
0
220
0
230
1
0
LINE
5
E3
100
AcDbEntity
8
1
62
256
6
ByLayer
370
18
48
1
60
0
100
AcDbLine
10
33.359574
20
-5.162864
30
0
11
33.244573
21
-5.120362
31
0
39
0
210
0
220
0
230
1
0
LINE
5
E4
100
AcDbEntity
8
1
62
256
6
ByLayer
370
18
48
1
60
0
100
AcDbLine
10
33.728181
20
-10.888414
30
0
11
33.73782
21
-11.0061
31
0
39
0
210
0
220
0
230
1
0
LINE
5
E5
100
AcDbEntity
8
1
62
256
6
ByLayer
370
18
48
1
60
0
100
AcDbLine
10
22.835192
20
-8.517604
30
0
11
23.147205
21
-8.536132
31
0
39
0
210
0
220
0
230
1
0
LINE
5
E6
100
AcDbEntity
8
1
62
256
6
ByLayer
370
18
48
1
60
0
100
AcDbLine
10
29.318866
20
-4.869031
30
0
11
29.180482
21
-6.355873
31
0
39
0
210
0
220
0
230
1
0
LINE
5
E7
100
AcDbEntity
8
2
62
256
6
ByLayer
370
13
48
1
60
0
100
AcDbLine
10
34
20
16.029581
30
0
11
0
21
16.029581
31
0
39
0
210
0
220
0
230
1
0
LINE
5
E9
100
AcDbEntity
8
2
62
256
6
ByLayer
370
13
48
1
60
0
100
AcDbLine
10
0
20
3.944817
30
0
11
0
21
18.029581
31
0
39
0
210
0
220
0
230
1
0
LINE
5
EA
100
AcDbEntity
8
2
62
256
6
ByLayer
370
13
48
1
60
0
100
AcDbLine
10
34
20
1.5875
30
0
11
34
21
18.029581
31
0
39
0
210
0
220
0
230
1
0
LINE
5
EB
100
AcDbEntity
8
1
62
256
6
ByLayer
370
18
48
1
60
1
100
AcDbLine
10
0
20
16.029581
30
0
11
3.499998
21
16.490365
31
0
39
0
210
0
220
0
230
1
0
LINE
5
EC
100
AcDbEntity
8
1
62
256
6
ByLayer
370
18
48
1
60
1
100
AcDbLine
10
3.499998
20
16.490365
30
0
11
3.500002
21
15.568797
31
0
39
0
210
0
220
0
230
1
0
LINE
5
ED
100
AcDbEntity
8
1
62
256
6
ByLayer
370
18
48
1
60
1
100
AcDbLine
10
3.500002
20
15.568797
30
0
11
0
21
16.029581
31
0
39
0
210
0
220
0
230
1
0
LINE
5
EE
100
AcDbEntity
8
1
62
256
6
ByLayer
370
18
48
1
60
1
100
AcDbLine
10
34
20
16.029581
30
0
11
30.500002
21
15.568797
31
0
39
0
210
0
220
0
230
1
0
LINE
5
EF
100
AcDbEntity
8
1
62
256
6
ByLayer
370
18
48
1
60
1
100
AcDbLine
10
30.500002
20
15.568797
30
0
11
30.499998
21
16.490365
31
0
39
0
210
0
220
0
230
1
0
LINE
5
F0
100
AcDbEntity
8
1
62
256
6
ByLayer
370
18
48
1
60
1
100
AcDbLine
10
30.499998
20
16.490365
30
0
11
34
21
16.029581
31
0
39
0
210
0
220
0
230
1
0
LINE
5
19B
100
AcDbEntity
8
1
62
256
6
ByLayer
370
18
48
1
60
1
100
AcDbLine
10
0
20
16.029581
30
0
11
3.499998
21
16.490365
31
0
39
0
210
0
220
0
230
1
0
LINE
5
19C
100
AcDbEntity
8
1
62
256
6
ByLayer
370
18
48
1
60
1
100
AcDbLine
10
3.499998
20
16.490365
30
0
11
3.500002
21
15.568797
31
0
39
0
210
0
220
0
230
1
0
LINE
5
19D
100
AcDbEntity
8
1
62
256
6
ByLayer
370
18
48
1
60
1
100
AcDbLine
10
3.500002
20
15.568797
30
0
11
0
21
16.029581
31
0
39
0
210
0
220
0
230
1
0
LINE
5
19F
100
AcDbEntity
8
1
62
256
6
ByLayer
370
18
48
1
60
1
100
AcDbLine
10
34
20
16.029581
30
0
11
30.500002
21
15.568797
31
0
39
0
210
0
220
0
230
1
0
LINE
5
1A0
100
AcDbEntity
8
1
62
256
6
ByLayer
370
18
48
1
60
1
100
AcDbLine
10
30.500002
20
15.568797
30
0
11
30.499998
21
16.490365
31
0
39
0
210
0
220
0
230
1
0
LINE
5
1A1
100
AcDbEntity
8
1
62
256
6
ByLayer
370
18
48
1
60
1
100
AcDbLine
10
30.499998
20
16.490365
30
0
11
34
21
16.029581
31
0
39
0
210
0
220
0
230
1
0
MTEXT
5
196
100
AcDbEntity
8
SK6
62
256
6
ByLayer
370
18
48
1
60
0
100
AcDbMText
10
-61.943446
20
13.71665
30
0
210
0
220
0
230
1
1
\W0.7533;QS-3-80LL202034-10C
40
3.5
41
0
44
1.084337
50
0
71
7
72
5
7
iso_b_vert
0
MTEXT
5
19A
100
AcDbEntity
8
2
62
256
6
ByLayer
370
18
48
1
60
0
100
AcDbMText
10
15.2
20
17.154581
30
0
210
0
220
0
230
1
1
\W0.7167;34
40
4.5
41
0
44
1.084337
50
0
71
7
72
5
7
iso_b_vert
0
HATCH
5
19E
100
AcDbEntity
8
2
62
256
6
ByLayer
370
13
48
1
60
0
100
AcDbHatch
10
0
20
0
30
0
210
0
220
0
230
1
2
ANSI31
70
0
71
0
91
1
92
5
93
3
72
1
10
0
20
16.0295810928903
11
3.49999830744682
21
16.4903648344431
72
1
10
3.49999830744682
20
16.4903648344431
11
3.50000169255318
21
15.5687973513375
72
1
10
3.50000169255318
20
15.5687973513375
11
0
21
16.0295810928903
97
0
75
0
76
1
52
0
41
0.02
77
0
78
1
53
45
43
0
44
0
45
-0.0449012806053457
46
0.0449012806053458
79
0
47
0
98
1
10
0
20
0
0
HATCH
5
1A2
100
AcDbEntity
8
2
62
256
6
ByLayer
370
13
48
1
60
0
100
AcDbHatch
10
0
20
0
30
0
210
0
220
0
230
1
2
ANSI31
70
0
71
0
91
1
92
5
93
3
72
1
10
34
20
16.0295810928903
11
30.5000016925532
21
15.5687973513375
72
1
10
30.5000016925532
20
15.5687973513375
11
30.4999983074468
21
16.4903648344431
72
1
10
30.4999983074468
20
16.4903648344431
11
34
21
16.0295810928903
97
0
75
0
76
1
52
0
41
0.02
77
0
78
1
53
44.9999999999999
43
0
44
0
45
-0.0449012806053457
46
0.0449012806053458
79
0
47
0
98
1
10
0
20
0
0
DIMENSION
5
1AD
100
AcDbEntity
8
SK2
62
256
6
ByLayer
370
13
48
1
60
0
100
AcDbDimension
2
DimnDraft3D1
10
34
20
26.256018
30
0
11
-22.902354
21
26.256018
31
0
70
32
71
5
72
1
41
1
210
0
220
0
230
1
3
Standard
100
AcDbAlignedDimension
13
-69
23
1.5875
33
0
14
34
24
1.5875
34
0
50
0
100
AcDbRotatedDimension
1001
ACAD
1000
DSTYLE
1002
{
1070
   279
1070
     0
1070
   172
1070
     1
1070
   173
1070
     1
1070
   340
1005
197
1070
   271
1070
     0
1070
   272
1070
     2
1070
    77
1070
     1
1070
    73
1070
     0
1070
   171
1070
     3
1070
   274
1070
     4
1070
   177
1070
   150
1070
   176
1070
     9
1070
   178
1070
    35
1070
    78
1070
     8
1070
    48
1040
-0.005
1070
    41
1041
3.5
1070
   147
1041
2.25
1070
    42
1041
1.5875
1070
    44
1041
2.0
1070
   140
1041
4.5
1070
   343
1005
0
1070
   344
1005
0
1002
}
0
DIMENSION
5
1B7
100
AcDbEntity
8
2
62
256
6
ByLayer
370
13
48
1
60
0
100
AcDbDimension
2
DimnDraft3D2
10
58.821784
20
-15.0375
30
0
11
58.821784
21
5.041075
31
0
70
32
71
5
72
1
41
1
210
0
220
0
230
1
3
Standard
100
AcDbAlignedDimension
13
35.5875
23
9.9625
33
0
14
45.5875
24
-15.0375
34
0
50
90
100
AcDbRotatedDimension
1001
ACAD
1000
DSTYLE
1002
{
1070
    74
1070
     0
1070
   279
1070
     0
1070
   172
1070
     1
1070
   173
1070
     1
1070
   340
1005
197
1070
   271
1070
     0
1070
   272
1070
     2
1070
    77
1070
     1
1070
    73
1070
     0
1070
   171
1070
     3
1070
   274
1070
     4
1070
   177
1070
   150
1070
   176
1070
     9
1070
   178
1070
    35
1070
    78
1070
     8
1070
    48
1040
-0.005
1070
    41
1041
3.5
1070
   147
1041
2.25
1070
    42
1041
1.5875
1070
    44
1041
2.0
1070
   140
1041
4.5
1070
   343
1005
0
1070
   344
1005
0
1002
}
0
DIMENSION
5
1C1
100
AcDbEntity
8
SK2
62
256
6
ByLayer
370
13
48
1
60
0
100
AcDbDimension
2
DimnDraft3D3
10
-80.704654
20
-9.9625
30
0
11
-80.704654
21
-0.718377
31
0
70
32
71
5
72
1
41
1
210
0
220
0
230
1
3
Standard
100
AcDbAlignedDimension
13
-70.5875
23
9.9625
33
0
14
-70.5875
24
-9.9625
34
0
50
90
100
AcDbRotatedDimension
1001
ACAD
1000
DSTYLE
1002
{
1070
    74
1070
     0
1070
   279
1070
     0
1070
   172
1070
     1
1070
   173
1070
     1
1070
   340
1005
197
1070
   271
1070
     0
1070
   272
1070
     2
1070
    77
1070
     1
1070
    73
1070
     0
1070
   171
1070
     3
1070
   274
1070
     4
1070
   177
1070
   150
1070
   176
1070
     9
1070
   178
1070
    35
1070
    78
1070
     8
1070
    48
1040
-0.005
1070
    41
1041
3.5
1070
   147
1041
2.25
1070
    42
1041
1.5875
1070
    44
1041
2.0
1070
   140
1041
4.5
1070
   343
1005
0
1070
   344
1005
0
1002
}
0
DIMENSION
5
1CB
100
AcDbEntity
8
2
62
256
6
ByLayer
370
13
48
1
60
0
100
AcDbDimension
2
DimnDraft3D4
10
34
20
5
30
0
11
24.302244
21
-22.009499
31
0
70
34
71
5
72
1
41
1
210
0
220
0
230
1
3
Standard
100
AcDb2LineAngularDimension
13
34
23
-15.0375
33
0
14
29.016813
24
-14.627807
34
0
15
34
25
0
35
0
16
21.905457
26
-26.178497
36
0
40
0
0
ENDSEC
0
SECTION
2
OBJECTS
0
DICTIONARY
5
235
330
0
100
AcDbDictionary
280
0
281
1
3
ACAD_GROUP
350
236
3
ACAD_MLINESTYLE
350
237
0
DICTIONARY
5
236
330
0
100
AcDbDictionary
280
0
281
1
0
DICTIONARY
5
237
330
0
100
AcDbDictionary
280
0
281
1
3
Standard
350
18
0
MLINESTYLE
5
18
330
237
100
AcDbMlineStyle
2
Standard
70
0
3

62
256
51
90
52
90
71
2
49
-0.5
62
256
6
ByLayer
49
0.5
62
256
6
ByLayer
0
RASTERVARIABLES
5
224
330

100
AcDbRasterVariables
90
0
70
1
71
1
72
1
0
ENDSEC
0
EOF
