0
SECTION
2
HEADER
9
$ACADVER
1
AC1015
9
$DWGCODEPAGE
3
ANSI_1252
9
$HANDSEED
5
247
9
$ANGBASE
50
0
9
$ANGDIR
70
0
9
$ATTMODE
70
1
9
$AUNITS
70
0
9
$AUPREC
70
0
9
$CECOLOR
62
256
9
$CELTSCALE
40
1
9
$CELTYPE
6
ByLayer
9
$CELWEIGHT
370
18
9
$CLAYER
8
0
9
$CMLJUST
70
0
9
$CMLSCALE
40
1
9
$CMLSTYLE
2
Standard
9
$DIMSTYLE
2
Standard
9
$TEXTSIZE
40
0.2
9
$TEXTSTYLE
7
Standard
9
$LUNITS
70
2
9
$LUPREC
70
4
9
$EXTNAMES
290
1
9
$INSUNITS
70
4
9
$LTSCALE
40
1
9
$LWDISPLAY
290
1
9
$PDMODE
70
0
9
$PDSIZE
40
0
9
$PLINEGEN
70
0
0
ENDSEC
0
SECTION
2
CLASSES
0
CLASS
1
RASTERVARIABLES
2
AcDbRasterVariables
3
ISM
90
0
280
0
281
0
0
ENDSEC
0
SECTION
2
TABLES
0
TABLE
2
VPORT
5
23d
100
AcDbSymbolTable
0
VPORT
5
1
100
AcDbSymbolTableRecord
100
AcDbViewportTableRecord
2
*Active
70
0
10
0
20
0
11
1
21
1
12
-1
22
1
13
0
23
0
14
0.5
24
0.5
15
10
25
10
16
0
26
0
36
1
17
0
27
0
37
0
0
ENDTAB
0
TABLE
2
LTYPE
5
23e
100
AcDbSymbolTable
0
LTYPE
5
14
100
AcDbSymbolTableRecord
100
AcDbLinetypeTableRecord
70
0
2
ByBlock
3

72
65
73
0
40
0
0
LTYPE
5
15
100
AcDbSymbolTableRecord
100
AcDbLinetypeTableRecord
70
0
2
ByLayer
3

72
65
73
0
40
0
0
LTYPE
5
16
100
AcDbSymbolTableRecord
100
AcDbLinetypeTableRecord
70
0
2
CONTINUOUS
3
Solid line
72
65
73
0
40
0
0
LTYPE
5
6A
100
AcDbSymbolTableRecord
100
AcDbLinetypeTableRecord
70
0
2
CENTER
3
____ _ ____ _ ____ _ ____
72
65
73
4
40
47.5
49
22
74
0
49
-8.5
74
0
49
8.5
74
0
49
-8.5
74
0
0
LTYPE
5
6B
100
AcDbSymbolTableRecord
100
AcDbLinetypeTableRecord
70
0
2
DASHED
3
__ __ __ __ __ __ __ __ __
72
65
73
2
40
25.72
49
12.86
74
0
49
-12.86
74
0
0
ENDTAB
0
TABLE
2
LAYER
5
23f
100
AcDbSymbolTable
0
LAYER
5
10
100
AcDbSymbolTableRecord
100
AcDbLayerTableRecord
2
0
70
0
62
7
6
CONTINUOUS
290
1
370
-3
390
0
0
LAYER
5
6D
100
AcDbSymbolTableRecord
100
AcDbLayerTableRecord
2
81
70
0
62
-3
6
CONTINUOUS
290
1
370
-3
390
0
0
LAYER
5
6F
100
AcDbSymbolTableRecord
100
AcDbLayerTableRecord
2
80
70
0
62
-6
6
CONTINUOUS
290
1
370
-3
390
0
0
LAYER
5
72
100
AcDbSymbolTableRecord
100
AcDbLayerTableRecord
2
1
70
0
62
4
6
CONTINUOUS
290
1
370
-3
390
0
0
LAYER
5
F0
100
AcDbSymbolTableRecord
100
AcDbLayerTableRecord
2
2
70
0
62
7
6
CONTINUOUS
290
1
370
-3
390
0
0
LAYER
5
22a
100
AcDbSymbolTableRecord
100
AcDbLayerTableRecord
2
SK1
70
0
62
4
6
CONTINUOUS
290
1
370
-3
390
0
0
LAYER
5
22b
100
AcDbSymbolTableRecord
100
AcDbLayerTableRecord
2
SK6
70
0
62
5
6
CONTINUOUS
290
1
370
-3
390
0
0
LAYER
5
22c
100
AcDbSymbolTableRecord
100
AcDbLayerTableRecord
2
SK2
70
0
62
7
6
CONTINUOUS
290
1
370
-3
390
0
0
ENDTAB
0
TABLE
2
STYLE
5
240
100
AcDbSymbolTable
0
STYLE
5
11
100
AcDbSymbolTableRecord
100
AcDbTextStyleTableRecord
2
Standard
3
txt
70
0
71
0
40
0
41
1
42
0
50
0
0
STYLE
5
19C
100
AcDbSymbolTableRecord
100
AcDbTextStyleTableRecord
2
iso_b_vert
3
simplex.shx
70
0
71
0
40
0
41
1
42
0
50
0
0
STYLE
5
19D
100
AcDbSymbolTableRecord
100
AcDbTextStyleTableRecord
2
DWGDirectTextStyle
3
simplex
70
0
71
0
40
0
41
1
42
0
50
0
0
ENDTAB
0
TABLE
2
DIMSTYLE
5
241
100
AcDbSymbolTable
100
AcDbDimStyleTable
0
DIMSTYLE
105
27
100
AcDbSymbolTableRecord
100
AcDbDimStyleTableRecord
2
Standard
70
0
3
<>
41
0.18
42
0.0625
44
0.18
140
0.18
147
0.09
73
0
74
0
77
1
271
2
275
0
278
52
280
0
340
11
0
ENDTAB
0
TABLE
2
VIEW
5
242
100
AcDbSymbolTable
0
ENDTAB
0
TABLE
2
UCS
5
243
100
AcDbSymbolTable
0
ENDTAB
0
TABLE
2
APPID
5
244
100
AcDbSymbolTable
0
APPID
5
12
100
AcDbSymbolTableRecord
100
AcDbRegAppTableRecord
2
ACAD
70
0
0
ENDTAB
0
TABLE
2
BLOCK_RECORD
5
245
100
AcDbSymbolTable
0
BLOCK_RECORD
5
1F
100
AcDbSymbolTableRecord
100
AcDbBlockTableRecord
2
*Model_Space
340
0
70
0
0
BLOCK_RECORD
5
1B
100
AcDbSymbolTableRecord
100
AcDbBlockTableRecord
2
*Paper_Space
340
0
70
0
0
BLOCK_RECORD
5
23
100
AcDbSymbolTableRecord
100
AcDbBlockTableRecord
2
*Paper_Space0
340
0
70
0
0
BLOCK_RECORD
5
1A8
100
AcDbSymbolTableRecord
100
AcDbBlockTableRecord
2
DimnDraft3D1
340
0
70
0
0
BLOCK_RECORD
5
1B3
100
AcDbSymbolTableRecord
100
AcDbBlockTableRecord
2
DimnDraft3D2
340
0
70
0
0
BLOCK_RECORD
5
1BD
100
AcDbSymbolTableRecord
100
AcDbBlockTableRecord
2
DimnDraft3D3
340
0
70
0
0
BLOCK_RECORD
5
1C7
100
AcDbSymbolTableRecord
100
AcDbBlockTableRecord
2
DimnDraft3D4
340
0
70
0
0
ENDTAB
0
ENDSEC
0
SECTION
2
BLOCKS
0
BLOCK
5
20
100
AcDbEntity
8
0
100
AcDbBlockBegin
2
*Model_Space
70
0
10
0
20
0
30
0
3
*Model_Space
0
ENDBLK
5
21
100
AcDbEntity
8
0
100
AcDbBlockEnd
0
BLOCK
5
1C
100
AcDbEntity
8
0
100
AcDbBlockBegin
2
*Paper_Space
70
0
10
0
20
0
30
0
3
*Paper_Space
0
ENDBLK
5
1D
100
AcDbEntity
8
0
100
AcDbBlockEnd
0
BLOCK
5
24
100
AcDbEntity
8
0
100
AcDbBlockBegin
2
*Paper_Space0
70
0
10
0
20
0
30
0
3
*Paper_Space0
0
ENDBLK
5
25
100
AcDbEntity
8
0
100
AcDbBlockEnd
0
BLOCK
5
1B0
100
AcDbEntity
8
0
100
AcDbBlockBegin
2
DimnDraft3D1
70
0
10
0
20
0
30
0
3
DimnDraft3D1
0
MTEXT
5
1A9
100
AcDbEntity
8
SK2
62
256
6
ByLayer
370
18
48
1
60
0
100
AcDbMText
10
-32.737427
20
-42.930403
30
0
210
0
220
0
230
1
1
\W0.5296;116
40
4.5
41
0
44
1.084337
50
0
71
7
72
5
7
iso_b_vert
0
LINE
5
1AB
100
AcDbEntity
8
SK2
62
256
6
ByLayer
370
13
48
1
60
0
100
AcDbLine
10
-84
20
-1.5875
30
0
11
-84
21
-46.055403
31
0
39
0
210
0
220
0
230
1
0
LINE
5
1AC
100
AcDbEntity
8
SK2
62
256
6
ByLayer
370
13
48
1
60
0
100
AcDbLine
10
31.75
20
-1.5875
30
0
11
31.75
21
-46.055403
31
0
39
0
210
0
220
0
230
1
0
LINE
5
1AD
100
AcDbEntity
8
SK2
62
256
6
ByLayer
370
13
48
1
60
0
100
AcDbLine
10
-84
20
-44.055403
30
0
11
31.75
21
-44.055403
31
0
39
0
210
0
220
0
230
1
0
SOLID
5
1AE
100
AcDbEntity
8
SK2
62
256
6
ByLayer
370
13
48
1
60
0
100
AcDbTrace
10
-84
20
-44.055403
30
0
11
-80.500002
21
-43.594619
31
0
12
-80.499998
22
-44.516187
32
0
13
-84
23
-44.055403
33
0
39
0
210
0
220
0
230
1
0
SOLID
5
1AF
100
AcDbEntity
8
SK2
62
256
6
ByLayer
370
13
48
1
60
0
100
AcDbTrace
10
31.75
20
-44.055403
30
0
11
28.250002
21
-44.516187
31
0
12
28.249998
22
-43.594619
32
0
13
31.75
23
-44.055403
33
0
39
0
210
0
220
0
230
1
0
ENDBLK
5
1B1
100
AcDbEntity
8
0
100
AcDbBlockEnd
0
BLOCK
5
1BA
100
AcDbEntity
8
0
100
AcDbBlockBegin
2
DimnDraft3D2
70
0
10
0
20
0
30
0
3
DimnDraft3D2
0
MTEXT
5
1B4
100
AcDbEntity
8
2
62
256
6
ByLayer
370
18
48
1
60
0
100
AcDbMText
10
60.092367
20
-3.375457
30
0
210
0
220
0
230
1
1
\W0.6740;32
40
4.5
41
0
44
1.084337
50
90
71
7
72
5
7
iso_b_vert
0
LINE
5
1B5
100
AcDbEntity
8
2
62
256
6
ByLayer
370
13
48
1
60
0
100
AcDbLine
10
33.3375
20
-12.6625
30
0
11
63.217367
21
-12.6625
31
0
39
0
210
0
220
0
230
1
0
LINE
5
1B6
100
AcDbEntity
8
2
62
256
6
ByLayer
370
13
48
1
60
0
100
AcDbLine
10
43.3375
20
19.0875
30
0
11
63.217367
21
19.0875
31
0
39
0
210
0
220
0
230
1
0
LINE
5
1B7
100
AcDbEntity
8
2
62
256
6
ByLayer
370
13
48
1
60
0
100
AcDbLine
10
61.217367
20
-12.6625
30
0
11
61.217367
21
19.0875
31
0
39
0
210
0
220
0
230
1
0
SOLID
5
1B8
100
AcDbEntity
8
2
62
256
6
ByLayer
370
13
48
1
60
0
100
AcDbTrace
10
61.217367
20
-12.6625
30
0
11
60.756583
21
-9.162502
31
0
12
61.678151
22
-9.162498
32
0
13
61.217367
23
-12.6625
33
0
39
0
210
0
220
0
230
1
0
SOLID
5
1B9
100
AcDbEntity
8
2
62
256
6
ByLayer
370
13
48
1
60
0
100
AcDbTrace
10
61.217367
20
19.0875
30
0
11
61.678151
21
15.587502
31
0
12
60.756583
22
15.587498
32
0
13
61.217367
23
19.0875
33
0
39
0
210
0
220
0
230
1
0
ENDBLK
5
1BB
100
AcDbEntity
8
0
100
AcDbBlockEnd
0
BLOCK
5
1C4
100
AcDbEntity
8
0
100
AcDbBlockBegin
2
DimnDraft3D3
70
0
10
0
20
0
30
0
3
DimnDraft3D3
0
MTEXT
5
1BE
100
AcDbEntity
8
SK2
62
256
6
ByLayer
370
18
48
1
60
0
100
AcDbMText
10
-96.829654
20
-2.281535
30
0
210
0
220
0
230
1
1
\W0.6740;25
40
4.5
41
0
44
1.084337
50
90
71
7
72
5
7
iso_b_vert
0
LINE
5
1BF
100
AcDbEntity
8
SK2
62
256
6
ByLayer
370
13
48
1
60
0
100
AcDbLine
10
-85.5875
20
12.6625
30
0
11
-97.704654
21
12.6625
31
0
39
0
210
0
220
0
230
1
0
LINE
5
1C0
100
AcDbEntity
8
SK2
62
256
6
ByLayer
370
13
48
1
60
0
100
AcDbLine
10
-85.5875
20
-12.6625
30
0
11
-97.704654
21
-12.6625
31
0
39
0
210
0
220
0
230
1
0
LINE
5
1C1
100
AcDbEntity
8
SK2
62
256
6
ByLayer
370
13
48
1
60
0
100
AcDbLine
10
-95.704654
20
12.6625
30
0
11
-95.704654
21
-12.6625
31
0
39
0
210
0
220
0
230
1
0
SOLID
5
1C2
100
AcDbEntity
8
SK2
62
256
6
ByLayer
370
13
48
1
60
0
100
AcDbTrace
10
-95.704654
20
12.6625
30
0
11
-95.24387
21
9.162502
31
0
12
-96.165438
22
9.162498
32
0
13
-95.704654
23
12.6625
33
0
39
0
210
0
220
0
230
1
0
SOLID
5
1C3
100
AcDbEntity
8
SK2
62
256
6
ByLayer
370
13
48
1
60
0
100
AcDbTrace
10
-95.704654
20
-12.6625
30
0
11
-96.165438
21
-9.162502
31
0
12
-95.24387
22
-9.162498
32
0
13
-95.704654
23
-12.6625
33
0
39
0
210
0
220
0
230
1
0
ENDBLK
5
1C5
100
AcDbEntity
8
0
100
AcDbBlockEnd
0
BLOCK
5
1CE
100
AcDbEntity
8
0
100
AcDbBlockBegin
2
DimnDraft3D4
70
0
10
0
20
0
30
0
3
DimnDraft3D4
0
MTEXT
5
1C8
100
AcDbEntity
8
2
62
256
6
ByLayer
370
18
48
1
60
0
100
AcDbMText
10
41.82907
20
7.962094
30
0
210
0
220
0
230
1
1
\W0.8531;95%%d
40
4.5
41
0
44
1.084337
50
53.6756750758012
71
7
72
5
7
iso_b_vert
0
LINE
5
1C9
100
AcDbEntity
8
2
62
256
6
ByLayer
370
13
48
1
60
0
100
AcDbLine
10
41.683723
20
19.0875
30
0
11
49.585666
21
19.0875
31
0
39
0
210
0
220
0
230
1
0
LINE
5
1CA
100
AcDbEntity
8
2
62
256
6
ByLayer
370
13
48
1
60
0
100
AcDbLine
10
31.27188
20
13.272019
30
0
11
30.288572
21
1.311808
31
0
39
0
210
0
220
0
230
1
0
ARC
5
1CB
100
AcDbEntity
8
2
62
256
6
ByLayer
370
13
48
1
60
0
100
AcDbCircle
39
0
10
31.75
20
19.0875
30
0
40
15.8356663774515
210
0
220
0
230
1
100
AcDbArc
50
265.3
51
0
0
SOLID
5
1CC
100
AcDbEntity
8
2
62
256
6
ByLayer
370
13
48
1
60
0
100
AcDbTrace
10
47.585666
20
19.0875
30
0
11
47.853239
21
15.567455
31
0
12
46.933066
22
15.618142
32
0
13
47.585666
23
19.0875
33
0
39
0
210
0
220
0
230
1
0
SOLID
5
1CD
100
AcDbEntity
8
2
62
256
6
ByLayer
370
13
48
1
60
0
100
AcDbTrace
10
30.452449
20
3.305083
30
0
11
33.963611
21
3.671215
31
0
12
33.938736
22
2.749983
32
0
13
30.452449
23
3.305083
33
0
39
0
210
0
220
0
230
1
0
ENDBLK
5
1CF
100
AcDbEntity
8
0
100
AcDbBlockEnd
0
ENDSEC
0
SECTION
2
ENTITIES
0
ARC
5
FB
100
AcDbEntity
8
1
62
256
6
ByLayer
370
18
48
1
60
0
100
AcDbCircle
39
0
10
1.760478
20
23.0125
30
0
40
10.1999999999992
210
0
220
0
230
-1
100
AcDbArc
50
213.832271
51
249.930293
0
ARC
5
FC
100
AcDbEntity
8
1
62
256
6
ByLayer
370
18
48
1
60
0
100
AcDbCircle
39
0
10
-0.372277
20
14.2625
30
0
40
1.60000000000036
210
0
220
0
230
-1
100
AcDbArc
50
211.274136
51
270
0
ELLIPSE
5
FD
100
AcDbEntity
8
1
62
256
6
ByLayer
370
13
48
1
60
0
100
AcDbEllipse
10
15.411236
20
5.016003
30
0
11
3.7517967676628
21
-2.4228778560095
31
0
210
0
220
0
230
1
40
0.991816
41
-0.172964352848902
42
1.2344088405133
0
ELLIPSE
5
FE
100
AcDbEntity
8
1
62
256
6
ByLayer
370
18
48
1
60
0
100
AcDbEllipse
10
19.924932
20
8.906045
30
0
11
-0.0905607788971917
21
1.27679077974971
31
0
210
0
220
0
230
-1
40
0.369973
41
-2.0379750163746
42
-1.11952794521553
0
ELLIPSE
5
FF
100
AcDbEntity
8
1
62
256
6
ByLayer
370
18
48
1
60
0
100
AcDbEllipse
10
27.041034
20
7.45277
30
0
11
-0.779866847548511
21
0.469209837463392
31
0
210
0
220
0
230
-1
40
0.991433
41
0.256739700731156
42
1.00206784887378
0
ELLIPSE
5
100
100
AcDbEntity
8
1
62
256
6
ByLayer
370
13
48
1
60
0
100
AcDbEllipse
10
9.97644
20
-5.667523
30
0
11
-0.93996069021492
21
1.29478720292204
31
0
210
0
220
0
230
1
40
0.119185
41
0.133385751519532
42
1.6169156157147
0
ELLIPSE
5
101
100
AcDbEntity
8
1
62
256
6
ByLayer
370
13
48
1
60
0
100
AcDbEllipse
10
14.340923
20
6.322783
30
0
11
3.7517967676628
21
-2.4228778560095
31
0
210
0
220
0
230
1
40
0.991816
41
1.2801010944187
42
2.6633786743946
0
ELLIPSE
5
102
100
AcDbEntity
8
1
62
256
6
ByLayer
370
13
48
1
60
0
100
AcDbEllipse
10
6.360756
20
-1.066649
30
0
11
4.97935580561355
21
-3.21562485009788
31
0
210
0
220
0
230
1
40
0.991816
41
2.85673844889024
42
-0.366691132231527
0
ELLIPSE
5
103
100
AcDbEntity
8
1
62
256
6
ByLayer
370
13
48
1
60
0
100
AcDbEllipse
10
-26.479141
20
43.650542
30
0
11
51.6349577096948
21
-33.3454084477879
31
0
210
0
220
0
230
1
40
0.991816
41
-0.366691132231535
42
-0.17296435284891
0
ELLIPSE
5
104
100
AcDbEntity
8
1
62
256
6
ByLayer
370
13
48
1
60
0
100
AcDbEllipse
10
12.226699
20
10.357888
30
0
11
-0.789178076387429
21
1.39183259185487
31
0
210
0
220
0
230
1
40
0.11335
41
1.62996623716527
42
3.11349610136044
0
ELLIPSE
5
105
100
AcDbEntity
8
1
62
256
6
ByLayer
370
18
48
1
60
0
100
AcDbEllipse
10
14.418559
20
17.871356
30
0
11
-3.03814491725931
21
-0.196432452771383
31
0
210
0
220
0
230
-1
40
0.006113
41
-1.66539368541678
42
-0.0945973586242464
0
ELLIPSE
5
106
100
AcDbEntity
8
1
62
256
6
ByLayer
370
18
48
1
60
0
100
AcDbEllipse
10
23.431488
20
1.218368
30
0
11
-1.38609150095355
21
0.895125885551484
31
0
210
0
220
0
230
1
40
0.991816
41
0
42
6.28318530717959
0
ELLIPSE
5
107
100
AcDbEntity
8
1
62
256
6
ByLayer
370
18
48
1
60
0
100
AcDbEllipse
10
29.33832
20
7.528839
30
0
11
-0.760241885908466
21
0.45740240521166
31
0
210
0
220
0
230
-1
40
0.991433
41
1.00206784875892
42
1.38575513911975
0
ELLIPSE
5
108
100
AcDbEntity
8
1
62
256
6
ByLayer
370
13
48
1
60
0
100
AcDbEllipse
10
15.512398
20
5.17265
30
0
11
-2.41282270286768
21
1.55818000261696
31
0
210
0
220
0
230
1
40
0.991816
41
2.96862830074089
42
-2.3943145646161
0
ELLIPSE
5
109
100
AcDbEntity
8
1
62
256
6
ByLayer
370
18
48
1
60
0
100
AcDbEllipse
10
13.975963
20
17.871257
30
0
11
-3.03814491727718
21
-0.196432452772416
31
0
210
0
220
0
230
-1
40
0.006113
41
-0.094597358623497
42
1.30348671431734
0
ELLIPSE
5
10A
100
AcDbEntity
8
1
62
256
6
ByLayer
370
18
48
1
60
0
100
AcDbEllipse
10
13.70808
20
17.859933
30
0
11
-2.02542994521565
21
-0.130954968538406
31
0
210
0
220
0
230
-1
40
0.006113
41
1.30348671436352
42
1.87762469605836
0
ELLIPSE
5
10B
100
AcDbEntity
8
1
62
256
6
ByLayer
370
18
48
1
60
0
100
AcDbEllipse
10
22.298131
20
18.361094
30
0
11
-0.544558911082038
21
-0.0317071291106392
31
0
210
0
220
0
230
-1
40
0.016048
41
-0.805455605023783
42
-0.269928950723175
0
ELLIPSE
5
10C
100
AcDbEntity
8
1
62
256
6
ByLayer
370
18
48
1
60
0
100
AcDbEllipse
10
21.991354
20
15.41036
30
0
11
-0.205294257968973
21
0.804857499603294
31
0
210
0
220
0
230
-1
40
0.245318
41
-0.619263118411868
42
-0.0837364640895458
0
ELLIPSE
5
10D
100
AcDbEntity
8
1
62
256
6
ByLayer
370
18
48
1
60
0
100
AcDbEllipse
10
14.442085
20
6.47943
30
0
11
-2.41282270286768
21
1.55818000261696
31
0
210
0
220
0
230
1
40
0.991816
41
-0.747286193812517
42
-0.742999846893084
0
ELLIPSE
5
10E
100
AcDbEntity
8
1
62
256
6
ByLayer
370
13
48
1
60
0
100
AcDbEllipse
10
14.442085
20
6.47943
30
0
11
-2.41282270286768
21
1.55818000261696
31
0
210
0
220
0
230
1
40
0.991816
41
-0.742999846893084
42
-0.478213979195193
0
ELLIPSE
5
10F
100
AcDbEntity
8
1
62
256
6
ByLayer
370
18
48
1
60
0
100
AcDbEllipse
10
42.976575
20
-42.617454
30
0
11
-32.4061110757891
21
-50.1804672014759
31
0
210
-2.69035120036493E-16
220
-5.75406444946321E-17
230
1
40
0.991753
41
-1.8835124567657
42
-1.86644194372153
0
ELLIPSE
5
110
100
AcDbEntity
8
1
62
256
6
ByLayer
370
18
48
1
60
0
100
AcDbEllipse
10
20.393423
20
11.70757
30
0
11
-0.203186744050111
21
-2.19059698416717
31
0
210
0
220
0
230
1
40
0.094469
41
-1.29019954358116
42
-0.210178664468547
0
ELLIPSE
5
111
100
AcDbEntity
8
1
62
256
6
ByLayer
370
18
48
1
60
0
100
AcDbEllipse
10
70.7926
20
-6.671008
30
0
11
-43.9005000579362
21
15.7045771034844
31
0
210
0
220
0
230
-1
40
0.036559
41
0.342144482443768
42
0.394780661162236
0
ELLIPSE
5
112
100
AcDbEntity
8
1
62
256
6
ByLayer
370
13
48
1
60
0
100
AcDbEllipse
10
20.096041
20
11.735154
30
0
11
-0.203186744050111
21
-2.19059698416717
31
0
210
0
220
0
230
1
40
0.094469
41
-1.17069637536101
42
-0.106972687587402
0
ELLIPSE
5
113
100
AcDbEntity
8
1
62
256
6
ByLayer
370
13
48
1
60
0
100
AcDbEllipse
10
42.738553
20
-42.986028
30
0
11
51.6349577096947
21
-33.3454084477878
31
0
210
0
220
0
230
1
40
0.991816
41
2.6633786743946
42
2.85673844889024
0
ELLIPSE
5
114
100
AcDbEntity
8
1
62
256
6
ByLayer
370
13
48
1
60
0
100
AcDbEllipse
10
18.8043
20
2.160468
30
0
11
-1.1731272660925
21
1.08801305945762
31
0
210
0
220
0
230
1
40
0.125768
41
0.109417034200194
42
1.59294689839538
0
ELLIPSE
5
115
100
AcDbEntity
8
1
62
256
6
ByLayer
370
18
48
1
60
0
100
AcDbEllipse
10
19.822667
20
8.319048
30
0
11
-1.33486947113431
21
-2.21813413009144
31
0
210
0
220
0
230
-1
40
0.840613
41
2.22055158448594
42
2.2887005632921
0
ELLIPSE
5
116
100
AcDbEntity
8
1
62
256
6
ByLayer
370
18
48
1
60
0
100
AcDbEllipse
10
19.915497
20
15.258002
30
0
11
-3.08324741932565
21
-0.443121051478136
31
0
210
0
220
0
230
-1
40
0.96233
41
1.65403099483507
42
1.83674189939777
0
ELLIPSE
5
117
100
AcDbEntity
8
1
62
256
6
ByLayer
370
18
48
1
60
0
100
AcDbEllipse
10
22.984745
20
0.526591
30
0
11
-1.38609150095355
21
0.895125885551483
31
0
210
0
220
0
230
1
40
0.991816
41
-2.56443062120847
42
-0.254280127260574
0
ELLIPSE
5
118
100
AcDbEntity
8
1
62
256
6
ByLayer
370
18
48
1
60
0
100
AcDbEllipse
10
22.984745
20
0.526591
30
0
11
-1.38609150095355
21
0.895125885551483
31
0
210
0
220
0
230
1
40
0.991816
41
-2.88732769680727
42
-2.56443062120847
0
ELLIPSE
5
119
100
AcDbEntity
8
1
62
256
6
ByLayer
370
18
48
1
60
0
100
AcDbEllipse
10
18.980728
20
14.551945
30
0
11
-2.13979989198646
21
1.28741869531745
31
0
210
0
220
0
230
-1
40
0.991433
41
2.68509225656868
42
-2.61455050084822
0
ELLIPSE
5
11A
100
AcDbEntity
8
1
62
256
6
ByLayer
370
18
48
1
60
0
100
AcDbEllipse
10
7.081182
20
0.048922
30
0
11
-1.9277127461976
21
-2.98503964293038
31
0
210
-2.69035120036493E-16
220
-5.75406444946321E-17
230
1
40
0.991753
41
-1.86644194372153
42
1.21464006682391
0
ELLIPSE
5
11B
100
AcDbEntity
8
1
62
256
6
ByLayer
370
18
48
1
60
0
100
AcDbEllipse
10
-63.781544
20
5.811289
30
0
11
-99.573341304038
21
-2.3321763892678
31
0
210
0
220
0
230
-1
40
0.020746
41
2.72701499944062
42
2.77355860702007
0
ELLIPSE
5
11C
100
AcDbEntity
8
1
62
256
6
ByLayer
370
13
48
1
60
0
100
AcDbEllipse
10
19.028813
20
7.900403
30
0
11
-1.26049703405693
21
-0.985468024409559
31
0
210
0
220
0
230
1
40
0.042142
41
0.463670617912706
42
1.44987760535978
0
ELLIPSE
5
11D
100
AcDbEntity
8
1
62
256
6
ByLayer
370
18
48
1
60
0
100
AcDbEllipse
10
19.889824
20
8.387753
30
0
11
-0.593442361409017
21
2.50442961078775
31
0
210
0
220
0
230
-1
40
0.240405
41
-1.10251630138074
42
-0.875532971133644
0
ELLIPSE
5
11E
100
AcDbEntity
8
1
62
256
6
ByLayer
370
18
48
1
60
0
100
AcDbEllipse
10
-26.142535
20
85.116861
30
0
11
-566.391873135241
21
-558.619499109994
31
0
210
0
220
0
230
-1
40
0.125655
41
-1.54708042516675
42
-1.52299872405578
0
ELLIPSE
5
11F
100
AcDbEntity
8
1
62
256
6
ByLayer
370
13
48
1
60
0
100
AcDbEllipse
10
42.839715
20
-42.829381
30
0
11
-50.2959836448995
21
32.4807105943955
31
0
210
0
220
0
230
1
40
0.991816
41
-0.478213979195194
42
-0.284854204699558
0
ELLIPSE
5
120
100
AcDbEntity
8
1
62
256
6
ByLayer
370
13
48
1
60
0
100
AcDbEllipse
10
2.589127
20
3.578833
30
0
11
-1.0433069730411
21
1.21305834979354
31
0
210
0
220
0
230
1
40
0.122528
41
1.60695488139681
42
3.09048474559198
0
ELLIPSE
5
121
100
AcDbEntity
8
1
62
256
6
ByLayer
370
13
48
1
60
0
100
AcDbEllipse
10
6.461917
20
-0.910002
30
0
11
-3.64038174081843
21
2.35092699670535
31
0
210
0
220
0
230
1
40
0.991816
41
-0.284854204699555
42
2.77490152135826
0
ELLIPSE
5
122
100
AcDbEntity
8
1
62
256
6
ByLayer
370
18
48
1
60
0
100
AcDbEllipse
10
21.412896
20
10.161159
30
0
11
-2.17047646581098
21
1.305875371944
31
0
210
0
220
0
230
-1
40
0.991433
41
-0.629303007438836
42
0.527042152741314
0
ELLIPSE
5
123
100
AcDbEntity
8
1
62
256
6
ByLayer
370
13
48
1
60
0
100
AcDbEllipse
10
-13.640763
20
-17.458371
30
0
11
34.8338486072274
21
-22.4953977138305
31
0
210
0
220
0
230
1
40
0.991816
41
1.2344088405133
42
1.2801010944187
0
ELLIPSE
5
124
100
AcDbEntity
8
1
62
256
6
ByLayer
370
18
48
1
60
0
100
AcDbEllipse
10
25.163395
20
9.445611
30
0
11
-2.6676700085323
21
0.367673564293298
31
0
210
0
220
0
230
-1
40
0.245023
41
-2.55619695367994
42
-2.25958134790178
0
ELLIPSE
5
125
100
AcDbEntity
8
1
62
256
6
ByLayer
370
13
48
1
60
0
100
AcDbEllipse
10
17.829307
20
9.36492
30
0
11
1.21448498929798
21
1.04164591429616
31
0
210
0
220
0
230
1
40
0.036593
41
-2.6414985388149
42
-1.69350222321101
0
ELLIPSE
5
126
100
AcDbEntity
8
1
62
256
6
ByLayer
370
18
48
1
60
0
100
AcDbEllipse
10
-66.991527
20
-60.575958
30
0
11
75.9545713516806
21
60.7945263482717
31
0
210
-2.35686736694361E-16
220
-1.64590845880394E-17
230
1
40
0.411148
41
-0.0627813842342556
42
0.115003224655443
0
ELLIPSE
5
127
100
AcDbEntity
8
1
62
256
6
ByLayer
370
18
48
1
60
0
100
AcDbEllipse
10
44.438379
20
155.219995
30
0
11
-15.1264007121127
21
-155.592713687964
31
0
210
0
220
0
230
-1
40
0.060542
41
-0.124605735980634
42
-0.0729437086579517
0
ELLIPSE
5
128
100
AcDbEntity
8
1
62
256
6
ByLayer
370
18
48
1
60
0
100
AcDbEllipse
10
24.611795
20
9.935408
30
0
11
-2.19803629912155
21
1.32245684997389
31
0
210
0
220
0
230
-1
40
0.991433
41
-2.88485295284108
42
-2.19195965676976
0
ELLIPSE
5
129
100
AcDbEntity
8
1
62
256
6
ByLayer
370
18
48
1
60
0
100
AcDbEllipse
10
22.595452
20
8.20147
30
0
11
-2.75234509895923
21
0.272204338810361
31
0
210
0
220
0
230
-1
40
0.24586
41
-2.46539280617589
42
-1.6087092673012
0
ELLIPSE
5
12A
100
AcDbEntity
8
1
62
256
6
ByLayer
370
18
48
1
60
0
100
AcDbEllipse
10
-25.921965
20
44.513322
30
0
11
-32.1872792877618
21
-49.8416088504672
31
0
210
-2.69035120036493E-16
220
-5.75406444946321E-17
230
1
40
0.991753
41
1.21464006682391
42
1.24015583221587
0
ELLIPSE
5
12B
100
AcDbEntity
8
1
62
256
6
ByLayer
370
18
48
1
60
0
100
AcDbEllipse
10
21.459347
20
9.66586
30
0
11
-2.17122185465057
21
1.30632383795531
31
0
210
0
220
0
230
-1
40
0.991433
41
-2.19195965672917
42
-0.629303007438028
0
ELLIPSE
5
12C
100
AcDbEntity
8
1
62
256
6
ByLayer
370
18
48
1
60
0
100
AcDbEllipse
10
23.469582
20
1.277356
30
0
11
-1.8481220012714
21
1.19350118073531
31
0
210
0
220
0
230
1
40
0.991816
41
-2.56443062120847
42
-0.0291654299811535
0
ELLIPSE
5
12D
100
AcDbEntity
8
1
62
256
6
ByLayer
370
18
48
1
60
0
100
AcDbEllipse
10
23.469582
20
1.277356
30
0
11
-1.8481220012714
21
1.19350118073531
31
0
210
0
220
0
230
1
40
0.991816
41
-3.11234417451713
42
-2.56443062120847
0
ELLIPSE
5
12E
100
AcDbEntity
8
1
62
256
6
ByLayer
370
18
48
1
60
0
100
AcDbEllipse
10
18.578692
20
13.765485
30
0
11
-1.82027655154508
21
-3.02472835921907
31
0
210
0
220
0
230
-1
40
0.840613
41
-1.29650453222194
42
-0.852892090296997
0
ELLIPSE
5
12F
100
AcDbEntity
8
1
62
256
6
ByLayer
370
13
48
1
60
0
100
AcDbEllipse
10
-26.37798
20
43.807189
30
0
11
-50.2959836448995
21
32.4807105943955
31
0
210
0
220
0
230
1
40
0.991816
41
2.77490152135826
42
2.96862830074088
0
ELLIPSE
5
130
100
AcDbEntity
8
1
62
256
6
ByLayer
370
18
48
1
60
0
100
AcDbEllipse
10
23.538845
20
1.384609
30
0
11
1.84812200127141
21
-1.1935011807353
31
0
210
0
220
0
230
1
40
0.991816
41
0
42
6.28318530717959
0
ELLIPSE
5
131
100
AcDbEntity
8
1
62
256
6
ByLayer
370
18
48
1
60
0
100
AcDbEllipse
10
-1.760403
20
23.012451
30
0
11
-5.64056555813657
21
-8.4984179533478
31
0
210
0
220
0
230
-1
40
0.999996
41
-1.57661968467301
42
-1.56627125603723
0
ELLIPSE
5
132
100
AcDbEntity
8
1
62
256
6
ByLayer
370
18
48
1
60
0
100
AcDbEllipse
10
20.946422
20
12.842178
30
0
11
-0.300162235528571
21
-3.23610918115605
31
0
210
0
220
0
230
1
40
0.094469
41
0
42
1.36099689295999
0
ELLIPSE
5
133
100
AcDbEntity
8
1
62
256
6
ByLayer
370
18
48
1
60
0
100
AcDbEllipse
10
20.946422
20
12.842178
30
0
11
-0.300162235528571
21
-3.23610918115605
31
0
210
0
220
0
230
1
40
0.094469
41
-1.12822442246005
42
0
0
ELLIPSE
5
134
100
AcDbEntity
8
1
62
256
6
ByLayer
370
13
48
1
60
0
100
AcDbEllipse
10
14.41009
20
-1.257014
30
0
11
-12.6530132633442
21
-10.3628582548275
31
0
210
0
220
0
230
-1
40
0.046651
41
-3.03076357727014
42
-2.91607874967408
0
ELLIPSE
5
135
100
AcDbEntity
8
1
62
256
6
ByLayer
370
13
48
1
60
0
100
AcDbEllipse
10
13.813158
20
13.085346
30
0
11
-10.3058304129944
21
8.31996820934399
31
0
210
0
220
0
230
-1
40
0.803166
41
2.12906961981576
42
2.2737889514421
0
ELLIPSE
5
136
100
AcDbEntity
8
1
62
256
6
ByLayer
370
13
48
1
60
0
100
AcDbEllipse
10
14.409428
20
13.139762
30
0
11
-8.9258615276805
21
10.1965934710689
31
0
210
0
220
0
230
-1
40
0.815574
41
1.96744122239686
42
2.10429392656139
0
ELLIPSE
5
137
100
AcDbEntity
8
1
62
256
6
ByLayer
370
18
48
1
60
0
100
AcDbEllipse
10
19.51862
20
12.556144
30
0
11
-65.3045063643549
21
-4.9231676793498
31
0
210
0
220
0
230
-1
40
0.05521
41
-1.63761122682741
42
-1.61954418208043
0
ELLIPSE
5
138
100
AcDbEntity
8
1
62
256
6
ByLayer
370
18
48
1
60
0
100
AcDbEllipse
10
20.278838
20
6.366971
30
0
11
-0.184715221863736
21
-1.99145180378834
31
0
210
0
220
0
230
1
40
0.094469
41
2.81876360028677
42
-2.80119659113498
0
ELLIPSE
5
139
100
AcDbEntity
8
1
62
256
6
ByLayer
370
13
48
1
60
0
100
AcDbEllipse
10
38.271902
20
10.816698
30
0
11
-12.1863843099101
21
-6.31784124810321
31
0
210
0
220
0
230
-1
40
0.760906
41
0.405065363867741
42
0.815592910824894
0
ELLIPSE
5
13A
100
AcDbEntity
8
1
62
256
6
ByLayer
370
18
48
1
60
0
100
AcDbEllipse
10
22.932151
20
9.464377
30
0
11
0.281486745557235
21
-0.103755539975448
31
0
210
0
220
0
230
1
40
0.938407
41
-2.86466400963703
42
-1.11933475764268
0
ELLIPSE
5
13B
100
AcDbEntity
8
1
62
256
6
ByLayer
370
18
48
1
60
0
100
AcDbEllipse
10
21.493508
20
12.0824
30
0
11
-0.184715221863736
21
-1.99145180378834
31
0
210
0
220
0
230
1
40
0.094469
41
-1.89362538009792
42
-1.23040026434009
0
ELLIPSE
5
13C
100
AcDbEntity
8
1
62
256
6
ByLayer
370
18
48
1
60
0
100
AcDbEllipse
10
80.780524
20
14.932345
30
0
11
-65.8470493181107
21
4.78115750189448
31
0
210
0
220
0
230
-1
40
0.173071
41
-0.714634918899388
42
-0.65992037828539
0
ELLIPSE
5
13D
100
AcDbEntity
8
1
62
256
6
ByLayer
370
18
48
1
60
0
100
AcDbEllipse
10
-25.381803
20
16.720837
30
0
11
-63.2574795712762
21
9.89989080556634
31
0
210
0
220
0
230
-1
40
0.168639
41
2.40908705360258
42
2.4638015939144
0
ELLIPSE
5
13E
100
AcDbEntity
8
1
62
256
6
ByLayer
370
18
48
1
60
0
100
AcDbEllipse
10
35.880089
20
19.09704
30
0
11
-65.5941000677914
21
-5.41434824450524
31
0
210
0
220
0
230
-1
40
0.016638
41
-1.47724700867941
42
-1.45917994223516
0
ELLIPSE
5
13F
100
AcDbEntity
8
1
62
256
6
ByLayer
370
13
48
1
60
0
100
AcDbEllipse
10
26.352265
20
13.336069
30
0
11
0.137779192381499
21
0.788046251273808
31
0
210
0
220
0
230
1
40
0.103346
41
-1.67752137543757
42
-1.01125977119938
0
ELLIPSE
5
140
100
AcDbEntity
8
1
62
256
6
ByLayer
370
18
48
1
60
0
100
AcDbEllipse
10
22.980417
20
11.944483
30
0
11
0.184715221863735
21
1.99145180378834
31
0
210
0
220
0
230
1
40
0.094469
41
1.24796727349186
42
1.91119238924972
0
ELLIPSE
5
141
100
AcDbEntity
8
1
62
256
6
ByLayer
370
13
48
1
60
0
100
AcDbEllipse
10
13.922469
20
-0.625471
30
0
11
-12.5863407089124
21
-9.56274981124296
31
0
210
0
220
0
230
-1
40
0.049704
41
-3.08133619837587
42
-2.93036343957575
0
ELLIPSE
5
142
100
AcDbEntity
8
1
62
256
6
ByLayer
370
18
48
1
60
0
100
AcDbEllipse
10
31.702524
20
15.348103
30
0
11
0.184715221863735
21
1.99145180378834
31
0
210
0
220
0
230
1
40
0.094469
41
1.72661703582201
42
2.34752470224829
0
ELLIPSE
5
143
100
AcDbEntity
8
1
62
256
6
ByLayer
370
18
48
1
60
0
100
AcDbEllipse
10
29.252659
20
8.721047
30
0
11
-0.298998810004542
21
0.0244890101038836
31
0
210
0
220
0
230
1
40
0.112753
41
-3.14157977548674
42
-1.49148293488231
0
ELLIPSE
5
144
100
AcDbEntity
8
1
62
256
6
ByLayer
370
18
48
1
60
0
100
AcDbEllipse
10
19.383733
20
-3.579272
30
0
11
-1.06211252571648
21
-11.4508478717829
31
0
210
0
220
0
230
1
40
0.094469
41
2.89184736577123
42
2.96411440000273
0
ELLIPSE
5
145
100
AcDbEntity
8
1
62
256
6
ByLayer
370
18
48
1
60
0
100
AcDbEllipse
10
30.960548
20
18.298063
30
0
11
0.561767697903998
21
-0.560763868389933
31
0
210
0
220
0
230
1
40
0.989122
41
0.990313068784767
42
2.14980330764369
0
ELLIPSE
5
146
100
AcDbEntity
8
1
62
256
6
ByLayer
370
13
48
1
60
0
100
AcDbEllipse
10
26.440426
20
13.321205
30
0
11
0.127893516915425
21
0.789710863753946
31
0
210
0
220
0
230
1
40
0.050952
41
-1.66350397746829
42
-0.997242373230047
0
ELLIPSE
5
147
100
AcDbEntity
8
1
62
256
6
ByLayer
370
18
48
1
60
0
100
AcDbEllipse
10
27.976404
20
8.961496
30
0
11
0.996662700015138
21
-0.0816300336796124
31
0
210
0
220
0
230
1
40
0.112753
41
-3.14158568810606
42
-1.4914829348823
0
ELLIPSE
5
148
100
AcDbEntity
8
1
62
256
6
ByLayer
370
18
48
1
60
0
100
AcDbEllipse
10
31.702524
20
15.348103
30
0
11
0.184715221863735
21
1.99145180378834
31
0
210
0
220
0
230
1
40
0.094469
41
1.68429958649045
42
1.72661703582201
0
ELLIPSE
5
149
100
AcDbEntity
8
1
62
256
6
ByLayer
370
13
48
1
60
0
100
AcDbEllipse
10
25.512806
20
14.167953
30
0
11
0.770985958331764
21
0.213496257707839
31
0
210
0
220
0
230
1
40
0.197129
41
-1.54609191316085
42
-0.742976620310745
0
ELLIPSE
5
14A
100
AcDbEntity
8
1
62
256
6
ByLayer
370
18
48
1
60
0
100
AcDbEllipse
10
22.459606
20
12.283352
30
0
11
-1.06211252571648
21
-11.4508478717829
31
0
210
0
220
0
230
1
40
0.094469
41
-1.83583122781839
42
-1.74827458038196
0
ELLIPSE
5
14B
100
AcDbEntity
8
1
62
256
6
ByLayer
370
18
48
1
60
0
100
AcDbEllipse
10
21.867943
20
8.42784
30
0
11
0.74476701428685
21
-0.274519866185038
31
0
210
0
220
0
230
1
40
0.938407
41
-2.86466400963702
42
-1.11933475764268
0
ELLIPSE
5
14C
100
AcDbEntity
8
1
62
256
6
ByLayer
370
13
48
1
60
0
100
AcDbEllipse
10
21.454085
20
12.79509
30
0
11
0.252862944353776
21
2.72616604935806
31
0
210
0
220
0
230
1
40
0.094469
41
1.83910779872359
42
2.06186621771054
0
ELLIPSE
5
14D
100
AcDbEntity
8
1
62
256
6
ByLayer
370
18
48
1
60
0
100
AcDbEllipse
10
30.960548
20
18.298063
30
0
11
0.561767697903998
21
-0.560763868389933
31
0
210
0
220
0
230
1
40
0.989122
41
2.14980330764369
42
2.44272281421139
0
ELLIPSE
5
14E
100
AcDbEntity
8
1
62
256
6
ByLayer
370
13
48
1
60
0
100
AcDbEllipse
10
41.585563
20
18.567837
30
0
11
-14.5038339889121
21
-4.5582700676422
31
0
210
0
220
0
230
-1
40
0.704957
41
-0.238489943914918
42
-0.0937706122969577
0
ELLIPSE
5
14F
100
AcDbEntity
8
1
62
256
6
ByLayer
370
18
48
1
60
0
100
AcDbEllipse
10
32.939115
20
19.36983
30
0
11
1.06211252571648
21
11.450847871783
31
0
210
0
220
0
230
1
40
0.094469
41
2.20217390253233
42
2.28973054996876
0
ELLIPSE
5
150
100
AcDbEntity
8
1
62
256
6
ByLayer
370
18
48
1
60
0
100
AcDbEllipse
10
19.433238
20
13.401004
30
0
11
-1.06211252571648
21
-11.4508478717829
31
0
210
0
220
0
230
1
40
0.094469
41
1.30576142577141
42
1.3914944639757
0
ELLIPSE
5
151
100
AcDbEntity
8
1
62
256
6
ByLayer
370
18
48
1
60
0
100
AcDbEllipse
10
31.452206
20
19.507746
30
0
11
-1.06211252571648
21
-11.4508478717829
31
0
210
0
220
0
230
1
40
0.094469
41
-1.35754893556889
42
-0.939418751057462
0
ELLIPSE
5
152
100
AcDbEntity
8
1
62
256
6
ByLayer
370
13
48
1
60
0
100
AcDbEllipse
10
16.53055
20
20.782068
30
0
11
-7.76477385237632
21
8.87020732796369
31
0
210
0
220
0
230
-1
40
0.815574
41
2.39509459025064
42
2.8366567751672
0
ELLIPSE
5
153
100
AcDbEntity
8
1
62
256
6
ByLayer
370
13
48
1
60
0
100
AcDbEllipse
10
41.122736
20
18.769236
30
0
11
-14.351537626861
21
-5.70044880969642
31
0
210
0
220
0
230
-1
40
0.734741
41
-0.161583990024442
42
-0.0247312858676959
0
ELLIPSE
5
154
100
AcDbEntity
8
1
62
256
6
ByLayer
370
13
48
1
60
0
100
AcDbEllipse
10
17.126819
20
20.836484
30
0
11
-6.18992445690839
21
10.5754262604719
31
0
210
0
220
0
230
-1
40
0.805483
41
2.25259902352354
42
2.66312657048159
0
ELLIPSE
5
155
100
AcDbEntity
8
1
62
256
6
ByLayer
370
18
48
1
60
0
100
AcDbEllipse
10
30.960548
20
18.298063
30
0
11
0.561767697903998
21
-0.560763868389933
31
0
210
0
220
0
230
1
40
0.989122
41
0.697393562217059
42
0.990313068784767
0
ELLIPSE
5
156
100
AcDbEntity
8
1
62
256
6
ByLayer
370
18
48
1
60
0
100
AcDbEllipse
10
23.946516
20
12.145436
30
0
11
1.06211252571648
21
11.450847871783
31
0
210
0
220
0
230
1
40
0.094469
41
1.39331807320783
42
1.81144825771926
0
ELLIPSE
5
157
100
AcDbEntity
8
1
62
256
6
ByLayer
370
13
48
1
60
0
100
AcDbEllipse
10
38.73473
20
10.615299
30
0
11
-12.4846709450967
21
-4.95892701409724
31
0
210
0
220
0
230
-1
40
0.734741
41
0.266069377611145
42
0.707631562527678
0
ELLIPSE
5
158
100
AcDbEntity
8
1
62
256
6
ByLayer
370
18
48
1
60
0
100
AcDbEllipse
10
30.675599
20
6.375445
30
0
11
0.184715221863735
21
1.99145180378834
31
0
210
0
220
0
230
1
40
0.094469
41
0.113503259695539
42
0.221931056377396
0
ELLIPSE
5
159
100
AcDbEntity
8
1
62
256
6
ByLayer
370
18
48
1
60
0
100
AcDbEllipse
10
33.163364
20
-2.996449
30
0
11
-65.847028691994
21
4.78115532085202
31
0
210
0
220
0
230
-1
40
0.173071
41
1.4803726026546
42
1.49843966429515
0
ELLIPSE
5
15A
100
AcDbEntity
8
1
62
256
6
ByLayer
370
18
48
1
60
0
100
AcDbEllipse
10
30.374749
20
8.753373
30
0
11
-0.791101018137016
21
0.0647938392331919
31
0
210
0
220
0
230
1
40
0.112753
41
3.04637312030297
42
-1.49148293488228
0
ELLIPSE
5
15B
100
AcDbEntity
8
1
62
256
6
ByLayer
370
18
48
1
60
0
100
AcDbEllipse
10
24.260205
20
8.325233
30
0
11
-0.938289151857448
21
0.345851799918162
31
0
210
0
220
0
230
1
40
0.938407
41
-2.86466400963702
42
-1.11933475764268
0
ELLIPSE
5
15C
100
AcDbEntity
8
1
62
256
6
ByLayer
370
13
48
1
60
0
100
AcDbEllipse
10
27.341987
20
12.608374
30
0
11
0.733138971621423
21
0.320167531598509
31
0
210
0
220
0
230
1
40
0.511841
41
1.21154307277249
42
2.01465836562258
0
ELLIPSE
5
15D
100
AcDbEntity
8
1
62
256
6
ByLayer
370
18
48
1
60
0
100
AcDbEllipse
10
22.66182
20
18.371429
30
0
11
0.792366890033291
21
-0.0468377420353612
31
0
210
0
220
0
230
1
40
0.332367
41
1.29593143330118
42
3.04126068529549
0
POINT
5
6C
100
AcDbEntity
8
81
62
256
6
ByLayer
370
18
48
1
60
0
100
AcDbPoint
10
31.75
20
19.0875
30
0
39
0
210
0
220
0
230
1
50
360
0
POINT
5
6E
100
AcDbEntity
8
80
62
256
6
ByLayer
370
18
48
1
60
0
100
AcDbPoint
10
0
20
0
30
0
39
0
210
0
220
0
230
1
50
360
0
SPLINE
5
15E
100
AcDbEntity
8
1
62
256
6
ByLayer
370
18
48
1
60
0
100
AcDbSpline
70
4
71
3
72
8
73
4
40
0
40
0
40
0
40
0
40
1
40
1
40
1
40
1
41
1
10
26.7593632285445
20
8.70530677920345
30
0
41
1
10
26.7694312927457
20
8.70601287032096
30
0
41
1
10
26.7795143877946
20
8.70667886387611
30
0
41
1
10
26.7894147811689
20
8.70729439214759
30
0
0
SPLINE
5
15F
100
AcDbEntity
8
1
62
256
6
ByLayer
370
18
48
1
60
0
100
AcDbSpline
70
4
71
3
72
27
73
23
40
0
40
0
40
0
40
0
40
0.03125
40
0.03125
40
0.0624999999999999
40
0.0937499999999999
40
0.0937499999999999
40
0.125
40
0.125
40
0.1875
40
0.1875
40
0.249999999999999
40
0.249999999999999
40
0.374999999999999
40
0.374999999999999
40
0.499999999999998
40
0.499999999999998
40
0.624999999999998
40
0.624999999999998
40
0.749999999999999
40
0.749999999999999
40
1
40
1
40
1
40
1
41
1
10
21.5640081680011
20
14.2592024465181
30
0
41
1
10
21.5614560866204
20
14.2280427837707
30
0
41
1
10
21.5586692752623
20
14.1963401944024
30
0
41
1
10
21.5527269179138
20
14.1330220829071
30
0
41
1
10
21.5464755948682
20
14.0703721961258
30
0
41
1
10
21.5396675932469
20
14.0089262824253
30
0
41
1
10
21.5326080195891
20
13.9480244635994
30
0
41
1
10
21.5289377357411
20
13.9177302243634
30
0
41
1
10
21.5176913066258
20
13.8284267501435
30
0
41
1
10
21.5099518324809
20
13.771477902336
30
0
41
1
10
21.4941244381139
20
13.6613070756457
30
0
41
1
10
21.4860059473434
20
13.6079122313622
30
0
41
1
10
21.4614529157339
20
13.4532477414344
30
0
41
1
10
21.4450686474842
20
13.3587386092745
30
0
41
1
10
21.4122830203762
20
13.1791544555952
30
0
41
1
10
21.3958813792107
20
13.0942352691988
30
0
41
1
10
21.3630667615172
20
12.9306540792999
30
0
41
1
10
21.346653704607
20
12.8520364472223
30
0
41
1
10
21.3138195260541
20
12.6992529600281
30
0
41
1
10
21.2974740364907
20
12.6254544143195
30
0
41
1
10
21.2487016863692
20
12.4101620155133
30
0
41
1
10
21.2164768227501
20
12.2743867172952
30
0
41
1
10
21.1844226184578
20
12.1431733152955
30
0
0
SPLINE
5
160
100
AcDbEntity
8
1
62
256
6
ByLayer
370
18
48
1
60
0
100
AcDbSpline
70
4
71
3
72
8
73
4
40
0
40
0
40
0
40
0
40
1
40
1
40
1
40
1
41
1
10
16.6320814643914
20
8.61941438957953
30
0
41
1
10
17.0223640387601
20
8.16426140170825
30
0
41
1
10
17.4019574045406
20
7.70012374749277
30
0
41
1
10
17.770880490371
20
7.22701650936702
30
0
0
SPLINE
5
161
100
AcDbEntity
8
1
62
256
6
ByLayer
370
18
48
1
60
0
100
AcDbSpline
70
4
71
3
72
17
73
13
40
0
40
0
40
0
40
0
40
0.125000000000001
40
0.125000000000001
40
0.250000000000002
40
0.250000000000002
40
0.500000000000004
40
0.625000000000004
40
0.625000000000004
40
0.750000000000005
40
0.750000000000005
40
1
40
1
40
1
40
1
41
1
10
25.4059406920757
20
7.9299037296515
30
0
41
1
10
25.4233346012907
20
7.94207003212469
30
0
41
1
10
25.4411496740433
20
7.95463649905284
30
0
41
1
10
25.4777427349606
20
7.98068433765926
30
0
41
1
10
25.4966158008316
20
7.99423552834855
30
0
41
1
10
25.5536387579691
20
8.03555182120468
30
0
41
1
10
25.6118626077128
20
8.07846717882322
30
0
41
1
10
25.6720330322688
20
8.1239745244128
30
0
41
1
10
25.7125950826432
20
8.15490987315764
30
0
41
1
10
25.7329201180984
20
8.17054014221361
30
0
41
1
10
25.7929448448788
20
8.21705936476562
30
0
41
1
10
25.8321517031501
20
8.24792386816782
30
0
41
1
10
25.8706836755076
20
8.27866474238712
30
0
0
SPLINE
5
162
100
AcDbEntity
8
1
62
256
6
ByLayer
370
18
48
1
60
0
100
AcDbSpline
70
4
71
3
72
14
73
10
40
0
40
0
40
0
40
0
40
0.25
40
0.25
40
0.5
40
0.5
40
0.75
40
0.75
40
1
40
1
40
1
40
1
41
1
10
24.7002780261258
20
7.56566576887639
30
0
41
1
10
24.7774828124798
20
7.58121525180059
30
0
41
1
10
24.8517264836551
20
7.60179673867376
30
0
41
1
10
24.9903215379658
20
7.65085392240422
30
0
41
1
10
25.0548788526846
20
7.67931694907821
30
0
41
1
10
25.174016468257
20
7.7425753780017
30
0
41
1
10
25.2285957009111
20
7.77737761409611
30
0
41
1
10
25.3269200462685
20
7.85179148907423
30
0
41
1
10
25.3696473767468
20
7.89064663216135
30
0
41
1
10
25.4059406920757
20
7.92990372965164
30
0
0
SPLINE
5
163
100
AcDbEntity
8
1
62
256
6
ByLayer
370
18
48
1
60
0
100
AcDbSpline
70
4
71
3
72
14
73
10
40
0
40
0
40
0
40
0
40
0.25
40
0.25
40
0.5
40
0.5
40
0.75
40
0.75
40
1
40
1
40
1
40
1
41
1
10
26.7593632285445
20
8.70530677920348
30
0
41
1
10
26.7045335161087
20
8.70146147466915
30
0
41
1
10
26.6499020646277
20
8.69410195693752
30
0
41
1
10
26.5441806929716
20
8.67287958976004
30
0
41
1
10
26.4928065232465
20
8.65902605047415
30
0
41
1
10
26.3932349354115
20
8.62498319679429
30
0
41
1
10
26.3447448816974
20
8.60461053104979
30
0
41
1
10
26.2538924598175
20
8.55874921857486
30
0
41
1
10
26.2112847855362
20
8.53322289421021
30
0
41
1
10
26.1717722904509
20
8.50537358165639
30
0
0
SPLINE
5
164
100
AcDbEntity
8
1
62
256
6
ByLayer
370
18
48
1
60
0
100
AcDbSpline
70
4
71
3
72
8
73
4
40
0
40
0
40
0
40
0
40
1
40
1
40
1
40
1
41
1
10
19.5439584221346
20
8.30110318499564
30
0
41
1
10
19.5481844395181
20
8.28491190343493
30
0
41
1
10
19.5520037598386
20
8.26871080330807
30
0
41
1
10
19.5553198784754
20
8.25248301464023
30
0
0
SPLINE
5
165
100
AcDbEntity
8
1
62
256
6
ByLayer
370
18
48
1
60
0
100
AcDbSpline
70
4
71
3
72
12
73
8
40
0
40
0
40
0
40
0
40
0.25
40
0.25
40
0.5
40
0.5
40
1
40
1
40
1
40
1
41
1
10
20.2712296139015
20
11.450851729894
30
0
41
1
10
20.3578612029262
20
11.4932332298307
30
0
41
1
10
20.4427205621541
20
11.5402307934179
30
0
41
1
10
20.6063336714089
20
11.6415071192842
30
0
41
1
10
20.6852746015254
20
11.6958492039304
30
0
41
1
10
20.9136853620711
20
11.8694635377413
30
0
41
1
10
21.0548143640444
20
11.9992184984652
30
0
41
1
10
21.1844226184578
20
12.1431733152955
30
0
0
SPLINE
5
166
100
AcDbEntity
8
1
62
256
6
ByLayer
370
18
48
1
60
0
100
AcDbSpline
70
4
71
3
72
20
73
16
40
0
40
0
40
0
40
0
40
0.177889236752063
40
0.177889236752063
40
0.266833855128088
40
0.266833855128088
40
0.355778473504113
40
0.355778473504113
40
0.444723091880137
40
0.444723091880137
40
0.533667710256162
40
0.533667710256162
40
0.711556947008211
40
0.711556947008211
40
1
40
1
40
1
40
1
41
1
10
19.9176006163301
20
9.55647813080918
30
0
41
1
10
19.8782090818594
20
9.56013185520032
30
0
41
1
10
19.8407008728132
20
9.56870609446142
30
0
41
1
10
19.7870544935195
20
9.58844437352496
30
0
41
1
10
19.7696027526092
20
9.59621748514721
30
0
41
1
10
19.7366351351705
20
9.61351369866745
30
0
41
1
10
19.7209667423603
20
9.62308584384229
30
0
41
1
10
19.6911437097344
20
9.64396422076609
30
0
41
1
10
19.6769066356729
20
9.65535102962494
30
0
41
1
10
19.6503520905949
20
9.67938642832306
30
0
41
1
10
19.6380458139439
20
9.69199948151945
30
0
41
1
10
19.6037247802696
20
9.73146278583641
30
0
41
1
10
19.5842042047213
20
9.7600766590304
30
0
41
1
10
19.5414170234231
20
9.83939043082816
30
0
41
1
10
19.5238529662822
20
9.89119210545729
30
0
41
1
10
19.5133312454471
20
9.94525078685632
30
0
0
SPLINE
5
167
100
AcDbEntity
8
1
62
256
6
ByLayer
370
18
48
1
60
0
100
AcDbSpline
70
4
71
3
72
10
73
6
40
0
40
0
40
0
40
0
40
0.5
40
0.5
40
1
40
1
40
1
40
1
41
1
10
17.6540205983049
20
4.25812388357562
30
0
41
1
10
16.5296906273385
20
3.12620740228775
30
0
41
1
10
15.3607301821887
20
2.05068501823794
30
0
41
1
10
12.9361929414792
20
0.0113948963360144
30
0
41
1
10
11.6806238664662
20
-0.952386418299994
30
0
41
1
10
10.381629731637
20
-1.86048730440814
30
0
0
SPLINE
5
168
100
AcDbEntity
8
1
62
256
6
ByLayer
370
18
48
1
60
0
100
AcDbSpline
70
4
71
3
72
10
73
6
40
0
40
0
40
0
40
0
40
0.5
40
0.5
40
1
40
1
40
1
40
1
41
1
10
5.5930842426942
20
3.40045924752235
30
0
41
1
10
6.85163978393192
20
4.48055838268803
30
0
41
1
10
8.15855108172167
20
5.5009175477089
30
0
41
1
10
10.8685484809151
20
7.42236492147751
30
0
41
1
10
12.271649119925
20
8.32343864854474
30
0
41
1
10
13.7226440813222
20
9.16312959796926
30
0
0
SPLINE
5
169
100
AcDbEntity
8
1
62
256
6
ByLayer
370
18
48
1
60
0
100
AcDbSpline
70
4
71
3
72
19
73
15
40
0
40
0
40
0
40
0
40
0.125
40
0.125
40
0.25
40
0.374999999999999
40
0.374999999999999
40
0.499999999999999
40
0.499999999999999
40
0.749999999999999
40
0.749999999999999
40
0.874999999999999
40
0.874999999999999
40
1
40
1
40
1
40
1
41
1
10
29.1066059597883
20
8.73052428670087
30
0
41
1
10
29.1300531396687
20
8.72981284543437
30
0
41
1
10
29.1537745214449
20
8.72880485501329
30
0
41
1
10
29.2009586379024
20
8.72619616641688
30
0
41
1
10
29.2481080790329
20
8.72298907019155
30
0
41
1
10
29.2951856444747
20
8.7185371583258
30
0
41
1
10
29.3422256935247
20
8.71343565453779
30
0
41
1
10
29.3654129871491
20
8.71058962777283
30
0
41
1
10
29.4325751905889
20
8.70143193445239
30
0
41
1
10
29.4748413266691
20
8.69443390100838
30
0
41
1
10
29.5353798855379
20
8.68282985286297
30
0
41
1
10
29.5551172339863
20
8.67876552128465
30
0
41
1
10
29.5931257441578
20
8.67043600136125
30
0
41
1
10
29.6114876868814
20
8.66615460566592
30
0
41
1
10
29.6293201233222
20
8.6617670085252
30
0
0
SPLINE
5
16A
100
AcDbEntity
8
1
62
256
6
ByLayer
370
18
48
1
60
0
100
AcDbSpline
70
4
71
3
72
16
73
12
40
0
40
0
40
0
40
0
40
0.125
40
0.125
40
0.25
40
0.25
40
0.5
40
0.5
40
0.75
40
0.75
40
1
40
1
40
1
40
1
41
1
10
20.2712296139015
20
11.450851729894
30
0
41
1
10
20.2584702992657
20
11.4446096777914
30
0
41
1
10
20.2457468963177
20
11.4387989783272
30
0
41
1
10
20.221604750028
20
11.428574669046
30
0
41
1
10
20.2100372523232
20
11.4240828317595
30
0
41
1
10
20.1766152317805
20
11.4122366927028
30
0
41
1
10
20.1570557414918
20
11.4068406404957
30
0
41
1
10
20.1214400718935
20
11.399214195166
30
0
41
1
10
20.1055401774181
20
11.3970360587658
30
0
41
1
10
20.0765718155532
20
11.394827314903
30
0
41
1
10
20.0633744523135
20
11.3947942489731
30
0
41
1
10
20.0511626758249
20
11.395507803524
30
0
0
SPLINE
5
16B
100
AcDbEntity
8
1
62
256
6
ByLayer
370
18
48
1
60
0
100
AcDbSpline
70
4
71
3
72
14
73
10
40
0
40
0
40
0
40
0
40
0.25
40
0.25
40
0.5
40
0.5
40
0.75
40
0.75
40
1
40
1
40
1
40
1
41
1
10
26.1717722904509
20
8.5053735816563
30
0
41
1
10
26.1488635019545
20
8.4892269422277
30
0
41
1
10
26.1247497008277
20
8.47195752956239
30
0
41
1
10
26.0756415930261
20
8.43617414470017
30
0
41
1
10
26.0504420028048
20
8.41751721179713
30
0
41
1
10
25.9985974317883
20
8.37848993137786
30
0
41
1
10
25.9726605238953
20
8.35864993426239
30
0
41
1
10
25.9213579413486
20
8.31883093187685
30
0
41
1
10
25.8956838574399
20
8.29860993079092
30
0
41
1
10
25.8706836755076
20
8.27866474238712
30
0
0
SPLINE
5
16C
100
AcDbEntity
8
1
62
256
6
ByLayer
370
18
48
1
60
0
100
AcDbSpline
70
4
71
3
72
8
73
4
40
0
40
0
40
0
40
0
40
1
40
1
40
1
40
1
41
1
10
19.5520803617452
20
18.2579209297344
30
0
41
1
10
19.5230390241968
20
18.2579144557669
30
0
41
1
10
19.4940293426729
20
18.2558075480016
30
0
41
1
10
19.4651709530077
20
18.2516088555844
30
0
0
SPLINE
5
16D
100
AcDbEntity
8
1
62
256
6
ByLayer
370
18
48
1
60
0
100
AcDbSpline
70
4
71
3
72
8
73
4
40
0
40
0
40
0
40
0
40
1
40
1
40
1
40
1
41
1
10
30.4897045150079
20
8.44286464242811
30
0
41
1
10
30.6519520871895
20
8.38175143481618
30
0
41
1
10
30.8141996291261
20
8.32063811795376
30
0
41
1
10
30.9764471395818
20
8.25952468741806
30
0
0
SPLINE
5
16E
100
AcDbEntity
8
1
62
256
6
ByLayer
370
18
48
1
60
0
100
AcDbSpline
70
4
71
3
72
30
73
26
40
0
40
0
40
0
40
0
40
0.125000000000002
40
0.125000000000002
40
0.187500000000003
40
0.187500000000003
40
0.250000000000003
40
0.250000000000003
40
0.375000000000003
40
0.375000000000003
40
0.437500000000002
40
0.437500000000002
40
0.500000000000002
40
0.500000000000002
40
0.625000000000002
40
0.625000000000002
40
0.687500000000001
40
0.687500000000001
40
0.750000000000001
40
0.750000000000001
40
0.875
40
0.875
40
0.9375
40
0.9375
40
1
40
1
40
1
40
1
41
1
10
19.0473458807702
20
9.88250860862095
30
0
41
1
10
19.0437437816296
20
9.98615393707644
30
0
41
1
10
19.0482427112557
20
10.0880878019271
30
0
41
1
10
19.0667283037511
20
10.2379991584384
30
0
41
1
10
19.0748538428365
20
10.2874685282839
30
0
41
1
10
19.0950487021938
20
10.3852909906265
30
0
41
1
10
19.1071224737068
20
10.4335607704801
30
0
41
1
10
19.1484924544233
20
10.5740873544701
30
0
41
1
10
19.1830771760839
20
10.662922109479
30
0
41
1
10
19.2444967925442
20
10.7882395496053
30
0
41
1
10
19.2665649476815
20
10.8286827337986
30
0
41
1
10
19.3137656785521
20
10.906703873931
30
0
41
1
10
19.3388040416758
20
10.9440951220341
30
0
41
1
10
19.4169069810886
20
11.0499575884367
30
0
41
1
10
19.4732935706314
20
11.1126961048335
30
0
41
1
10
19.562252420462
20
11.1941337038824
30
0
41
1
10
19.5927943344436
20
11.2192718137562
30
0
41
1
10
19.6540553521159
20
11.264433669455
30
0
41
1
10
19.6847014104815
20
11.2844375168469
30
0
41
1
10
19.7759208035774
20
11.3369228213751
30
0
41
1
10
19.8357674148842
20
11.3618732836139
30
0
41
1
10
19.9211287775272
20
11.384967862875
30
0
41
1
10
19.94894959359
20
11.3902876098528
30
0
41
1
10
20.0022197158965
20
11.3962533910479
30
0
41
1
10
20.0274266913832
20
11.3968947368446
30
0
41
1
10
20.0511626758249
20
11.395507803524
30
0
0
SPLINE
5
16F
100
AcDbEntity
8
1
62
256
6
ByLayer
370
18
48
1
60
0
100
AcDbSpline
70
4
71
3
72
32
73
28
40
0
40
0
40
0
40
0
40
0.0624999999999998
40
0.0624999999999998
40
0.125
40
0.125
40
0.249999999999997
40
0.249999999999997
40
0.281249999999997
40
0.281249999999997
40
0.312499999999998
40
0.312499999999998
40
0.374999999999998
40
0.374999999999998
40
0.5
40
0.5
40
0.5625
40
0.5625
40
0.625
40
0.625
40
0.75
40
0.75
40
0.875000000000001
40
0.875000000000001
40
0.9375
40
0.9375
40
1
40
1
40
1
40
1
41
1
10
17.770880490371
20
7.22701650936702
30
0
41
1
10
17.8139239225797
20
7.17181758006751
30
0
41
1
10
17.854696034058
20
7.11458975832315
30
0
41
1
10
17.9315447392799
20
6.99593958260718
30
0
41
1
10
17.9672450188551
20
6.93506079223542
30
0
41
1
10
18.0653558872123
20
6.74964490360492
30
0
41
1
10
18.1193219532053
20
6.62162635147857
30
0
41
1
10
18.1724818743148
20
6.45611130897862
30
0
41
1
10
18.1823934929247
20
6.42273163448934
30
0
41
1
10
18.2007535918922
20
6.35541090532172
30
0
41
1
10
18.2092106670825
20
6.32141477227265
30
0
41
1
10
18.2321231052953
20
6.21962664705146
30
0
41
1
10
18.2442203370499
20
6.15172387388992
30
0
41
1
10
18.2712875853018
20
5.94790247346114
30
0
41
1
10
18.2771048844267
20
5.81187117537513
30
0
41
1
10
18.2673569606042
20
5.60766307898743
30
0
41
1
10
18.2609696887102
20
5.53958914039436
30
0
41
1
10
18.242308048578
20
5.4061444002632
30
0
41
1
10
18.2300261076652
20
5.34041929856679
30
0
41
1
10
18.184567339976
20
5.14617835966737
30
0
41
1
10
18.1427858342291
20
5.02044305942911
30
0
41
1
10
18.0362645770662
20
4.77752595960632
30
0
41
1
10
17.9729867245547
20
4.66360044400912
30
0
41
1
10
17.8639883397072
20
4.50339009211277
30
0
41
1
10
17.8252935328256
20
4.45177718870141
30
0
41
1
10
17.7431675879179
20
4.35215197889718
30
0
41
1
10
17.6995547457833
20
4.30396527651467
30
0
41
1
10
17.6540205983049
20
4.25812388357562
30
0
0
SPLINE
5
170
100
AcDbEntity
8
1
62
256
6
ByLayer
370
18
48
1
60
0
100
AcDbSpline
70
4
71
3
72
32
73
28
40
0
40
0
40
0
40
0
40
0.062500000000004
40
0.062500000000004
40
0.125000000000008
40
0.125000000000008
40
0.250000000000016
40
0.250000000000016
40
0.31250000000002
40
0.31250000000002
40
0.343750000000022
40
0.343750000000022
40
0.375000000000024
40
0.375000000000024
40
0.500000000000023
40
0.500000000000023
40
0.562500000000021
40
0.562500000000021
40
0.625000000000019
40
0.625000000000019
40
0.750000000000012
40
0.750000000000012
40
0.812500000000009
40
0.812500000000009
40
0.875000000000006
40
0.875000000000006
40
1
40
1
40
1
40
1
41
1
10
21.2172719119706
20
7.40677398660676
30
0
41
1
10
21.1540135938846
20
7.40663534315271
30
0
41
1
10
21.0904596287962
20
7.40954200915093
30
0
41
1
10
20.9627829584083
20
7.42159031364332
30
0
41
1
10
20.8983329533835
20
7.43081050535383
30
0
41
1
10
20.7075945521507
20
7.46753688895328
30
0
41
1
10
20.5833819914915
20
7.50394026256942
30
0
41
1
10
20.4016129987045
20
7.57618312580055
30
0
41
1
10
20.3417862539848
20
7.60322209687089
30
0
41
1
10
20.2532525931916
20
7.64835898059167
30
0
41
1
10
20.223902823832
20
7.66419629619634
30
0
41
1
10
20.1662272504663
20
7.69707513528479
30
0
41
1
10
20.1378280578521
20
7.71415138196036
30
0
41
1
10
19.9979984482498
20
7.8026651776083
30
0
41
1
10
19.8930130220199
20
7.88342374447384
30
0
41
1
10
19.7460047336483
20
8.01944471638527
30
0
41
1
10
19.698635436354
20
8.06741725305704
30
0
41
1
10
19.6080989576757
20
8.16794195997056
30
0
41
1
10
19.565392871696
20
8.21995604859555
30
0
41
1
10
19.4447311834494
20
8.38106913800868
30
0
41
1
10
19.3741749921677
20
8.49520122400577
30
0
41
1
10
19.2833520360222
20
8.67648964137737
30
0
41
1
10
19.2554717752891
20
8.73894405184214
30
0
41
1
10
19.2056575018104
20
8.86548757224782
30
0
41
1
10
19.183715260434
20
8.92948856808511
30
0
41
1
10
19.1265233413695
20
9.12360478483501
30
0
41
1
10
19.0998492035395
20
9.25581930993044
30
0
41
1
10
19.0847112042729
20
9.39082510534061
30
0
0
SPLINE
5
171
100
AcDbEntity
8
1
62
256
6
ByLayer
370
18
48
1
60
0
100
AcDbSpline
70
4
71
3
72
10
73
6
40
0
40
0
40
0
40
0
40
0.5
40
0.5
40
1
40
1
40
1
40
1
41
1
10
21.2172719119706
20
7.40677398660676
30
0
41
1
10
21.2595520035654
20
7.40686665201605
30
0
41
1
10
21.3032235215215
20
7.40783915144192
30
0
41
1
10
21.3910001611459
20
7.41163762365969
30
0
41
1
10
21.435076650054
20
7.41444618957416
30
0
41
1
10
21.4793404682842
20
7.41816002707526
30
0
0
SPLINE
5
172
100
AcDbEntity
8
1
62
256
6
ByLayer
370
18
48
1
60
0
100
AcDbSpline
70
4
71
3
72
32
73
28
40
0
40
0
40
0
40
0
40
0.125000000000003
40
0.125000000000003
40
0.187500000000005
40
0.187500000000005
40
0.250000000000006
40
0.250000000000006
40
0.375000000000008
40
0.375000000000008
40
0.437500000000009
40
0.437500000000009
40
0.50000000000001
40
0.50000000000001
40
0.625000000000011
40
0.625000000000011
40
0.68750000000001
40
0.68750000000001
40
0.71875000000001
40
0.71875000000001
40
0.750000000000009
40
0.750000000000009
40
0.875000000000006
40
0.875000000000006
40
0.937500000000003
40
0.937500000000003
40
1
40
1
40
1
40
1
41
1
10
13.7226440813221
20
9.16312959796943
30
0
41
1
10
13.83259712069
20
9.22675943437494
30
0
41
1
10
13.9477377219808
20
9.28037561393245
30
0
41
1
10
14.1281901112374
20
9.34576218821667
30
0
41
1
10
14.1896377819219
20
9.36503795631452
30
0
41
1
10
14.3152044205418
20
9.39837503626001
30
0
41
1
10
14.3794684745156
20
9.41243190314339
30
0
41
1
10
14.5725957543687
20
9.44582883745764
30
0
41
1
10
14.7029492275891
20
9.45682587134448
30
0
41
1
10
14.900817899687
20
9.45634412768467
30
0
41
1
10
14.9671658905396
20
9.45333877917165
30
0
41
1
10
15.1006601800229
20
9.44142903332821
30
0
41
1
10
15.1679598472416
20
9.43246601024268
30
0
41
1
10
15.3669356403182
20
9.39711666907817
30
0
41
1
10
15.4970299738249
20
9.36227898846201
30
0
41
1
10
15.6882782904501
20
9.29309140069682
30
0
41
1
10
15.7513753569106
20
9.26719137428447
30
0
41
1
10
15.8450006440983
20
9.22393031092651
30
0
41
1
10
15.8761170097313
20
9.20873111918178
30
0
41
1
10
15.9374437399165
20
9.17711458755167
30
0
41
1
10
15.9676874505346
20
9.16068652985197
30
0
41
1
10
16.1168376629618
20
9.07549274565301
30
0
41
1
10
16.2295872561632
20
8.99763804686171
30
0
41
1
10
16.3888391105771
20
8.86630001989542
30
0
41
1
10
16.4402683289822
20
8.82008084067931
30
0
41
1
10
16.539693953436
20
8.72258267824733
30
0
41
1
10
16.5871134390395
20
8.67185672864801
30
0
41
1
10
16.6320814643914
20
8.61941438957959
30
0
0
SPLINE
5
173
100
AcDbEntity
8
1
62
256
6
ByLayer
370
18
48
1
60
0
100
AcDbSpline
70
4
71
3
72
12
73
8
40
0
40
0
40
0
40
0
40
0.499999999999988
40
0.499999999999988
40
0.749999999999994
40
0.749999999999994
40
1
40
1
40
1
40
1
41
1
10
27.5752953223286
20
18.4879588781046
30
0
41
1
10
27.5692007234801
20
18.4123764195997
30
0
41
1
10
27.5717479959526
20
18.337220737051
30
0
41
1
10
27.5883103909649
20
18.2251815048677
30
0
41
1
10
27.5960284845907
20
18.1878083939369
30
0
41
1
10
27.6156634458357
20
18.1145039011134
30
0
41
1
10
27.6275749418884
20
18.0784850951222
30
0
41
1
10
27.6416255406706
20
18.0431442591935
30
0
0
SPLINE
5
174
100
AcDbEntity
8
1
62
256
6
ByLayer
370
18
48
1
60
0
100
AcDbSpline
70
4
71
3
72
8
73
4
40
0
40
0
40
0
40
0
40
1
40
1
40
1
40
1
41
1
10
26.9100537689353
20
9.06709769975112
30
0
41
1
10
26.9459177742
20
9.07160241289668
30
0
41
1
10
26.9820229637036
20
9.07370046127494
30
0
41
1
10
27.0183741161119
20
9.07334416081127
30
0
0
SPLINE
5
175
100
AcDbEntity
8
1
62
256
6
ByLayer
370
18
48
1
60
0
100
AcDbSpline
70
4
71
3
72
12
73
8
40
0
40
0
40
0
40
0
40
0.499999999999996
40
0.499999999999996
40
0.749999999999998
40
0.749999999999998
40
1
40
1
40
1
40
1
41
1
10
25.2531923560515
20
8.23793925890269
30
0
41
1
10
25.2575659260705
20
8.31022240739233
30
0
41
1
10
25.253256202958
20
8.38199937196205
30
0
41
1
10
25.2341219482469
20
8.48910820302874
30
0
41
1
10
25.2255621368107
20
8.52486769310988
30
0
41
1
10
25.2044062607037
20
8.59525650575949
30
0
41
1
10
25.1918132670381
20
8.62996884211984
30
0
41
1
10
25.1772315321088
20
8.66429145988752
30
0
0
SPLINE
5
176
100
AcDbEntity
8
1
62
256
6
ByLayer
370
13
48
1
60
0
100
AcDbSpline
70
4
71
3
72
8
73
4
40
0
40
0
40
0
40
0
40
1
40
1
40
1
40
1
41
1
10
30.7941152500343
20
15.1206473105196
30
0
41
1
10
31.0254122322872
20
15.0991935784675
30
0
41
1
10
31.2567092145401
20
15.0777398464153
30
0
41
1
10
31.488006196793
20
15.0562861143632
30
0
0
SPLINE
5
177
100
AcDbEntity
8
1
62
256
6
ByLayer
370
18
48
1
60
0
100
AcDbSpline
70
4
71
3
72
22
73
18
40
0
40
0
40
0
40
0
40
0.125
40
0.125
40
0.25
40
0.25
40
0.375
40
0.375
40
0.5
40
0.5
40
0.625
40
0.625
40
0.75
40
0.75
40
0.875
40
0.875
40
1
40
1
40
1
40
1
41
1
10
30.1701738236572
20
17.1824124695814
30
0
41
1
10
30.1717257632144
20
17.2039191686839
30
0
41
1
10
30.17089719839
20
17.2252628743896
30
0
41
1
10
30.1646512113697
20
17.2676344168485
30
0
41
1
10
30.1591153908617
20
17.2888834488824
30
0
41
1
10
30.143775897084
20
17.3292267714202
30
0
41
1
10
30.1339992944713
20
17.3484870664872
30
0
41
1
10
30.1101144806419
20
17.385128743724
30
0
41
1
10
30.0962425435916
20
17.4020860412249
30
0
41
1
10
30.0653352839577
20
17.4326183779419
30
0
41
1
10
30.0479719740937
20
17.446455961966
30
0
41
1
10
30.0110844337461
20
17.4698593024147
30
0
41
1
10
29.9915928718378
20
17.4794958117971
30
0
41
1
10
29.9504886755393
20
17.4945893101746
30
0
41
1
10
29.929091516811
20
17.4999072128795
30
0
41
1
10
29.8861621455903
20
17.5058039239776
30
0
41
1
10
29.8642571328295
20
17.5064526222056
30
0
41
1
10
29.8424421089844
20
17.5046862214267
30
0
0
SPLINE
5
178
100
AcDbEntity
8
1
62
256
6
ByLayer
370
18
48
1
60
0
100
AcDbSpline
70
4
71
3
72
12
73
8
40
0
40
0
40
0
40
0
40
0.499999999999992
40
0.499999999999992
40
0.749999999999996
40
0.749999999999996
40
1
40
1
40
1
40
1
41
1
10
25.7313374633151
20
8.24282747002763
30
0
41
1
10
25.670167410146
20
8.19289013624078
30
0
41
1
10
25.6065534636165
20
8.14217361077436
30
0
41
1
10
25.5080859481241
20
8.06512747003652
30
0
41
1
10
25.4747382843655
20
8.03927865391123
30
0
41
1
10
25.4086224564591
20
7.98847860495141
30
0
41
1
10
25.3756498799301
20
7.96336675671768
30
0
41
1
10
25.3427585639622
20
7.93852931755714
30
0
0
SPLINE
5
179
100
AcDbEntity
8
1
62
256
6
ByLayer
370
18
48
1
60
0
100
AcDbSpline
70
4
71
3
72
8
73
4
40
0
40
0
40
0
40
0
40
1
40
1
40
1
40
1
41
1
10
25.2347966303409
20
7.92606464985005
30
0
41
1
10
25.2407324735663
20
8.02948938957493
30
0
41
1
10
25.2468710770144
20
8.1334658083135
30
0
41
1
10
25.2531923560515
20
8.23793925890269
30
0
0
SPLINE
5
17A
100
AcDbEntity
8
1
62
256
6
ByLayer
370
18
48
1
60
0
100
AcDbSpline
70
4
71
3
72
28
73
24
40
0
40
0
40
0
40
0
40
0.0704602742220034
40
0.0704602742220034
40
0.140920548444007
40
0.140920548444007
40
0.21138082266601
40
0.21138082266601
40
0.281841096888014
40
0.281841096888014
40
0.352301371110017
40
0.352301371110017
40
0.42276164533202
40
0.42276164533202
40
0.493221919554024
40
0.493221919554024
40
0.563682193776027
40
0.563682193776027
40
0.704602742220032
40
0.704602742220032
40
0.845523290664037
40
0.845523290664037
40
1
40
1
40
1
40
1
41
1
10
22.0475262747671
20
18.563219522609
30
0
41
1
10
22.0107326667203
20
18.570254353555
30
0
41
1
10
21.9736476039754
20
18.5758923464014
30
0
41
1
10
21.8988700836997
20
18.5842443745565
30
0
41
1
10
21.8607528773871
20
18.5869464371758
30
0
41
1
10
21.7874411460561
20
18.5891214374352
30
0
41
1
10
21.7519193291535
20
18.5886650400941
30
0
41
1
10
21.6830106690511
20
18.5849103067302
30
0
41
1
10
21.6502126702586
20
18.5816295849268
30
0
41
1
10
21.5886472805457
20
18.572850106104
30
0
41
1
10
21.559475603854
20
18.5672864753066
30
0
41
1
10
21.5054274859735
20
18.5544996808866
30
0
41
1
10
21.4806015458975
20
18.5473154648192
30
0
41
1
10
21.4346185122049
20
18.5317205553249
30
0
41
1
10
21.4134671202115
20
18.5233074757711
30
0
41
1
10
21.3744040828338
20
18.5054867118121
30
0
41
1
10
21.3565513910048
20
18.4960904969701
30
0
41
1
10
21.3083160276682
20
18.4673030526801
30
0
41
1
10
21.2827334665605
20
18.4471287097775
30
0
41
1
10
21.2417976182624
20
18.4057373957343
30
0
41
1
10
21.2264519790025
20
18.384379280832
30
0
41
1
10
21.2040410281469
20
18.3400730115847
30
0
41
1
10
21.1976489951022
20
18.3170855353399
30
0
41
1
10
21.1959109955113
20
18.2943864105959
30
0
0
SPLINE
5
17B
100
AcDbEntity
8
1
62
256
6
ByLayer
370
18
48
1
60
0
100
AcDbSpline
70
4
71
3
72
24
73
20
40
0
40
0
40
0
40
0
40
0.125000000000006
40
0.125000000000006
40
0.187500000000011
40
0.187500000000011
40
0.250000000000015
40
0.250000000000015
40
0.375000000000013
40
0.375000000000013
40
0.50000000000001
40
0.50000000000001
40
0.625000000000008
40
0.625000000000008
40
0.750000000000005
40
0.750000000000005
40
0.875000000000003
40
0.875000000000003
40
1
40
1
40
1
40
1
41
1
10
27.6416255406706
20
18.0431442591935
30
0
41
1
10
27.6613124676231
20
17.9936266218205
30
0
41
1
10
27.6848917351746
20
17.9458416381984
30
0
41
1
10
27.7261734498357
20
17.8767839020517
30
0
41
1
10
27.7409979964334
20
17.8541043592506
30
0
41
1
10
27.7722862680669
20
17.8102142297196
30
0
41
1
10
27.7887253709558
20
17.7890165437025
30
0
41
1
10
27.8403656912999
20
17.7276050644355
30
0
41
1
10
27.8778751596211
20
17.6895589980572
30
0
41
1
10
27.9590986397542
20
17.6192810084821
30
0
41
1
10
28.0030941387387
20
17.5869571022471
30
0
41
1
10
28.0943129665336
20
17.530468151315
30
0
41
1
10
28.1418497532633
20
17.5059745093027
30
0
41
1
10
28.2407749928078
20
17.4644862945053
30
0
41
1
10
28.2926002105121
20
17.4474340431461
30
0
41
1
10
28.3967948560521
20
17.4221159783947
30
0
41
1
10
28.4494340794868
20
17.4136652737212
30
0
41
1
10
28.5557869258022
20
17.4051238427988
30
0
41
1
10
28.6097961329073
20
17.4050732049239
30
0
41
1
10
28.6634285573987
20
17.4093995168965
30
0
0
SPLINE
5
17C
100
AcDbEntity
8
1
62
256
6
ByLayer
370
13
48
1
60
0
100
AcDbSpline
70
4
71
3
72
22
73
18
40
0
40
0
40
0
40
0
40
0.249999999999992
40
0.249999999999992
40
0.499999999999985
40
0.499999999999985
40
0.562499999999983
40
0.562499999999983
40
0.624999999999982
40
0.624999999999982
40
0.687499999999981
40
0.687499999999981
40
0.74999999999998
40
0.74999999999998
40
0.87499999999999
40
0.87499999999999
40
1
40
1
40
1
40
1
41
1
10
26.8791595556896
20
12.8097736525682
30
0
41
1
10
26.8743661705085
20
12.864086674052
30
0
41
1
10
26.8655780559657
20
12.9176682950324
30
0
41
1
10
26.8342759224358
20
13.0221288334366
30
0
41
1
10
26.8113602973779
20
13.0737529849616
30
0
41
1
10
26.7685054968333
20
13.1295030043533
30
0
41
1
10
26.7591368587264
20
13.1402911326541
30
0
41
1
10
26.7391603231295
20
13.16040517855
30
0
41
1
10
26.7285199567409
20
13.169786930456
30
0
41
1
10
26.7058329188449
20
13.1870911213387
30
0
41
1
10
26.693681242748
20
13.1950680576623
30
0
41
1
10
26.6684023362793
20
13.2091336116299
30
0
41
1
10
26.6553336515941
20
13.2152128574523
30
0
41
1
10
26.6149054871556
20
13.2307332938969
30
0
41
1
10
26.5859931481204
20
13.2374575905576
30
0
41
1
10
26.5277049368487
20
13.2440788888235
30
0
41
1
10
26.4980520973603
20
13.244101327469
30
0
41
1
10
26.4686505552066
20
13.2416090107511
30
0
0
SPLINE
5
17D
100
AcDbEntity
8
1
62
256
6
ByLayer
370
18
48
1
60
0
100
AcDbSpline
70
4
71
3
72
24
73
20
40
0
40
0
40
0
40
0
40
0.125000000000004
40
0.125000000000004
40
0.187500000000004
40
0.187500000000004
40
0.250000000000005
40
0.250000000000005
40
0.375000000000004
40
0.375000000000004
40
0.500000000000003
40
0.500000000000003
40
0.625000000000002
40
0.625000000000002
40
0.750000000000002
40
0.750000000000002
40
0.875000000000001
40
0.875000000000001
40
1
40
1
40
1
40
1
41
1
10
27.0389426634441
20
8.97697978950231
30
0
41
1
10
27.0571373144533
20
8.96768998432771
30
0
41
1
10
27.0792329639455
20
8.95806580459063
30
0
41
1
10
27.1183243327855
20
8.94323780496171
30
0
41
1
10
27.1324214543442
20
8.93820667703915
30
0
41
1
10
27.1622895807514
20
8.92816127066624
30
0
41
1
10
27.1780364758968
20
8.92315189183347
30
0
41
1
10
27.2276586128978
20
8.90819572921629
30
0
41
1
10
27.2639001473351
20
8.89832031981217
30
0
41
1
10
27.3427770846824
20
8.87893782568949
30
0
41
1
10
27.3856910530941
20
8.86938976692031
30
0
41
1
10
27.4750453839213
20
8.85149748038086
30
0
41
1
10
27.5217881171853
20
8.84306822289676
30
0
41
1
10
27.619425710888
20
8.82737123355963
30
0
41
1
10
27.6707565818378
20
8.82005915328992
30
0
41
1
10
27.7743177274575
20
8.8071840902781
30
0
41
1
10
27.8268114369214
20
8.80156387091515
30
0
41
1
10
27.9332180775804
20
8.7919718992938
30
0
41
1
10
27.987429355176
20
8.78798673600178
30
0
41
1
10
28.0414375206684
20
8.78491622158211
30
0
0
SPLINE
5
17E
100
AcDbEntity
8
1
62
256
6
ByLayer
370
13
48
1
60
0
100
AcDbSpline
70
4
71
1
72
4
73
2
40
0
40
0
40
1
40
1
41
1
10
27.7829463185007
20
18.1304554511539
30
0
41
1
10
31.0625416305315
20
18.4000872674314
30
0
0
SPLINE
5
17F
100
AcDbEntity
8
1
62
256
6
ByLayer
370
18
48
1
60
0
100
AcDbSpline
70
4
71
3
72
24
73
20
40
0
40
0
40
0
40
0
40
0.250000000000013
40
0.250000000000013
40
0.37500000000002
40
0.37500000000002
40
0.500000000000027
40
0.500000000000027
40
0.562500000000029
40
0.562500000000029
40
0.625000000000031
40
0.625000000000031
40
0.750000000000025
40
0.750000000000025
40
0.812500000000019
40
0.812500000000019
40
0.875000000000013
40
0.875000000000013
40
1
40
1
40
1
40
1
41
1
10
28.2513638217885
20
11.7231766423197
30
0
41
1
10
28.1897627857597
20
11.7416885173948
30
0
41
1
10
28.1268947276324
20
11.7545691946503
30
0
41
1
10
28.0301875330763
20
11.7590196883827
30
0
41
1
10
27.9981767276603
20
11.7579296181643
30
0
41
1
10
27.9347283368923
20
11.7491907863605
30
0
41
1
10
27.9028863890591
20
11.7413460137132
30
0
41
1
10
27.8579314937096
20
11.7239266043622
30
0
41
1
10
27.8433681954594
20
11.717193052743
30
0
41
1
10
27.8151292148425
20
11.7017744265655
30
0
41
1
10
27.8013563335171
20
11.6930134818573
30
0
41
1
10
27.7622385137317
20
11.6642201385919
30
0
41
1
10
27.7392086013753
20
11.6418844643899
30
0
41
1
10
27.7087272774479
20
11.604195477039
30
0
41
1
10
27.6992763533888
20
11.5909447412046
30
0
41
1
10
27.682086522005
20
11.5638669369086
30
0
41
1
10
27.6742735341493
20
11.5499524382989
30
0
41
1
10
27.6528810544286
20
11.5072259206917
30
0
41
1
10
27.6413323708084
20
11.4774384096399
30
0
41
1
10
27.6319756322024
20
11.4465980050171
30
0
0
SPLINE
5
180
100
AcDbEntity
8
1
62
256
6
ByLayer
370
13
48
1
60
0
100
AcDbSpline
70
4
71
1
72
4
73
2
40
0
40
0
40
1
40
1
41
1
10
31.0625416305315
20
18.4000872674314
30
0
41
1
10
31.732445536841
20
18.4551633941496
30
0
0
SPLINE
5
181
100
AcDbEntity
8
1
62
256
6
ByLayer
370
18
48
1
60
0
100
AcDbSpline
70
4
71
3
72
8
73
4
40
0
40
0
40
0
40
0
40
1
40
1
40
1
40
1
41
1
10
26.9839681664168
20
9.03923494235119
30
0
41
1
10
26.9806089991754
20
9.03548733816899
30
0
41
1
10
26.9787801918121
20
9.03168077724922
30
0
41
1
10
26.9784654169338
20
9.02778712112672
30
0
0
SPLINE
5
182
100
AcDbEntity
8
1
62
256
6
ByLayer
370
18
48
1
60
0
100
AcDbSpline
70
4
71
3
72
12
73
8
40
0
40
0
40
0
40
0
40
0.267597175321956
40
0.267597175321956
40
0.633798587660978
40
0.633798587660978
40
1
40
1
40
1
40
1
41
1
10
26.9791849862845
20
9.02168719478283
30
0
41
1
10
26.9802699288091
20
9.0182040504159
30
0
41
1
10
26.982501672936
20
9.01464350914901
30
0
41
1
10
26.9904779843351
20
9.00598282182662
30
0
41
1
10
26.9972785456155
20
9.00074500384272
30
0
41
1
10
27.0150217722191
20
8.98956310317669
30
0
41
1
10
27.0259571049602
20
8.98360994186629
30
0
41
1
10
27.0389426634441
20
8.97697978950234
30
0
0
SPLINE
5
183
100
AcDbEntity
8
1
62
256
6
ByLayer
370
18
48
1
60
0
100
AcDbSpline
70
4
71
3
72
8
73
4
40
0
40
0
40
0
40
0
40
1
40
1
40
1
40
1
41
1
10
27.602214857743
20
18.8161741144866
30
0
41
1
10
27.5930714317949
20
18.7066002565012
30
0
41
1
10
27.5841040666204
20
18.5972009408678
30
0
41
1
10
27.5752953223286
20
18.4879588781046
30
0
0
SPLINE
5
184
100
AcDbEntity
8
1
62
256
6
ByLayer
370
18
48
1
60
0
100
AcDbSpline
70
4
71
3
72
8
73
4
40
0
40
0
40
0
40
0
40
1
40
1
40
1
40
1
41
1
10
20.1872215801397
20
10.174004889923
30
0
41
1
10
20.1898622862515
20
10.2174990923614
30
0
41
1
10
20.1938297400567
20
10.2610639843621
30
0
41
1
10
20.1990085042855
20
10.3047013856997
30
0
0
SPLINE
5
185
100
AcDbEntity
8
1
62
256
6
ByLayer
370
13
48
1
60
0
100
AcDbSpline
70
4
71
1
72
4
73
2
40
0
40
0
40
1
40
1
41
1
10
31.0625416305315
20
18.4000872674314
30
0
41
1
10
31.1174095373278
20
19.0699975157409
30
0
0
SPLINE
5
186
100
AcDbEntity
8
1
62
256
6
ByLayer
370
18
48
1
60
0
100
AcDbSpline
70
4
71
3
72
8
73
4
40
0
40
0
40
0
40
0
40
1
40
1
40
1
40
1
41
1
10
27.496948053804
20
18.8088761634559
30
0
41
1
10
27.5313492971997
20
18.8110215871474
30
0
41
1
10
27.5664337198245
20
18.8134523529638
30
0
41
1
10
27.602214857743
20
18.8161741144866
30
0
0
SPLINE
5
187
100
AcDbEntity
8
1
62
256
6
ByLayer
370
13
48
1
60
0
100
AcDbSpline
70
4
71
3
72
8
73
4
40
0
40
0
40
0
40
0
40
1
40
1
40
1
40
1
41
1
10
30.800791824035
20
15.2042504275852
30
0
41
1
10
30.7985035931287
20
15.176312249803
30
0
41
1
10
30.7962774042095
20
15.1484362264406
30
0
41
1
10
30.7941152500343
20
15.1206473105196
30
0
0
SPLINE
5
188
100
AcDbEntity
8
1
62
256
6
ByLayer
370
18
48
1
60
0
100
AcDbSpline
70
4
71
3
72
24
73
20
40
0
40
0
40
0
40
0
40
0.250000000000001
40
0.250000000000001
40
0.375
40
0.375
40
0.5
40
0.5
40
0.562499999999995
40
0.562499999999995
40
0.624999999999991
40
0.624999999999991
40
0.749999999999998
40
0.749999999999998
40
0.812500000000003
40
0.812500000000003
40
0.875000000000008
40
0.875000000000008
40
1
40
1
40
1
40
1
41
1
10
24.9401319227115
20
15.698628575222
30
0
41
1
10
24.9996429626445
20
15.6761100589257
30
0
41
1
10
25.0602435165517
20
15.6588824472928
30
0
41
1
10
25.1531189463173
20
15.6470862428242
30
0
41
1
10
25.1838040555504
20
15.6456348781642
30
0
41
1
10
25.2444776023044
20
15.6490541763903
30
0
41
1
10
25.2748495782852
20
15.6540809295066
30
0
41
1
10
25.317587195798
20
15.6672496913097
30
0
41
1
10
25.3314077991122
20
15.6725594545537
30
0
41
1
10
25.3581538069046
20
15.6851159670305
30
0
41
1
10
25.3711707613684
20
15.6924277570103
30
0
41
1
10
25.4080540946278
20
15.7169374626934
30
0
41
1
10
25.4296480208831
20
15.7365202699797
30
0
41
1
10
25.4580469048658
20
15.7702171016801
30
0
41
1
10
25.4668171370651
20
15.7821629125582
30
0
41
1
10
25.4827022859911
20
15.8067395664804
30
0
41
1
10
25.4898863154259
20
15.8194483160743
30
0
41
1
10
25.5094531180364
20
15.858674906968
30
0
41
1
10
25.5198658123556
20
15.8862846620091
30
0
41
1
10
25.5281521096909
20
15.915072969918
30
0
0
SPLINE
5
189
100
AcDbEntity
8
1
62
256
6
ByLayer
370
18
48
1
60
0
100
AcDbSpline
70
4
71
3
72
8
73
4
40
0
40
0
40
0
40
0
40
1
40
1
40
1
40
1
41
1
10
26.1674837682706
20
18.1362431619193
30
0
41
1
10
26.1331785041731
20
18.1347266441233
30
0
41
1
10
26.0985880100628
20
18.135532352844
30
0
41
1
10
26.0637066345795
20
18.1387062991521
30
0
0
SPLINE
5
18A
100
AcDbEntity
8
1
62
256
6
ByLayer
370
18
48
1
60
0
100
AcDbSpline
70
4
71
3
72
12
73
8
40
0
40
0
40
0
40
0
40
0.500000000000001
40
0.500000000000001
40
0.75
40
0.75
40
1
40
1
40
1
40
1
41
1
10
26.4927496668996
20
18.1865167922069
30
0
41
1
10
26.4419615986467
20
18.1564823131704
30
0
41
1
10
26.3888962721215
20
18.1384666243051
30
0
41
1
10
26.3064594165437
20
18.1264259028697
30
0
41
1
10
26.2784909772753
20
18.1250022637585
30
0
41
1
10
26.222948610762
20
18.1270543741376
30
0
41
1
10
26.1952036870151
20
18.13049781745
30
0
41
1
10
26.1674837682706
20
18.1362431619192
30
0
0
SPLINE
5
18B
100
AcDbEntity
8
1
62
256
6
ByLayer
370
18
48
1
60
0
100
AcDbSpline
70
4
71
3
72
8
73
4
40
0
40
0
40
0
40
0
40
1
40
1
40
1
40
1
41
1
10
25.3427585639622
20
7.93852931755714
30
0
41
1
10
25.3069176512454
20
7.93362396600796
30
0
41
1
10
25.2709313005756
20
7.9294641529026
30
0
41
1
10
25.2347966303409
20
7.92606464985005
30
0
0
SPLINE
5
18C
100
AcDbEntity
8
1
62
256
6
ByLayer
370
18
48
1
60
0
100
AcDbSpline
70
4
71
3
72
8
73
4
40
0
40
0
40
0
40
0
40
1
40
1
40
1
40
1
41
1
10
26.0637066345795
20
18.1387062991521
30
0
41
1
10
26.062071485641
20
18.1340980204117
30
0
41
1
10
26.0604377597852
20
18.1295138681098
30
0
41
1
10
26.0588054396799
20
18.1249535484025
30
0
0
SPLINE
5
18D
100
AcDbEntity
8
1
62
256
6
ByLayer
370
18
48
1
60
0
100
AcDbSpline
70
4
71
3
72
22
73
18
40
0
40
0
40
0
40
0
40
0.125
40
0.125
40
0.25
40
0.25
40
0.375
40
0.375
40
0.5
40
0.5
40
0.625
40
0.625
40
0.75
40
0.75
40
0.875
40
0.875
40
1
40
1
40
1
40
1
41
1
10
22.6427944567484
20
9.513734100053
30
0
41
1
10
22.6413104797967
20
9.49235768912536
30
0
41
1
10
22.6422200185058
20
9.47116921495564
30
0
41
1
10
22.6486510577884
20
9.42915242819421
30
0
41
1
10
22.6542923454596
20
9.40810558270218
30
0
41
1
10
22.6698520319963
20
9.36818438218978
30
0
41
1
10
22.6797438560464
20
9.34914497316242
30
0
41
1
10
22.7038614436862
20
9.31294953654097
30
0
41
1
10
22.7178482508827
20
9.29621245163483
30
0
41
1
10
22.748968432457
20
9.26608829837082
30
0
41
1
10
22.7664316324779
20
9.25244220945075
30
0
41
1
10
22.8034873419095
20
9.22936125868773
30
0
41
1
10
22.8230476390199
20
9.21985651859171
30
0
41
1
10
22.8642520525361
20
9.20495514231271
30
0
41
1
10
22.8856796159238
20
9.19969552706669
30
0
41
1
10
22.9286263769432
20
9.19383215320042
30
0
41
1
10
22.9505186878864
20
9.19315910486662
30
0
41
1
10
22.9722996121615
20
9.19486013483305
30
0
0
SPLINE
5
18E
100
AcDbEntity
8
1
62
256
6
ByLayer
370
18
48
1
60
0
100
AcDbSpline
70
4
71
3
72
12
73
8
40
0
40
0
40
0
40
0
40
0.500000000000007
40
0.500000000000007
40
0.750000000000003
40
0.750000000000003
40
1
40
1
40
1
40
1
41
1
10
26.5145897981473
20
8.88225037809227
30
0
41
1
10
26.5757598513164
20
8.9321877118791
30
0
41
1
10
26.6400214846373
20
8.97166735678894
30
0
41
1
10
26.7402679468041
20
9.01785010558814
30
0
41
1
10
26.7743481275799
20
9.03099030029784
30
0
41
1
10
26.8421551063836
20
9.05245014827304
30
0
41
1
10
26.8760896515823
20
9.06087256083583
30
0
41
1
10
26.9100537689353
20
9.0670976997512
30
0
0
SPLINE
5
18F
100
AcDbEntity
8
1
62
256
6
ByLayer
370
18
48
1
60
0
100
AcDbSpline
70
4
71
3
72
24
73
20
40
0
40
0
40
0
40
0
40
0.124999999999995
40
0.124999999999995
40
0.187499999999995
40
0.187499999999995
40
0.249999999999996
40
0.249999999999996
40
0.374999999999996
40
0.374999999999996
40
0.499999999999997
40
0.499999999999997
40
0.624999999999998
40
0.624999999999998
40
0.749999999999999
40
0.749999999999999
40
0.874999999999999
40
0.874999999999999
40
1
40
1
40
1
40
1
41
1
10
25.1772315321088
20
8.66429145988752
30
0
41
1
10
25.1568004063722
20
8.71238242592293
30
0
41
1
10
25.1325764308448
20
8.75893146773782
30
0
41
1
10
25.0904523711949
20
8.82637438069816
30
0
41
1
10
25.0753668438433
20
8.84855360857119
30
0
41
1
10
25.0436007293492
20
8.8915276861984
30
0
41
1
10
25.026944718189
20
8.91230954673969
30
0
41
1
10
24.9747105451971
20
8.97258257675182
30
0
41
1
10
24.9368806753635
20
9.01001441523289
30
0
41
1
10
24.8551285658488
20
9.07927899225885
30
0
41
1
10
24.8109248223761
20
9.11120368198232
30
0
41
1
10
24.7193816439527
20
9.16707083433758
30
0
41
1
10
24.6717260928033
20
9.19133679821189
30
0
41
1
10
24.5726217045115
20
9.23248157468544
30
0
41
1
10
24.5207360899055
20
9.24941804175367
30
0
41
1
10
24.4164660665192
20
9.27459160289266
30
0
41
1
10
24.3638109642275
20
9.28301186689555
30
0
41
1
10
24.2574642036212
20
9.29156496446785
30
0
41
1
10
24.2034772505887
20
9.29165826466385
30
0
41
1
10
24.1498903979612
20
9.28741931654261
30
0
0
SPLINE
5
190
100
AcDbEntity
8
1
62
256
6
ByLayer
370
13
48
1
60
0
100
AcDbSpline
70
4
71
3
72
22
73
18
40
0
40
0
40
0
40
0
40
0.125000000000003
40
0.125000000000003
40
0.250000000000007
40
0.250000000000007
40
0.312500000000009
40
0.312500000000009
40
0.375000000000012
40
0.375000000000012
40
0.500000000000011
40
0.500000000000011
40
0.62500000000001
40
0.62500000000001
40
0.750000000000009
40
0.750000000000009
40
1
40
1
40
1
40
1
41
1
10
26.5436218814211
20
13.7442446821619
30
0
41
1
10
26.5947936036459
20
13.7361882105395
30
0
41
1
10
26.6456962041175
20
13.7252000497139
30
0
41
1
10
26.7446859099628
20
13.6975063272182
30
0
41
1
10
26.7929341517232
20
13.680800589312
30
0
41
1
10
26.8633632173533
20
13.6512998693693
30
0
41
1
10
26.8865151446414
20
13.6407247741471
30
0
41
1
10
26.9321507422249
20
13.6180505501557
30
0
41
1
10
26.95473962287
20
13.6058878698598
30
0
41
1
10
27.0205955270081
20
13.5675559162589
30
0
41
1
10
27.0618509103691
20
13.5396571232055
30
0
41
1
10
27.1394636737409
20
13.479587606516
30
0
41
1
10
27.1758195136232
20
13.447415474975
30
0
41
1
10
27.2438785756768
20
13.3790846044728
30
0
41
1
10
27.2756938677052
20
13.3427193326212
30
0
41
1
10
27.3620123054323
20
13.2313167346454
30
0
41
1
10
27.4085148562086
20
13.1531531100864
30
0
41
1
10
27.4463276308381
20
13.0722320083385
30
0
0
SPLINE
5
191
100
AcDbEntity
8
1
62
256
6
ByLayer
370
13
48
1
60
0
100
AcDbSpline
70
4
71
1
72
4
73
2
40
0
40
0
40
1
40
1
41
1
10
30.800791824035
20
15.2042504275852
30
0
41
1
10
31.0625416305315
20
18.4000872674314
30
0
0
SPLINE
5
192
100
AcDbEntity
8
1
62
256
6
ByLayer
370
13
48
1
60
0
100
AcDbSpline
70
4
71
3
72
22
73
18
40
0
40
0
40
0
40
0
40
0.250000000000012
40
0.250000000000012
40
0.500000000000024
40
0.500000000000024
40
0.562500000000021
40
0.562500000000021
40
0.625000000000018
40
0.625000000000018
40
0.687500000000015
40
0.687500000000015
40
0.750000000000012
40
0.750000000000012
40
0.875000000000006
40
0.875000000000006
40
1
40
1
40
1
40
1
41
1
10
26.1090756238892
20
14.2223695174218
30
0
41
1
10
26.1117564781559
20
14.1640066541896
30
0
41
1
10
26.1184244284138
20
14.106360557856
30
0
41
1
10
26.1453427838195
20
13.9934960678021
30
0
41
1
10
26.1659628331114
20
13.9374711671519
30
0
41
1
10
26.2059115791219
20
13.8761500761629
30
0
41
1
10
26.2146922187929
20
13.8642347214639
30
0
41
1
10
26.2335103506291
20
13.841899949765
30
0
41
1
10
26.2435776499231
20
13.8314195956901
30
0
41
1
10
26.2651298530447
20
13.8119398620897
30
0
41
1
10
26.2767153226447
20
13.8028774757527
30
0
41
1
10
26.3008962390458
20
13.7867070124629
30
0
41
1
10
26.3134349349263
20
13.7796117480001
30
0
41
1
10
26.3523257317923
20
13.7611440906011
30
0
41
1
10
26.3802743705737
20
13.7525723258185
30
0
41
1
10
26.4368329195758
20
13.7426351667422
30
0
41
1
10
26.4657088480549
20
13.7411233455655
30
0
41
1
10
26.4944193698717
20
13.7422909370495
30
0
0
SPLINE
5
193
100
AcDbEntity
8
1
62
256
6
ByLayer
370
13
48
1
60
0
100
AcDbSpline
70
4
71
3
72
8
73
4
40
0
40
0
40
0
40
0
40
1
40
1
40
1
40
1
41
1
10
26.4944193698717
20
13.7422909370496
30
0
41
1
10
26.5107277152654
20
13.7429541602861
30
0
41
1
10
26.5271286817046
20
13.743594455632
30
0
41
1
10
26.543621881421
20
13.7442446821619
30
0
0
SPLINE
5
194
100
AcDbEntity
8
1
62
256
6
ByLayer
370
13
48
1
60
0
100
AcDbSpline
70
4
71
3
72
8
73
4
40
0
40
0
40
0
40
0
40
1
40
1
40
1
40
1
41
1
10
26.4686505552066
20
13.2416090107511
30
0
41
1
10
26.4519496917527
20
13.2401933080994
30
0
41
1
10
26.4352541505499
20
13.2389882962009
30
0
41
1
10
26.4185668692369
20
13.237966004227
30
0
0
SPLINE
5
195
100
AcDbEntity
8
1
62
256
6
ByLayer
370
18
48
1
60
0
100
AcDbSpline
70
4
71
3
72
12
73
8
40
0
40
0
40
0
40
0
40
0.499999999999993
40
0.499999999999993
40
0.749999999999996
40
0.749999999999996
40
1
40
1
40
1
40
1
41
1
10
27.1430658098447
20
18.5710934700421
30
0
41
1
10
27.1938538780975
20
18.6011279490786
30
0
41
1
10
27.2496111779833
20
18.6367828366946
30
0
41
1
10
27.3394418497095
20
18.6972716573855
30
0
41
1
10
27.3704548412562
20
18.7186447742783
30
0
41
1
10
27.4330261193119
20
18.7626497198541
30
0
41
1
10
27.4647692626717
20
18.7854046748743
30
0
41
1
10
27.496948053804
20
18.8088761634559
30
0
0
SPLINE
5
196
100
AcDbEntity
8
1
62
256
6
ByLayer
370
18
48
1
60
0
100
AcDbSpline
70
4
71
3
72
34
73
30
40
0
40
0
40
0
40
0
40
0.062500000000002
40
0.062500000000002
40
0.0937500000000028
40
0.0937500000000028
40
0.125000000000004
40
0.125000000000004
40
0.187500000000006
40
0.187500000000006
40
0.218750000000006
40
0.218750000000006
40
0.250000000000006
40
0.250000000000006
40
0.312500000000007
40
0.312500000000007
40
0.375000000000008
40
0.375000000000008
40
0.437500000000009
40
0.437500000000009
40
0.50000000000001
40
0.50000000000001
40
0.625000000000004
40
0.625000000000004
40
0.687500000000002
40
0.687500000000002
40
0.749999999999999
40
0.749999999999999
40
1
40
1
40
1
40
1
41
1
10
30.5018240835539
20
11.0753105732811
30
0
41
1
10
30.5384575813923
20
11.0651965656548
30
0
41
1
10
30.5754145673443
20
11.0577703901405
30
0
41
1
10
30.6313353050603
20
11.0506732824067
30
0
41
1
10
30.6500568066896
20
11.0489842891596
30
0
41
1
10
30.6876672019915
20
11.0470003196024
30
0
41
1
10
30.7065108716861
20
11.0467183574084
30
0
41
1
10
30.7618951607083
20
11.0479521387028
30
0
41
1
10
30.7977665664583
20
11.051501976587
30
0
41
1
10
30.8501225855704
20
11.0606375542181
30
0
41
1
10
30.8674012620555
20
11.0643429695681
30
0
41
1
10
30.9009035599131
20
11.0728559935268
30
0
41
1
10
30.9171823888501
20
11.0776673541521
30
0
41
1
10
30.96471914815
20
11.0936436672017
30
0
41
1
10
30.9947857378164
20
11.1063959327041
30
0
41
1
10
31.0514328034403
20
11.1353750335178
30
0
41
1
10
31.0776101060666
20
11.1513704396735
30
0
41
1
10
31.1264437755379
20
11.185908714097
30
0
41
1
10
31.1490939978555
20
11.2044555949505
30
0
41
1
10
31.1913330950756
20
11.2438370242496
30
0
41
1
10
31.2109878321973
20
11.264774327308
30
0
41
1
10
31.264839838051
20
11.3295222628186
30
0
41
1
10
31.2943666707624
20
11.3755051694224
30
0
41
1
10
31.3314039124824
20
11.4479699611036
30
0
41
1
10
31.3425215414323
20
11.4727134885565
30
0
41
1
10
31.3625189381625
20
11.5233144520546
30
0
41
1
10
31.3714133868843
20
11.5492378039247
30
0
41
1
10
31.4103122648761
20
11.680209111641
30
0
41
1
10
31.4244555740762
20
11.7899189039281
30
0
41
1
10
31.4255962983736
20
11.9039999375668
30
0
0
SPLINE
5
197
100
AcDbEntity
8
1
62
256
6
ByLayer
370
13
48
1
60
0
100
AcDbSpline
70
4
71
3
72
22
73
18
40
0
40
0
40
0
40
0
40
0.125000000000003
40
0.125000000000003
40
0.250000000000005
40
0.250000000000005
40
0.312500000000003
40
0.312500000000003
40
0.375000000000001
40
0.375000000000001
40
0.500000000000001
40
0.500000000000001
40
0.625000000000001
40
0.625000000000001
40
0.750000000000001
40
0.750000000000001
40
1
40
1
40
1
40
1
41
1
10
26.4185668692369
20
13.2379660042271
30
0
41
1
10
26.3676898332066
20
13.2465874060217
30
0
41
1
10
26.3173452319688
20
13.2586452830713
30
0
41
1
10
26.2200146180812
20
13.2895195790815
30
0
41
1
10
26.1728660913578
20
13.3083335331743
30
0
41
1
10
26.1045223659237
20
13.3418319687136
30
0
41
1
10
26.0821383791287
20
13.3538792494777
30
0
41
1
10
26.0381920548178
20
13.3797919062786
30
0
41
1
10
26.0165294950893
20
13.3937303963838
30
0
41
1
10
25.9536564904579
20
13.4377807377589
30
0
41
1
10
25.9146516151954
20
13.4699938826594
30
0
41
1
10
25.842056799837
20
13.5396830906952
30
0
41
1
10
25.8084685290646
20
13.5771608094096
30
0
41
1
10
25.7464724266536
20
13.6571147179047
30
0
41
1
10
25.7179731093638
20
13.6998369016675
30
0
41
1
10
25.6421075666296
20
13.8312782930383
30
0
41
1
10
25.6033153477471
20
13.9242230617618
30
0
41
1
10
25.573924341348
20
14.0212891715389
30
0
0
SPLINE
5
198
100
AcDbEntity
8
1
62
256
6
ByLayer
370
18
48
1
60
0
100
AcDbSpline
70
4
71
3
72
28
73
24
40
0
40
0
40
0
40
0
40
0.0624999999999976
40
0.0624999999999976
40
0.124999999999995
40
0.124999999999995
40
0.187499999999993
40
0.187499999999993
40
0.249999999999991
40
0.249999999999991
40
0.312499999999988
40
0.312499999999988
40
0.374999999999986
40
0.374999999999986
40
0.437499999999983
40
0.437499999999983
40
0.499999999999981
40
0.499999999999981
40
0.624999999999984
40
0.624999999999984
40
0.749999999999987
40
0.749999999999987
40
1
40
1
40
1
40
1
41
1
10
22.7666611636276
20
16.4940878936767
30
0
41
1
10
22.7315776245173
20
16.5065212681663
30
0
41
1
10
22.6955249811387
20
16.5154069680336
30
0
41
1
10
22.6214130534835
20
16.5258538308668
30
0
41
1
10
22.5829049664328
20
16.5273275099893
30
0
41
1
10
22.5074158060901
20
16.5226416449625
30
0
41
1
10
22.470126200663
20
16.5166114109427
30
0
41
1
10
22.3964038472898
20
16.497610269388
30
0
41
1
10
22.3605934736063
20
16.484761603115
30
0
41
1
10
22.2920632097135
20
16.4537299089894
30
0
41
1
10
22.2588893234778
20
16.4353221318158
30
0
41
1
10
22.1961338275699
20
16.394397979564
30
0
41
1
10
22.1666245388801
20
16.3719920438558
30
0
41
1
10
22.1107202090358
20
16.3239117178531
30
0
41
1
10
22.0843300300647
20
16.2982323713897
30
0
41
1
10
22.0342955508628
20
16.2439647998813
30
0
41
1
10
22.0107178422136
20
16.2154113903035
30
0
41
1
10
21.945010274151
20
16.1276851651815
30
0
41
1
10
21.9072643714536
20
16.0658669279213
30
0
41
1
10
21.8411750843773
20
15.9369053242215
30
0
41
1
10
21.8127539819877
20
15.8693105728845
30
0
41
1
10
21.7412662169572
20
15.6642197201109
30
0
41
1
10
21.7109137581275
20
15.5235581971257
30
0
41
1
10
21.6938357377503
20
15.3796550580128
30
0
0
SPLINE
5
199
100
AcDbEntity
8
1
62
256
6
ByLayer
370
18
48
1
60
0
100
AcDbSpline
70
4
71
3
72
8
73
4
40
0
40
0
40
0
40
0
40
1
40
1
40
1
40
1
41
1
10
27.0183741161119
20
9.07334416081125
30
0
41
1
10
27.0070386694246
20
9.06359849554053
30
0
41
1
10
26.9955654711485
20
9.05217330016168
30
0
41
1
10
26.9839681664168
20
9.03923494235119
30
0
0
SPLINE
5
19A
100
AcDbEntity
8
1
62
256
6
ByLayer
370
13
48
1
60
0
100
AcDbSpline
70
4
71
1
72
4
73
2
40
0
40
0
40
1
40
1
41
1
10
27.7183674922207
20
18.8243150697609
30
0
41
1
10
27.7829463185007
20
18.1304554511539
30
0
0
LINE
5
70
100
AcDbEntity
8
81
62
256
6
ByLayer
370
18
48
1
60
0
100
AcDbLine
10
31.75
20
19.0875
30
0
11
41.75
21
19.0875
31
0
39
0
210
0
220
0
230
1
0
LINE
5
71
100
AcDbEntity
8
1
62
256
6
ByLayer
370
18
48
1
60
0
100
AcDbLine
10
18.332643
20
5.65612
30
0
11
18.236816
21
6.188859
31
0
39
0
210
0
220
0
230
1
0
LINE
5
73
100
AcDbEntity
8
1
62
256
6
ByLayer
370
18
48
1
60
0
100
AcDbLine
10
14.281373
20
9.389183
30
0
11
13.722538
21
9.248866
31
0
39
0
210
0
220
0
230
1
0
LINE
5
74
100
AcDbEntity
8
1
62
256
6
ByLayer
370
18
48
1
60
0
100
AcDbLine
10
21.206926
20
18.343153
30
0
11
21.188916
21
18.294291
31
0
39
0
210
0
220
0
230
1
0
LINE
5
75
100
AcDbEntity
8
1
62
256
6
ByLayer
370
18
48
1
60
0
100
AcDbLine
10
20.187263
20
10.173652
30
0
11
20.045931
21
7.782696
31
0
39
0
210
0
220
0
230
1
0
LINE
5
76
100
AcDbEntity
8
1
62
256
6
ByLayer
370
18
48
1
60
0
100
AcDbLine
10
19.512816
20
18.256632
30
0
11
6.769782
21
17.423343
31
0
39
0
210
0
220
0
230
1
0
LINE
5
77
100
AcDbEntity
8
1
62
256
6
ByLayer
370
18
48
1
60
0
100
AcDbLine
10
17.315791
20
-12.6625
30
0
11
30.038712
21
-0.025705
31
0
39
0
210
0
220
0
230
1
0
LINE
5
78
100
AcDbEntity
8
1
62
256
6
ByLayer
370
18
48
1
60
0
100
AcDbLine
10
20.533237
20
11.473264
30
0
11
21.097997
21
12.051048
31
0
39
0
210
0
220
0
230
1
0
LINE
5
79
100
AcDbEntity
8
1
62
256
6
ByLayer
370
18
48
1
60
0
100
AcDbLine
10
19.94844
20
18.25801
30
0
11
19.552081
21
18.257921
31
0
39
0
210
0
220
0
230
1
0
LINE
5
7A
100
AcDbEntity
8
1
62
256
6
ByLayer
370
18
48
1
60
0
100
AcDbLine
10
31.16585
20
8.688579
30
0
11
31.421271
21
11.80714
31
0
39
0
210
0
220
0
230
1
0
LINE
5
7B
100
AcDbEntity
8
1
62
256
6
ByLayer
370
18
48
1
60
0
100
AcDbLine
10
29.550263
20
8.679533
30
0
11
29.551658
21
8.696558
31
0
39
0
210
0
220
0
230
1
0
LINE
5
7C
100
AcDbEntity
8
80
62
256
6
ByLayer
370
18
48
1
60
0
100
AcDbLine
10
0
20
0
30
0
11
-6.6
21
0
31
0
39
0
210
0
220
0
230
1
0
LINE
5
7D
100
AcDbEntity
8
1
62
256
6
ByLayer
370
18
48
1
60
0
100
AcDbLine
10
6.712366
20
17.333512
30
0
11
21.790548
21
18.317791
31
0
39
0
210
0
220
0
230
1
0
LINE
5
7E
100
AcDbEntity
8
1
62
256
6
ByLayer
370
18
48
1
60
0
100
AcDbLine
10
21.944281
20
18.332831
30
0
11
21.790548
21
18.317791
31
0
39
0
210
0
220
0
230
1
0
LINE
5
7F
100
AcDbEntity
8
1
62
256
6
ByLayer
370
13
48
1
60
0
100
AcDbLine
10
19.510316
20
8.306291
30
0
11
19.543958
21
8.301103
31
0
39
0
210
0
220
0
230
1
0
LINE
5
80
100
AcDbEntity
8
1
62
256
6
ByLayer
370
13
48
1
60
0
100
AcDbLine
10
21.47934
20
7.41816
30
0
11
21.669754
21
7.155088
31
0
39
0
210
0
220
0
230
1
0
LINE
5
81
100
AcDbEntity
8
1
62
256
6
ByLayer
370
13
48
1
60
0
100
AcDbLine
10
26.789415
20
8.707294
30
0
11
27.012991
21
8.356944
31
0
39
0
210
0
220
0
230
1
0
LINE
5
82
100
AcDbEntity
8
1
62
256
6
ByLayer
370
18
48
1
60
0
100
AcDbLine
10
21.770265
20
16.208185
30
0
11
21.944281
21
18.332831
31
0
39
0
210
0
220
0
230
1
0
LINE
5
83
100
AcDbEntity
8
1
62
256
6
ByLayer
370
13
48
1
60
0
100
AcDbLine
10
14.319071
20
17.91129
30
0
11
14.312062
21
17.845787
31
0
39
0
210
0
220
0
230
1
0
LINE
5
84
100
AcDbEntity
8
1
62
256
6
ByLayer
370
13
48
1
60
0
100
AcDbLine
10
21.464059
20
14.331521
30
0
11
21.564008
21
14.259202
31
0
39
0
210
0
220
0
230
1
0
LINE
5
85
100
AcDbEntity
8
1
62
256
6
ByLayer
370
18
48
1
60
0
100
AcDbLine
10
21.921237
20
18.332826
30
0
11
21.944281
21
18.332831
31
0
39
0
210
0
220
0
230
1
0
LINE
5
86
100
AcDbEntity
8
1
62
256
6
ByLayer
370
18
48
1
60
0
100
AcDbLine
10
18.896171
20
9.95032
30
0
11
18.941758
21
9.454949
31
0
39
0
210
0
220
0
230
1
0
LINE
5
87
100
AcDbEntity
8
1
62
256
6
ByLayer
370
18
48
1
60
0
100
AcDbLine
10
21.669754
20
7.155088
30
0
11
24.8248
21
7.393628
31
0
39
0
210
0
220
0
230
1
0
LINE
5
88
100
AcDbEntity
8
1
62
256
6
ByLayer
370
13
48
1
60
0
100
AcDbLine
10
29.310983
20
8.41026
30
0
11
29.106606
21
8.730524
31
0
39
0
210
0
220
0
230
1
0
LINE
5
89
100
AcDbEntity
8
1
62
256
6
ByLayer
370
13
48
1
60
0
100
AcDbLine
10
19.465171
20
18.251609
30
0
11
19.746882
21
18.251672
31
0
39
0
210
0
220
0
230
1
0
LINE
5
8A
100
AcDbEntity
8
1
62
256
6
ByLayer
370
18
48
1
60
0
100
AcDbLine
10
0.572808
20
-12.6625
30
0
11
0
21
7.476276
31
0
39
0
210
0
220
0
230
1
0
LINE
5
8B
100
AcDbEntity
8
1
62
256
6
ByLayer
370
18
48
1
60
0
100
AcDbLine
10
6.771989
20
17.423485
30
0
11
6.77068
21
17.421494
31
0
39
0
210
0
220
0
230
1
0
LINE
5
8C
100
AcDbEntity
8
1
62
256
6
ByLayer
370
13
48
1
60
0
100
AcDbLine
10
24.8248
20
7.393628
30
0
11
24.700278
21
7.565666
31
0
39
0
210
0
220
0
230
1
0
LINE
5
8D
100
AcDbEntity
8
1
62
256
6
ByLayer
370
13
48
1
60
0
100
AcDbLine
10
19.465171
20
18.251609
30
0
11
6.77068
21
17.421494
31
0
39
0
210
0
220
0
230
1
0
LINE
5
8E
100
AcDbEntity
8
1
62
256
6
ByLayer
370
13
48
1
60
0
100
AcDbLine
10
13.165467
20
17.773277
30
0
11
13.172316
21
17.837286
31
0
39
0
210
0
220
0
230
1
0
LINE
5
8F
100
AcDbEntity
8
1
62
256
6
ByLayer
370
18
48
1
60
0
100
AcDbLine
10
30.599987
20
0.719815
30
0
11
31.178215
21
7.779694
31
0
39
0
210
0
220
0
230
1
0
LINE
5
90
100
AcDbEntity
8
1
62
256
6
ByLayer
370
18
48
1
60
0
100
AcDbLine
10
22.6329
20
7.514946
30
0
11
21.47934
21
7.41816
31
0
39
0
210
0
220
0
230
1
0
LINE
5
91
100
AcDbEntity
8
1
62
256
6
ByLayer
370
13
48
1
60
0
100
AcDbLine
10
13.722644
20
9.16313
30
0
11
13.011134
21
8.964091
31
0
39
0
210
0
220
0
230
1
0
LINE
5
92
100
AcDbEntity
8
1
62
256
6
ByLayer
370
18
48
1
60
0
100
AcDbLine
10
16.908927
20
-12.6625
30
0
11
0.572808
21
-12.6625
31
0
39
0
210
0
220
0
230
1
0
LINE
5
93
100
AcDbEntity
8
1
62
256
6
ByLayer
370
18
48
1
60
0
100
AcDbLine
10
21.790548
20
18.317791
30
0
11
21.464059
21
14.331521
31
0
39
0
210
0
220
0
230
1
0
LINE
5
94
100
AcDbEntity
8
1
62
256
6
ByLayer
370
13
48
1
60
0
100
AcDbLine
10
9.183677
20
-2.783723
30
0
11
9.024305
21
-4.399136
31
0
39
0
210
0
220
0
230
1
0
LINE
5
95
100
AcDbEntity
8
1
62
256
6
ByLayer
370
18
48
1
60
0
100
AcDbLine
10
19.746882
20
18.251672
30
0
11
14.319071
21
17.91129
31
0
39
0
210
0
220
0
230
1
0
LINE
5
96
100
AcDbEntity
8
1
62
256
6
ByLayer
370
13
48
1
60
0
100
AcDbLine
10
19.047346
20
9.882509
30
0
11
18.896171
21
9.95032
31
0
39
0
210
0
220
0
230
1
0
LINE
5
97
100
AcDbEntity
8
1
62
256
6
ByLayer
370
18
48
1
60
0
100
AcDbLine
10
30.976447
20
8.259525
30
0
11
31.178215
21
7.779694
31
0
39
0
210
0
220
0
230
1
0
LINE
5
98
100
AcDbEntity
8
1
62
256
6
ByLayer
370
18
48
1
60
0
100
AcDbLine
10
14.706726
20
17.871421
30
0
11
21.708324
21
18.32819
31
0
39
0
210
0
220
0
230
1
0
LINE
5
99
100
AcDbEntity
8
1
62
256
6
ByLayer
370
13
48
1
60
0
100
AcDbLine
10
17.623245
20
3.225864
30
0
11
17.654021
21
4.258124
31
0
39
0
210
0
220
0
230
1
0
LINE
5
9A
100
AcDbEntity
8
1
62
256
6
ByLayer
370
18
48
1
60
0
100
AcDbLine
10
16.908927
20
-12.6625
30
0
11
17.315791
21
-12.6625
31
0
39
0
210
0
220
0
230
1
0
LINE
5
9B
100
AcDbEntity
8
1
62
256
6
ByLayer
370
18
48
1
60
0
100
AcDbLine
10
0.372277
20
12.6625
30
0
11
0
21
12.6625
31
0
39
0
210
0
220
0
230
1
0
LINE
5
9C
100
AcDbEntity
8
1
62
256
6
ByLayer
370
13
48
1
60
0
100
AcDbLine
10
19.29637
20
10.62331
30
0
11
20.051163
21
11.395508
31
0
39
0
210
0
220
0
230
1
0
LINE
5
9D
100
AcDbEntity
8
1
62
256
6
ByLayer
370
13
48
1
60
0
100
AcDbLine
10
20.27123
20
11.450852
30
0
11
20.188157
21
12.372177
31
0
39
0
210
0
220
0
230
1
0
LINE
5
9E
100
AcDbEntity
8
1
62
256
6
ByLayer
370
13
48
1
60
0
100
AcDbLine
10
19.917601
20
9.556478
30
0
11
19.814891
21
7.966482
31
0
39
0
210
0
220
0
230
1
0
LINE
5
9F
100
AcDbEntity
8
1
62
256
6
ByLayer
370
18
48
1
60
0
100
AcDbLine
10
21.709577
20
16.036528
30
0
11
21.564008
21
14.259202
31
0
39
0
210
0
220
0
230
1
0
LINE
5
A0
100
AcDbEntity
8
1
62
256
6
ByLayer
370
18
48
1
60
0
100
AcDbLine
10
21.710388
20
16.045739
30
0
11
21.770265
21
16.208185
31
0
39
0
210
0
220
0
230
1
0
LINE
5
A1
100
AcDbEntity
8
1
62
256
6
ByLayer
370
18
48
1
60
0
100
AcDbLine
10
0
20
-12.6625
30
0
11
0.572808
21
-12.6625
31
0
39
0
210
0
220
0
230
1
0
LINE
5
A2
100
AcDbEntity
8
1
62
256
6
ByLayer
370
18
48
1
60
0
100
AcDbLine
10
0
20
7.476276
30
0
11
0
21
12.6625
31
0
39
0
210
0
220
0
230
1
0
LINE
5
A3
100
AcDbEntity
8
1
62
256
6
ByLayer
370
13
48
1
60
0
100
AcDbLine
10
18.941758
20
9.454949
30
0
11
19.084711
21
9.390825
31
0
39
0
210
0
220
0
230
1
0
LINE
5
A4
100
AcDbEntity
8
1
62
256
6
ByLayer
370
18
48
1
60
0
100
AcDbLine
10
29.644188
20
8.353857
30
0
11
31.178215
21
7.779694
31
0
39
0
210
0
220
0
230
1
0
LINE
5
A5
100
AcDbEntity
8
1
62
256
6
ByLayer
370
13
48
1
60
0
100
AcDbLine
10
29.62932
20
8.661767
30
0
11
29.644188
21
8.353857
31
0
39
0
210
0
220
0
230
1
0
LINE
5
A6
100
AcDbEntity
8
1
62
256
6
ByLayer
370
18
48
1
60
0
100
AcDbLine
10
20.149507
20
9.534968
30
0
11
19.917601
21
9.556478
31
0
39
0
210
0
220
0
230
1
0
LINE
5
A7
100
AcDbEntity
8
1
62
256
6
ByLayer
370
18
48
1
60
0
100
AcDbLine
10
27.012991
20
8.356944
30
0
11
29.310983
21
8.41026
31
0
39
0
210
0
220
0
230
1
0
LINE
5
A8
100
AcDbEntity
8
1
62
256
6
ByLayer
370
18
48
1
60
0
100
AcDbLine
10
19.603402
20
10.769587
30
0
11
19.460347
21
9.432712
31
0
39
0
210
0
220
0
230
1
0
LINE
5
A9
100
AcDbEntity
8
1
62
256
6
ByLayer
370
18
48
1
60
0
100
AcDbLine
10
0
20
-12.6625
30
0
11
0
21
7.476276
31
0
39
0
210
0
220
0
230
1
0
LINE
5
AA
100
AcDbEntity
8
1
62
256
6
ByLayer
370
13
48
1
60
0
100
AcDbLine
10
4.810852
20
2.747506
30
0
11
3.623478
21
2.360828
31
0
39
0
210
0
220
0
230
1
0
LINE
5
AB
100
AcDbEntity
8
1
62
256
6
ByLayer
370
13
48
1
60
0
100
AcDbLine
10
26.404854
20
8.102935
30
0
11
25.870684
21
8.278665
31
0
39
0
210
0
220
0
230
1
0
LINE
5
AC
100
AcDbEntity
8
1
62
256
6
ByLayer
370
18
48
1
60
0
100
AcDbLine
10
10.951515
20
17.673949
30
0
11
11.394111
21
17.674048
31
0
39
0
210
0
220
0
230
1
0
LINE
5
AD
100
AcDbEntity
8
1
62
256
6
ByLayer
370
18
48
1
60
0
100
AcDbLine
10
21.773427
20
18.328205
30
0
11
21.708324
21
18.32819
31
0
39
0
210
0
220
0
230
1
0
LINE
5
AE
100
AcDbEntity
8
SK1
62
256
6
ByLayer
370
18
48
1
60
0
100
AcDbLine
10
0
20
7.476276
30
0
11
0
21
12.6625
31
0
39
0
210
0
220
0
230
1
0
LINE
5
B0
100
AcDbEntity
8
SK1
62
256
6
ByLayer
370
13
48
1
60
0
100
AcDbLine
10
-2.988201
20
-12.6625
30
0
11
-2.988201
21
12.6625
31
0
39
0
210
0
220
0
230
1
0
LINE
5
B1
100
AcDbEntity
8
SK1
62
256
6
ByLayer
370
18
48
1
60
0
100
AcDbLine
10
0
20
-12.6625
30
0
11
0
21
7.476276
31
0
39
0
210
0
220
0
230
1
0
LINE
5
B2
100
AcDbEntity
8
SK1
62
256
6
ByLayer
370
18
48
1
60
0
100
AcDbLine
10
-81
20
12.6625
30
0
11
-2.988201
21
12.6625
31
0
39
0
210
0
220
0
230
1
0
LINE
5
B3
100
AcDbEntity
8
SK1
62
256
6
ByLayer
370
18
48
1
60
0
100
AcDbLine
10
-81
20
-12.6625
30
0
11
-2.988201
21
-12.6625
31
0
39
0
210
0
220
0
230
1
0
LINE
5
B4
100
AcDbEntity
8
SK1
62
256
6
ByLayer
370
18
48
1
60
0
100
AcDbLine
10
-1.44272
20
-12.6625
30
0
11
0
21
-12.6625
31
0
39
0
210
0
220
0
230
1
0
LINE
5
B5
100
AcDbEntity
8
SK1
62
256
6
ByLayer
370
18
48
1
60
0
100
AcDbLine
10
-81
20
-12.6625
30
0
11
-84
21
-9.6625
31
0
39
0
210
0
220
0
230
1
0
LINE
5
B6
100
AcDbEntity
8
SK1
62
256
6
ByLayer
370
18
48
1
60
0
100
AcDbLine
10
-2.988201
20
12.6625
30
0
11
-1.44272
21
12.6625
31
0
39
0
210
0
220
0
230
1
0
LINE
5
B7
100
AcDbEntity
8
SK1
62
256
6
ByLayer
370
18
48
1
60
0
100
AcDbLine
10
-1.44272
20
12.6625
30
0
11
-0.147512
21
12.6625
31
0
39
0
210
0
220
0
230
1
0
LINE
5
B8
100
AcDbEntity
8
SK1
62
256
6
ByLayer
370
18
48
1
60
0
100
AcDbLine
10
-81
20
12.6625
30
0
11
-84
21
9.6625
31
0
39
0
210
0
220
0
230
1
0
LINE
5
B9
100
AcDbEntity
8
SK1
62
256
6
ByLayer
370
18
48
1
60
0
100
AcDbLine
10
-2.988201
20
-12.6625
30
0
11
-1.44272
21
-12.6625
31
0
39
0
210
0
220
0
230
1
0
LINE
5
BA
100
AcDbEntity
8
SK1
62
256
6
ByLayer
370
18
48
1
60
0
100
AcDbLine
10
0
20
7.476276
30
0
11
-0.147512
21
12.6625
31
0
39
0
210
0
220
0
230
1
0
LINE
5
BB
100
AcDbEntity
8
SK1
62
256
6
ByLayer
370
18
48
1
60
0
100
AcDbLine
10
-84
20
-9.6625
30
0
11
-84
21
9.6625
31
0
39
0
210
0
220
0
230
1
0
LINE
5
BC
100
AcDbEntity
8
SK1
62
256
6
ByLayer
370
13
48
1
60
0
100
AcDbLine
10
-1.44272
20
12.6625
30
0
11
-1.44272
21
-12.6625
31
0
39
0
210
0
220
0
230
1
0
LINE
5
BD
100
AcDbEntity
8
SK1
62
256
6
ByLayer
370
18
48
1
60
0
100
AcDbLine
10
0
20
12.6625
30
0
11
-0.147512
21
12.6625
31
0
39
0
210
0
220
0
230
1
0
LINE
5
BE
100
AcDbEntity
8
1
62
256
6
ByLayer
370
18
48
1
60
0
100
AcDbLine
10
27.018374
20
9.073344
30
0
11
27.01957
21
9.087941
31
0
39
0
210
0
220
0
230
1
0
LINE
5
BF
100
AcDbEntity
8
1
62
256
6
ByLayer
370
13
48
1
60
0
100
AcDbLine
10
22.741412
20
11.296065
30
0
11
21.254502
21
11.433981
31
0
39
0
210
0
220
0
230
1
0
LINE
5
C0
100
AcDbEntity
8
1
62
256
6
ByLayer
370
18
48
1
60
0
100
AcDbLine
10
25.138568
20
7.72963
30
0
11
25.342759
21
7.938529
31
0
39
0
210
0
220
0
230
1
0
LINE
5
C1
100
AcDbEntity
8
1
62
256
6
ByLayer
370
18
48
1
60
0
100
AcDbLine
10
25.234797
20
7.926065
30
0
11
25.233035
21
7.921286
31
0
39
0
210
0
220
0
230
1
0
LINE
5
C2
100
AcDbEntity
8
1
62
256
6
ByLayer
370
13
48
1
60
0
100
AcDbLine
10
30.319353
20
8.847425
30
0
11
30.501824
21
11.075311
31
0
39
0
210
0
220
0
230
1
0
LINE
5
C3
100
AcDbEntity
8
1
62
256
6
ByLayer
370
18
48
1
60
0
100
AcDbLine
10
25.233035
20
7.921286
30
0
11
25.251478
21
8.233288
31
0
39
0
210
0
220
0
230
1
0
LINE
5
C4
100
AcDbEntity
8
1
62
256
6
ByLayer
370
13
48
1
60
0
100
AcDbLine
10
22.860606
20
12.592821
30
0
11
21.373697
21
12.730738
31
0
39
0
210
0
220
0
230
1
0
LINE
5
C5
100
AcDbEntity
8
1
62
256
6
ByLayer
370
18
48
1
60
0
100
AcDbLine
10
20.18459
20
7.692317
30
0
11
20.390146
21
8.249985
31
0
39
0
210
0
220
0
230
1
0
LINE
5
C6
100
AcDbEntity
8
1
62
256
6
ByLayer
370
18
48
1
60
0
100
AcDbLine
10
31.74737
20
18.225082
30
0
11
31.494683
21
15.139889
31
0
39
0
210
0
220
0
230
1
0
LINE
5
C7
100
AcDbEntity
8
1
62
256
6
ByLayer
370
13
48
1
60
0
100
AcDbLine
10
22.891865
20
18.612187
30
0
11
22.766661
21
16.494088
31
0
39
0
210
0
220
0
230
1
0
LINE
5
C8
100
AcDbEntity
8
1
62
256
6
ByLayer
370
18
48
1
60
0
100
AcDbLine
10
26.49275
20
18.186517
30
0
11
27.143066
21
18.571093
31
0
39
0
210
0
220
0
230
1
0
LINE
5
C9
100
AcDbEntity
8
1
62
256
6
ByLayer
370
13
48
1
60
0
100
AcDbLine
10
21.693836
20
15.379655
30
0
11
21.737569
21
16.119506
31
0
39
0
210
0
220
0
230
1
0
LINE
5
CA
100
AcDbEntity
8
1
62
256
6
ByLayer
370
13
48
1
60
0
100
AcDbLine
10
21.868274
20
18.330679
30
0
11
21.874997
21
18.44441
31
0
39
0
210
0
220
0
230
1
0
LINE
5
CB
100
AcDbEntity
8
1
62
256
6
ByLayer
370
18
48
1
60
0
100
AcDbLine
10
21.582358
20
14.403738
30
0
11
23.069267
21
14.265821
31
0
39
0
210
0
220
0
230
1
0
LINE
5
CC
100
AcDbEntity
8
1
62
256
6
ByLayer
370
18
48
1
60
0
100
AcDbLine
10
22.860606
20
12.592821
30
0
11
23.069267
21
14.265821
31
0
39
0
210
0
220
0
230
1
0
LINE
5
CD
100
AcDbEntity
8
1
62
256
6
ByLayer
370
18
48
1
60
0
100
AcDbLine
10
25.233035
20
7.921286
30
0
11
21.961069
21
7.679199
31
0
39
0
210
0
220
0
230
1
0
LINE
5
CE
100
AcDbEntity
8
1
62
256
6
ByLayer
370
18
48
1
60
0
100
AcDbLine
10
21.08112
20
8.500821
30
0
11
21.254502
21
11.433981
31
0
39
0
210
0
220
0
230
1
0
LINE
5
CF
100
AcDbEntity
8
1
62
256
6
ByLayer
370
18
48
1
60
0
100
AcDbLine
10
28.046195
20
8.843005
30
0
11
29.231722
21
8.756594
31
0
39
0
210
0
220
0
230
1
0
LINE
5
D0
100
AcDbEntity
8
1
62
256
6
ByLayer
370
13
48
1
60
0
100
AcDbLine
10
20.704864
20
7.480047
30
0
11
21.08112
21
8.500821
31
0
39
0
210
0
220
0
230
1
0
LINE
5
D1
100
AcDbEntity
8
1
62
256
6
ByLayer
370
18
48
1
60
0
100
AcDbLine
10
27.718367
20
18.824315
30
0
11
30.88732
21
19.08485
31
0
39
0
210
0
220
0
230
1
0
LINE
5
D2
100
AcDbEntity
8
1
62
256
6
ByLayer
370
18
48
1
60
0
100
AcDbLine
10
31.438871
20
13.964641
30
0
11
31.438986
21
12.691877
31
0
39
0
210
0
220
0
230
1
0
LINE
5
D3
100
AcDbEntity
8
1
62
256
6
ByLayer
370
18
48
1
60
0
100
AcDbLine
10
21.373697
20
12.730738
30
0
11
21.473736
21
13.532837
31
0
39
0
210
0
220
0
230
1
0
LINE
5
D4
100
AcDbEntity
8
1
62
256
6
ByLayer
370
18
48
1
60
0
100
AcDbLine
10
21.563265
20
14.250658
30
0
11
21.582358
21
14.403738
31
0
39
0
210
0
220
0
230
1
0
LINE
5
D5
100
AcDbEntity
8
1
62
256
6
ByLayer
370
18
48
1
60
0
100
AcDbLine
10
25.731337
20
8.242827
30
0
11
26.51459
21
8.88225
31
0
39
0
210
0
220
0
230
1
0
LINE
5
D6
100
AcDbEntity
8
1
62
256
6
ByLayer
370
18
48
1
60
0
100
AcDbLine
10
27.631976
20
11.446598
30
0
11
26.910054
21
9.067098
31
0
39
0
210
0
220
0
230
1
0
LINE
5
D7
100
AcDbEntity
8
1
62
256
6
ByLayer
370
18
48
1
60
0
100
AcDbLine
10
21.874997
20
18.44441
30
0
11
21.832619
21
18.329439
31
0
39
0
210
0
220
0
230
1
0
LINE
5
D8
100
AcDbEntity
8
1
62
256
6
ByLayer
370
18
48
1
60
0
100
AcDbLine
10
22.741412
20
11.296065
30
0
11
22.634769
21
9.491961
31
0
39
0
210
0
220
0
230
1
0
LINE
5
D9
100
AcDbEntity
8
1
62
256
6
ByLayer
370
13
48
1
60
0
100
AcDbLine
10
29.993386
20
14.098715
30
0
11
31.438871
21
13.964641
31
0
39
0
210
0
220
0
230
1
0
LINE
5
DA
100
AcDbEntity
8
1
62
256
6
ByLayer
370
18
48
1
60
0
100
AcDbLine
10
27.01957
20
9.087941
30
0
11
30.319353
21
8.847425
31
0
39
0
210
0
220
0
230
1
0
LINE
5
DB
100
AcDbEntity
8
1
62
256
6
ByLayer
370
13
48
1
60
0
100
AcDbLine
10
30.800792
20
15.20425
30
0
11
30.049333
21
15.273951
31
0
39
0
210
0
220
0
230
1
0
LINE
5
DC
100
AcDbEntity
8
1
62
256
6
ByLayer
370
13
48
1
60
0
100
AcDbLine
10
20.515859
20
8.238324
30
0
11
20.390146
21
8.249985
31
0
39
0
210
0
220
0
230
1
0
LINE
5
DD
100
AcDbEntity
8
1
62
256
6
ByLayer
370
13
48
1
60
0
100
AcDbLine
10
25.253192
20
8.237939
30
0
11
25.251478
21
8.233288
31
0
39
0
210
0
220
0
230
1
0
LINE
5
DE
100
AcDbEntity
8
1
62
256
6
ByLayer
370
13
48
1
60
0
100
AcDbLine
10
21.961069
20
7.679199
30
0
11
21.877152
21
7.451533
31
0
39
0
210
0
220
0
230
1
0
LINE
5
DF
100
AcDbEntity
8
1
62
256
6
ByLayer
370
13
48
1
60
0
100
AcDbLine
10
29.228361
20
8.715561
30
0
11
29.231722
21
8.756594
31
0
39
0
210
0
220
0
230
1
0
LINE
5
E0
100
AcDbEntity
8
1
62
256
6
ByLayer
370
18
48
1
60
0
100
AcDbLine
10
31.438986
20
12.691877
30
0
11
29.952077
21
12.829793
31
0
39
0
210
0
220
0
230
1
0
LINE
5
E1
100
AcDbEntity
8
1
62
256
6
ByLayer
370
18
48
1
60
0
100
AcDbLine
10
26.062886
20
18.124829
30
0
11
22.891865
21
18.612187
31
0
39
0
210
0
220
0
230
1
0
LINE
5
E2
100
AcDbEntity
8
1
62
256
6
ByLayer
370
13
48
1
60
0
100
AcDbLine
10
22.642794
20
9.513734
30
0
11
22.634769
21
9.491961
31
0
39
0
210
0
220
0
230
1
0
LINE
5
E3
100
AcDbEntity
8
1
62
256
6
ByLayer
370
13
48
1
60
0
100
AcDbLine
10
31.494683
20
15.139889
30
0
11
30.800792
21
15.20425
31
0
39
0
210
0
220
0
230
1
0
LINE
5
E4
100
AcDbEntity
8
1
62
256
6
ByLayer
370
13
48
1
60
0
100
AcDbLine
10
28.046195
20
8.843005
30
0
11
28.041438
21
8.784916
31
0
39
0
210
0
220
0
230
1
0
LINE
5
E5
100
AcDbEntity
8
1
62
256
6
ByLayer
370
18
48
1
60
0
100
AcDbLine
10
20.513696
20
8.250012
30
0
11
20.620144
21
7.673992
31
0
39
0
210
0
220
0
230
1
0
LINE
5
E6
100
AcDbEntity
8
1
62
256
6
ByLayer
370
18
48
1
60
0
100
AcDbLine
10
26.063707
20
18.138706
30
0
11
26.062886
21
18.124829
31
0
39
0
210
0
220
0
230
1
0
LINE
5
E7
100
AcDbEntity
8
1
62
256
6
ByLayer
370
13
48
1
60
0
100
AcDbLine
10
22.9723
20
9.19486
30
0
11
22.967348
21
9.181427
31
0
39
0
210
0
220
0
230
1
0
LINE
5
E8
100
AcDbEntity
8
1
62
256
6
ByLayer
370
13
48
1
60
0
100
AcDbLine
10
20.199009
20
10.304701
30
0
11
20.049783
21
7.780205
31
0
39
0
210
0
220
0
230
1
0
LINE
5
E9
100
AcDbEntity
8
1
62
256
6
ByLayer
370
13
48
1
60
0
100
AcDbLine
10
24.142881
20
9.268402
30
0
11
24.14989
21
9.287419
31
0
39
0
210
0
220
0
230
1
0
LINE
5
EA
100
AcDbEntity
8
1
62
256
6
ByLayer
370
18
48
1
60
0
100
AcDbLine
10
31.161572
20
8.680392
30
0
11
30.837818
21
8.356059
31
0
39
0
210
0
220
0
230
1
0
LINE
5
EB
100
AcDbEntity
8
1
62
256
6
ByLayer
370
18
48
1
60
0
100
AcDbLine
10
25.528152
20
15.915073
30
0
11
26.167484
21
18.136243
31
0
39
0
210
0
220
0
230
1
0
LINE
5
EC
100
AcDbEntity
8
1
62
256
6
ByLayer
370
18
48
1
60
0
100
AcDbLine
10
27.600683
20
18.81464
30
0
11
27.718367
21
18.824315
31
0
39
0
210
0
220
0
230
1
0
LINE
5
ED
100
AcDbEntity
8
1
62
256
6
ByLayer
370
13
48
1
60
0
100
AcDbLine
10
30.681716
20
8.370538
30
0
11
30.837818
21
8.356059
31
0
39
0
210
0
220
0
230
1
0
LINE
5
EE
100
AcDbEntity
8
1
62
256
6
ByLayer
370
18
48
1
60
0
100
AcDbLine
10
24.142881
20
9.268402
30
0
11
22.967348
21
9.181427
31
0
39
0
210
0
220
0
230
1
0
LINE
5
EF
100
AcDbEntity
8
2
62
256
6
ByLayer
370
13
48
1
60
0
100
AcDbLine
10
31.75
20
-29.210575
30
0
11
0
21
-29.210575
31
0
39
0
210
0
220
0
230
1
0
LINE
5
F1
100
AcDbEntity
8
2
62
256
6
ByLayer
370
13
48
1
60
0
100
AcDbLine
10
0
20
-3.944817
30
0
11
0
21
-31.210575
31
0
39
0
210
0
220
0
230
1
0
LINE
5
F2
100
AcDbEntity
8
2
62
256
6
ByLayer
370
13
48
1
60
0
100
AcDbLine
10
31.75
20
-1.5875
30
0
11
31.75
21
-31.210575
31
0
39
0
210
0
220
0
230
1
0
LINE
5
F3
100
AcDbEntity
8
1
62
256
6
ByLayer
370
18
48
1
60
1
100
AcDbLine
10
0
20
-29.210575
30
0
11
3.499998
21
-28.749791
31
0
39
0
210
0
220
0
230
1
0
LINE
5
F4
100
AcDbEntity
8
1
62
256
6
ByLayer
370
18
48
1
60
1
100
AcDbLine
10
3.499998
20
-28.749791
30
0
11
3.500002
21
-29.671359
31
0
39
0
210
0
220
0
230
1
0
LINE
5
F5
100
AcDbEntity
8
1
62
256
6
ByLayer
370
18
48
1
60
1
100
AcDbLine
10
3.500002
20
-29.671359
30
0
11
0
21
-29.210575
31
0
39
0
210
0
220
0
230
1
0
LINE
5
F6
100
AcDbEntity
8
1
62
256
6
ByLayer
370
18
48
1
60
1
100
AcDbLine
10
31.75
20
-29.210575
30
0
11
28.250002
21
-29.671359
31
0
39
0
210
0
220
0
230
1
0
LINE
5
F7
100
AcDbEntity
8
1
62
256
6
ByLayer
370
18
48
1
60
1
100
AcDbLine
10
28.250002
20
-29.671359
30
0
11
28.249998
21
-28.749791
31
0
39
0
210
0
220
0
230
1
0
LINE
5
F8
100
AcDbEntity
8
1
62
256
6
ByLayer
370
18
48
1
60
1
100
AcDbLine
10
28.249998
20
-28.749791
30
0
11
31.75
21
-29.210575
31
0
39
0
210
0
220
0
230
1
0
LINE
5
F9
100
AcDbEntity
8
2
62
256
6
ByLayer
370
18
48
1
60
1
100
AcDbLine
10
40.095223
20
19.0875
30
0
11
40.096223
21
19.0875
31
0
39
0
210
0
220
0
230
1
0
LINE
5
FA
100
AcDbEntity
8
2
62
256
6
ByLayer
370
18
48
1
60
1
100
AcDbLine
10
31.40204
20
14.855177
30
0
11
31.401958
21
14.854181
31
0
39
0
210
0
220
0
230
1
0
LINE
5
1A0
100
AcDbEntity
8
1
62
256
6
ByLayer
370
18
48
1
60
1
100
AcDbLine
10
0
20
-29.210575
30
0
11
3.499998
21
-28.749791
31
0
39
0
210
0
220
0
230
1
0
LINE
5
1A1
100
AcDbEntity
8
1
62
256
6
ByLayer
370
18
48
1
60
1
100
AcDbLine
10
3.499998
20
-28.749791
30
0
11
3.500002
21
-29.671359
31
0
39
0
210
0
220
0
230
1
0
LINE
5
1A2
100
AcDbEntity
8
1
62
256
6
ByLayer
370
18
48
1
60
1
100
AcDbLine
10
3.500002
20
-29.671359
30
0
11
0
21
-29.210575
31
0
39
0
210
0
220
0
230
1
0
LINE
5
1A4
100
AcDbEntity
8
1
62
256
6
ByLayer
370
18
48
1
60
1
100
AcDbLine
10
31.75
20
-29.210575
30
0
11
28.250002
21
-29.671359
31
0
39
0
210
0
220
0
230
1
0
LINE
5
1A5
100
AcDbEntity
8
1
62
256
6
ByLayer
370
18
48
1
60
1
100
AcDbLine
10
28.250002
20
-29.671359
30
0
11
28.249998
21
-28.749791
31
0
39
0
210
0
220
0
230
1
0
LINE
5
1A6
100
AcDbEntity
8
1
62
256
6
ByLayer
370
18
48
1
60
1
100
AcDbLine
10
28.249998
20
-28.749791
30
0
11
31.75
21
-29.210575
31
0
39
0
210
0
220
0
230
1
0
MTEXT
5
19B
100
AcDbEntity
8
SK6
62
256
6
ByLayer
370
18
48
1
60
0
100
AcDbMText
10
-75.596713
20
-20.637299
30
0
210
0
220
0
230
1
1
\W0.7109;QS-3-80-LR16-20-10C
40
3.5
41
0
44
1.084337
50
0
71
7
72
5
7
iso_b_vert
0
MTEXT
5
19F
100
AcDbEntity
8
2
62
256
6
ByLayer
370
18
48
1
60
0
100
AcDbMText
10
14.311842
20
-28.085575
30
0
210
0
220
0
230
1
1
\W0.6740;32
40
4.5
41
0
44
1.084337
50
0
71
7
72
5
7
iso_b_vert
0
HATCH
5
1A3
100
AcDbEntity
8
2
62
256
6
ByLayer
370
13
48
1
60
0
100
AcDbHatch
10
0
20
0
30
0
210
0
220
0
230
1
2
ANSI31
70
0
71
0
91
1
92
5
93
3
72
1
10
0
20
-29.2105751904333
11
3.49999830744682
21
-28.7497914488805
72
1
10
3.49999830744682
20
-28.7497914488805
11
3.50000169255318
21
-29.671358931986
72
1
10
3.50000169255318
20
-29.671358931986
11
0
21
-29.2105751904333
97
0
75
0
76
1
52
0
41
0.02
77
0
78
1
53
45
43
0
44
0
45
-0.0449012806053457
46
0.0449012806053458
79
0
47
0
98
1
10
0
20
0
0
HATCH
5
1A7
100
AcDbEntity
8
2
62
256
6
ByLayer
370
13
48
1
60
0
100
AcDbHatch
10
0
20
0
30
0
210
0
220
0
230
1
2
ANSI31
70
0
71
0
91
1
92
5
93
3
72
1
10
31.75
20
-29.2105751904333
11
28.2500016925532
21
-29.671358931986
72
1
10
28.2500016925532
20
-29.671358931986
11
28.2499983074468
21
-28.7497914488805
72
1
10
28.2499983074468
20
-28.7497914488805
11
31.75
21
-29.2105751904333
97
0
75
0
76
1
52
0
41
0.02
77
0
78
1
53
44.9999999999999
43
0
44
0
45
-0.0449012806053457
46
0.0449012806053458
79
0
47
0
98
1
10
0
20
0
0
DIMENSION
5
1B2
100
AcDbEntity
8
SK2
62
256
6
ByLayer
370
13
48
1
60
0
100
AcDbDimension
2
DimnDraft3D1
10
31.75
20
-44.055403
30
0
11
-30.617691
21
-44.055403
31
0
70
32
71
5
72
1
41
1
210
0
220
0
230
1
3
Standard
100
AcDbAlignedDimension
13
-84
23
-1.5875
33
0
14
31.75
24
-1.5875
34
0
50
0
100
AcDbRotatedDimension
1001
ACAD
1000
DSTYLE
1002
{
1070
   279
1070
     0
1070
   172
1070
     1
1070
   173
1070
     1
1070
   340
1005
19C
1070
   271
1070
     0
1070
   272
1070
     2
1070
    77
1070
     1
1070
    73
1070
     0
1070
   171
1070
     3
1070
   274
1070
     4
1070
   177
1070
   150
1070
   176
1070
     9
1070
   178
1070
    35
1070
    78
1070
     8
1070
    48
1040
-0.005
1070
    41
1041
3.5
1070
   147
1041
2.25
1070
    42
1041
1.5875
1070
    44
1041
2.0
1070
   140
1041
4.5
1070
   343
1005
0
1070
   344
1005
0
1002
}
0
DIMENSION
5
1BC
100
AcDbEntity
8
2
62
256
6
ByLayer
370
13
48
1
60
0
100
AcDbDimension
2
DimnDraft3D2
10
61.217367
20
19.0875
30
0
11
61.217367
21
-1.812299
31
0
70
32
71
5
72
1
41
1
210
0
220
0
230
1
3
Standard
100
AcDbAlignedDimension
13
33.3375
23
-12.6625
33
0
14
43.3375
24
19.0875
34
0
50
90
100
AcDbRotatedDimension
1001
ACAD
1000
DSTYLE
1002
{
1070
    74
1070
     0
1070
   279
1070
     0
1070
   172
1070
     1
1070
   173
1070
     1
1070
   340
1005
19C
1070
   271
1070
     0
1070
   272
1070
     2
1070
    77
1070
     1
1070
    73
1070
     0
1070
   171
1070
     3
1070
   274
1070
     4
1070
   177
1070
   150
1070
   176
1070
     9
1070
   178
1070
    35
1070
    78
1070
     8
1070
    48
1040
-0.005
1070
    41
1041
3.5
1070
   147
1041
2.25
1070
    42
1041
1.5875
1070
    44
1041
2.0
1070
   140
1041
4.5
1070
   343
1005
0
1070
   344
1005
0
1002
}
0
DIMENSION
5
1C6
100
AcDbEntity
8
SK2
62
256
6
ByLayer
370
13
48
1
60
0
100
AcDbDimension
2
DimnDraft3D3
10
-95.704654
20
-12.6625
30
0
11
-95.704654
21
-0.718377
31
0
70
32
71
5
72
1
41
1
210
0
220
0
230
1
3
Standard
100
AcDbAlignedDimension
13
-85.5875
23
12.6625
33
0
14
-85.5875
24
-12.6625
34
0
50
90
100
AcDbRotatedDimension
1001
ACAD
1000
DSTYLE
1002
{
1070
    74
1070
     0
1070
   279
1070
     0
1070
   172
1070
     1
1070
   173
1070
     1
1070
   340
1005
19C
1070
   271
1070
     0
1070
   272
1070
     2
1070
    77
1070
     1
1070
    73
1070
     0
1070
   171
1070
     3
1070
   274
1070
     4
1070
   177
1070
   150
1070
   176
1070
     9
1070
   178
1070
    35
1070
    78
1070
     8
1070
    48
1040
-0.005
1070
    41
1041
3.5
1070
   147
1041
2.25
1070
    42
1041
1.5875
1070
    44
1041
2.0
1070
   140
1041
4.5
1070
   343
1005
0
1070
   344
1005
0
1002
}
0
DIMENSION
5
1D0
100
AcDbEntity
8
2
62
256
6
ByLayer
370
13
48
1
60
0
100
AcDbDimension
2
DimnDraft3D4
10
31.401958
20
14.854181
30
0
11
40.882884
21
12.372758
31
0
70
34
71
5
72
1
41
1
210
0
220
0
230
1
3
Standard
100
AcDb2LineAngularDimension
13
40.095223
23
19.0875
33
0
14
40.096223
24
19.0875
34
0
15
31.40204
25
14.855177
35
0
16
42.47895
26
7.44027
36
0
40
0
0
ENDSEC
0
SECTION
2
OBJECTS
0
DICTIONARY
5
23a
330
0
100
AcDbDictionary
280
0
281
1
3
ACAD_GROUP
350
23b
3
ACAD_MLINESTYLE
350
23c
0
DICTIONARY
5
23b
330
0
100
AcDbDictionary
280
0
281
1
0
DICTIONARY
5
23c
330
0
100
AcDbDictionary
280
0
281
1
3
Standard
350
18
0
MLINESTYLE
5
18
330
23c
100
AcDbMlineStyle
2
Standard
70
0
3

62
256
51
90
52
90
71
2
49
-0.5
62
256
6
ByLayer
49
0.5
62
256
6
ByLayer
0
RASTERVARIABLES
5
229
330

100
AcDbRasterVariables
90
0
70
1
71
1
72
1
0
ENDSEC
0
EOF
