0
SECTION
2
HEADER
9
$ACADVER
1
AC1015
9
$DWGCODEPAGE
3
ANSI_1252
9
$HANDSEED
5
24b
9
$ANGBASE
50
0
9
$ANGDIR
70
0
9
$ATTMODE
70
1
9
$AUNITS
70
0
9
$AUPREC
70
0
9
$CECOLOR
62
256
9
$CELTSCALE
40
1
9
$CELTYPE
6
ByLayer
9
$CELWEIGHT
370
18
9
$CLAYER
8
0
9
$CMLJUST
70
0
9
$CMLSCALE
40
1
9
$CMLSTYLE
2
Standard
9
$DIMSTYLE
2
Standard
9
$TEXTSIZE
40
0.2
9
$TEXTSTYLE
7
Standard
9
$LUNITS
70
2
9
$LUPREC
70
4
9
$EXTNAMES
290
1
9
$INSUNITS
70
4
9
$LTSCALE
40
1
9
$LWDISPLAY
290
1
9
$PDMODE
70
0
9
$PDSIZE
40
0
9
$PLINEGEN
70
0
0
ENDSEC
0
SECTION
2
CLASSES
0
CLASS
1
RASTERVARIABLES
2
AcDbRasterVariables
3
ISM
90
0
280
0
281
0
0
ENDSEC
0
SECTION
2
TABLES
0
TABLE
2
VPORT
5
241
100
AcDbSymbolTable
0
VPORT
5
1
100
AcDbSymbolTableRecord
100
AcDbViewportTableRecord
2
*Active
70
0
10
0
20
0
11
1
21
1
12
-1
22
1
13
0
23
0
14
0.5
24
0.5
15
10
25
10
16
0
26
0
36
1
17
0
27
0
37
0
0
ENDTAB
0
TABLE
2
LTYPE
5
242
100
AcDbSymbolTable
0
LTYPE
5
14
100
AcDbSymbolTableRecord
100
AcDbLinetypeTableRecord
70
0
2
ByBlock
3

72
65
73
0
40
0
0
LTYPE
5
15
100
AcDbSymbolTableRecord
100
AcDbLinetypeTableRecord
70
0
2
ByLayer
3

72
65
73
0
40
0
0
LTYPE
5
16
100
AcDbSymbolTableRecord
100
AcDbLinetypeTableRecord
70
0
2
CONTINUOUS
3
Solid line
72
65
73
0
40
0
0
LTYPE
5
6A
100
AcDbSymbolTableRecord
100
AcDbLinetypeTableRecord
70
0
2
CENTER
3
____ _ ____ _ ____ _ ____
72
65
73
4
40
47.5
49
22
74
0
49
-8.5
74
0
49
8.5
74
0
49
-8.5
74
0
0
LTYPE
5
6B
100
AcDbSymbolTableRecord
100
AcDbLinetypeTableRecord
70
0
2
DASHED
3
__ __ __ __ __ __ __ __ __
72
65
73
2
40
25.72
49
12.86
74
0
49
-12.86
74
0
0
ENDTAB
0
TABLE
2
LAYER
5
243
100
AcDbSymbolTable
0
LAYER
5
10
100
AcDbSymbolTableRecord
100
AcDbLayerTableRecord
2
0
70
0
62
7
6
CONTINUOUS
290
1
370
-3
390
0
0
LAYER
5
6D
100
AcDbSymbolTableRecord
100
AcDbLayerTableRecord
2
81
70
0
62
-3
6
CONTINUOUS
290
1
370
-3
390
0
0
LAYER
5
6F
100
AcDbSymbolTableRecord
100
AcDbLayerTableRecord
2
80
70
0
62
-6
6
CONTINUOUS
290
1
370
-3
390
0
0
LAYER
5
72
100
AcDbSymbolTableRecord
100
AcDbLayerTableRecord
2
1
70
0
62
4
6
CONTINUOUS
290
1
370
-3
390
0
0
LAYER
5
EF
100
AcDbSymbolTableRecord
100
AcDbLayerTableRecord
2
2
70
0
62
7
6
CONTINUOUS
290
1
370
-3
390
0
0
LAYER
5
22e
100
AcDbSymbolTableRecord
100
AcDbLayerTableRecord
2
SK1
70
0
62
4
6
CONTINUOUS
290
1
370
-3
390
0
0
LAYER
5
22f
100
AcDbSymbolTableRecord
100
AcDbLayerTableRecord
2
SK6
70
0
62
5
6
CONTINUOUS
290
1
370
-3
390
0
0
LAYER
5
230
100
AcDbSymbolTableRecord
100
AcDbLayerTableRecord
2
SK2
70
0
62
7
6
CONTINUOUS
290
1
370
-3
390
0
0
ENDTAB
0
TABLE
2
STYLE
5
244
100
AcDbSymbolTable
0
STYLE
5
11
100
AcDbSymbolTableRecord
100
AcDbTextStyleTableRecord
2
Standard
3
txt
70
0
71
0
40
0
41
1
42
0
50
0
0
STYLE
5
1A0
100
AcDbSymbolTableRecord
100
AcDbTextStyleTableRecord
2
iso_b_vert
3
simplex.shx
70
0
71
0
40
0
41
1
42
0
50
0
0
STYLE
5
1A1
100
AcDbSymbolTableRecord
100
AcDbTextStyleTableRecord
2
DWGDirectTextStyle
3
simplex
70
0
71
0
40
0
41
1
42
0
50
0
0
ENDTAB
0
TABLE
2
DIMSTYLE
5
245
100
AcDbSymbolTable
100
AcDbDimStyleTable
0
DIMSTYLE
105
27
100
AcDbSymbolTableRecord
100
AcDbDimStyleTableRecord
2
Standard
70
0
3
<>
41
0.18
42
0.0625
44
0.18
140
0.18
147
0.09
73
0
74
0
77
1
271
2
275
0
278
52
280
0
340
11
0
ENDTAB
0
TABLE
2
VIEW
5
246
100
AcDbSymbolTable
0
ENDTAB
0
TABLE
2
UCS
5
247
100
AcDbSymbolTable
0
ENDTAB
0
TABLE
2
APPID
5
248
100
AcDbSymbolTable
0
APPID
5
12
100
AcDbSymbolTableRecord
100
AcDbRegAppTableRecord
2
ACAD
70
0
0
ENDTAB
0
TABLE
2
BLOCK_RECORD
5
249
100
AcDbSymbolTable
0
BLOCK_RECORD
5
1F
100
AcDbSymbolTableRecord
100
AcDbBlockTableRecord
2
*Model_Space
340
0
70
0
0
BLOCK_RECORD
5
1B
100
AcDbSymbolTableRecord
100
AcDbBlockTableRecord
2
*Paper_Space
340
0
70
0
0
BLOCK_RECORD
5
23
100
AcDbSymbolTableRecord
100
AcDbBlockTableRecord
2
*Paper_Space0
340
0
70
0
0
BLOCK_RECORD
5
1AC
100
AcDbSymbolTableRecord
100
AcDbBlockTableRecord
2
DimnDraft3D1
340
0
70
0
0
BLOCK_RECORD
5
1B7
100
AcDbSymbolTableRecord
100
AcDbBlockTableRecord
2
DimnDraft3D2
340
0
70
0
0
BLOCK_RECORD
5
1C1
100
AcDbSymbolTableRecord
100
AcDbBlockTableRecord
2
DimnDraft3D3
340
0
70
0
0
BLOCK_RECORD
5
1CB
100
AcDbSymbolTableRecord
100
AcDbBlockTableRecord
2
DimnDraft3D4
340
0
70
0
0
ENDTAB
0
ENDSEC
0
SECTION
2
BLOCKS
0
BLOCK
5
20
100
AcDbEntity
8
0
100
AcDbBlockBegin
2
*Model_Space
70
0
10
0
20
0
30
0
3
*Model_Space
0
ENDBLK
5
21
100
AcDbEntity
8
0
100
AcDbBlockEnd
0
BLOCK
5
1C
100
AcDbEntity
8
0
100
AcDbBlockBegin
2
*Paper_Space
70
0
10
0
20
0
30
0
3
*Paper_Space
0
ENDBLK
5
1D
100
AcDbEntity
8
0
100
AcDbBlockEnd
0
BLOCK
5
24
100
AcDbEntity
8
0
100
AcDbBlockBegin
2
*Paper_Space0
70
0
10
0
20
0
30
0
3
*Paper_Space0
0
ENDBLK
5
25
100
AcDbEntity
8
0
100
AcDbBlockEnd
0
BLOCK
5
1B4
100
AcDbEntity
8
0
100
AcDbBlockBegin
2
DimnDraft3D1
70
0
10
0
20
0
30
0
3
DimnDraft3D1
0
MTEXT
5
1AD
100
AcDbEntity
8
SK2
62
256
6
ByLayer
370
18
48
1
60
0
100
AcDbMText
10
-18.536769
20
-39.755403
30
0
210
0
220
0
230
1
1
\W0.6506;104
40
4.5
41
0
44
1.084337
50
0
71
7
72
5
7
iso_b_vert
0
LINE
5
1AF
100
AcDbEntity
8
SK2
62
256
6
ByLayer
370
13
48
1
60
0
100
AcDbLine
10
-69
20
-1.5875
30
0
11
-69
21
-42.880403
31
0
39
0
210
0
220
0
230
1
0
LINE
5
1B0
100
AcDbEntity
8
SK2
62
256
6
ByLayer
370
13
48
1
60
0
100
AcDbLine
10
34.925
20
-1.5875
30
0
11
34.925
21
-42.880403
31
0
39
0
210
0
220
0
230
1
0
LINE
5
1B1
100
AcDbEntity
8
SK2
62
256
6
ByLayer
370
13
48
1
60
0
100
AcDbLine
10
-69
20
-40.880403
30
0
11
34.925
21
-40.880403
31
0
39
0
210
0
220
0
230
1
0
SOLID
5
1B2
100
AcDbEntity
8
SK2
62
256
6
ByLayer
370
13
48
1
60
0
100
AcDbTrace
10
-69
20
-40.880403
30
0
11
-65.500002
21
-40.419619
31
0
12
-65.499998
22
-41.341187
32
0
13
-69
23
-40.880403
33
0
39
0
210
0
220
0
230
1
0
SOLID
5
1B3
100
AcDbEntity
8
SK2
62
256
6
ByLayer
370
13
48
1
60
0
100
AcDbTrace
10
34.925
20
-40.880403
30
0
11
31.425002
21
-41.341187
31
0
12
31.424998
22
-40.419619
32
0
13
34.925
23
-40.880403
33
0
39
0
210
0
220
0
230
1
0
ENDBLK
5
1B5
100
AcDbEntity
8
0
100
AcDbBlockEnd
0
BLOCK
5
1BE
100
AcDbEntity
8
0
100
AcDbBlockBegin
2
DimnDraft3D2
70
0
10
0
20
0
30
0
3
DimnDraft3D2
0
MTEXT
5
1B8
100
AcDbEntity
8
2
62
256
6
ByLayer
370
18
48
1
60
0
100
AcDbMText
10
63.267367
20
-6.550457
30
0
210
0
220
0
230
1
1
\W0.6740;25
40
4.5
41
0
44
1.084337
50
90
71
7
72
5
7
iso_b_vert
0
LINE
5
1B9
100
AcDbEntity
8
2
62
256
6
ByLayer
370
13
48
1
60
0
100
AcDbLine
10
36.5125
20
-9.4875
30
0
11
66.392367
21
-9.4875
31
0
39
0
210
0
220
0
230
1
0
LINE
5
1BA
100
AcDbEntity
8
2
62
256
6
ByLayer
370
13
48
1
60
0
100
AcDbLine
10
46.5125
20
15.9125
30
0
11
66.392367
21
15.9125
31
0
39
0
210
0
220
0
230
1
0
LINE
5
1BB
100
AcDbEntity
8
2
62
256
6
ByLayer
370
13
48
1
60
0
100
AcDbLine
10
64.392367
20
-9.4875
30
0
11
64.392367
21
15.9125
31
0
39
0
210
0
220
0
230
1
0
SOLID
5
1BC
100
AcDbEntity
8
2
62
256
6
ByLayer
370
13
48
1
60
0
100
AcDbTrace
10
64.392367
20
-9.4875
30
0
11
63.931583
21
-5.987502
31
0
12
64.853151
22
-5.987498
32
0
13
64.392367
23
-9.4875
33
0
39
0
210
0
220
0
230
1
0
SOLID
5
1BD
100
AcDbEntity
8
2
62
256
6
ByLayer
370
13
48
1
60
0
100
AcDbTrace
10
64.392367
20
15.9125
30
0
11
64.853151
21
12.412502
31
0
12
63.931583
22
12.412498
32
0
13
64.392367
23
15.9125
33
0
39
0
210
0
220
0
230
1
0
ENDBLK
5
1BF
100
AcDbEntity
8
0
100
AcDbBlockEnd
0
BLOCK
5
1C8
100
AcDbEntity
8
0
100
AcDbBlockBegin
2
DimnDraft3D3
70
0
10
0
20
0
30
0
3
DimnDraft3D3
0
MTEXT
5
1C2
100
AcDbEntity
8
SK2
62
256
6
ByLayer
370
18
48
1
60
0
100
AcDbMText
10
-81.829654
20
-1.719035
30
0
210
0
220
0
230
1
1
\W0.5469;19
40
4.5
41
0
44
1.084337
50
90
71
7
72
5
7
iso_b_vert
0
LINE
5
1C3
100
AcDbEntity
8
SK2
62
256
6
ByLayer
370
13
48
1
60
0
100
AcDbLine
10
-70.5875
20
9.4875
30
0
11
-82.704654
21
9.4875
31
0
39
0
210
0
220
0
230
1
0
LINE
5
1C4
100
AcDbEntity
8
SK2
62
256
6
ByLayer
370
13
48
1
60
0
100
AcDbLine
10
-70.5875
20
-9.4875
30
0
11
-82.704654
21
-9.4875
31
0
39
0
210
0
220
0
230
1
0
LINE
5
1C5
100
AcDbEntity
8
SK2
62
256
6
ByLayer
370
13
48
1
60
0
100
AcDbLine
10
-80.704654
20
9.4875
30
0
11
-80.704654
21
-9.4875
31
0
39
0
210
0
220
0
230
1
0
SOLID
5
1C6
100
AcDbEntity
8
SK2
62
256
6
ByLayer
370
13
48
1
60
0
100
AcDbTrace
10
-80.704654
20
9.4875
30
0
11
-80.24387
21
5.987502
31
0
12
-81.165438
22
5.987498
32
0
13
-80.704654
23
9.4875
33
0
39
0
210
0
220
0
230
1
0
SOLID
5
1C7
100
AcDbEntity
8
SK2
62
256
6
ByLayer
370
13
48
1
60
0
100
AcDbTrace
10
-80.704654
20
-9.4875
30
0
11
-81.165438
21
-5.987502
31
0
12
-80.24387
22
-5.987498
32
0
13
-80.704654
23
-9.4875
33
0
39
0
210
0
220
0
230
1
0
ENDBLK
5
1C9
100
AcDbEntity
8
0
100
AcDbBlockEnd
0
BLOCK
5
1D2
100
AcDbEntity
8
0
100
AcDbBlockBegin
2
DimnDraft3D4
70
0
10
0
20
0
30
0
3
DimnDraft3D4
0
MTEXT
5
1CC
100
AcDbEntity
8
2
62
256
6
ByLayer
370
18
48
1
60
0
100
AcDbMText
10
45.00407
20
4.787094
30
0
210
0
220
0
230
1
1
\W0.8531;95%%d
40
4.5
41
0
44
1.084337
50
53.6756750758011
71
7
72
5
7
iso_b_vert
0
LINE
5
1CD
100
AcDbEntity
8
2
62
256
6
ByLayer
370
13
48
1
60
0
100
AcDbLine
10
44.858723
20
15.9125
30
0
11
52.760666
21
15.9125
31
0
39
0
210
0
220
0
230
1
0
LINE
5
1CE
100
AcDbEntity
8
2
62
256
6
ByLayer
370
13
48
1
60
0
100
AcDbLine
10
34.44688
20
10.097019
30
0
11
33.463572
21
-1.863192
31
0
39
0
210
0
220
0
230
1
0
ARC
5
1CF
100
AcDbEntity
8
2
62
256
6
ByLayer
370
13
48
1
60
0
100
AcDbCircle
39
0
10
34.925
20
15.9125
30
0
40
15.8356663774515
210
0
220
0
230
1
100
AcDbArc
50
265.3
51
0
0
SOLID
5
1D0
100
AcDbEntity
8
2
62
256
6
ByLayer
370
13
48
1
60
0
100
AcDbTrace
10
50.760666
20
15.9125
30
0
11
51.028239
21
12.392455
31
0
12
50.108066
22
12.443142
32
0
13
50.760666
23
15.9125
33
0
39
0
210
0
220
0
230
1
0
SOLID
5
1D1
100
AcDbEntity
8
2
62
256
6
ByLayer
370
13
48
1
60
0
100
AcDbTrace
10
33.627449
20
0.130083
30
0
11
37.138611
21
0.496215
31
0
12
37.113736
22
-0.425017
32
0
13
33.627449
23
0.130083
33
0
39
0
210
0
220
0
230
1
0
ENDBLK
5
1D3
100
AcDbEntity
8
0
100
AcDbBlockEnd
0
ENDSEC
0
SECTION
2
ENTITIES
0
ARC
5
FA
100
AcDbEntity
8
1
62
256
6
ByLayer
370
18
48
1
60
0
100
AcDbCircle
39
0
10
-0.372277
20
11.0875
30
0
40
1.6000000000486
210
0
220
0
230
-1
100
AcDbArc
50
244.992167
51
259.797782
0
ARC
5
FB
100
AcDbEntity
8
1
62
256
6
ByLayer
370
18
48
1
60
0
100
AcDbCircle
39
0
10
-0.372277
20
11.0875
30
0
40
1.60000000016987
210
0
220
0
230
-1
100
AcDbArc
50
259.797782
51
270
0
ARC
5
FC
100
AcDbEntity
8
1
62
256
6
ByLayer
370
18
48
1
60
0
100
AcDbCircle
39
0
10
-2.999059
20
19.8375
30
0
40
10.2000000000006
210
0
220
0
230
-1
100
AcDbArc
50
213.10434
51
270
0
ARC
5
FD
100
AcDbEntity
8
1
62
256
6
ByLayer
370
18
48
1
60
0
100
AcDbCircle
39
0
10
-0.372277
20
-11.0875
30
0
40
1.60000000000084
210
0
220
0
230
-1
100
AcDbArc
50
90
51
121.266552
0
ARC
5
FE
100
AcDbEntity
8
1
62
256
6
ByLayer
370
18
48
1
60
0
100
AcDbCircle
39
0
10
-0.372277
20
-11.0875
30
0
40
1.60000000000048
210
0
220
0
230
-1
100
AcDbArc
50
121.266552
51
165
0
ELLIPSE
5
FF
100
AcDbEntity
8
1
62
256
6
ByLayer
370
13
48
1
60
0
100
AcDbEllipse
10
22.289856
20
4.711933
30
0
11
-1.26202098376883
21
-0.983515651389015
31
0
210
0
220
0
230
1
40
0.04233
41
0.463002881118918
42
1.44994298477887
0
ELLIPSE
5
100
100
AcDbEntity
8
1
62
256
6
ByLayer
370
18
48
1
60
0
100
AcDbEllipse
10
17.150963
20
14.696257
30
0
11
-3.03814491727073
21
-0.196432452772018
31
0
210
0
220
0
230
-1
40
0.006113
41
-0.0945973586236978
42
1.30348671431896
0
ELLIPSE
5
101
100
AcDbEntity
8
1
62
256
6
ByLayer
370
13
48
1
60
0
100
AcDbEllipse
10
11.164959
20
-10.68288
30
0
11
-0.909818963327428
21
1.31614188215777
31
0
210
0
220
0
230
1
40
0.118103
41
0.136125108671779
42
1.61965497286695
0
ELLIPSE
5
102
100
AcDbEntity
8
1
62
256
6
ByLayer
370
18
48
1
60
0
100
AcDbEllipse
10
21.753692
20
10.590485
30
0
11
-1.8202765515486
21
-3.0247283592129
31
0
210
0
220
0
230
-1
40
0.840613
41
-1.29650453222379
42
-0.852892090298444
0
ELLIPSE
5
103
100
AcDbEntity
8
1
62
256
6
ByLayer
370
18
48
1
60
0
100
AcDbEllipse
10
25.166354
20
12.23536
30
0
11
-0.205294257974954
21
0.804857499621022
31
0
210
0
220
0
230
-1
40
0.245318
41
-0.61926311840427
42
-0.0837364640882555
0
ELLIPSE
5
104
100
AcDbEntity
8
1
62
256
6
ByLayer
370
13
48
1
60
0
100
AcDbEllipse
10
7.635051
20
-5.667803
30
0
11
-3.82461775735589
21
2.46990502040731
31
0
210
0
220
0
230
1
40
0.991816
41
-0.261977194083572
42
2.75195086188096
0
ELLIPSE
5
105
100
AcDbEntity
8
1
62
256
6
ByLayer
370
18
48
1
60
0
100
AcDbEllipse
10
22.997667
20
5.144048
30
0
11
-1.33486947113453
21
-2.21813413009144
31
0
210
0
220
0
230
-1
40
0.840613
41
2.22055158448582
42
2.28870056329198
0
ELLIPSE
5
106
100
AcDbEntity
8
1
62
256
6
ByLayer
370
13
48
1
60
0
100
AcDbEllipse
10
44.710728
20
-46.748441
30
0
11
51.6349577096948
21
-33.3454084477877
31
0
210
0
220
0
230
1
40
0.991816
41
2.63894184644593
42
2.87961545950623
0
ELLIPSE
5
107
100
AcDbEntity
8
1
62
256
6
ByLayer
370
13
48
1
60
0
100
AcDbEllipse
10
21.00925
20
6.275506
30
0
11
1.21289803329437
21
1.04349334489045
31
0
210
0
220
0
230
1
40
0.036406
41
-2.64167745753666
42
-1.6935577813786
0
ELLIPSE
5
108
100
AcDbEntity
8
1
62
256
6
ByLayer
370
13
48
1
60
0
100
AcDbEllipse
10
15.506082
20
7.31561
30
0
11
-0.754776739564329
21
1.41078420511879
31
0
210
0
220
0
230
1
40
0.111881
41
1.63273088367086
42
3.11626074786606
0
ELLIPSE
5
109
100
AcDbEntity
8
1
62
256
6
ByLayer
370
18
48
1
60
0
100
AcDbEllipse
10
44.914636
20
122.949304
30
0
11
-12.2734331454617
21
-126.312672887002
31
0
210
0
220
0
230
-1
40
0.074647
41
-0.110458767104383
42
-0.0585228240741234
0
ELLIPSE
5
10A
100
AcDbEntity
8
1
62
256
6
ByLayer
370
13
48
1
60
0
100
AcDbEllipse
10
44.81189
20
-46.591794
30
0
11
-50.2959836448997
21
32.4807105943952
31
0
210
0
220
0
230
1
40
0.991816
41
-0.502650807143868
42
-0.261977194083563
0
ELLIPSE
5
10B
100
AcDbEntity
8
1
62
256
6
ByLayer
370
18
48
1
60
0
100
AcDbEllipse
10
28.338395
20
6.270611
30
0
11
-2.6676700088388
21
0.367673564388656
31
0
210
0
220
0
230
-1
40
0.245023
41
-2.55619695371215
42
-2.25958134795633
0
ELLIPSE
5
10C
100
AcDbEntity
8
1
62
256
6
ByLayer
370
13
48
1
60
0
100
AcDbEllipse
10
3.513864
20
-1.105643
30
0
11
-1.07097399480423
21
1.18870294962748
31
0
210
0
220
0
230
1
40
0.123317
41
1.60412288500636
42
3.08765274920154
0
ELLIPSE
5
10D
100
AcDbEntity
8
1
62
256
6
ByLayer
370
18
48
1
60
0
100
AcDbEllipse
10
23.064824
20
5.212753
30
0
11
-0.593442361511862
21
2.50442961102427
31
0
210
0
220
0
230
-1
40
0.240405
41
-1.10251630133516
42
-0.875532971105673
0
ELLIPSE
5
10E
100
AcDbEntity
8
1
62
256
6
ByLayer
370
13
48
1
60
0
100
AcDbEllipse
10
7.53389
20
-5.82445
30
0
11
5.16359182215101
21
-3.33460287379985
31
0
210
0
220
0
230
1
40
0.991816
41
2.87961545950622
42
-1.53976373157135
0
ELLIPSE
5
10F
100
AcDbEntity
8
1
62
256
6
ByLayer
370
13
48
1
60
0
100
AcDbEllipse
10
7.53389
20
-5.82445
30
0
11
5.16359182215101
21
-3.33460287379985
31
0
210
0
220
0
230
1
40
0.991816
41
-0.447504766704312
42
-0.389641791708832
0
ELLIPSE
5
110
100
AcDbEntity
8
1
62
256
6
ByLayer
370
18
48
1
60
0
100
AcDbEllipse
10
25.770452
20
5.02647
30
0
11
-2.75234509896056
21
0.272204338810758
31
0
210
0
220
0
230
-1
40
0.24586
41
-2.46539280617589
42
-1.60870926730157
0
ELLIPSE
5
111
100
AcDbEntity
8
1
62
256
6
ByLayer
370
13
48
1
60
0
100
AcDbEllipse
10
-10.419435
20
-20.595961
30
0
11
34.8338486072274
21
-22.4953977138305
31
0
210
0
220
0
230
1
40
0.991816
41
1.23285089686256
42
1.28163376742132
0
ELLIPSE
5
112
100
AcDbEntity
8
1
62
256
6
ByLayer
370
18
48
1
60
0
100
AcDbEllipse
10
-23.513825
20
40.426463
30
0
11
-32.1346900001081
21
-49.7601749808467
31
0
210
-2.24016912299294E-16
220
3.09869035005174E-16
230
1
40
0.991753
41
1.19159504008304
42
1.21477430051277
0
ELLIPSE
5
113
100
AcDbEntity
8
1
62
256
6
ByLayer
370
13
48
1
60
0
100
AcDbEllipse
10
17.626486
20
3.384828
30
0
11
-2.41282270286769
21
1.55818000261695
31
0
210
0
220
0
230
1
40
0.991816
41
-0.747299609939994
42
-0.502650807143871
0
ELLIPSE
5
114
100
AcDbEntity
8
1
62
256
6
ByLayer
370
18
48
1
60
0
100
AcDbEllipse
10
-21.123119
20
80.75075
30
0
11
-723.711608842202
21
-456.026499509112
31
0
210
0
220
0
230
-1
40
0.116734
41
-1.57306896710503
42
-1.55472963993752
0
ELLIPSE
5
115
100
AcDbEntity
8
1
62
256
6
ByLayer
370
18
48
1
60
0
100
AcDbEllipse
10
26.606488
20
-1.956632
30
0
11
-1.38609150095356
21
0.895125885551476
31
0
210
0
220
0
230
1
40
0.991816
41
0
42
6.28318530717959
0
ELLIPSE
5
116
100
AcDbEntity
8
1
62
256
6
ByLayer
370
13
48
1
60
0
100
AcDbEllipse
10
-24.046537
20
39.601564
30
0
11
-50.2959836448997
21
32.4807105943952
31
0
210
0
220
0
230
1
40
0.991816
41
2.75195086188095
42
2.99301867172024
0
ELLIPSE
5
117
100
AcDbEntity
8
1
62
256
6
ByLayer
370
18
48
1
60
0
100
AcDbEllipse
10
73.9676
20
-9.846008
30
0
11
-43.900499677047
21
15.7045769614409
31
0
210
0
220
0
230
-1
40
0.036559
41
0.342144483887013
42
0.394780662851479
0
ELLIPSE
5
118
100
AcDbEntity
8
1
62
256
6
ByLayer
370
18
48
1
60
0
100
AcDbEllipse
10
45.027056
20
-46.258611
30
0
11
-32.352419704706
21
-50.0973267691255
31
0
210
-2.24016912299294E-16
220
3.09869035005174E-16
230
1
40
0.991753
41
-1.8576850361023
42
-1.84363573618946
0
ELLIPSE
5
119
100
AcDbEntity
8
1
62
256
6
ByLayer
370
18
48
1
60
0
100
AcDbEllipse
10
23.090497
20
12.083002
30
0
11
-3.08324741930782
21
-0.443121051187804
31
0
210
0
220
0
230
-1
40
0.96233
41
1.6540309947415
42
1.83674189930754
0
ELLIPSE
5
11A
100
AcDbEntity
8
1
62
256
6
ByLayer
370
18
48
1
60
0
100
AcDbEllipse
10
23.568423
20
8.53257
30
0
11
-0.203186744050111
21
-2.19059698416717
31
0
210
0
220
0
230
1
40
0.094469
41
-1.29019954358115
42
-0.210178664468547
0
ELLIPSE
5
11B
100
AcDbEntity
8
1
62
256
6
ByLayer
370
18
48
1
60
0
100
AcDbEllipse
10
17.593559
20
14.696356
30
0
11
-3.03814491725846
21
-0.196432452771325
31
0
210
0
220
0
230
-1
40
0.006113
41
-1.6653936854171
42
-0.0945973586242727
0
ELLIPSE
5
11C
100
AcDbEntity
8
1
62
256
6
ByLayer
370
18
48
1
60
0
100
AcDbEllipse
10
32.51332
20
4.353839
30
0
11
-0.760241885616837
21
0.457402405728519
31
0
210
0
220
0
230
-1
40
0.991433
41
1.00206784809336
42
1.38575513844784
0
ELLIPSE
5
11D
100
AcDbEntity
8
1
62
256
6
ByLayer
370
18
48
1
60
0
100
AcDbEllipse
10
26.159745
20
-2.648409
30
0
11
-1.38609150095356
21
0.895125885551475
31
0
210
0
220
0
230
1
40
0.991816
41
-2.56443062120847
42
-0.254280127260571
0
ELLIPSE
5
11E
100
AcDbEntity
8
1
62
256
6
ByLayer
370
18
48
1
60
0
100
AcDbEllipse
10
26.159745
20
-2.648409
30
0
11
-1.38609150095356
21
0.895125885551475
31
0
210
0
220
0
230
1
40
0.991816
41
-2.88732769680726
42
-2.56443062120846
0
ELLIPSE
5
11F
100
AcDbEntity
8
1
62
256
6
ByLayer
370
18
48
1
60
0
100
AcDbEllipse
10
24.587896
20
6.986159
30
0
11
-2.17047646581374
21
1.30587537194121
31
0
210
0
220
0
230
-1
40
0.991433
41
-0.62930300743723
42
0.527042152742707
0
ELLIPSE
5
120
100
AcDbEntity
8
1
62
256
6
ByLayer
370
18
48
1
60
0
100
AcDbEllipse
10
-60.606544
20
2.636289
30
0
11
-99.5733409181478
21
-2.33217637712351
31
0
210
0
220
0
230
-1
40
0.020746
41
2.72701499865667
42
2.77355860633369
0
ELLIPSE
5
121
100
AcDbEntity
8
1
62
256
6
ByLayer
370
18
48
1
60
0
100
AcDbEllipse
10
22.155728
20
11.376945
30
0
11
-2.13979989198844
21
1.28741869531439
31
0
210
0
220
0
230
-1
40
0.991433
41
2.68509225657014
42
-2.61455050084678
0
ELLIPSE
5
122
100
AcDbEntity
8
1
62
256
6
ByLayer
370
13
48
1
60
0
100
AcDbEllipse
10
18.769163
20
1.98966
30
0
11
-2.41282270286769
21
1.55818000261695
31
0
210
0
220
0
230
1
40
0.991816
41
2.99301867172024
42
-2.39432787183072
0
ELLIPSE
5
123
100
AcDbEntity
8
1
62
256
6
ByLayer
370
18
48
1
60
0
100
AcDbEllipse
10
18.769163
20
1.98966
30
0
11
-2.41282270286769
21
1.55818000261695
31
0
210
0
220
0
230
1
40
0.991816
41
-2.39432782750251
42
-2.39080325256737
0
ELLIPSE
5
124
100
AcDbEntity
8
1
62
256
6
ByLayer
370
18
48
1
60
0
100
AcDbEllipse
10
26.713845
20
-1.790391
30
0
11
1.84812200127141
21
-1.1935011807353
31
0
210
0
220
0
230
1
40
0.991816
41
0
42
6.28318530717959
0
ELLIPSE
5
125
100
AcDbEntity
8
1
62
256
6
ByLayer
370
18
48
1
60
0
100
AcDbEllipse
10
16.88308
20
14.684933
30
0
11
-2.0254299447844
21
-0.130954968510627
31
0
210
0
220
0
230
-1
40
0.006113
41
1.30348671431331
42
1.877624696134
0
ELLIPSE
5
126
100
AcDbEntity
8
1
62
256
6
ByLayer
370
13
48
1
60
0
100
AcDbEllipse
10
22.133567
20
-0.942395
30
0
11
-1.19951479625929
21
1.0588504396538
31
0
210
0
220
0
230
1
40
0.126266
41
0.106319236630088
42
1.58984910082527
0
ELLIPSE
5
127
100
AcDbEntity
8
1
62
256
6
ByLayer
370
18
48
1
60
0
100
AcDbEllipse
10
2.999129
20
19.837455
30
0
11
-5.52717575653093
21
-8.5726005233658
31
0
210
0
220
0
230
-1
40
0.999996
41
-1.57596482764826
42
-1.56569155744933
0
ELLIPSE
5
128
100
AcDbEntity
8
1
62
256
6
ByLayer
370
18
48
1
60
0
100
AcDbEllipse
10
26.644582
20
-1.897644
30
0
11
-1.84812200127141
21
1.1935011807353
31
0
210
0
220
0
230
1
40
0.991816
41
-2.56443062120847
42
-0.0291654299811473
0
ELLIPSE
5
129
100
AcDbEntity
8
1
62
256
6
ByLayer
370
18
48
1
60
0
100
AcDbEllipse
10
26.644582
20
-1.897644
30
0
11
-1.84812200127141
21
1.1935011807353
31
0
210
0
220
0
230
1
40
0.991816
41
-3.11234417451713
42
-2.56443062120846
0
ELLIPSE
5
12A
100
AcDbEntity
8
1
62
256
6
ByLayer
370
18
48
1
60
0
100
AcDbEllipse
10
27.786795
20
6.760408
30
0
11
-2.19803629927066
21
1.32245684970887
31
0
210
0
220
0
230
-1
40
0.991433
41
-2.88485295272333
42
-2.19195965665056
0
ELLIPSE
5
12B
100
AcDbEntity
8
1
62
256
6
ByLayer
370
18
48
1
60
0
100
AcDbEllipse
10
30.216034
20
4.27777
30
0
11
-0.779866847555396
21
0.469209837451362
31
0
210
0
220
0
230
-1
40
0.991433
41
0.256739700746251
42
1.00206784888904
0
ELLIPSE
5
12C
100
AcDbEntity
8
1
62
256
6
ByLayer
370
13
48
1
60
0
100
AcDbEllipse
10
23.271041
20
8.560154
30
0
11
-0.203186744050111
21
-2.19059698416717
31
0
210
0
220
0
230
1
40
0.094469
41
-1.17069637536101
42
-0.106972687587402
0
ELLIPSE
5
12D
100
AcDbEntity
8
1
62
256
6
ByLayer
370
13
48
1
60
0
100
AcDbEllipse
10
17.525324
20
3.228181
30
0
11
3.7517967676628
21
-2.42287785600949
31
0
210
0
220
0
230
1
40
0.991816
41
1.28163376742133
42
2.63894184644593
0
ELLIPSE
5
12E
100
AcDbEntity
8
1
62
256
6
ByLayer
370
13
48
1
60
0
100
AcDbEllipse
10
18.668002
20
1.833013
30
0
11
3.7517967676628
21
-2.42287785600949
31
0
210
0
220
0
230
1
40
0.991816
41
-0.148573981869554
42
1.23285089686256
0
ELLIPSE
5
12F
100
AcDbEntity
8
1
62
256
6
ByLayer
370
18
48
1
60
0
100
AcDbEllipse
10
25.473131
20
15.186094
30
0
11
-0.544558911036794
21
-0.0317071291075104
31
0
210
0
220
0
230
-1
40
0.016048
41
-0.805455605057283
42
-0.269928950729125
0
ELLIPSE
5
130
100
AcDbEntity
8
1
62
256
6
ByLayer
370
18
48
1
60
0
100
AcDbEllipse
10
23.099932
20
5.731045
30
0
11
-0.0905607788971665
21
1.27679077975021
31
0
210
0
220
0
230
-1
40
0.369973
41
-2.03797501637452
42
-1.11952794521583
0
ELLIPSE
5
131
100
AcDbEntity
8
1
62
256
6
ByLayer
370
18
48
1
60
0
100
AcDbEllipse
10
8.319768
20
-4.607527
30
0
11
-2.00188309815429
21
-3.09989152703891
31
0
210
-2.24016912299294E-16
220
3.09869035005174E-16
230
1
40
0.991753
41
-1.84363573618947
42
1.19159504008305
0
ELLIPSE
5
132
100
AcDbEntity
8
1
62
256
6
ByLayer
370
18
48
1
60
0
100
AcDbEllipse
10
-65.473248
20
-65.070963
30
0
11
75.5397656434552
21
60.4567441417621
31
0
210
-2.34289155949847E-16
220
2.92740672434408E-16
230
1
40
0.413421
41
-0.0655168534328829
42
0.120086610626505
0
ELLIPSE
5
133
100
AcDbEntity
8
1
62
256
6
ByLayer
370
18
48
1
60
0
100
AcDbEllipse
10
24.634347
20
6.49086
30
0
11
-2.17122185465136
21
1.30632383795422
31
0
210
0
220
0
230
-1
40
0.991433
41
-2.19195965672861
42
-0.629303007437551
0
ELLIPSE
5
134
100
AcDbEntity
8
1
62
256
6
ByLayer
370
13
48
1
60
0
100
AcDbEllipse
10
-24.147699
20
39.444917
30
0
11
51.6349577096948
21
-33.3454084477878
31
0
210
0
220
0
230
1
40
0.991816
41
-0.38964179170884
42
-0.148573981869555
0
ELLIPSE
5
135
100
AcDbEntity
8
1
62
256
6
ByLayer
370
13
48
1
60
0
100
AcDbEllipse
10
17.584428
20
9.964762
30
0
11
-8.92586152246807
21
10.1965934719607
31
0
210
0
220
0
230
-1
40
0.815574
41
1.96744122204508
42
2.10429392623282
0
ELLIPSE
5
136
100
AcDbEntity
8
1
62
256
6
ByLayer
370
18
48
1
60
0
100
AcDbEllipse
10
22.558733
20
-6.754272
30
0
11
-1.06211252571648
21
-11.4508478717829
31
0
210
0
220
0
230
1
40
0.094469
41
2.89184736577123
42
2.96411440000273
0
ELLIPSE
5
137
100
AcDbEntity
8
1
62
256
6
ByLayer
370
13
48
1
60
0
100
AcDbEllipse
10
17.097469
20
-3.800471
30
0
11
-12.5863407087716
21
-9.56274981113875
31
0
210
0
220
0
230
-1
40
0.049704
41
-3.08133619837557
42
-2.93036343957458
0
ELLIPSE
5
138
100
AcDbEntity
8
1
62
256
6
ByLayer
370
18
48
1
60
0
100
AcDbEllipse
10
25.042943
20
5.25284
30
0
11
0.744767014286849
21
-0.274519866185041
31
0
210
0
220
0
230
1
40
0.938407
41
-2.86466400963702
42
-1.11933475764269
0
ELLIPSE
5
139
100
AcDbEntity
8
1
62
256
6
ByLayer
370
13
48
1
60
0
100
AcDbEllipse
10
28.687806
20
10.992953
30
0
11
0.770985958331764
21
0.213496257707839
31
0
210
0
220
0
230
1
40
0.197129
41
-1.54609191316085
42
-0.74297662031076
0
ELLIPSE
5
13A
100
AcDbEntity
8
1
62
256
6
ByLayer
370
13
48
1
60
0
100
AcDbEllipse
10
41.90973
20
7.440299
30
0
11
-12.4846709450607
21
-4.9589270141066
31
0
210
0
220
0
230
-1
40
0.734741
41
0.266069377612603
42
0.707631562529687
0
ELLIPSE
5
13B
100
AcDbEntity
8
1
62
256
6
ByLayer
370
18
48
1
60
0
100
AcDbEllipse
10
31.151404
20
5.786496
30
0
11
0.996662700015138
21
-0.0816300336796124
31
0
210
0
220
0
230
1
40
0.112753
41
-3.14158568810597
42
-1.49148293488229
0
ELLIPSE
5
13C
100
AcDbEntity
8
1
62
256
6
ByLayer
370
13
48
1
60
0
100
AcDbEllipse
10
44.297736
20
15.594236
30
0
11
-14.3515376272201
21
-5.70044880982803
31
0
210
0
220
0
230
-1
40
0.734741
41
-0.161583990022922
42
-0.0247312858678434
0
ELLIPSE
5
13D
100
AcDbEntity
8
1
62
256
6
ByLayer
370
13
48
1
60
0
100
AcDbEllipse
10
30.516987
20
9.433374
30
0
11
0.733138971621423
21
0.320167531598509
31
0
210
0
220
0
230
1
40
0.511841
41
1.21154307277249
42
2.01465836562259
0
ELLIPSE
5
13E
100
AcDbEntity
8
1
62
256
6
ByLayer
370
18
48
1
60
0
100
AcDbEllipse
10
26.107151
20
6.289377
30
0
11
0.281486745557234
21
-0.103755539975449
31
0
210
0
220
0
230
1
40
0.938407
41
-2.86466400963701
42
-1.11933475764268
0
ELLIPSE
5
13F
100
AcDbEntity
8
1
62
256
6
ByLayer
370
13
48
1
60
0
100
AcDbEllipse
10
41.446902
20
7.641698
30
0
11
-12.1863843098425
21
-6.3178412481261
31
0
210
0
220
0
230
-1
40
0.760906
41
0.405065363871159
42
0.815592910829208
0
ELLIPSE
5
140
100
AcDbEntity
8
1
62
256
6
ByLayer
370
18
48
1
60
0
100
AcDbEllipse
10
34.627206
20
16.332746
30
0
11
-1.06211252571648
21
-11.4508478717829
31
0
210
0
220
0
230
1
40
0.094469
41
-1.3575489355689
42
-0.939418751057472
0
ELLIPSE
5
141
100
AcDbEntity
8
1
62
256
6
ByLayer
370
13
48
1
60
0
100
AcDbEllipse
10
17.58509
20
-4.432014
30
0
11
-12.6530132637743
21
-10.3628582551689
31
0
210
0
220
0
230
-1
40
0.046651
41
-3.03076357727176
42
-2.91607874967778
0
ELLIPSE
5
142
100
AcDbEntity
8
1
62
256
6
ByLayer
370
13
48
1
60
0
100
AcDbEllipse
10
29.527265
20
10.161069
30
0
11
0.137779192381499
21
0.788046251273808
31
0
210
0
220
0
230
1
40
0.103346
41
-1.67752137543758
42
-1.01125977119941
0
ELLIPSE
5
143
100
AcDbEntity
8
1
62
256
6
ByLayer
370
18
48
1
60
0
100
AcDbEllipse
10
25.634606
20
9.108352
30
0
11
-1.06211252571648
21
-11.4508478717829
31
0
210
0
220
0
230
1
40
0.094469
41
-1.83583122781839
42
-1.74827458038196
0
ELLIPSE
5
144
100
AcDbEntity
8
1
62
256
6
ByLayer
370
18
48
1
60
0
100
AcDbEllipse
10
23.453838
20
3.191971
30
0
11
-0.184715221863736
21
-1.99145180378834
31
0
210
0
220
0
230
1
40
0.094469
41
2.81876360028677
42
-2.80119659113498
0
ELLIPSE
5
145
100
AcDbEntity
8
1
62
256
6
ByLayer
370
13
48
1
60
0
100
AcDbEllipse
10
24.629085
20
9.62009
30
0
11
0.252862944353776
21
2.72616604935807
31
0
210
0
220
0
230
1
40
0.094469
41
1.83910779872359
42
2.06186621771054
0
ELLIPSE
5
146
100
AcDbEntity
8
1
62
256
6
ByLayer
370
18
48
1
60
0
100
AcDbEllipse
10
26.155417
20
8.769483
30
0
11
0.184715221863735
21
1.99145180378834
31
0
210
0
220
0
230
1
40
0.094469
41
1.24796727349187
42
1.91119238924971
0
ELLIPSE
5
147
100
AcDbEntity
8
1
62
256
6
ByLayer
370
18
48
1
60
0
100
AcDbEllipse
10
33.850599
20
3.200445
30
0
11
0.184715221863735
21
1.99145180378834
31
0
210
0
220
0
230
1
40
0.094469
41
0.113503259695543
42
0.221931056377396
0
ELLIPSE
5
148
100
AcDbEntity
8
1
62
256
6
ByLayer
370
18
48
1
60
0
100
AcDbEllipse
10
-22.206804
20
13.545837
30
0
11
-63.2574798961682
21
9.89989082099133
31
0
210
0
220
0
230
-1
40
0.168639
41
2.40908705536505
42
2.46380159550224
0
ELLIPSE
5
149
100
AcDbEntity
8
1
62
256
6
ByLayer
370
18
48
1
60
0
100
AcDbEllipse
10
25.83682
20
15.196429
30
0
11
0.792366890033291
21
-0.0468377420353612
31
0
210
0
220
0
230
1
40
0.332367
41
1.29593143330117
42
3.04126068529549
0
ELLIPSE
5
14A
100
AcDbEntity
8
1
62
256
6
ByLayer
370
18
48
1
60
0
100
AcDbEllipse
10
22.693623
20
9.381142
30
0
11
-65.3044827931222
21
-4.92316605997648
31
0
210
0
220
0
230
-1
40
0.05521
41
-1.6376112073246
42
-1.61954415608317
0
ELLIPSE
5
14B
100
AcDbEntity
8
1
62
256
6
ByLayer
370
18
48
1
60
0
100
AcDbEllipse
10
34.135548
20
15.123063
30
0
11
0.561767697903999
21
-0.560763868389933
31
0
210
0
220
0
230
1
40
0.989122
41
2.14980330764369
42
2.4427228142114
0
ELLIPSE
5
14C
100
AcDbEntity
8
1
62
256
6
ByLayer
370
18
48
1
60
0
100
AcDbEllipse
10
34.877524
20
12.173103
30
0
11
0.184715221863735
21
1.99145180378834
31
0
210
0
220
0
230
1
40
0.094469
41
1.68429958649045
42
1.726617035822
0
ELLIPSE
5
14D
100
AcDbEntity
8
1
62
256
6
ByLayer
370
18
48
1
60
0
100
AcDbEllipse
10
83.955525
20
11.757345
30
0
11
-65.8470504994526
21
4.78115745883564
31
0
210
0
220
0
230
-1
40
0.173071
41
-0.714634912781189
42
-0.659920372776119
0
ELLIPSE
5
14E
100
AcDbEntity
8
1
62
256
6
ByLayer
370
18
48
1
60
0
100
AcDbEllipse
10
36.338366
20
-6.171455
30
0
11
-65.8470476582953
21
4.7811572406614
31
0
210
0
220
0
230
-1
40
0.173071
41
1.48037258111929
42
1.49843963757846
0
ELLIPSE
5
14F
100
AcDbEntity
8
1
62
256
6
ByLayer
370
13
48
1
60
0
100
AcDbEllipse
10
19.70555
20
17.607068
30
0
11
-7.76477385242828
21
8.87020732796285
31
0
210
0
220
0
230
-1
40
0.815574
41
2.39509459025447
42
2.83665677517032
0
ELLIPSE
5
150
100
AcDbEntity
8
1
62
256
6
ByLayer
370
18
48
1
60
0
100
AcDbEllipse
10
39.055156
20
15.922057
30
0
11
-65.59444110884
21
-5.41437753339641
31
0
210
0
220
0
230
-1
40
0.016638
41
-1.47724645082821
42
-1.45917947739663
0
ELLIPSE
5
151
100
AcDbEntity
8
1
62
256
6
ByLayer
370
18
48
1
60
0
100
AcDbEllipse
10
24.668508
20
8.9074
30
0
11
-0.184715221863736
21
-1.99145180378834
31
0
210
0
220
0
230
1
40
0.094469
41
-1.89362538009793
42
-1.23040026434008
0
ELLIPSE
5
152
100
AcDbEntity
8
1
62
256
6
ByLayer
370
18
48
1
60
0
100
AcDbEllipse
10
27.435205
20
5.150233
30
0
11
-0.938289151857448
21
0.345851799918161
31
0
210
0
220
0
230
1
40
0.938407
41
-2.86466400963702
42
-1.1193347576427
0
ELLIPSE
5
153
100
AcDbEntity
8
1
62
256
6
ByLayer
370
18
48
1
60
0
100
AcDbEllipse
10
32.427659
20
5.546047
30
0
11
-0.298998810004542
21
0.0244890101038836
31
0
210
0
220
0
230
1
40
0.112753
41
-3.14157977548647
42
-1.4914829348823
0
ELLIPSE
5
154
100
AcDbEntity
8
1
62
256
6
ByLayer
370
13
48
1
60
0
100
AcDbEllipse
10
44.760563
20
15.392837
30
0
11
-14.503833986931
21
-4.55827006633938
31
0
210
0
220
0
230
-1
40
0.704957
41
-0.238489943962877
42
-0.0937706123338215
0
ELLIPSE
5
155
100
AcDbEntity
8
1
62
256
6
ByLayer
370
18
48
1
60
0
100
AcDbEllipse
10
33.549749
20
5.578373
30
0
11
-0.791101018137016
21
0.0647938392331919
31
0
210
0
220
0
230
1
40
0.112753
41
3.04637312030299
42
-1.49148293488227
0
ELLIPSE
5
156
100
AcDbEntity
8
1
62
256
6
ByLayer
370
18
48
1
60
0
100
AcDbEllipse
10
24.121422
20
9.667178
30
0
11
-0.300162235528571
21
-3.23610918115605
31
0
210
0
220
0
230
1
40
0.094469
41
0
42
1.36099689295999
0
ELLIPSE
5
157
100
AcDbEntity
8
1
62
256
6
ByLayer
370
18
48
1
60
0
100
AcDbEllipse
10
24.121422
20
9.667178
30
0
11
-0.300162235528571
21
-3.23610918115605
31
0
210
0
220
0
230
1
40
0.094469
41
-1.12822442246006
42
0
0
ELLIPSE
5
158
100
AcDbEntity
8
1
62
256
6
ByLayer
370
18
48
1
60
0
100
AcDbEllipse
10
22.608238
20
10.226004
30
0
11
-1.06211252571648
21
-11.4508478717829
31
0
210
0
220
0
230
1
40
0.094469
41
1.30576142577141
42
1.3914944639757
0
ELLIPSE
5
159
100
AcDbEntity
8
1
62
256
6
ByLayer
370
13
48
1
60
0
100
AcDbEllipse
10
29.615426
20
10.146205
30
0
11
0.127893516915425
21
0.789710863753946
31
0
210
0
220
0
230
1
40
0.050952
41
-1.66350397746829
42
-0.997242373230047
0
ELLIPSE
5
15A
100
AcDbEntity
8
1
62
256
6
ByLayer
370
13
48
1
60
0
100
AcDbEllipse
10
20.301819
20
17.661484
30
0
11
-6.18992445689737
21
10.5754262604709
31
0
210
0
220
0
230
-1
40
0.805483
41
2.25259902352272
42
2.6631265704809
0
ELLIPSE
5
15B
100
AcDbEntity
8
1
62
256
6
ByLayer
370
13
48
1
60
0
100
AcDbEllipse
10
16.988158
20
9.910346
30
0
11
-10.3058304175185
21
8.31996820777503
31
0
210
0
220
0
230
-1
40
0.803166
41
2.12906962014023
42
2.27378895174601
0
ELLIPSE
5
15C
100
AcDbEntity
8
1
62
256
6
ByLayer
370
18
48
1
60
0
100
AcDbEllipse
10
34.877524
20
12.173103
30
0
11
0.184715221863735
21
1.99145180378834
31
0
210
0
220
0
230
1
40
0.094469
41
1.726617035822
42
2.34752470224827
0
ELLIPSE
5
15D
100
AcDbEntity
8
1
62
256
6
ByLayer
370
18
48
1
60
0
100
AcDbEllipse
10
27.121516
20
8.970436
30
0
11
1.06211252571648
21
11.450847871783
31
0
210
0
220
0
230
1
40
0.094469
41
1.39331807320783
42
1.81144825771926
0
ELLIPSE
5
15E
100
AcDbEntity
8
1
62
256
6
ByLayer
370
18
48
1
60
0
100
AcDbEllipse
10
36.114115
20
16.19483
30
0
11
1.06211252571648
21
11.450847871783
31
0
210
0
220
0
230
1
40
0.094469
41
2.20217390253232
42
2.28973054996875
0
ELLIPSE
5
15F
100
AcDbEntity
8
1
62
256
6
ByLayer
370
18
48
1
60
0
100
AcDbEllipse
10
34.135548
20
15.123063
30
0
11
0.561767697903999
21
-0.560763868389933
31
0
210
0
220
0
230
1
40
0.989122
41
0.990313068784757
42
2.14980330764369
0
ELLIPSE
5
160
100
AcDbEntity
8
1
62
256
6
ByLayer
370
18
48
1
60
0
100
AcDbEllipse
10
34.135548
20
15.123063
30
0
11
0.561767697903999
21
-0.560763868389933
31
0
210
0
220
0
230
1
40
0.989122
41
0.697393562217053
42
0.990313068784757
0
POINT
5
6C
100
AcDbEntity
8
81
62
256
6
ByLayer
370
18
48
1
60
0
100
AcDbPoint
10
34.925
20
15.9125
30
0
39
0
210
0
220
0
230
1
50
360
0
POINT
5
6E
100
AcDbEntity
8
80
62
256
6
ByLayer
370
18
48
1
60
0
100
AcDbPoint
10
0
20
0
30
0
39
0
210
0
220
0
230
1
50
360
0
SPLINE
5
161
100
AcDbEntity
8
1
62
256
6
ByLayer
370
18
48
1
60
0
100
AcDbSpline
70
4
71
3
72
30
73
26
40
0
40
0
40
0
40
0
40
0.124999999999998
40
0.124999999999998
40
0.187499999999997
40
0.187499999999997
40
0.249999999999996
40
0.249999999999996
40
0.374999999999993
40
0.374999999999993
40
0.437499999999993
40
0.437499999999993
40
0.499999999999992
40
0.499999999999992
40
0.624999999999991
40
0.624999999999991
40
0.687499999999992
40
0.687499999999992
40
0.749999999999992
40
0.749999999999992
40
0.874999999999995
40
0.874999999999995
40
0.937499999999998
40
0.937499999999998
40
1
40
1
40
1
40
1
41
1
10
22.2223458807702
20
6.70750860862091
30
0
41
1
10
22.2187437816296
20
6.81115393707643
30
0
41
1
10
22.2232427112557
20
6.91308780192708
30
0
41
1
10
22.2417283037511
20
7.0629991584384
30
0
41
1
10
22.2498538428364
20
7.11246852828387
30
0
41
1
10
22.2700487021938
20
7.21029099062653
30
0
41
1
10
22.2821224737068
20
7.2585607704801
30
0
41
1
10
22.3234924544232
20
7.39908735447011
30
0
41
1
10
22.3580771760839
20
7.48792210947894
30
0
41
1
10
22.4194967925441
20
7.61323954960531
30
0
41
1
10
22.4415649476814
20
7.65368273379855
30
0
41
1
10
22.4887656785521
20
7.731703873931
30
0
41
1
10
22.5138040416757
20
7.76909512203409
30
0
41
1
10
22.5919069810885
20
7.87495758843667
30
0
41
1
10
22.6482935706313
20
7.93769610483346
30
0
41
1
10
22.737252420462
20
8.01913370388235
30
0
41
1
10
22.7677943344436
20
8.04427181375618
30
0
41
1
10
22.8290553521159
20
8.08943366945496
30
0
41
1
10
22.8597014104815
20
8.10943751684692
30
0
41
1
10
22.9509208035773
20
8.16192282137513
30
0
41
1
10
23.0107674148842
20
8.18687328361386
30
0
41
1
10
23.0961287775271
20
8.20996786287506
30
0
41
1
10
23.12394959359
20
8.21528760985279
30
0
41
1
10
23.1772197158965
20
8.22125339104792
30
0
41
1
10
23.2024266913832
20
8.22189473684463
30
0
41
1
10
23.2261626758248
20
8.22050780352399
30
0
0
SPLINE
5
162
100
AcDbEntity
8
1
62
256
6
ByLayer
370
18
48
1
60
0
100
AcDbSpline
70
4
71
3
72
8
73
4
40
0
40
0
40
0
40
0
40
1
40
1
40
1
40
1
41
1
10
33.6647045150079
20
5.26786464242809
30
0
41
1
10
33.8269520871894
20
5.20675143481617
30
0
41
1
10
33.989199629126
20
5.14563811795375
30
0
41
1
10
34.1514471395817
20
5.08452468741805
30
0
0
SPLINE
5
163
100
AcDbEntity
8
1
62
256
6
ByLayer
370
18
48
1
60
0
100
AcDbSpline
70
4
71
3
72
19
73
15
40
0
40
0
40
0
40
0
40
0.125000000000001
40
0.125000000000001
40
0.250000000000001
40
0.375000000000002
40
0.375000000000002
40
0.500000000000003
40
0.500000000000003
40
0.750000000000001
40
0.750000000000001
40
0.875000000000001
40
0.875000000000001
40
1
40
1
40
1
40
1
41
1
10
32.2816059597883
20
5.55552428670086
30
0
41
1
10
32.3050531396686
20
5.55481284543435
30
0
41
1
10
32.3287745214448
20
5.55380485501328
30
0
41
1
10
32.3759586379024
20
5.55119616641687
30
0
41
1
10
32.4231080790329
20
5.54798907019153
30
0
41
1
10
32.4701856444747
20
5.54353715832579
30
0
41
1
10
32.5172256935246
20
5.53843565453778
30
0
41
1
10
32.540412987149
20
5.53558962777282
30
0
41
1
10
32.6075751905889
20
5.52643193445238
30
0
41
1
10
32.649841326669
20
5.51943390100837
30
0
41
1
10
32.7103798855378
20
5.50782985286295
30
0
41
1
10
32.7301172339862
20
5.50376552128463
30
0
41
1
10
32.7681257441577
20
5.49543600136124
30
0
41
1
10
32.7864876868813
20
5.49115460566591
30
0
41
1
10
32.8043201233222
20
5.48676700852516
30
0
0
SPLINE
5
164
100
AcDbEntity
8
1
62
256
6
ByLayer
370
18
48
1
60
0
100
AcDbSpline
70
4
71
3
72
30
73
26
40
0
40
0
40
0
40
0
40
0.0624999999999993
40
0.0624999999999993
40
0.124999999999999
40
0.124999999999999
40
0.249999999999998
40
0.249999999999998
40
0.312499999999998
40
0.312499999999998
40
0.374999999999998
40
0.374999999999998
40
0.499999999999999
40
0.499999999999999
40
0.562499999999999
40
0.562499999999999
40
0.625
40
0.625
40
0.75
40
0.75
40
0.8125
40
0.8125
40
0.875000000000001
40
0.875000000000001
40
1
40
1
40
1
40
1
41
1
10
21.0299168722489
20
4.04109381139881
30
0
41
1
10
21.0720824580522
20
3.98684375356925
30
0
41
1
10
21.1120560198387
20
3.93064327629401
30
0
41
1
10
21.1874757273517
20
3.81421372938101
30
0
41
1
10
21.2226092816764
20
3.75442462661624
30
0
41
1
10
21.319266959566
20
3.57248852572445
30
0
41
1
10
21.3726556634115
20
3.44697012507399
30
0
41
1
10
21.4362171586305
20
3.2523899897796
30
0
41
1
10
21.4546960774796
20
3.18619636204065
30
0
41
1
10
21.4856288511419
20
3.05294050673766
30
0
41
1
10
21.4980187366635
20
2.9862776851316
30
0
41
1
10
21.5262764864201
20
2.78620203684992
30
0
41
1
10
21.5332987611387
20
2.65270225740596
30
0
41
1
10
21.526097413944
20
2.45234065369067
30
0
41
1
10
21.5206711127355
20
2.38530685132392
30
0
41
1
10
21.5040763645437
20
2.2537416493914
30
0
41
1
10
21.4929182990003
20
2.18893287856949
30
0
41
1
10
21.4511269150406
20
1.99736072449255
30
0
41
1
10
21.4122371027173
20
1.87343095892345
30
0
41
1
10
21.3372674853542
20
1.69332962686772
30
0
41
1
10
21.30960052156
20
1.63459766819437
30
0
41
1
10
21.2497807307568
20
1.52113936700886
30
0
41
1
10
21.2175339364187
20
1.46618186708028
30
0
41
1
10
21.1139625847703
20
1.3065081679251
30
0
41
1
10
21.0358388584592
20
1.20693454511678
30
0
41
1
10
20.9485564695215
20
1.11443560202835
30
0
0
SPLINE
5
165
100
AcDbEntity
8
1
62
256
6
ByLayer
370
18
48
1
60
0
100
AcDbSpline
70
4
71
3
72
14
73
10
40
0
40
0
40
0
40
0
40
0.25
40
0.25
40
0.5
40
0.5
40
0.75
40
0.75
40
1
40
1
40
1
40
1
41
1
10
6.52825360383744
20
-1.30834740679711
30
0
41
1
10
7.31734333576901
20
-0.592660760258184
30
0
41
1
10
8.12648539428093
20
0.0982327000028818
30
0
41
1
10
9.78468758737398
20
1.43098392900893
30
0
41
1
10
10.6337494660193
20
2.07283928330494
30
0
41
1
10
12.3716781466378
20
3.3073756167251
30
0
41
1
10
13.2605465427902
20
3.90005502358696
30
0
41
1
10
15.0779948735875
20
5.03547719861078
30
0
41
1
10
16.0065763577969
20
5.57821901454611
30
0
41
1
10
16.9549534331869
20
6.09531813095148
30
0
0
SPLINE
5
166
100
AcDbEntity
8
1
62
256
6
ByLayer
370
18
48
1
60
0
100
AcDbSpline
70
4
71
3
72
14
73
10
40
0
40
0
40
0
40
0
40
0.25
40
0.25
40
0.5
40
0.5
40
0.75
40
0.75
40
1
40
1
40
1
40
1
41
1
10
29.3467722904508
20
5.33037358165629
30
0
41
1
10
29.3238635019544
20
5.31422694222766
30
0
41
1
10
29.2997497008277
20
5.29695752956238
30
0
41
1
10
29.250641593026
20
5.26117414470016
30
0
41
1
10
29.2254420028047
20
5.24251721179712
30
0
41
1
10
29.1735974317882
20
5.20348993137785
30
0
41
1
10
29.1476605238952
20
5.18364993426238
30
0
41
1
10
29.0963579413486
20
5.14383093187683
30
0
41
1
10
29.0706838574398
20
5.12360993079091
30
0
41
1
10
29.0456836755076
20
5.10366474238711
30
0
0
SPLINE
5
167
100
AcDbEntity
8
1
62
256
6
ByLayer
370
18
48
1
60
0
100
AcDbSpline
70
4
71
3
72
17
73
13
40
0
40
0
40
0
40
0
40
0.125
40
0.125
40
0.249999999999999
40
0.249999999999999
40
0.499999999999998
40
0.624999999999999
40
0.624999999999999
40
0.749999999999999
40
0.749999999999999
40
1
40
1
40
1
40
1
41
1
10
28.5809406920756
20
4.75490372965149
30
0
41
1
10
28.5983346012906
20
4.76707003212468
30
0
41
1
10
28.6161496740432
20
4.77963649905283
30
0
41
1
10
28.6527427349605
20
4.80568433765924
30
0
41
1
10
28.6716158008316
20
4.81923552834854
30
0
41
1
10
28.728638757969
20
4.86055182120467
30
0
41
1
10
28.7868626077127
20
4.90346717882321
30
0
41
1
10
28.8470330322687
20
4.94897452441279
30
0
41
1
10
28.8875950826431
20
4.97990987315762
30
0
41
1
10
28.9079201180984
20
4.9955401422136
30
0
41
1
10
28.9679448448788
20
5.04205936476561
30
0
41
1
10
29.00715170315
20
5.0729238681678
30
0
41
1
10
29.0456836755076
20
5.10366474238711
30
0
0
SPLINE
5
168
100
AcDbEntity
8
1
62
256
6
ByLayer
370
18
48
1
60
0
100
AcDbSpline
70
4
71
3
72
16
73
12
40
0
40
0
40
0
40
0
40
0.124999999999995
40
0.124999999999995
40
0.24999999999999
40
0.24999999999999
40
0.499999999999993
40
0.499999999999993
40
0.749999999999997
40
0.749999999999997
40
1
40
1
40
1
40
1
41
1
10
23.4462296139015
20
8.27585172989401
30
0
41
1
10
23.4334702992657
20
8.26960967779138
30
0
41
1
10
23.4207468963176
20
8.26379897832715
30
0
41
1
10
23.3966047500279
20
8.253574669046
30
0
41
1
10
23.3850372523231
20
8.24908283175944
30
0
41
1
10
23.3516152317805
20
8.23723669270277
30
0
41
1
10
23.3320557414917
20
8.2318406404957
30
0
41
1
10
23.2964400718934
20
8.22421419516598
30
0
41
1
10
23.280540177418
20
8.22203605876575
30
0
41
1
10
23.2515718155532
20
8.21982731490297
30
0
41
1
10
23.2383744523134
20
8.21979424897313
30
0
41
1
10
23.2261626758248
20
8.22050780352396
30
0
0
SPLINE
5
169
100
AcDbEntity
8
1
62
256
6
ByLayer
370
18
48
1
60
0
100
AcDbSpline
70
4
71
3
72
14
73
10
40
0
40
0
40
0
40
0
40
0.25
40
0.25
40
0.5
40
0.5
40
0.75
40
0.75
40
1
40
1
40
1
40
1
41
1
10
27.8752780261257
20
4.39066576887637
30
0
41
1
10
27.9524828124797
20
4.40621525180057
30
0
41
1
10
28.0267264836551
20
4.42679673867374
30
0
41
1
10
28.1653215379657
20
4.47585392240421
30
0
41
1
10
28.2298788526846
20
4.5043169490782
30
0
41
1
10
28.3490164682569
20
4.56757537800169
30
0
41
1
10
28.403595700911
20
4.6023776140961
30
0
41
1
10
28.5019200462684
20
4.67679148907422
30
0
41
1
10
28.5446473767467
20
4.71564663216134
30
0
41
1
10
28.5809406920757
20
4.75490372965163
30
0
0
SPLINE
5
16A
100
AcDbEntity
8
1
62
256
6
ByLayer
370
18
48
1
60
0
100
AcDbSpline
70
4
71
3
72
8
73
4
40
0
40
0
40
0
40
0
40
1
40
1
40
1
40
1
41
1
10
22.7189584221346
20
5.1261031849956
30
0
41
1
10
22.7231844395181
20
5.10991190343486
30
0
41
1
10
22.7270037598385
20
5.093710803308
30
0
41
1
10
22.7303198784754
20
5.07748301464016
30
0
0
SPLINE
5
16B
100
AcDbEntity
8
1
62
256
6
ByLayer
370
18
48
1
60
0
100
AcDbSpline
70
4
71
3
72
10
73
6
40
0
40
0
40
0
40
0
40
0.5
40
0.5
40
1
40
1
40
1
40
1
41
1
10
24.3922719119705
20
4.23177398660675
30
0
41
1
10
24.4345520035654
20
4.23186665201604
30
0
41
1
10
24.4782235215215
20
4.23283915144191
30
0
41
1
10
24.5660001611458
20
4.23663762365968
30
0
41
1
10
24.6100766500539
20
4.23944618957412
30
0
41
1
10
24.6543404682842
20
4.24316002707525
30
0
0
SPLINE
5
16C
100
AcDbEntity
8
1
62
256
6
ByLayer
370
18
48
1
60
0
100
AcDbSpline
70
4
71
3
72
30
73
26
40
0
40
0
40
0
40
0
40
0.125000000000005
40
0.125000000000005
40
0.187500000000008
40
0.187500000000008
40
0.25000000000001
40
0.25000000000001
40
0.375000000000013
40
0.375000000000013
40
0.437500000000013
40
0.437500000000013
40
0.500000000000013
40
0.500000000000013
40
0.625000000000011
40
0.625000000000011
40
0.687500000000009
40
0.687500000000009
40
0.750000000000007
40
0.750000000000007
40
0.875000000000004
40
0.875000000000004
40
0.937500000000002
40
0.937500000000002
40
1
40
1
40
1
40
1
41
1
10
16.9549534331869
20
6.0953181309516
30
0
41
1
10
17.0645558243286
20
6.15507843208709
30
0
41
1
10
17.1788896412169
20
6.20505019320325
30
0
41
1
10
17.3574254593752
20
6.26535160810499
30
0
41
1
10
17.4181157362009
20
6.28299668321293
30
0
41
1
10
17.5419158640844
20
6.31321988152746
30
0
41
1
10
17.605304984979
20
6.32582495283873
30
0
41
1
10
17.7958870811788
20
6.35519907390341
30
0
41
1
10
17.9241667407213
20
6.36385114639003
30
0
41
1
10
18.1183490476531
20
6.36047223769782
30
0
41
1
10
18.1833717748892
20
6.35660549646346
30
0
41
1
10
18.3140137009305
20
6.34321641227007
30
0
41
1
10
18.3799652914082
20
6.33361884853389
30
0
41
1
10
18.5754143311762
20
6.29658016060725
30
0
41
1
10
18.7028957586115
20
6.26104817865056
30
0
41
1
10
18.8898817029135
20
6.19163928223523
30
0
41
1
10
18.9515005734058
20
6.16580322898128
30
0
41
1
10
19.0732696873247
20
6.10857267439599
30
0
41
1
10
19.1336939961698
20
6.07700050888866
30
0
41
1
10
19.3093756469036
20
5.97550226463821
30
0
41
1
10
19.4198164062143
20
5.89862507709006
30
0
41
1
10
19.5755840795775
20
5.76968002380008
30
0
41
1
10
19.625848522944
20
5.7244140291528
30
0
41
1
10
19.7229674591443
20
5.62918555105438
30
0
41
1
10
19.7698525446905
20
5.57913821784737
30
0
41
1
10
19.8141255095633
20
5.52766923385735
30
0
0
SPLINE
5
16D
100
AcDbEntity
8
1
62
256
6
ByLayer
370
18
48
1
60
0
100
AcDbSpline
70
4
71
3
72
20
73
16
40
0
40
0
40
0
40
0
40
0.177889236751814
40
0.177889236751814
40
0.266833855127715
40
0.266833855127715
40
0.355778473503615
40
0.355778473503615
40
0.444723091879516
40
0.444723091879516
40
0.533667710255416
40
0.533667710255416
40
0.711556947007215
40
0.711556947007215
40
1
40
1
40
1
40
1
41
1
10
23.09260061633
20
6.38147813080914
30
0
41
1
10
23.0532090818594
20
6.38513185520031
30
0
41
1
10
23.0157008728132
20
6.39370609446141
30
0
41
1
10
22.9620544935194
20
6.41344437352495
30
0
41
1
10
22.9446027526092
20
6.4212174851472
30
0
41
1
10
22.9116351351705
20
6.43851369866741
30
0
41
1
10
22.8959667423603
20
6.44808584384228
30
0
41
1
10
22.8661437097343
20
6.46896422076608
30
0
41
1
10
22.8519066356729
20
6.4803510296249
30
0
41
1
10
22.8253520905949
20
6.50438642832304
30
0
41
1
10
22.8130458139439
20
6.51699948151941
30
0
41
1
10
22.7787247802695
20
6.5564627858364
30
0
41
1
10
22.7592042047213
20
6.58507665903039
30
0
41
1
10
22.7164170234228
20
6.66439043082841
30
0
41
1
10
22.698852966282
20
6.71619210545774
30
0
41
1
10
22.6883312454467
20
6.77025078685705
30
0
0
SPLINE
5
16E
100
AcDbEntity
8
1
62
256
6
ByLayer
370
18
48
1
60
0
100
AcDbSpline
70
4
71
3
72
8
73
4
40
0
40
0
40
0
40
0
40
1
40
1
40
1
40
1
41
1
10
29.9343632285444
20
5.53030677920344
30
0
41
1
10
29.9444312927457
20
5.53101287032092
30
0
41
1
10
29.9545143877946
20
5.53167886387607
30
0
41
1
10
29.9644147811688
20
5.53229439214758
30
0
0
SPLINE
5
16F
100
AcDbEntity
8
1
62
256
6
ByLayer
370
18
48
1
60
0
100
AcDbSpline
70
4
71
3
72
14
73
10
40
0
40
0
40
0
40
0
40
0.25
40
0.25
40
0.5
40
0.5
40
0.75
40
0.75
40
1
40
1
40
1
40
1
41
1
10
20.9485564695215
20
1.11443560202832
30
0
41
1
10
20.2382656463952
20
0.361693253609019
30
0
41
1
10
19.5090231593862
20
-0.367315259319639
30
0
41
1
10
18.0137067505208
20
-1.77820036901397
30
0
41
1
10
17.2476332237124
20
-2.46007839089768
30
0
41
1
10
15.679238624513
20
-3.77696920907695
30
0
41
1
10
14.8769184245425
20
-4.41198355442666
30
0
41
1
10
13.2361077317638
20
-5.63529760931388
30
0
41
1
10
12.397618733367
20
-6.22359908919813
30
0
41
1
10
11.5408124652835
20
-6.78853579876113
30
0
0
SPLINE
5
170
100
AcDbEntity
8
1
62
256
6
ByLayer
370
18
48
1
60
0
100
AcDbSpline
70
4
71
3
72
8
73
4
40
0
40
0
40
0
40
0
40
1
40
1
40
1
40
1
41
1
10
19.8141255095633
20
5.52766923385735
30
0
41
1
10
20.231584431772
20
5.04235756238137
30
0
41
1
10
20.6368394973616
20
4.54682543857447
30
0
41
1
10
21.0299168722489
20
4.04109381139881
30
0
0
SPLINE
5
171
100
AcDbEntity
8
1
62
256
6
ByLayer
370
18
48
1
60
0
100
AcDbSpline
70
4
71
3
72
24
73
20
40
0
40
0
40
0
40
0
40
0.124999999999999
40
0.124999999999999
40
0.249999999999999
40
0.249999999999999
40
0.374999999999998
40
0.374999999999998
40
0.437499999999998
40
0.437499999999998
40
0.499999999999998
40
0.499999999999998
40
0.624999999999999
40
0.624999999999999
40
0.749999999999999
40
0.749999999999999
40
0.875
40
0.875
40
1
40
1
40
1
40
1
41
1
10
10.7578886126776
20
-11.0467840354232
30
0
41
1
10
10.4902593113814
20
-11.0467840354232
30
0
41
1
10
10.2252962708452
20
-11.0467840354232
30
0
41
1
10
9.69766429364762
20
-11.0467840354232
30
0
41
1
10
9.43501295267035
20
-11.0467840354232
30
0
41
1
10
8.90935875324553
20
-11.0467840354232
30
0
41
1
10
8.64633831012867
20
-11.0467840354232
30
0
41
1
10
8.24978675760937
20
-11.0467840354232
30
0
41
1
10
8.11726382488555
20
-11.0467840354232
30
0
41
1
10
7.85139487521397
20
-11.0467840354232
30
0
41
1
10
7.71842239316462
20
-11.0467840354232
30
0
41
1
10
7.31938343936426
20
-11.0467840354232
30
0
41
1
10
7.05319049727191
20
-11.0467840354232
30
0
41
1
10
6.52056259142441
20
-11.0467840354232
30
0
41
1
10
6.25413086284794
20
-11.0467840354232
30
0
41
1
10
5.72123476731434
20
-11.0467840354232
30
0
41
1
10
5.4547962148045
20
-11.0467840354232
30
0
41
1
10
4.92176020623026
20
-11.0467840354232
30
0
41
1
10
4.65516298436015
20
-11.0467840354232
30
0
41
1
10
4.38838223553805
20
-11.0467840354232
30
0
0
SPLINE
5
172
100
AcDbEntity
8
1
62
256
6
ByLayer
370
18
48
1
60
0
100
AcDbSpline
70
4
71
3
72
32
73
28
40
0
40
0
40
0
40
0
40
0.062500000000001
40
0.062500000000001
40
0.125000000000002
40
0.125000000000002
40
0.250000000000004
40
0.250000000000004
40
0.312500000000006
40
0.312500000000006
40
0.343750000000006
40
0.343750000000006
40
0.375000000000007
40
0.375000000000007
40
0.500000000000003
40
0.500000000000003
40
0.562500000000002
40
0.562500000000002
40
0.625000000000001
40
0.625000000000001
40
0.750000000000001
40
0.750000000000001
40
0.8125
40
0.8125
40
0.875
40
0.875
40
1
40
1
40
1
40
1
41
1
10
24.3922719119705
20
4.23177398660675
30
0
41
1
10
24.3290135938845
20
4.2316353431527
30
0
41
1
10
24.2654596287961
20
4.23454200915091
30
0
41
1
10
24.1377829584082
20
4.24659031364331
30
0
41
1
10
24.0733329533835
20
4.25581050535382
30
0
41
1
10
23.8825945521507
20
4.29253688895324
30
0
41
1
10
23.7583819914915
20
4.3289402625694
30
0
41
1
10
23.5766129987044
20
4.40118312580054
30
0
41
1
10
23.5167862539847
20
4.42822209687088
30
0
41
1
10
23.4282525931916
20
4.47335898059166
30
0
41
1
10
23.398902823832
20
4.48919629619633
30
0
41
1
10
23.3412272504662
20
4.52207513528478
30
0
41
1
10
23.312828057852
20
4.53915138196035
30
0
41
1
10
23.1729984482497
20
4.62766517760829
30
0
41
1
10
23.0680130220199
20
4.70842374447383
30
0
41
1
10
22.9210047336482
20
4.84444471638525
30
0
41
1
10
22.8736354363539
20
4.89241725305703
30
0
41
1
10
22.7830989576757
20
4.99294195997055
30
0
41
1
10
22.7403928716959
20
5.04495604859554
30
0
41
1
10
22.6197311834493
20
5.20606913800867
30
0
41
1
10
22.5491749921677
20
5.32020122400576
30
0
41
1
10
22.4583520360221
20
5.50148964137736
30
0
41
1
10
22.430471775289
20
5.5639440518421
30
0
41
1
10
22.3806575018104
20
5.69048757224777
30
0
41
1
10
22.3587152604339
20
5.75448856808506
30
0
41
1
10
22.3015233413695
20
5.948604784835
30
0
41
1
10
22.2748492035395
20
6.08081930993043
30
0
41
1
10
22.2597112042728
20
6.21582510534057
30
0
0
SPLINE
5
173
100
AcDbEntity
8
1
62
256
6
ByLayer
370
18
48
1
60
0
100
AcDbSpline
70
4
71
3
72
12
73
8
40
0
40
0
40
0
40
0
40
0.249999999999999
40
0.249999999999999
40
0.499999999999999
40
0.499999999999999
40
1
40
1
40
1
40
1
41
1
10
23.4462296139015
20
8.27585172989401
30
0
41
1
10
23.5328612029262
20
8.31823322983067
30
0
41
1
10
23.617720562154
20
8.36523079341791
30
0
41
1
10
23.7813336714089
20
8.46650711928422
30
0
41
1
10
23.8602746015253
20
8.52084920393034
30
0
41
1
10
24.088685362071
20
8.69446353774129
30
0
41
1
10
24.2298143640443
20
8.82421849846514
30
0
41
1
10
24.3594226184577
20
8.96817331529547
30
0
0
SPLINE
5
174
100
AcDbEntity
8
1
62
256
6
ByLayer
370
18
48
1
60
0
100
AcDbSpline
70
4
71
3
72
27
73
23
40
0
40
0
40
0
40
0
40
0.0312500000000012
40
0.0312500000000012
40
0.0625000000000024
40
0.0937500000000037
40
0.0937500000000037
40
0.125000000000005
40
0.125000000000005
40
0.187500000000005
40
0.187500000000005
40
0.250000000000005
40
0.250000000000005
40
0.375000000000004
40
0.375000000000004
40
0.500000000000003
40
0.500000000000003
40
0.625000000000003
40
0.625000000000003
40
0.750000000000002
40
0.750000000000002
40
1
40
1
40
1
40
1
41
1
10
24.739008168001
20
11.0842024465181
30
0
41
1
10
24.7364560866203
20
11.0530427837707
30
0
41
1
10
24.7336692752622
20
11.0213401944024
30
0
41
1
10
24.7277269179137
20
10.9580220829071
30
0
41
1
10
24.7214755948682
20
10.8953721961258
30
0
41
1
10
24.7146675932468
20
10.8339262824253
30
0
41
1
10
24.707608019589
20
10.7730244635993
30
0
41
1
10
24.7039377357411
20
10.7427302243634
30
0
41
1
10
24.6926913066257
20
10.6534267501434
30
0
41
1
10
24.6849518324808
20
10.596477902336
30
0
41
1
10
24.6691244381139
20
10.4863070756457
30
0
41
1
10
24.6610059473434
20
10.4329122313622
30
0
41
1
10
24.6364529157338
20
10.2782477414344
30
0
41
1
10
24.6200686474841
20
10.1837386092745
30
0
41
1
10
24.5872830203761
20
10.0041544555951
30
0
41
1
10
24.5708813792107
20
9.91923526919882
30
0
41
1
10
24.5380667615171
20
9.75565407929989
30
0
41
1
10
24.5216537046069
20
9.67703644722226
30
0
41
1
10
24.488819526054
20
9.52425296002812
30
0
41
1
10
24.4724740364907
20
9.45045441431947
30
0
41
1
10
24.4237016863691
20
9.23516201551328
30
0
41
1
10
24.3914768227501
20
9.0993867172952
30
0
41
1
10
24.3594226184577
20
8.96817331529547
30
0
0
SPLINE
5
175
100
AcDbEntity
8
1
62
256
6
ByLayer
370
18
48
1
60
0
100
AcDbSpline
70
4
71
3
72
8
73
4
40
0
40
0
40
0
40
0
40
1
40
1
40
1
40
1
41
1
10
22.7270793578385
20
15.0829209970454
30
0
41
1
10
22.6980387612789
20
15.0829144809405
30
0
41
1
10
22.6690288402353
20
15.0808074748956
30
0
41
1
10
22.6401709530076
20
15.0766088555844
30
0
0
SPLINE
5
176
100
AcDbEntity
8
1
62
256
6
ByLayer
370
18
48
1
60
0
100
AcDbSpline
70
4
71
3
72
14
73
10
40
0
40
0
40
0
40
0
40
0.25
40
0.25
40
0.5
40
0.5
40
0.75
40
0.75
40
1
40
1
40
1
40
1
41
1
10
29.9343632285444
20
5.53030677920344
30
0
41
1
10
29.8795335161086
20
5.52646147466913
30
0
41
1
10
29.8249020646277
20
5.5191019569375
30
0
41
1
10
29.7191806929716
20
5.49787958976003
30
0
41
1
10
29.6678065232465
20
5.48402605047414
30
0
41
1
10
29.5682349354115
20
5.44998319679428
30
0
41
1
10
29.5197448816974
20
5.42961053104975
30
0
41
1
10
29.4288924598174
20
5.38374921857482
30
0
41
1
10
29.3862847855361
20
5.3582228942102
30
0
41
1
10
29.3467722904509
20
5.33037358165637
30
0
0
SPLINE
5
177
100
AcDbEntity
8
1
62
256
6
ByLayer
370
18
48
1
60
0
100
AcDbSpline
70
4
71
3
72
22
73
18
40
0
40
0
40
0
40
0
40
0.125
40
0.125
40
0.25
40
0.25
40
0.375
40
0.375
40
0.5
40
0.5
40
0.625
40
0.625
40
0.75
40
0.75
40
0.875
40
0.875
40
1
40
1
40
1
40
1
41
1
10
33.3451738236572
20
14.0074124695814
30
0
41
1
10
33.3467257632143
20
14.0289191686839
30
0
41
1
10
33.34589719839
20
14.0502628743896
30
0
41
1
10
33.3396512113696
20
14.0926344168484
30
0
41
1
10
33.3341153908616
20
14.1138834488824
30
0
41
1
10
33.3187758970839
20
14.1542267714202
30
0
41
1
10
33.3089992944712
20
14.1734870664871
30
0
41
1
10
33.2851144806418
20
14.210128743724
30
0
41
1
10
33.2712425435916
20
14.2270860412248
30
0
41
1
10
33.2403352839576
20
14.2576183779419
30
0
41
1
10
33.2229719740936
20
14.271455961966
30
0
41
1
10
33.186084433746
20
14.2948593024146
30
0
41
1
10
33.1665928718378
20
14.3044958117971
30
0
41
1
10
33.1254886755393
20
14.3195893101745
30
0
41
1
10
33.104091516811
20
14.3249072128795
30
0
41
1
10
33.0611621455903
20
14.3308039239776
30
0
41
1
10
33.0392571328294
20
14.3314526222056
30
0
41
1
10
33.0174421089843
20
14.3296862214267
30
0
0
SPLINE
5
178
100
AcDbEntity
8
1
62
256
6
ByLayer
370
13
48
1
60
0
100
AcDbSpline
70
4
71
1
72
4
73
2
40
0
40
0
40
1
40
1
41
1
10
34.2375416305314
20
15.2250872674314
30
0
41
1
10
34.2924095373277
20
15.8949975157409
30
0
0
SPLINE
5
179
100
AcDbEntity
8
1
62
256
6
ByLayer
370
13
48
1
60
0
100
AcDbSpline
70
4
71
3
72
8
73
4
40
0
40
0
40
0
40
0
40
1
40
1
40
1
40
1
41
1
10
33.9691152500343
20
11.9456473105196
30
0
41
1
10
34.2004122322871
20
11.9241935784675
30
0
41
1
10
34.43170921454
20
11.9027398464153
30
0
41
1
10
34.6630061967929
20
11.8812861143632
30
0
0
SPLINE
5
17A
100
AcDbEntity
8
1
62
256
6
ByLayer
370
18
48
1
60
0
100
AcDbSpline
70
4
71
3
72
12
73
8
40
0
40
0
40
0
40
0
40
0.499999999999999
40
0.499999999999999
40
0.75
40
0.75
40
1
40
1
40
1
40
1
41
1
10
29.6895897981472
20
5.70725037809223
30
0
41
1
10
29.7507598513164
20
5.75718771187908
30
0
41
1
10
29.8150214846373
20
5.79666735678893
30
0
41
1
10
29.9152679468041
20
5.84285010558813
30
0
41
1
10
29.9493481275798
20
5.85599030029783
30
0
41
1
10
30.0171551063835
20
5.87745014827303
30
0
41
1
10
30.0510896515822
20
5.88587256083582
30
0
41
1
10
30.0850537689352
20
5.89209769975119
30
0
0
SPLINE
5
17B
100
AcDbEntity
8
1
62
256
6
ByLayer
370
13
48
1
60
0
100
AcDbSpline
70
4
71
3
72
22
73
18
40
0
40
0
40
0
40
0
40
0.249999999999987
40
0.249999999999987
40
0.499999999999974
40
0.499999999999974
40
0.562499999999977
40
0.562499999999977
40
0.624999999999979
40
0.624999999999979
40
0.687499999999981
40
0.687499999999981
40
0.749999999999984
40
0.749999999999984
40
0.874999999999992
40
0.874999999999992
40
1
40
1
40
1
40
1
41
1
10
29.2840756238891
20
11.0473695174218
30
0
41
1
10
29.2867564781558
20
10.9890066541896
30
0
41
1
10
29.2934244284138
20
10.931360557856
30
0
41
1
10
29.3203427838195
20
10.8184960678021
30
0
41
1
10
29.3409628331114
20
10.7624711671519
30
0
41
1
10
29.3809115791218
20
10.7011500761629
30
0
41
1
10
29.3896922187928
20
10.689234721464
30
0
41
1
10
29.408510350629
20
10.666899949765
30
0
41
1
10
29.418577649923
20
10.65641959569
30
0
41
1
10
29.4401298530447
20
10.6369398620897
30
0
41
1
10
29.4517153226447
20
10.6278774757526
30
0
41
1
10
29.4758962390457
20
10.6117070124629
30
0
41
1
10
29.4884349349263
20
10.6046117480001
30
0
41
1
10
29.5273257317922
20
10.5861440906011
30
0
41
1
10
29.5552743705736
20
10.5775723258185
30
0
41
1
10
29.6118329195758
20
10.5676351667422
30
0
41
1
10
29.6407088480548
20
10.5661233455654
30
0
41
1
10
29.6694193698716
20
10.5672909370495
30
0
0
SPLINE
5
17C
100
AcDbEntity
8
1
62
256
6
ByLayer
370
13
48
1
60
0
100
AcDbSpline
70
4
71
3
72
22
73
18
40
0
40
0
40
0
40
0
40
0.249999999999981
40
0.249999999999981
40
0.499999999999962
40
0.499999999999962
40
0.562499999999966
40
0.562499999999966
40
0.624999999999971
40
0.624999999999971
40
0.687499999999975
40
0.687499999999975
40
0.74999999999998
40
0.74999999999998
40
0.87499999999999
40
0.87499999999999
40
1
40
1
40
1
40
1
41
1
10
30.0541595556895
20
9.63477365256819
30
0
41
1
10
30.0493661705085
20
9.68908667405199
30
0
41
1
10
30.0405780559656
20
9.74266829503239
30
0
41
1
10
30.0092759224357
20
9.84712883343659
30
0
41
1
10
29.9863602973778
20
9.89875298496156
30
0
41
1
10
29.9435054968332
20
9.95450300435326
30
0
41
1
10
29.9341368587263
20
9.96529113265407
30
0
41
1
10
29.9141603231294
20
9.98540517854994
30
0
41
1
10
29.9035199567409
20
9.99478693045603
30
0
41
1
10
29.8808329188448
20
10.0120911213386
30
0
41
1
10
29.8686812427479
20
10.0200680576623
30
0
41
1
10
29.8434023362792
20
10.0341336116299
30
0
41
1
10
29.830333651594
20
10.0402128574523
30
0
41
1
10
29.7899054871556
20
10.0557332938968
30
0
41
1
10
29.7609931481203
20
10.0624575905576
30
0
41
1
10
29.7027049368486
20
10.0690788888234
30
0
41
1
10
29.6730520973603
20
10.069101327469
30
0
41
1
10
29.6436505552065
20
10.0666090107511
30
0
0
SPLINE
5
17D
100
AcDbEntity
8
1
62
256
6
ByLayer
370
18
48
1
60
0
100
AcDbSpline
70
4
71
3
72
28
73
24
40
0
40
0
40
0
40
0
40
0.0704602742232518
40
0.0704602742232518
40
0.140920548446504
40
0.140920548446504
40
0.211380822669755
40
0.211380822669755
40
0.281841096893007
40
0.281841096893007
40
0.352301371116259
40
0.352301371116259
40
0.422761645339511
40
0.422761645339511
40
0.493221919562763
40
0.493221919562763
40
0.563682193786015
40
0.563682193786015
40
0.704602742232522
40
0.704602742232522
40
0.84552329067903
40
0.84552329067903
40
1
40
1
40
1
40
1
41
1
10
25.2225262747671
20
15.388219522609
30
0
41
1
10
25.1857326667203
20
15.3952543535549
30
0
41
1
10
25.1486476039753
20
15.4008923464014
30
0
41
1
10
25.0738700836997
20
15.4092443745565
30
0
41
1
10
25.0357528773871
20
15.4119464371757
30
0
41
1
10
24.962441146056
20
15.4141214374351
30
0
41
1
10
24.9269193291535
20
15.413665040094
30
0
41
1
10
24.8580106690511
20
15.4099103067302
30
0
41
1
10
24.8252126702585
20
15.4066295849268
30
0
41
1
10
24.7636472805457
20
15.397850106104
30
0
41
1
10
24.7344756038539
20
15.3922864753066
30
0
41
1
10
24.6804274859735
20
15.3794996808866
30
0
41
1
10
24.6556015458975
20
15.3723154648192
30
0
41
1
10
24.6096185122049
20
15.3567205553249
30
0
41
1
10
24.5884671202114
20
15.348307475771
30
0
41
1
10
24.5494040828337
20
15.3304867118121
30
0
41
1
10
24.5315513910047
20
15.3210904969701
30
0
41
1
10
24.4833160276682
20
15.29230305268
30
0
41
1
10
24.4577334665604
20
15.2721287097775
30
0
41
1
10
24.4167976182623
20
15.2307373957343
30
0
41
1
10
24.4014519790024
20
15.209379280832
30
0
41
1
10
24.3790410281482
20
15.1650730115874
30
0
41
1
10
24.3726489951036
20
15.1420855353451
30
0
41
1
10
24.3709109955118
20
15.1193864106036
30
0
0
SPLINE
5
17E
100
AcDbEntity
8
1
62
256
6
ByLayer
370
18
48
1
60
0
100
AcDbSpline
70
4
71
3
72
12
73
8
40
0
40
0
40
0
40
0
40
0.500000000000003
40
0.500000000000003
40
0.750000000000001
40
0.750000000000001
40
1
40
1
40
1
40
1
41
1
10
29.6677496668995
20
15.0115167922069
30
0
41
1
10
29.6169615986466
20
14.9814823131704
30
0
41
1
10
29.5638962721215
20
14.9634666243051
30
0
41
1
10
29.4814594165436
20
14.9514259028697
30
0
41
1
10
29.4534909772752
20
14.9500022637584
30
0
41
1
10
29.3979486107619
20
14.9520543741376
30
0
41
1
10
29.370203687015
20
14.95549781745
30
0
41
1
10
29.3424837682705
20
14.9612431619192
30
0
0
SPLINE
5
17F
100
AcDbEntity
8
1
62
256
6
ByLayer
370
18
48
1
60
0
100
AcDbSpline
70
4
71
3
72
24
73
20
40
0
40
0
40
0
40
0
40
0.25000000000001
40
0.25000000000001
40
0.37500000000001
40
0.37500000000001
40
0.500000000000009
40
0.500000000000009
40
0.562500000000007
40
0.562500000000007
40
0.625000000000004
40
0.625000000000004
40
0.749999999999996
40
0.749999999999996
40
0.812499999999995
40
0.812499999999995
40
0.874999999999995
40
0.874999999999995
40
1
40
1
40
1
40
1
41
1
10
28.1151319227114
20
12.523628575222
30
0
41
1
10
28.1746429626445
20
12.5011100589257
30
0
41
1
10
28.2352435165516
20
12.4838824472928
30
0
41
1
10
28.3281189463172
20
12.4720862428242
30
0
41
1
10
28.3588040555503
20
12.4706348781642
30
0
41
1
10
28.4194776023043
20
12.4740541763903
30
0
41
1
10
28.4498495782851
20
12.4790809295067
30
0
41
1
10
28.4925871957979
20
12.4922496913098
30
0
41
1
10
28.5064077991121
20
12.4975594545537
30
0
41
1
10
28.5331538069046
20
12.5101159670305
30
0
41
1
10
28.5461707613683
20
12.5174277570102
30
0
41
1
10
28.5830540946278
20
12.5419374626934
30
0
41
1
10
28.604648020883
20
12.5615202699797
30
0
41
1
10
28.6330469048657
20
12.5952171016801
30
0
41
1
10
28.6418171370651
20
12.6071629125582
30
0
41
1
10
28.6577022859911
20
12.6317395664804
30
0
41
1
10
28.6648863154259
20
12.6444483160743
30
0
41
1
10
28.6844531180363
20
12.683674906968
30
0
41
1
10
28.6948658123556
20
12.711284662009
30
0
41
1
10
28.7031521096908
20
12.740072969918
30
0
0
SPLINE
5
180
100
AcDbEntity
8
1
62
256
6
ByLayer
370
18
48
1
60
0
100
AcDbSpline
70
4
71
3
72
8
73
4
40
0
40
0
40
0
40
0
40
1
40
1
40
1
40
1
41
1
10
28.4097966303409
20
4.75106464985004
30
0
41
1
10
28.4157324735662
20
4.85448938957492
30
0
41
1
10
28.4218710770143
20
4.95846580831349
30
0
41
1
10
28.4281923560514
20
5.06293925890267
30
0
0
SPLINE
5
181
100
AcDbEntity
8
1
62
256
6
ByLayer
370
18
48
1
60
0
100
AcDbSpline
70
4
71
3
72
8
73
4
40
0
40
0
40
0
40
0
40
1
40
1
40
1
40
1
41
1
10
30.7772148577429
20
15.6411741144866
30
0
41
1
10
30.7680714317949
20
15.5316002565012
30
0
41
1
10
30.7591040666203
20
15.4222009408678
30
0
41
1
10
30.7502953223285
20
15.3129588781046
30
0
0
SPLINE
5
182
100
AcDbEntity
8
1
62
256
6
ByLayer
370
13
48
1
60
0
100
AcDbSpline
70
4
71
3
72
8
73
4
40
0
40
0
40
0
40
0
40
1
40
1
40
1
40
1
41
1
10
29.6436505552065
20
10.0666090107511
30
0
41
1
10
29.6269496917526
20
10.0651933080994
30
0
41
1
10
29.6102541505498
20
10.0639882962009
30
0
41
1
10
29.5935668692369
20
10.062966004227
30
0
0
SPLINE
5
183
100
AcDbEntity
8
1
62
256
6
ByLayer
370
13
48
1
60
0
100
AcDbSpline
70
4
71
1
72
4
73
2
40
0
40
0
40
1
40
1
41
1
10
30.9579463185006
20
14.9554554511539
30
0
41
1
10
34.2375416305314
20
15.2250872674314
30
0
0
SPLINE
5
184
100
AcDbEntity
8
1
62
256
6
ByLayer
370
18
48
1
60
0
100
AcDbSpline
70
4
71
3
72
34
73
30
40
0
40
0
40
0
40
0
40
0.0625000000000016
40
0.0625000000000016
40
0.0937500000000023
40
0.0937500000000023
40
0.125000000000003
40
0.125000000000003
40
0.187500000000016
40
0.187500000000016
40
0.218750000000016
40
0.218750000000016
40
0.250000000000017
40
0.250000000000017
40
0.312500000000016
40
0.312500000000016
40
0.375000000000016
40
0.375000000000016
40
0.437500000000016
40
0.437500000000016
40
0.500000000000016
40
0.500000000000016
40
0.62500000000001
40
0.62500000000001
40
0.687500000000009
40
0.687500000000009
40
0.750000000000008
40
0.750000000000008
40
1
40
1
40
1
40
1
41
1
10
33.6768240835538
20
7.9003105732811
30
0
41
1
10
33.7134575813922
20
7.89019656565478
30
0
41
1
10
33.7504145673443
20
7.88277039014051
30
0
41
1
10
33.8063353050602
20
7.87567328240672
30
0
41
1
10
33.8250568066896
20
7.87398428915961
30
0
41
1
10
33.8626672019915
20
7.87200031960239
30
0
41
1
10
33.8815108716861
20
7.87171835740841
30
0
41
1
10
33.9368951607082
20
7.87295213870277
30
0
41
1
10
33.9727665664583
20
7.87650197658692
30
0
41
1
10
34.0251225855704
20
7.88563755421805
30
0
41
1
10
34.0424012620555
20
7.88934296956811
30
0
41
1
10
34.075903559913
20
7.89785599352675
30
0
41
1
10
34.09218238885
20
7.9026673541521
30
0
41
1
10
34.1397191481499
20
7.91864366720165
30
0
41
1
10
34.1697857378163
20
7.93139593270411
30
0
41
1
10
34.2264328034403
20
7.96037503351781
30
0
41
1
10
34.2526101060666
20
7.97637043967347
30
0
41
1
10
34.3014437755378
20
8.01090871409693
30
0
41
1
10
34.3240939978555
20
8.02945559495049
30
0
41
1
10
34.3663330950755
20
8.06883702424963
30
0
41
1
10
34.3859878321972
20
8.08977432730799
30
0
41
1
10
34.4398398380509
20
8.15452226281855
30
0
41
1
10
34.4693666707623
20
8.20050516942234
30
0
41
1
10
34.5064039124823
20
8.27296996110363
30
0
41
1
10
34.5175215414322
20
8.29771348855647
30
0
41
1
10
34.5375189381624
20
8.34831445205461
30
0
41
1
10
34.5464133868842
20
8.37423780392473
30
0
41
1
10
34.5853122648761
20
8.50520911164099
30
0
41
1
10
34.5994555740761
20
8.61491890392804
30
0
41
1
10
34.6005962983735
20
8.72899993756678
30
0
0
SPLINE
5
185
100
AcDbEntity
8
1
62
256
6
ByLayer
370
18
48
1
60
0
100
AcDbSpline
70
4
71
3
72
24
73
20
40
0
40
0
40
0
40
0
40
0.249999999999991
40
0.249999999999991
40
0.374999999999987
40
0.374999999999987
40
0.499999999999982
40
0.499999999999982
40
0.562499999999979
40
0.562499999999979
40
0.624999999999975
40
0.624999999999975
40
0.749999999999983
40
0.749999999999983
40
0.812499999999988
40
0.812499999999988
40
0.874999999999992
40
0.874999999999992
40
1
40
1
40
1
40
1
41
1
10
31.4263638217884
20
8.54817664231973
30
0
41
1
10
31.3647627857596
20
8.56668851739477
30
0
41
1
10
31.3018947276323
20
8.57956919465028
30
0
41
1
10
31.2051875330763
20
8.58401968838265
30
0
41
1
10
31.1731767276602
20
8.58292961816426
30
0
41
1
10
31.1097283368923
20
8.57419078636053
30
0
41
1
10
31.0778863890591
20
8.56634601371314
30
0
41
1
10
31.0329314937095
20
8.54892660436218
30
0
41
1
10
31.0183681954593
20
8.54219305274302
30
0
41
1
10
30.9901292148425
20
8.52677442656551
30
0
41
1
10
30.976356333517
20
8.51801348185734
30
0
41
1
10
30.9372385137317
20
8.48922013859192
30
0
41
1
10
30.9142086013753
20
8.46688446438986
30
0
41
1
10
30.8837272774478
20
8.42919547703895
30
0
41
1
10
30.8742763533888
20
8.41594474120461
30
0
41
1
10
30.8570865220049
20
8.38886693690864
30
0
41
1
10
30.8492735341492
20
8.37495243829889
30
0
41
1
10
30.8278810544285
20
8.33222592069168
30
0
41
1
10
30.8163323708083
20
8.30243840963988
30
0
41
1
10
30.8069756322023
20
8.27159800501704
30
0
0
SPLINE
5
186
100
AcDbEntity
8
1
62
256
6
ByLayer
370
13
48
1
60
0
100
AcDbSpline
70
4
71
3
72
8
73
4
40
0
40
0
40
0
40
0
40
1
40
1
40
1
40
1
41
1
10
33.9757918240349
20
12.0292504275852
30
0
41
1
10
33.9735035931286
20
12.001312249803
30
0
41
1
10
33.9712774042094
20
11.9734362264405
30
0
41
1
10
33.9691152500343
20
11.9456473105196
30
0
0
SPLINE
5
187
100
AcDbEntity
8
1
62
256
6
ByLayer
370
13
48
1
60
0
100
AcDbSpline
70
4
71
3
72
22
73
18
40
0
40
0
40
0
40
0
40
0.124999999999998
40
0.124999999999998
40
0.249999999999996
40
0.249999999999996
40
0.3125
40
0.3125
40
0.375000000000003
40
0.375000000000003
40
0.500000000000002
40
0.500000000000002
40
0.625000000000001
40
0.625000000000001
40
0.75
40
0.75
40
1
40
1
40
1
40
1
41
1
10
29.718621881421
20
10.5692446821619
30
0
41
1
10
29.7697936036458
20
10.5611882105395
30
0
41
1
10
29.8206962041174
20
10.5502000497139
30
0
41
1
10
29.9196859099628
20
10.5225063272182
30
0
41
1
10
29.9679341517232
20
10.505800589312
30
0
41
1
10
30.0383632173532
20
10.4762998693693
30
0
41
1
10
30.0615151446413
20
10.4657247741471
30
0
41
1
10
30.1071507422249
20
10.4430505501557
30
0
41
1
10
30.1297396228699
20
10.4308878698598
30
0
41
1
10
30.195595527008
20
10.3925559162588
30
0
41
1
10
30.2368509103691
20
10.3646571232054
30
0
41
1
10
30.3144636737409
20
10.304587606516
30
0
41
1
10
30.3508195136232
20
10.2724154749749
30
0
41
1
10
30.4188785756767
20
10.2040846044728
30
0
41
1
10
30.4506938677051
20
10.1677193326212
30
0
41
1
10
30.5370123054322
20
10.0563167346453
30
0
41
1
10
30.5835148562085
20
9.97815311008634
30
0
41
1
10
30.6213276308381
20
9.89723200833845
30
0
0
SPLINE
5
188
100
AcDbEntity
8
1
62
256
6
ByLayer
370
18
48
1
60
0
100
AcDbSpline
70
4
71
3
72
24
73
20
40
0
40
0
40
0
40
0
40
0.125
40
0.125
40
0.1875
40
0.1875
40
0.25
40
0.25
40
0.375
40
0.375
40
0.5
40
0.5
40
0.625
40
0.625
40
0.75
40
0.75
40
0.875
40
0.875
40
1
40
1
40
1
40
1
41
1
10
30.213942663444
20
5.8019797895023
30
0
41
1
10
30.2321373144532
20
5.79268998432769
30
0
41
1
10
30.2542329639454
20
5.78306580459062
30
0
41
1
10
30.2933243327854
20
5.7682378049617
30
0
41
1
10
30.3074214543441
20
5.76320667703914
30
0
41
1
10
30.3372895807513
20
5.75316127066623
30
0
41
1
10
30.3530364758967
20
5.74815189183343
30
0
41
1
10
30.4026586128977
20
5.73319572921628
30
0
41
1
10
30.438900147335
20
5.72332031981216
30
0
41
1
10
30.5177770846823
20
5.70393782568948
30
0
41
1
10
30.5606910530941
20
5.6943897669203
30
0
41
1
10
30.6500453839212
20
5.67649748038082
30
0
41
1
10
30.6967881171852
20
5.66806822289675
30
0
41
1
10
30.794425710888
20
5.65237123355962
30
0
41
1
10
30.8457565818377
20
5.64505915328991
30
0
41
1
10
30.9493177274575
20
5.63218409027809
30
0
41
1
10
31.0018114369214
20
5.62656387091513
30
0
41
1
10
31.1082180775804
20
5.61697189929379
30
0
41
1
10
31.1624293551759
20
5.61298673600177
30
0
41
1
10
31.2164375206684
20
5.60991622158207
30
0
0
SPLINE
5
189
100
AcDbEntity
8
1
62
256
6
ByLayer
370
18
48
1
60
0
100
AcDbSpline
70
4
71
3
72
8
73
4
40
0
40
0
40
0
40
0
40
1
40
1
40
1
40
1
41
1
10
30.1933741161119
20
5.89834416081123
30
0
41
1
10
30.1820386694245
20
5.88859849554052
30
0
41
1
10
30.1705654711485
20
5.87717330016167
30
0
41
1
10
30.1589681664168
20
5.86423494235115
30
0
0
SPLINE
5
18A
100
AcDbEntity
8
1
62
256
6
ByLayer
370
18
48
1
60
0
100
AcDbSpline
70
4
71
3
72
12
73
8
40
0
40
0
40
0
40
0
40
0.500000000000008
40
0.500000000000008
40
0.750000000000004
40
0.750000000000004
40
1
40
1
40
1
40
1
41
1
10
28.906337463315
20
5.06782747002759
30
0
41
1
10
28.8451674101459
20
5.01789013624077
30
0
41
1
10
28.7815534636164
20
4.96717361077435
30
0
41
1
10
28.683085948124
20
4.8901274700365
30
0
41
1
10
28.6497382843655
20
4.86427865391121
30
0
41
1
10
28.583622456459
20
4.8134786049514
30
0
41
1
10
28.55064987993
20
4.78836675671766
30
0
41
1
10
28.5177585639622
20
4.76352931755713
30
0
0
SPLINE
5
18B
100
AcDbEntity
8
1
62
256
6
ByLayer
370
18
48
1
60
0
100
AcDbSpline
70
4
71
3
72
8
73
4
40
0
40
0
40
0
40
0
40
1
40
1
40
1
40
1
41
1
10
30.671948053804
20
15.6338761634559
30
0
41
1
10
30.7063492971996
20
15.6360215871474
30
0
41
1
10
30.7414337198244
20
15.6384523529638
30
0
41
1
10
30.7772148577429
20
15.6411741144866
30
0
0
SPLINE
5
18C
100
AcDbEntity
8
1
62
256
6
ByLayer
370
18
48
1
60
0
100
AcDbSpline
70
4
71
3
72
12
73
8
40
0
40
0
40
0
40
0
40
0.499999999999998
40
0.499999999999998
40
0.749999999999999
40
0.749999999999999
40
1
40
1
40
1
40
1
41
1
10
30.7502953223285
20
15.3129588781046
30
0
41
1
10
30.7442007234801
20
15.2373764195996
30
0
41
1
10
30.7467479959526
20
15.162220737051
30
0
41
1
10
30.7633103909649
20
15.0501815048677
30
0
41
1
10
30.7710284845906
20
15.0128083939369
30
0
41
1
10
30.7906634458356
20
14.9395039011134
30
0
41
1
10
30.8025749418884
20
14.9034850951221
30
0
41
1
10
30.8166255406705
20
14.8681442591935
30
0
0
SPLINE
5
18D
100
AcDbEntity
8
1
62
256
6
ByLayer
370
13
48
1
60
0
100
AcDbSpline
70
4
71
3
72
22
73
18
40
0
40
0
40
0
40
0
40
0.125000000000003
40
0.125000000000003
40
0.250000000000005
40
0.250000000000005
40
0.312500000000003
40
0.312500000000003
40
0.375000000000001
40
0.375000000000001
40
0.500000000000001
40
0.500000000000001
40
0.625000000000001
40
0.625000000000001
40
0.750000000000001
40
0.750000000000001
40
1
40
1
40
1
40
1
41
1
10
29.5935668692369
20
10.0629660042271
30
0
41
1
10
29.5426898332065
20
10.0715874060217
30
0
41
1
10
29.4923452319688
20
10.0836452830713
30
0
41
1
10
29.3950146180811
20
10.1145195790815
30
0
41
1
10
29.3478660913578
20
10.1333335331742
30
0
41
1
10
29.2795223659236
20
10.1668319687136
30
0
41
1
10
29.2571383791286
20
10.1788792494777
30
0
41
1
10
29.2131920548177
20
10.2047919062786
30
0
41
1
10
29.1915294950893
20
10.2187303963838
30
0
41
1
10
29.1286564904579
20
10.2627807377589
30
0
41
1
10
29.0896516151953
20
10.2949938826594
30
0
41
1
10
29.017056799837
20
10.3646830906952
30
0
41
1
10
28.9834685290645
20
10.4021608094095
30
0
41
1
10
28.9214724266536
20
10.4821147179047
30
0
41
1
10
28.8929731093637
20
10.5248369016675
30
0
41
1
10
28.8171075666295
20
10.6562782930383
30
0
41
1
10
28.7783153477471
20
10.7492230617618
30
0
41
1
10
28.748924341348
20
10.8462891715388
30
0
0
SPLINE
5
18E
100
AcDbEntity
8
1
62
256
6
ByLayer
370
18
48
1
60
0
100
AcDbSpline
70
4
71
3
72
8
73
4
40
0
40
0
40
0
40
0
40
1
40
1
40
1
40
1
41
1
10
29.2387066345794
20
14.9637062991521
30
0
41
1
10
29.237071485641
20
14.9590980204117
30
0
41
1
10
29.2354377597852
20
14.9545138681098
30
0
41
1
10
29.2338054396798
20
14.9499535484025
30
0
0
SPLINE
5
18F
100
AcDbEntity
8
1
62
256
6
ByLayer
370
18
48
1
60
0
100
AcDbSpline
70
4
71
3
72
12
73
8
40
0
40
0
40
0
40
0
40
0.499999999999988
40
0.499999999999988
40
0.749999999999994
40
0.749999999999994
40
1
40
1
40
1
40
1
41
1
10
30.3180658098446
20
15.3960934700421
30
0
41
1
10
30.3688538780975
20
15.4261279490785
30
0
41
1
10
30.4246111779832
20
15.4617828366945
30
0
41
1
10
30.5144418497094
20
15.5222716573855
30
0
41
1
10
30.5454548412561
20
15.5436447742783
30
0
41
1
10
30.6080261193118
20
15.5876497198541
30
0
41
1
10
30.6397692626716
20
15.6104046748743
30
0
41
1
10
30.6719480538039
20
15.6338761634559
30
0
0
SPLINE
5
190
100
AcDbEntity
8
1
62
256
6
ByLayer
370
18
48
1
60
0
100
AcDbSpline
70
4
71
3
72
24
73
20
40
0
40
0
40
0
40
0
40
0.125000000000009
40
0.125000000000009
40
0.187500000000012
40
0.187500000000012
40
0.250000000000015
40
0.250000000000015
40
0.375000000000012
40
0.375000000000012
40
0.50000000000001
40
0.50000000000001
40
0.625000000000007
40
0.625000000000007
40
0.750000000000005
40
0.750000000000005
40
0.875000000000003
40
0.875000000000003
40
1
40
1
40
1
40
1
41
1
10
30.8166255406705
20
14.8681442591935
30
0
41
1
10
30.836312467623
20
14.8186266218205
30
0
41
1
10
30.8598917351745
20
14.7708416381984
30
0
41
1
10
30.9011734498356
20
14.7017839020517
30
0
41
1
10
30.9159979964333
20
14.6791043592505
30
0
41
1
10
30.9472862680668
20
14.6352142297196
30
0
41
1
10
30.9637253709557
20
14.6140165437025
30
0
41
1
10
31.0153656912998
20
14.5526050644354
30
0
41
1
10
31.052875159621
20
14.5145589980572
30
0
41
1
10
31.1340986397541
20
14.4442810084821
30
0
41
1
10
31.1780941387386
20
14.411957102247
30
0
41
1
10
31.2693129665336
20
14.355468151315
30
0
41
1
10
31.3168497532633
20
14.3309745093027
30
0
41
1
10
31.4157749928077
20
14.2894862945052
30
0
41
1
10
31.467600210512
20
14.2724340431461
30
0
41
1
10
31.571794856052
20
14.2471159783947
30
0
41
1
10
31.6244340794868
20
14.2386652737211
30
0
41
1
10
31.7307869258022
20
14.2301238427988
30
0
41
1
10
31.7847961329073
20
14.2300732049239
30
0
41
1
10
31.8384285573986
20
14.2343995168965
30
0
0
SPLINE
5
191
100
AcDbEntity
8
1
62
256
6
ByLayer
370
18
48
1
60
0
100
AcDbSpline
70
4
71
3
72
8
73
4
40
0
40
0
40
0
40
0
40
1
40
1
40
1
40
1
41
1
10
29.3424837682705
20
14.9612431619193
30
0
41
1
10
29.3081785041731
20
14.9597266441233
30
0
41
1
10
29.2735880100627
20
14.960532352844
30
0
41
1
10
29.2387066345794
20
14.9637062991521
30
0
0
SPLINE
5
192
100
AcDbEntity
8
1
62
256
6
ByLayer
370
18
48
1
60
0
100
AcDbSpline
70
4
71
3
72
24
73
20
40
0
40
0
40
0
40
0
40
0.125000000000002
40
0.125000000000002
40
0.187500000000002
40
0.187500000000002
40
0.250000000000002
40
0.250000000000002
40
0.375000000000002
40
0.375000000000002
40
0.500000000000001
40
0.500000000000001
40
0.625000000000001
40
0.625000000000001
40
0.750000000000001
40
0.750000000000001
40
0.875
40
0.875
40
1
40
1
40
1
40
1
41
1
10
28.3522315321088
20
5.48929145988751
30
0
41
1
10
28.3318004063721
20
5.53738242592291
30
0
41
1
10
28.3075764308447
20
5.58393146773778
30
0
41
1
10
28.2654523711948
20
5.65137438069812
30
0
41
1
10
28.2503668438432
20
5.67355360857118
30
0
41
1
10
28.2186007293491
20
5.71652768619839
30
0
41
1
10
28.2019447181889
20
5.73730954673965
30
0
41
1
10
28.149710545197
20
5.79758257675178
30
0
41
1
10
28.1118806753634
20
5.83501441523288
30
0
41
1
10
28.0301285658487
20
5.90427899225884
30
0
41
1
10
27.985924822376
20
5.93620368198231
30
0
41
1
10
27.8943816439526
20
5.99207083433757
30
0
41
1
10
27.8467260928032
20
6.01633679821185
30
0
41
1
10
27.7476217045114
20
6.0574815746854
30
0
41
1
10
27.6957360899054
20
6.07441804175363
30
0
41
1
10
27.5914660665192
20
6.09959160289262
30
0
41
1
10
27.5388109642275
20
6.10801186689554
30
0
41
1
10
27.4324642036212
20
6.11656496446784
30
0
41
1
10
27.3784772505886
20
6.11665826466384
30
0
41
1
10
27.3248903979611
20
6.11241931654257
30
0
0
SPLINE
5
193
100
AcDbEntity
8
1
62
256
6
ByLayer
370
13
48
1
60
0
100
AcDbSpline
70
4
71
1
72
4
73
2
40
0
40
0
40
1
40
1
41
1
10
33.9757918240349
20
12.0292504275852
30
0
41
1
10
34.2375416305314
20
15.2250872674314
30
0
0
SPLINE
5
194
100
AcDbEntity
8
1
62
256
6
ByLayer
370
13
48
1
60
0
100
AcDbSpline
70
4
71
1
72
4
73
2
40
0
40
0
40
1
40
1
41
1
10
34.2375416305314
20
15.2250872674314
30
0
41
1
10
34.9074455368409
20
15.2801633941496
30
0
0
SPLINE
5
195
100
AcDbEntity
8
1
62
256
6
ByLayer
370
18
48
1
60
0
100
AcDbSpline
70
4
71
3
72
12
73
8
40
0
40
0
40
0
40
0
40
0.499999999999998
40
0.499999999999998
40
0.749999999999999
40
0.749999999999999
40
1
40
1
40
1
40
1
41
1
10
28.4281923560514
20
5.06293925890265
30
0
41
1
10
28.4325659260705
20
5.13522240739232
30
0
41
1
10
28.4282562029579
20
5.20699937196204
30
0
41
1
10
28.4091219482468
20
5.31410820302872
30
0
41
1
10
28.4005621368107
20
5.34986769310987
30
0
41
1
10
28.3794062607037
20
5.42025650575948
30
0
41
1
10
28.3668132670381
20
5.45496884211982
30
0
41
1
10
28.3522315321088
20
5.48929145988751
30
0
0
SPLINE
5
196
100
AcDbEntity
8
1
62
256
6
ByLayer
370
18
48
1
60
0
100
AcDbSpline
70
4
71
3
72
8
73
4
40
0
40
0
40
0
40
0
40
1
40
1
40
1
40
1
41
1
10
23.3622215801399
20
6.99900488992736
30
0
41
1
10
23.3648622862517
20
7.04249909236432
30
0
41
1
10
23.3688297400568
20
7.08606398436353
30
0
41
1
10
23.3740085042854
20
7.12970138569969
30
0
0
SPLINE
5
197
100
AcDbEntity
8
1
62
256
6
ByLayer
370
13
48
1
60
0
100
AcDbSpline
70
4
71
3
72
8
73
4
40
0
40
0
40
0
40
0
40
1
40
1
40
1
40
1
41
1
10
29.6694193698716
20
10.5672909370496
30
0
41
1
10
29.6857277152654
20
10.5679541602861
30
0
41
1
10
29.7021286817046
20
10.568594455632
30
0
41
1
10
29.718621881421
20
10.5692446821619
30
0
0
SPLINE
5
198
100
AcDbEntity
8
1
62
256
6
ByLayer
370
18
48
1
60
0
100
AcDbSpline
70
4
71
3
72
8
73
4
40
0
40
0
40
0
40
0
40
1
40
1
40
1
40
1
41
1
10
30.0850537689352
20
5.8920976997511
30
0
41
1
10
30.1209177742
20
5.89660241289667
30
0
41
1
10
30.1570229637035
20
5.89870046127493
30
0
41
1
10
30.1933741161119
20
5.89834416081126
30
0
0
SPLINE
5
199
100
AcDbEntity
8
1
62
256
6
ByLayer
370
18
48
1
60
0
100
AcDbSpline
70
4
71
3
72
22
73
18
40
0
40
0
40
0
40
0
40
0.125
40
0.125
40
0.25
40
0.25
40
0.375
40
0.375
40
0.5
40
0.5
40
0.625
40
0.625
40
0.75
40
0.75
40
0.875
40
0.875
40
1
40
1
40
1
40
1
41
1
10
25.8177944567483
20
6.33873410005296
30
0
41
1
10
25.8163104797967
20
6.31735768912534
30
0
41
1
10
25.8172200185057
20
6.29616921495563
30
0
41
1
10
25.8236510577884
20
6.2541524281942
30
0
41
1
10
25.8292923454595
20
6.23310558270217
30
0
41
1
10
25.8448520319963
20
6.19318438218977
30
0
41
1
10
25.8547438560463
20
6.17414497316241
30
0
41
1
10
25.8788614436861
20
6.13794953654093
30
0
41
1
10
25.8928482508827
20
6.12121245163479
30
0
41
1
10
25.923968432457
20
6.09108829837081
30
0
41
1
10
25.9414316324778
20
6.07744220945074
30
0
41
1
10
25.9784873419094
20
6.05436125868772
30
0
41
1
10
25.9980476390198
20
6.0448565185917
30
0
41
1
10
26.0392520525361
20
6.0299551423127
30
0
41
1
10
26.0606796159237
20
6.02469552706668
30
0
41
1
10
26.1036263769432
20
6.01883215320038
30
0
41
1
10
26.1255186878863
20
6.01815910486661
30
0
41
1
10
26.1472996121615
20
6.01986013483304
30
0
0
SPLINE
5
19A
100
AcDbEntity
8
1
62
256
6
ByLayer
370
18
48
1
60
0
100
AcDbSpline
70
4
71
3
72
8
73
4
40
0
40
0
40
0
40
0
40
1
40
1
40
1
40
1
41
1
10
28.5177585639622
20
4.76352931755713
30
0
41
1
10
28.4819176512453
20
4.75862396600795
30
0
41
1
10
28.4459313005755
20
4.75446415290259
30
0
41
1
10
28.4097966303409
20
4.75106464985004
30
0
0
SPLINE
5
19B
100
AcDbEntity
8
1
62
256
6
ByLayer
370
18
48
1
60
0
100
AcDbSpline
70
4
71
3
72
8
73
4
40
0
40
0
40
0
40
0
40
1
40
1
40
1
40
1
41
1
10
30.1589681664168
20
5.86423494235117
30
0
41
1
10
30.1556089991754
20
5.86048733816898
30
0
41
1
10
30.1537801918121
20
5.85668077724918
30
0
41
1
10
30.1534654169338
20
5.85278712112671
30
0
0
SPLINE
5
19C
100
AcDbEntity
8
1
62
256
6
ByLayer
370
18
48
1
60
0
100
AcDbSpline
70
4
71
3
72
12
73
8
40
0
40
0
40
0
40
0
40
0.267597175313067
40
0.267597175313067
40
0.633798587656534
40
0.633798587656534
40
1
40
1
40
1
40
1
41
1
10
30.1541849862846
20
5.84668719478233
30
0
41
1
10
30.1552699288093
20
5.84320405041555
30
0
41
1
10
30.1575016729361
20
5.83964350914883
30
0
41
1
10
30.165477984335
20
5.83098282182661
30
0
41
1
10
30.1722785456155
20
5.82574500384271
30
0
41
1
10
30.190021772219
20
5.81456310317668
30
0
41
1
10
30.2009571049601
20
5.80860994186628
30
0
41
1
10
30.2139426634441
20
5.8019797895023
30
0
0
SPLINE
5
19D
100
AcDbEntity
8
1
62
256
6
ByLayer
370
18
48
1
60
0
100
AcDbSpline
70
4
71
3
72
28
73
24
40
0
40
0
40
0
40
0
40
0.0624999999999999
40
0.0624999999999999
40
0.125
40
0.125
40
0.1875
40
0.1875
40
0.25
40
0.25
40
0.3125
40
0.3125
40
0.375
40
0.375
40
0.4375
40
0.4375
40
0.5
40
0.5
40
0.624999999999999
40
0.624999999999999
40
0.749999999999999
40
0.749999999999999
40
1
40
1
40
1
40
1
41
1
10
25.9416611636275
20
13.3190878936768
30
0
41
1
10
25.9065776245173
20
13.3315212681663
30
0
41
1
10
25.8705249811386
20
13.3404069680336
30
0
41
1
10
25.7964130534834
20
13.3508538308668
30
0
41
1
10
25.7579049664327
20
13.3523275099893
30
0
41
1
10
25.68241580609
20
13.3476416449626
30
0
41
1
10
25.6451262006629
20
13.3416114109426
30
0
41
1
10
25.5714038472898
20
13.322610269388
30
0
41
1
10
25.5355934736062
20
13.309761603115
30
0
41
1
10
25.4670632097135
20
13.2787299089894
30
0
41
1
10
25.4338893234777
20
13.2603221318158
30
0
41
1
10
25.3711338275698
20
13.219397979564
30
0
41
1
10
25.3416245388801
20
13.1969920438558
30
0
41
1
10
25.2857202090357
20
13.1489117178531
30
0
41
1
10
25.2593300300647
20
13.1232323713897
30
0
41
1
10
25.2092955508628
20
13.0689647998813
30
0
41
1
10
25.1857178422135
20
13.0404113903035
30
0
41
1
10
25.120010274151
20
12.9526851651815
30
0
41
1
10
25.0822643714535
20
12.8908669279213
30
0
41
1
10
25.0161750843772
20
12.7619053242215
30
0
41
1
10
24.9877539819876
20
12.6943105728844
30
0
41
1
10
24.9162662169572
20
12.4892197201109
30
0
41
1
10
24.8859137581274
20
12.3485581971257
30
0
41
1
10
24.8688357377502
20
12.2046550580128
30
0
0
SPLINE
5
19E
100
AcDbEntity
8
1
62
256
6
ByLayer
370
13
48
1
60
0
100
AcDbSpline
70
4
71
1
72
4
73
2
40
0
40
0
40
1
40
1
41
1
10
30.8933674922206
20
15.6493150697609
30
0
41
1
10
30.9579463185006
20
14.9554554511539
30
0
0
LINE
5
70
100
AcDbEntity
8
81
62
256
6
ByLayer
370
18
48
1
60
0
100
AcDbLine
10
34.925
20
15.9125
30
0
11
44.925
21
15.9125
31
0
39
0
210
0
220
0
230
1
0
LINE
5
71
100
AcDbEntity
8
1
62
256
6
ByLayer
370
18
48
1
60
0
100
AcDbLine
10
21.589408
20
2.47313
30
0
11
21.493601
21
3.00576
31
0
39
0
210
0
220
0
230
1
0
LINE
5
73
100
AcDbEntity
8
1
62
256
6
ByLayer
370
18
48
1
60
0
100
AcDbLine
10
17.466085
20
6.294659
30
0
11
16.906939
21
6.154264
31
0
39
0
210
0
220
0
230
1
0
LINE
5
74
100
AcDbEntity
8
1
62
256
6
ByLayer
370
18
48
1
60
0
100
AcDbLine
10
24.381926
20
15.168153
30
0
11
24.363916
21
15.119291
31
0
39
0
210
0
220
0
230
1
0
LINE
5
75
100
AcDbEntity
8
1
62
256
6
ByLayer
370
18
48
1
60
0
100
AcDbLine
10
23.362263
20
6.998652
30
0
11
23.220931
21
4.607696
31
0
39
0
210
0
220
0
230
1
0
LINE
5
76
100
AcDbEntity
8
1
62
256
6
ByLayer
370
18
48
1
60
0
100
AcDbLine
10
22.687816
20
15.081632
30
0
11
11.59774
21
14.356433
31
0
39
0
210
0
220
0
230
1
0
LINE
5
77
100
AcDbEntity
8
1
62
256
6
ByLayer
370
18
48
1
60
0
100
AcDbLine
10
20.93515
20
-11.046784
30
0
11
33.213712
21
-3.200705
31
0
39
0
210
0
220
0
230
1
0
LINE
5
78
100
AcDbEntity
8
1
62
256
6
ByLayer
370
18
48
1
60
0
100
AcDbLine
10
23.708237
20
8.298264
30
0
11
24.272997
21
8.876048
31
0
39
0
210
0
220
0
230
1
0
LINE
5
79
100
AcDbEntity
8
1
62
256
6
ByLayer
370
18
48
1
60
0
100
AcDbLine
10
23.12344
20
15.08301
30
0
11
22.727081
21
15.082921
31
0
39
0
210
0
220
0
230
1
0
LINE
5
7A
100
AcDbEntity
8
1
62
256
6
ByLayer
370
18
48
1
60
0
100
AcDbLine
10
34.34085
20
5.513579
30
0
11
34.596271
21
8.63214
31
0
39
0
210
0
220
0
230
1
0
LINE
5
7B
100
AcDbEntity
8
1
62
256
6
ByLayer
370
18
48
1
60
0
100
AcDbLine
10
32.725263
20
5.504533
30
0
11
32.726658
21
5.521558
31
0
39
0
210
0
220
0
230
1
0
LINE
5
7C
100
AcDbEntity
8
80
62
256
6
ByLayer
370
18
48
1
60
0
100
AcDbLine
10
0
20
0
30
0
11
-6.6
21
0
31
0
39
0
210
0
220
0
230
1
0
LINE
5
7D
100
AcDbEntity
8
1
62
256
6
ByLayer
370
18
48
1
60
0
100
AcDbLine
10
24.844754
20
3.980088
30
0
11
27.9998
21
4.218628
31
0
39
0
210
0
220
0
230
1
0
LINE
5
7E
100
AcDbEntity
8
1
62
256
6
ByLayer
370
13
48
1
60
0
100
AcDbLine
10
16.340467
20
14.598277
30
0
11
16.347316
21
14.662286
31
0
39
0
210
0
220
0
230
1
0
LINE
5
7F
100
AcDbEntity
8
1
62
256
6
ByLayer
370
13
48
1
60
0
100
AcDbLine
10
23.44623
20
8.275852
30
0
11
23.363157
21
9.197177
31
0
39
0
210
0
220
0
230
1
0
LINE
5
80
100
AcDbEntity
8
1
62
256
6
ByLayer
370
18
48
1
60
0
100
AcDbLine
10
0
20
-9.4875
30
0
11
0.372277
21
-9.4875
31
0
39
0
210
0
220
0
230
1
0
LINE
5
81
100
AcDbEntity
8
1
62
256
6
ByLayer
370
13
48
1
60
0
100
AcDbLine
10
16.954953
20
6.095318
30
0
11
16.256619
21
5.90314
31
0
39
0
210
0
220
0
230
1
0
LINE
5
82
100
AcDbEntity
8
1
62
256
6
ByLayer
370
18
48
1
60
0
100
AcDbLine
10
25.8079
20
4.339946
30
0
11
24.65434
21
4.24316
31
0
39
0
210
0
220
0
230
1
0
LINE
5
83
100
AcDbEntity
8
1
62
256
6
ByLayer
370
18
48
1
60
0
100
AcDbLine
10
24.965548
20
15.142791
30
0
11
24.639059
21
11.156521
31
0
39
0
210
0
220
0
230
1
0
LINE
5
84
100
AcDbEntity
8
1
62
256
6
ByLayer
370
13
48
1
60
0
100
AcDbLine
10
32.80432
20
5.486767
30
0
11
32.819188
21
5.178857
31
0
39
0
210
0
220
0
230
1
0
LINE
5
85
100
AcDbEntity
8
1
62
256
6
ByLayer
370
18
48
1
60
0
100
AcDbLine
10
34.151447
20
5.084525
30
0
11
34.353215
21
4.604694
31
0
39
0
210
0
220
0
230
1
0
LINE
5
86
100
AcDbEntity
8
1
62
256
6
ByLayer
370
18
48
1
60
0
100
AcDbLine
10
22.778402
20
7.594587
30
0
11
22.635347
21
6.257712
31
0
39
0
210
0
220
0
230
1
0
LINE
5
87
100
AcDbEntity
8
1
62
256
6
ByLayer
370
13
48
1
60
0
100
AcDbLine
10
32.485983
20
5.23526
30
0
11
32.281606
21
5.555524
31
0
39
0
210
0
220
0
230
1
0
LINE
5
88
100
AcDbEntity
8
1
62
256
6
ByLayer
370
18
48
1
60
0
100
AcDbLine
10
1.202709
20
-9.719881
30
0
11
0.655673
21
9.512798
31
0
39
0
210
0
220
0
230
1
0
LINE
5
89
100
AcDbEntity
8
1
62
256
6
ByLayer
370
18
48
1
60
0
100
AcDbLine
10
24.884577
20
12.861528
30
0
11
24.739008
21
11.084202
31
0
39
0
210
0
220
0
230
1
0
LINE
5
8A
100
AcDbEntity
8
1
62
256
6
ByLayer
370
13
48
1
60
0
100
AcDbLine
10
24.65434
20
4.24316
30
0
11
24.844754
21
3.980088
31
0
39
0
210
0
220
0
230
1
0
LINE
5
8B
100
AcDbEntity
8
1
62
256
6
ByLayer
370
13
48
1
60
0
100
AcDbLine
10
27.9998
20
4.218628
30
0
11
27.875278
21
4.390666
31
0
39
0
210
0
220
0
230
1
0
LINE
5
8C
100
AcDbEntity
8
1
62
256
6
ByLayer
370
18
48
1
60
0
100
AcDbLine
10
33.755381
20
-2.694567
30
0
11
34.353215
21
4.604694
31
0
39
0
210
0
220
0
230
1
0
LINE
5
8D
100
AcDbEntity
8
1
62
256
6
ByLayer
370
13
48
1
60
0
100
AcDbLine
10
22.47137
20
7.44831
30
0
11
23.226163
21
8.220508
31
0
39
0
210
0
220
0
230
1
0
LINE
5
8E
100
AcDbEntity
8
1
62
256
6
ByLayer
370
18
48
1
60
0
100
AcDbLine
10
0
20
-9.4875
30
0
11
0
21
9.4875
31
0
39
0
210
0
220
0
230
1
0
LINE
5
8F
100
AcDbEntity
8
1
62
256
6
ByLayer
370
18
48
1
60
0
100
AcDbLine
10
22.071171
20
6.77532
30
0
11
22.116758
21
6.279949
31
0
39
0
210
0
220
0
230
1
0
LINE
5
90
100
AcDbEntity
8
1
62
256
6
ByLayer
370
18
48
1
60
0
100
AcDbLine
10
30.187991
20
5.181944
30
0
11
32.485983
21
5.23526
31
0
39
0
210
0
220
0
230
1
0
LINE
5
91
100
AcDbEntity
8
1
62
256
6
ByLayer
370
18
48
1
60
0
100
AcDbLine
10
24.948427
20
15.153205
30
0
11
24.883324
21
15.15319
31
0
39
0
210
0
220
0
230
1
0
LINE
5
92
100
AcDbEntity
8
1
62
256
6
ByLayer
370
18
48
1
60
0
100
AcDbLine
10
4.388382
20
-11.046784
30
0
11
2.017809
21
-11.046784
31
0
39
0
210
0
220
0
230
1
0
LINE
5
93
100
AcDbEntity
8
1
62
256
6
ByLayer
370
13
48
1
60
0
100
AcDbLine
10
29.964415
20
5.532294
30
0
11
30.187991
21
5.181944
31
0
39
0
210
0
220
0
230
1
0
LINE
5
94
100
AcDbEntity
8
1
62
256
6
ByLayer
370
18
48
1
60
0
100
AcDbLine
10
24.885388
20
12.870739
30
0
11
24.945265
21
13.033185
31
0
39
0
210
0
220
0
230
1
0
LINE
5
95
100
AcDbEntity
8
1
62
256
6
ByLayer
370
18
48
1
60
0
100
AcDbLine
10
22.921882
20
15.076672
30
0
11
17.494071
21
14.73629
31
0
39
0
210
0
220
0
230
1
0
LINE
5
96
100
AcDbEntity
8
1
62
256
6
ByLayer
370
13
48
1
60
0
100
AcDbLine
10
5.898601
20
-1.860274
30
0
11
4.575378
21
-2.299737
31
0
39
0
210
0
220
0
230
1
0
LINE
5
97
100
AcDbEntity
8
1
62
256
6
ByLayer
370
13
48
1
60
0
100
AcDbLine
10
10.434643
20
-7.599375
30
0
11
10.242462
21
-9.393496
31
0
39
0
210
0
220
0
230
1
0
LINE
5
98
100
AcDbEntity
8
1
62
256
6
ByLayer
370
18
48
1
60
0
100
AcDbLine
10
23.324507
20
6.359968
30
0
11
23.092601
21
6.381478
31
0
39
0
210
0
220
0
230
1
0
LINE
5
99
100
AcDbEntity
8
1
62
256
6
ByLayer
370
13
48
1
60
0
100
AcDbLine
10
22.222346
20
6.707509
30
0
11
22.071171
21
6.77532
31
0
39
0
210
0
220
0
230
1
0
LINE
5
9A
100
AcDbEntity
8
1
62
256
6
ByLayer
370
18
48
1
60
0
100
AcDbLine
10
20.476765
20
-11.046784
30
0
11
10.757889
21
-11.046784
31
0
39
0
210
0
220
0
230
1
0
LINE
5
9B
100
AcDbEntity
8
1
62
256
6
ByLayer
370
18
48
1
60
0
100
AcDbLine
10
17.881726
20
14.696421
30
0
11
24.883324
21
15.15319
31
0
39
0
210
0
220
0
230
1
0
LINE
5
9C
100
AcDbEntity
8
1
62
256
6
ByLayer
370
13
48
1
60
0
100
AcDbLine
10
22.685316
20
5.131291
30
0
11
22.718958
21
5.126103
31
0
39
0
210
0
220
0
230
1
0
LINE
5
9D
100
AcDbEntity
8
1
62
256
6
ByLayer
370
18
48
1
60
0
100
AcDbLine
10
0
20
9.4875
30
0
11
0.372277
21
9.4875
31
0
39
0
210
0
220
0
230
1
0
LINE
5
9E
100
AcDbEntity
8
1
62
256
6
ByLayer
370
13
48
1
60
0
100
AcDbLine
10
20.926638
20
0.094404
30
0
11
20.948556
21
1.114436
31
0
39
0
210
0
220
0
230
1
0
LINE
5
9F
100
AcDbEntity
8
1
62
256
6
ByLayer
370
18
48
1
60
0
100
AcDbLine
10
11.543368
20
14.266613
30
0
11
24.965548
21
15.142791
31
0
39
0
210
0
220
0
230
1
0
LINE
5
A0
100
AcDbEntity
8
1
62
256
6
ByLayer
370
18
48
1
60
0
100
AcDbLine
10
20.476765
20
-11.046784
30
0
11
20.93515
21
-11.046784
31
0
39
0
210
0
220
0
230
1
0
LINE
5
A1
100
AcDbEntity
8
1
62
256
6
ByLayer
370
13
48
1
60
0
100
AcDbLine
10
22.116758
20
6.279949
30
0
11
22.259711
21
6.215825
31
0
39
0
210
0
220
0
230
1
0
LINE
5
A2
100
AcDbEntity
8
1
62
256
6
ByLayer
370
13
48
1
60
0
100
AcDbLine
10
29.579854
20
4.927935
30
0
11
29.045684
21
5.103665
31
0
39
0
210
0
220
0
230
1
0
LINE
5
A3
100
AcDbEntity
8
1
62
256
6
ByLayer
370
13
48
1
60
0
100
AcDbLine
10
23.092601
20
6.381478
30
0
11
22.989891
21
4.791482
31
0
39
0
210
0
220
0
230
1
0
LINE
5
A4
100
AcDbEntity
8
1
62
256
6
ByLayer
370
13
48
1
60
0
100
AcDbLine
10
24.639059
20
11.156521
30
0
11
24.739008
21
11.084202
31
0
39
0
210
0
220
0
230
1
0
LINE
5
A5
100
AcDbEntity
8
1
62
256
6
ByLayer
370
18
48
1
60
0
100
AcDbLine
10
11.601416
20
14.356672
30
0
11
11.600147
21
14.354683
31
0
39
0
210
0
220
0
230
1
0
LINE
5
A6
100
AcDbEntity
8
1
62
256
6
ByLayer
370
13
48
1
60
0
100
AcDbLine
10
17.494071
20
14.73629
30
0
11
17.487062
21
14.670787
31
0
39
0
210
0
220
0
230
1
0
LINE
5
A7
100
AcDbEntity
8
1
62
256
6
ByLayer
370
18
48
1
60
0
100
AcDbLine
10
24.945265
20
13.033185
30
0
11
25.119281
21
15.157831
31
0
39
0
210
0
220
0
230
1
0
LINE
5
A8
100
AcDbEntity
8
1
62
256
6
ByLayer
370
18
48
1
60
0
100
AcDbLine
10
14.126515
20
14.498949
30
0
11
14.569111
21
14.499048
31
0
39
0
210
0
220
0
230
1
0
LINE
5
A9
100
AcDbEntity
8
1
62
256
6
ByLayer
370
18
48
1
60
0
100
AcDbLine
10
25.119281
20
15.157831
30
0
11
24.965548
21
15.142791
31
0
39
0
210
0
220
0
230
1
0
LINE
5
AA
100
AcDbEntity
8
1
62
256
6
ByLayer
370
18
48
1
60
0
100
AcDbLine
10
2.017809
20
-11.046784
30
0
11
1.917758
21
-10.67339
31
0
39
0
210
0
220
0
230
1
0
LINE
5
AB
100
AcDbEntity
8
1
62
256
6
ByLayer
370
13
48
1
60
0
100
AcDbLine
10
22.640171
20
15.076609
30
0
11
22.921882
21
15.076672
31
0
39
0
210
0
220
0
230
1
0
LINE
5
AC
100
AcDbEntity
8
1
62
256
6
ByLayer
370
18
48
1
60
0
100
AcDbLine
10
1.048664
20
9.6375
30
0
11
2.999059
21
9.6375
31
0
39
0
210
0
220
0
230
1
0
LINE
5
AD
100
AcDbEntity
8
1
62
256
6
ByLayer
370
18
48
1
60
0
100
AcDbLine
10
25.096237
20
15.157826
30
0
11
25.119281
21
15.157831
31
0
39
0
210
0
220
0
230
1
0
LINE
5
AE
100
AcDbEntity
8
1
62
256
6
ByLayer
370
18
48
1
60
0
100
AcDbLine
10
32.819188
20
5.178857
30
0
11
34.353215
21
4.604694
31
0
39
0
210
0
220
0
230
1
0
LINE
5
AF
100
AcDbEntity
8
1
62
256
6
ByLayer
370
13
48
1
60
0
100
AcDbLine
10
22.640171
20
15.076609
30
0
11
11.600147
21
14.354683
31
0
39
0
210
0
220
0
230
1
0
LINE
5
B0
100
AcDbEntity
8
1
62
256
6
ByLayer
370
18
48
1
60
0
100
AcDbLine
10
26.035606
20
9.417821
30
0
11
26.244267
21
11.090821
31
0
39
0
210
0
220
0
230
1
0
LINE
5
B1
100
AcDbEntity
8
1
62
256
6
ByLayer
370
18
48
1
60
0
100
AcDbLine
10
29.237886
20
14.949829
30
0
11
26.066865
21
15.437187
31
0
39
0
210
0
220
0
230
1
0
LINE
5
B2
100
AcDbEntity
8
1
62
256
6
ByLayer
370
13
48
1
60
0
100
AcDbLine
10
27.317881
20
6.093402
30
0
11
27.32489
21
6.112419
31
0
39
0
210
0
220
0
230
1
0
LINE
5
B3
100
AcDbEntity
8
1
62
256
6
ByLayer
370
13
48
1
60
0
100
AcDbLine
10
31.221195
20
5.668005
30
0
11
31.216438
21
5.609916
31
0
39
0
210
0
220
0
230
1
0
LINE
5
B4
100
AcDbEntity
8
1
62
256
6
ByLayer
370
18
48
1
60
0
100
AcDbLine
10
27.317881
20
6.093402
30
0
11
26.142348
21
6.006427
31
0
39
0
210
0
220
0
230
1
0
LINE
5
B5
100
AcDbEntity
8
1
62
256
6
ByLayer
370
18
48
1
60
0
100
AcDbLine
10
28.313568
20
4.55463
30
0
11
28.517759
21
4.763529
31
0
39
0
210
0
220
0
230
1
0
LINE
5
B6
100
AcDbEntity
8
1
62
256
6
ByLayer
370
18
48
1
60
0
100
AcDbLine
10
29.66775
20
15.011517
30
0
11
30.318066
21
15.396093
31
0
39
0
210
0
220
0
230
1
0
LINE
5
B7
100
AcDbEntity
8
1
62
256
6
ByLayer
370
13
48
1
60
0
100
AcDbLine
10
25.136069
20
4.504199
30
0
11
25.052152
21
4.276533
31
0
39
0
210
0
220
0
230
1
0
LINE
5
B8
100
AcDbEntity
8
1
62
256
6
ByLayer
370
18
48
1
60
0
100
AcDbLine
10
24.757358
20
11.228738
30
0
11
26.244267
21
11.090821
31
0
39
0
210
0
220
0
230
1
0
LINE
5
B9
100
AcDbEntity
8
1
62
256
6
ByLayer
370
18
48
1
60
0
100
AcDbLine
10
31.221195
20
5.668005
30
0
11
32.406722
21
5.581594
31
0
39
0
210
0
220
0
230
1
0
LINE
5
BA
100
AcDbEntity
8
1
62
256
6
ByLayer
370
18
48
1
60
0
100
AcDbLine
10
24.548697
20
9.555738
30
0
11
24.648736
21
10.357837
31
0
39
0
210
0
220
0
230
1
0
LINE
5
BB
100
AcDbEntity
8
1
62
256
6
ByLayer
370
18
48
1
60
0
100
AcDbLine
10
24.738265
20
11.075658
30
0
11
24.757358
21
11.228738
31
0
39
0
210
0
220
0
230
1
0
LINE
5
BC
100
AcDbEntity
8
1
62
256
6
ByLayer
370
13
48
1
60
0
100
AcDbLine
10
26.035606
20
9.417821
30
0
11
24.548697
21
9.555738
31
0
39
0
210
0
220
0
230
1
0
LINE
5
BD
100
AcDbEntity
8
1
62
256
6
ByLayer
370
13
48
1
60
0
100
AcDbLine
10
33.856716
20
5.195538
30
0
11
34.012818
21
5.181059
31
0
39
0
210
0
220
0
230
1
0
LINE
5
BE
100
AcDbEntity
8
1
62
256
6
ByLayer
370
13
48
1
60
0
100
AcDbLine
10
24.868836
20
12.204655
30
0
11
24.912569
21
12.944506
31
0
39
0
210
0
220
0
230
1
0
LINE
5
BF
100
AcDbEntity
8
1
62
256
6
ByLayer
370
13
48
1
60
0
100
AcDbLine
10
25.043274
20
15.155679
30
0
11
25.049997
21
15.26941
31
0
39
0
210
0
220
0
230
1
0
LINE
5
C0
100
AcDbEntity
8
1
62
256
6
ByLayer
370
18
48
1
60
0
100
AcDbLine
10
28.409797
20
4.751065
30
0
11
28.408035
21
4.746286
31
0
39
0
210
0
220
0
230
1
0
LINE
5
C1
100
AcDbEntity
8
1
62
256
6
ByLayer
370
18
48
1
60
0
100
AcDbLine
10
28.703152
20
12.740073
30
0
11
29.342484
21
14.961243
31
0
39
0
210
0
220
0
230
1
0
LINE
5
C2
100
AcDbEntity
8
1
62
256
6
ByLayer
370
13
48
1
60
0
100
AcDbLine
10
23.690859
20
5.063324
30
0
11
23.565146
21
5.074985
31
0
39
0
210
0
220
0
230
1
0
LINE
5
C3
100
AcDbEntity
8
1
62
256
6
ByLayer
370
18
48
1
60
0
100
AcDbLine
10
34.613871
20
10.789641
30
0
11
34.613986
21
9.516877
31
0
39
0
210
0
220
0
230
1
0
LINE
5
C4
100
AcDbEntity
8
1
62
256
6
ByLayer
370
13
48
1
60
0
100
AcDbLine
10
26.1473
20
6.01986
30
0
11
26.142348
21
6.006427
31
0
39
0
210
0
220
0
230
1
0
LINE
5
C5
100
AcDbEntity
8
1
62
256
6
ByLayer
370
18
48
1
60
0
100
AcDbLine
10
23.688696
20
5.075012
30
0
11
23.795144
21
4.498992
31
0
39
0
210
0
220
0
230
1
0
LINE
5
C6
100
AcDbEntity
8
1
62
256
6
ByLayer
370
18
48
1
60
0
100
AcDbLine
10
25.916412
20
8.121065
30
0
11
25.809769
21
6.316961
31
0
39
0
210
0
220
0
230
1
0
LINE
5
C7
100
AcDbEntity
8
1
62
256
6
ByLayer
370
18
48
1
60
0
100
AcDbLine
10
28.408035
20
4.746286
30
0
11
28.426478
21
5.058288
31
0
39
0
210
0
220
0
230
1
0
LINE
5
C8
100
AcDbEntity
8
1
62
256
6
ByLayer
370
18
48
1
60
0
100
AcDbLine
10
23.35959
20
4.517317
30
0
11
23.565146
21
5.074985
31
0
39
0
210
0
220
0
230
1
0
LINE
5
C9
100
AcDbEntity
8
1
62
256
6
ByLayer
370
13
48
1
60
0
100
AcDbLine
10
23.374009
20
7.129701
30
0
11
23.224783
21
4.605205
31
0
39
0
210
0
220
0
230
1
0
LINE
5
CA
100
AcDbEntity
8
1
62
256
6
ByLayer
370
18
48
1
60
0
100
AcDbLine
10
29.238707
20
14.963706
30
0
11
29.237886
21
14.949829
31
0
39
0
210
0
220
0
230
1
0
LINE
5
CB
100
AcDbEntity
8
1
62
256
6
ByLayer
370
18
48
1
60
0
100
AcDbLine
10
30.193374
20
5.898344
30
0
11
30.19457
21
5.912941
31
0
39
0
210
0
220
0
230
1
0
LINE
5
CC
100
AcDbEntity
8
1
62
256
6
ByLayer
370
13
48
1
60
0
100
AcDbLine
10
25.916412
20
8.121065
30
0
11
24.429502
21
8.258981
31
0
39
0
210
0
220
0
230
1
0
LINE
5
CD
100
AcDbEntity
8
1
62
256
6
ByLayer
370
18
48
1
60
0
100
AcDbLine
10
25.049997
20
15.26941
30
0
11
25.007619
21
15.154439
31
0
39
0
210
0
220
0
230
1
0
LINE
5
CE
100
AcDbEntity
8
1
62
256
6
ByLayer
370
18
48
1
60
0
100
AcDbLine
10
34.613986
20
9.516877
30
0
11
33.127077
21
9.654793
31
0
39
0
210
0
220
0
230
1
0
LINE
5
CF
100
AcDbEntity
8
1
62
256
6
ByLayer
370
13
48
1
60
0
100
AcDbLine
10
33.975792
20
12.02925
30
0
11
33.224333
21
12.098951
31
0
39
0
210
0
220
0
230
1
0
LINE
5
D0
100
AcDbEntity
8
1
62
256
6
ByLayer
370
13
48
1
60
0
100
AcDbLine
10
33.168386
20
10.923715
30
0
11
34.613871
21
10.789641
31
0
39
0
210
0
220
0
230
1
0
LINE
5
D1
100
AcDbEntity
8
1
62
256
6
ByLayer
370
13
48
1
60
0
100
AcDbLine
10
26.066865
20
15.437187
30
0
11
25.941661
21
13.319088
31
0
39
0
210
0
220
0
230
1
0
LINE
5
D2
100
AcDbEntity
8
1
62
256
6
ByLayer
370
18
48
1
60
0
100
AcDbLine
10
28.408035
20
4.746286
30
0
11
25.136069
21
4.504199
31
0
39
0
210
0
220
0
230
1
0
LINE
5
D3
100
AcDbEntity
8
1
62
256
6
ByLayer
370
13
48
1
60
0
100
AcDbLine
10
28.428192
20
5.062939
30
0
11
28.426478
21
5.058288
31
0
39
0
210
0
220
0
230
1
0
LINE
5
D4
100
AcDbEntity
8
1
62
256
6
ByLayer
370
18
48
1
60
0
100
AcDbLine
10
30.775683
20
15.63964
30
0
11
30.893367
21
15.649315
31
0
39
0
210
0
220
0
230
1
0
LINE
5
D5
100
AcDbEntity
8
1
62
256
6
ByLayer
370
13
48
1
60
0
100
AcDbLine
10
23.879864
20
4.305047
30
0
11
24.25612
21
5.325821
31
0
39
0
210
0
220
0
230
1
0
LINE
5
D6
100
AcDbEntity
8
1
62
256
6
ByLayer
370
13
48
1
60
0
100
AcDbLine
10
33.494353
20
5.672425
30
0
11
33.676824
21
7.900311
31
0
39
0
210
0
220
0
230
1
0
LINE
5
D7
100
AcDbEntity
8
1
62
256
6
ByLayer
370
13
48
1
60
0
100
AcDbLine
10
32.403361
20
5.540561
30
0
11
32.406722
21
5.581594
31
0
39
0
210
0
220
0
230
1
0
LINE
5
D8
100
AcDbEntity
8
1
62
256
6
ByLayer
370
13
48
1
60
0
100
AcDbLine
10
25.817794
20
6.338734
30
0
11
25.809769
21
6.316961
31
0
39
0
210
0
220
0
230
1
0
LINE
5
D9
100
AcDbEntity
8
1
62
256
6
ByLayer
370
18
48
1
60
0
100
AcDbLine
10
30.806976
20
8.271598
30
0
11
30.085054
21
5.892098
31
0
39
0
210
0
220
0
230
1
0
LINE
5
DA
100
AcDbEntity
8
1
62
256
6
ByLayer
370
18
48
1
60
0
100
AcDbLine
10
30.893367
20
15.649315
30
0
11
34.06232
21
15.90985
31
0
39
0
210
0
220
0
230
1
0
LINE
5
DB
100
AcDbEntity
8
1
62
256
6
ByLayer
370
18
48
1
60
0
100
AcDbLine
10
34.336572
20
5.505392
30
0
11
34.012818
21
5.181059
31
0
39
0
210
0
220
0
230
1
0
LINE
5
DC
100
AcDbEntity
8
1
62
256
6
ByLayer
370
18
48
1
60
0
100
AcDbLine
10
24.25612
20
5.325821
30
0
11
24.429502
21
8.258981
31
0
39
0
210
0
220
0
230
1
0
LINE
5
DD
100
AcDbEntity
8
1
62
256
6
ByLayer
370
13
48
1
60
0
100
AcDbLine
10
34.669683
20
11.964889
30
0
11
33.975792
21
12.02925
31
0
39
0
210
0
220
0
230
1
0
LINE
5
DE
100
AcDbEntity
8
1
62
256
6
ByLayer
370
18
48
1
60
0
100
AcDbLine
10
28.906337
20
5.067827
30
0
11
29.68959
21
5.70725
31
0
39
0
210
0
220
0
230
1
0
LINE
5
DF
100
AcDbEntity
8
1
62
256
6
ByLayer
370
18
48
1
60
0
100
AcDbLine
10
34.92237
20
15.050082
30
0
11
34.669683
21
11.964889
31
0
39
0
210
0
220
0
230
1
0
LINE
5
E0
100
AcDbEntity
8
1
62
256
6
ByLayer
370
18
48
1
60
0
100
AcDbLine
10
30.19457
20
5.912941
30
0
11
33.494353
21
5.672425
31
0
39
0
210
0
220
0
230
1
0
LINE
5
E1
100
AcDbEntity
8
SK1
62
256
6
ByLayer
370
18
48
1
60
0
100
AcDbLine
10
-69
20
-6.4875
30
0
11
-69
21
6.4875
31
0
39
0
210
0
220
0
230
1
0
LINE
5
E3
100
AcDbEntity
8
SK1
62
256
6
ByLayer
370
13
48
1
60
0
100
AcDbLine
10
-0.683183
20
9.4875
30
0
11
-0.683183
21
-9.4875
31
0
39
0
210
0
220
0
230
1
0
LINE
5
E4
100
AcDbEntity
8
SK1
62
256
6
ByLayer
370
18
48
1
60
0
100
AcDbLine
10
-2.228664
20
-9.4875
30
0
11
-0.683183
21
-9.4875
31
0
39
0
210
0
220
0
230
1
0
LINE
5
E5
100
AcDbEntity
8
SK1
62
256
6
ByLayer
370
18
48
1
60
0
100
AcDbLine
10
-66
20
9.4875
30
0
11
-69
21
6.4875
31
0
39
0
210
0
220
0
230
1
0
LINE
5
E6
100
AcDbEntity
8
SK1
62
256
6
ByLayer
370
18
48
1
60
0
100
AcDbLine
10
-66
20
9.4875
30
0
11
-2.228664
21
9.4875
31
0
39
0
210
0
220
0
230
1
0
LINE
5
E7
100
AcDbEntity
8
SK1
62
256
6
ByLayer
370
18
48
1
60
0
100
AcDbLine
10
-2.228664
20
9.4875
30
0
11
-0.683183
21
9.4875
31
0
39
0
210
0
220
0
230
1
0
LINE
5
E8
100
AcDbEntity
8
SK1
62
256
6
ByLayer
370
18
48
1
60
0
100
AcDbLine
10
0
20
-9.4875
30
0
11
0
21
9.4875
31
0
39
0
210
0
220
0
230
1
0
LINE
5
E9
100
AcDbEntity
8
SK1
62
256
6
ByLayer
370
18
48
1
60
0
100
AcDbLine
10
-66
20
-9.4875
30
0
11
-69
21
-6.4875
31
0
39
0
210
0
220
0
230
1
0
LINE
5
EA
100
AcDbEntity
8
SK1
62
256
6
ByLayer
370
18
48
1
60
0
100
AcDbLine
10
-0.683183
20
-9.4875
30
0
11
0
21
-9.4875
31
0
39
0
210
0
220
0
230
1
0
LINE
5
EB
100
AcDbEntity
8
SK1
62
256
6
ByLayer
370
13
48
1
60
0
100
AcDbLine
10
-2.228664
20
-9.4875
30
0
11
-2.228664
21
9.4875
31
0
39
0
210
0
220
0
230
1
0
LINE
5
EC
100
AcDbEntity
8
SK1
62
256
6
ByLayer
370
18
48
1
60
0
100
AcDbLine
10
-66
20
-9.4875
30
0
11
-2.228664
21
-9.4875
31
0
39
0
210
0
220
0
230
1
0
LINE
5
ED
100
AcDbEntity
8
SK1
62
256
6
ByLayer
370
18
48
1
60
0
100
AcDbLine
10
-0.683183
20
9.4875
30
0
11
0
21
9.4875
31
0
39
0
210
0
220
0
230
1
0
LINE
5
EE
100
AcDbEntity
8
2
62
256
6
ByLayer
370
13
48
1
60
0
100
AcDbLine
10
34.925
20
-26.035575
30
0
11
0
21
-26.035575
31
0
39
0
210
0
220
0
230
1
0
LINE
5
F0
100
AcDbEntity
8
2
62
256
6
ByLayer
370
13
48
1
60
0
100
AcDbLine
10
0
20
-3.944817
30
0
11
0
21
-28.035575
31
0
39
0
210
0
220
0
230
1
0
LINE
5
F1
100
AcDbEntity
8
2
62
256
6
ByLayer
370
13
48
1
60
0
100
AcDbLine
10
34.925
20
-1.5875
30
0
11
34.925
21
-28.035575
31
0
39
0
210
0
220
0
230
1
0
LINE
5
F2
100
AcDbEntity
8
1
62
256
6
ByLayer
370
18
48
1
60
1
100
AcDbLine
10
0
20
-26.035575
30
0
11
3.499998
21
-25.574791
31
0
39
0
210
0
220
0
230
1
0
LINE
5
F3
100
AcDbEntity
8
1
62
256
6
ByLayer
370
18
48
1
60
1
100
AcDbLine
10
3.499998
20
-25.574791
30
0
11
3.500002
21
-26.496359
31
0
39
0
210
0
220
0
230
1
0
LINE
5
F4
100
AcDbEntity
8
1
62
256
6
ByLayer
370
18
48
1
60
1
100
AcDbLine
10
3.500002
20
-26.496359
30
0
11
0
21
-26.035575
31
0
39
0
210
0
220
0
230
1
0
LINE
5
F5
100
AcDbEntity
8
1
62
256
6
ByLayer
370
18
48
1
60
1
100
AcDbLine
10
34.925
20
-26.035575
30
0
11
31.425002
21
-26.496359
31
0
39
0
210
0
220
0
230
1
0
LINE
5
F6
100
AcDbEntity
8
1
62
256
6
ByLayer
370
18
48
1
60
1
100
AcDbLine
10
31.425002
20
-26.496359
30
0
11
31.424998
21
-25.574791
31
0
39
0
210
0
220
0
230
1
0
LINE
5
F7
100
AcDbEntity
8
1
62
256
6
ByLayer
370
18
48
1
60
1
100
AcDbLine
10
31.424998
20
-25.574791
30
0
11
34.925
21
-26.035575
31
0
39
0
210
0
220
0
230
1
0
LINE
5
F8
100
AcDbEntity
8
2
62
256
6
ByLayer
370
18
48
1
60
1
100
AcDbLine
10
43.270223
20
15.9125
30
0
11
43.271223
21
15.9125
31
0
39
0
210
0
220
0
230
1
0
LINE
5
F9
100
AcDbEntity
8
2
62
256
6
ByLayer
370
18
48
1
60
1
100
AcDbLine
10
34.57704
20
11.680177
30
0
11
34.576958
21
11.679181
31
0
39
0
210
0
220
0
230
1
0
LINE
5
1A4
100
AcDbEntity
8
1
62
256
6
ByLayer
370
18
48
1
60
1
100
AcDbLine
10
0
20
-26.035575
30
0
11
3.499998
21
-25.574791
31
0
39
0
210
0
220
0
230
1
0
LINE
5
1A5
100
AcDbEntity
8
1
62
256
6
ByLayer
370
18
48
1
60
1
100
AcDbLine
10
3.499998
20
-25.574791
30
0
11
3.500002
21
-26.496359
31
0
39
0
210
0
220
0
230
1
0
LINE
5
1A6
100
AcDbEntity
8
1
62
256
6
ByLayer
370
18
48
1
60
1
100
AcDbLine
10
3.500002
20
-26.496359
30
0
11
0
21
-26.035575
31
0
39
0
210
0
220
0
230
1
0
LINE
5
1A8
100
AcDbEntity
8
1
62
256
6
ByLayer
370
18
48
1
60
1
100
AcDbLine
10
34.925
20
-26.035575
30
0
11
31.425002
21
-26.496359
31
0
39
0
210
0
220
0
230
1
0
LINE
5
1A9
100
AcDbEntity
8
1
62
256
6
ByLayer
370
18
48
1
60
1
100
AcDbLine
10
31.425002
20
-26.496359
30
0
11
31.424998
21
-25.574791
31
0
39
0
210
0
220
0
230
1
0
LINE
5
1AA
100
AcDbEntity
8
1
62
256
6
ByLayer
370
18
48
1
60
1
100
AcDbLine
10
31.424998
20
-25.574791
30
0
11
34.925
21
-26.035575
31
0
39
0
210
0
220
0
230
1
0
MTEXT
5
19F
100
AcDbEntity
8
SK6
62
256
6
ByLayer
370
18
48
1
60
0
100
AcDbMText
10
-60.596713
20
-17.462299
30
0
210
0
220
0
230
1
1
\W0.7109;QS-3-80-LR12-22-10C
40
3.5
41
0
44
1.084337
50
0
71
7
72
5
7
iso_b_vert
0
MTEXT
5
1A3
100
AcDbEntity
8
2
62
256
6
ByLayer
370
18
48
1
60
0
100
AcDbMText
10
15.899342
20
-24.910575
30
0
210
0
220
0
230
1
1
\W0.6740;35
40
4.5
41
0
44
1.084337
50
0
71
7
72
5
7
iso_b_vert
0
HATCH
5
1A7
100
AcDbEntity
8
2
62
256
6
ByLayer
370
13
48
1
60
0
100
AcDbHatch
10
0
20
0
30
0
210
0
220
0
230
1
2
ANSI31
70
0
71
0
91
1
92
5
93
3
72
1
10
0
20
-26.0355751904333
11
3.49999830744682
21
-25.5747914488805
72
1
10
3.49999830744682
20
-25.5747914488805
11
3.50000169255318
21
-26.4963589319861
72
1
10
3.50000169255318
20
-26.4963589319861
11
0
21
-26.0355751904333
97
0
75
0
76
1
52
0
41
0.02
77
0
78
1
53
45
43
0
44
0
45
-0.0449012806053457
46
0.0449012806053458
79
0
47
0
98
1
10
0
20
0
0
HATCH
5
1AB
100
AcDbEntity
8
2
62
256
6
ByLayer
370
13
48
1
60
0
100
AcDbHatch
10
0
20
0
30
0
210
0
220
0
230
1
2
ANSI31
70
0
71
0
91
1
92
5
93
3
72
1
10
34.925
20
-26.0355751904333
11
31.4250016925532
21
-26.4963589319861
72
1
10
31.4250016925532
20
-26.4963589319861
11
31.4249983074468
21
-25.5747914488805
72
1
10
31.4249983074468
20
-25.5747914488805
11
34.925
21
-26.0355751904333
97
0
75
0
76
1
52
0
41
0.02
77
0
78
1
53
44.9999999999999
43
0
44
0
45
-0.0449012806053457
46
0.0449012806053458
79
0
47
0
98
1
10
0
20
0
0
DIMENSION
5
1B6
100
AcDbEntity
8
SK2
62
256
6
ByLayer
370
13
48
1
60
0
100
AcDbDimension
2
DimnDraft3D1
10
34.925
20
-40.880403
30
0
11
-15.617691
21
-40.880403
31
0
70
32
71
5
72
1
41
1
210
0
220
0
230
1
3
Standard
100
AcDbAlignedDimension
13
-69
23
-1.5875
33
0
14
34.925
24
-1.5875
34
0
50
0
100
AcDbRotatedDimension
1001
ACAD
1000
DSTYLE
1002
{
1070
   279
1070
     0
1070
   172
1070
     1
1070
   173
1070
     1
1070
   340
1005
1A0
1070
   271
1070
     0
1070
   272
1070
     2
1070
    77
1070
     1
1070
    73
1070
     0
1070
   171
1070
     3
1070
   274
1070
     4
1070
   177
1070
   150
1070
   176
1070
     9
1070
   178
1070
    35
1070
    78
1070
     8
1070
    48
1040
-0.005
1070
    41
1041
3.5
1070
   147
1041
2.25
1070
    42
1041
1.5875
1070
    44
1041
2.0
1070
   140
1041
4.5
1070
   343
1005
0
1070
   344
1005
0
1002
}
0
DIMENSION
5
1C0
100
AcDbEntity
8
2
62
256
6
ByLayer
370
13
48
1
60
0
100
AcDbDimension
2
DimnDraft3D2
10
64.392367
20
15.9125
30
0
11
64.392367
21
-4.987299
31
0
70
32
71
5
72
1
41
1
210
0
220
0
230
1
3
Standard
100
AcDbAlignedDimension
13
36.5125
23
-9.4875
33
0
14
46.5125
24
15.9125
34
0
50
90
100
AcDbRotatedDimension
1001
ACAD
1000
DSTYLE
1002
{
1070
    74
1070
     0
1070
   279
1070
     0
1070
   172
1070
     1
1070
   173
1070
     1
1070
   340
1005
1A0
1070
   271
1070
     0
1070
   272
1070
     2
1070
    77
1070
     1
1070
    73
1070
     0
1070
   171
1070
     3
1070
   274
1070
     4
1070
   177
1070
   150
1070
   176
1070
     9
1070
   178
1070
    35
1070
    78
1070
     8
1070
    48
1040
-0.005
1070
    41
1041
3.5
1070
   147
1041
2.25
1070
    42
1041
1.5875
1070
    44
1041
2.0
1070
   140
1041
4.5
1070
   343
1005
0
1070
   344
1005
0
1002
}
0
DIMENSION
5
1CA
100
AcDbEntity
8
SK2
62
256
6
ByLayer
370
13
48
1
60
0
100
AcDbDimension
2
DimnDraft3D3
10
-80.704654
20
-9.4875
30
0
11
-80.704654
21
-0.718377
31
0
70
32
71
5
72
1
41
1
210
0
220
0
230
1
3
Standard
100
AcDbAlignedDimension
13
-70.5875
23
9.4875
33
0
14
-70.5875
24
-9.4875
34
0
50
90
100
AcDbRotatedDimension
1001
ACAD
1000
DSTYLE
1002
{
1070
    74
1070
     0
1070
   279
1070
     0
1070
   172
1070
     1
1070
   173
1070
     1
1070
   340
1005
1A0
1070
   271
1070
     0
1070
   272
1070
     2
1070
    77
1070
     1
1070
    73
1070
     0
1070
   171
1070
     3
1070
   274
1070
     4
1070
   177
1070
   150
1070
   176
1070
     9
1070
   178
1070
    35
1070
    78
1070
     8
1070
    48
1040
-0.005
1070
    41
1041
3.5
1070
   147
1041
2.25
1070
    42
1041
1.5875
1070
    44
1041
2.0
1070
   140
1041
4.5
1070
   343
1005
0
1070
   344
1005
0
1002
}
0
DIMENSION
5
1D4
100
AcDbEntity
8
2
62
256
6
ByLayer
370
13
48
1
60
0
100
AcDbDimension
2
DimnDraft3D4
10
34.576958
20
11.679181
30
0
11
44.057884
21
9.197758
31
0
70
34
71
5
72
1
41
1
210
0
220
0
230
1
3
Standard
100
AcDb2LineAngularDimension
13
43.270223
23
15.9125
33
0
14
43.271223
24
15.9125
34
0
15
34.57704
25
11.680177
35
0
16
45.65395
26
4.26527
36
0
40
0
0
ENDSEC
0
SECTION
2
OBJECTS
0
DICTIONARY
5
23e
330
0
100
AcDbDictionary
280
0
281
1
3
ACAD_GROUP
350
23f
3
ACAD_MLINESTYLE
350
240
0
DICTIONARY
5
23f
330
0
100
AcDbDictionary
280
0
281
1
0
DICTIONARY
5
240
330
0
100
AcDbDictionary
280
0
281
1
3
Standard
350
18
0
MLINESTYLE
5
18
330
240
100
AcDbMlineStyle
2
Standard
70
0
3

62
256
51
90
52
90
71
2
49
-0.5
62
256
6
ByLayer
49
0.5
62
256
6
ByLayer
0
RASTERVARIABLES
5
22d
330

100
AcDbRasterVariables
90
0
70
1
71
1
72
1
0
ENDSEC
0
EOF
