0
SECTION
2
HEADER
9
$ACADVER
1
AC1015
9
$DWGCODEPAGE
3
ANSI_1252
9
$HANDSEED
5
242
9
$ANGBASE
50
0
9
$ANGDIR
70
0
9
$ATTMODE
70
1
9
$AUNITS
70
0
9
$AUPREC
70
0
9
$CECOLOR
62
256
9
$CELTSCALE
40
1
9
$CELTYPE
6
ByLayer
9
$CELWEIGHT
370
18
9
$CLAYER
8
0
9
$CMLJUST
70
0
9
$CMLSCALE
40
1
9
$CMLSTYLE
2
Standard
9
$DIMSTYLE
2
Standard
9
$TEXTSIZE
40
0.2
9
$TEXTSTYLE
7
Standard
9
$LUNITS
70
2
9
$LUPREC
70
4
9
$EXTNAMES
290
1
9
$INSUNITS
70
4
9
$LTSCALE
40
1
9
$LWDISPLAY
290
1
9
$PDMODE
70
0
9
$PDSIZE
40
0
9
$PLINEGEN
70
0
0
ENDSEC
0
SECTION
2
CLASSES
0
CLASS
1
RASTERVARIABLES
2
AcDbRasterVariables
3
ISM
90
0
280
0
281
0
0
ENDSEC
0
SECTION
2
TABLES
0
TABLE
2
VPORT
5
238
100
AcDbSymbolTable
0
VPORT
5
1
100
AcDbSymbolTableRecord
100
AcDbViewportTableRecord
2
*Active
70
0
10
0
20
0
11
1
21
1
12
-1
22
1
13
0
23
0
14
0.5
24
0.5
15
10
25
10
16
0
26
0
36
1
17
0
27
0
37
0
0
ENDTAB
0
TABLE
2
LTYPE
5
239
100
AcDbSymbolTable
0
LTYPE
5
14
100
AcDbSymbolTableRecord
100
AcDbLinetypeTableRecord
70
0
2
ByBlock
3

72
65
73
0
40
0
0
LTYPE
5
15
100
AcDbSymbolTableRecord
100
AcDbLinetypeTableRecord
70
0
2
ByLayer
3

72
65
73
0
40
0
0
LTYPE
5
16
100
AcDbSymbolTableRecord
100
AcDbLinetypeTableRecord
70
0
2
CONTINUOUS
3
Solid line
72
65
73
0
40
0
0
LTYPE
5
6A
100
AcDbSymbolTableRecord
100
AcDbLinetypeTableRecord
70
0
2
CENTER
3
____ _ ____ _ ____ _ ____
72
65
73
4
40
47.5
49
22
74
0
49
-8.5
74
0
49
8.5
74
0
49
-8.5
74
0
0
LTYPE
5
6B
100
AcDbSymbolTableRecord
100
AcDbLinetypeTableRecord
70
0
2
DASHED
3
__ __ __ __ __ __ __ __ __
72
65
73
2
40
25.72
49
12.86
74
0
49
-12.86
74
0
0
ENDTAB
0
TABLE
2
LAYER
5
23a
100
AcDbSymbolTable
0
LAYER
5
10
100
AcDbSymbolTableRecord
100
AcDbLayerTableRecord
2
0
70
0
62
7
6
CONTINUOUS
290
1
370
-3
390
0
0
LAYER
5
6D
100
AcDbSymbolTableRecord
100
AcDbLayerTableRecord
2
80
70
0
62
-6
6
CONTINUOUS
290
1
370
-3
390
0
0
LAYER
5
6F
100
AcDbSymbolTableRecord
100
AcDbLayerTableRecord
2
81
70
0
62
-3
6
CONTINUOUS
290
1
370
-3
390
0
0
LAYER
5
72
100
AcDbSymbolTableRecord
100
AcDbLayerTableRecord
2
1
70
0
62
4
6
CONTINUOUS
290
1
370
-3
390
0
0
LAYER
5
E9
100
AcDbSymbolTableRecord
100
AcDbLayerTableRecord
2
2
70
0
62
7
6
CONTINUOUS
290
1
370
-3
390
0
0
LAYER
5
225
100
AcDbSymbolTableRecord
100
AcDbLayerTableRecord
2
SK1
70
0
62
4
6
CONTINUOUS
290
1
370
-3
390
0
0
LAYER
5
226
100
AcDbSymbolTableRecord
100
AcDbLayerTableRecord
2
SK6
70
0
62
5
6
CONTINUOUS
290
1
370
-3
390
0
0
LAYER
5
227
100
AcDbSymbolTableRecord
100
AcDbLayerTableRecord
2
SK2
70
0
62
7
6
CONTINUOUS
290
1
370
-3
390
0
0
ENDTAB
0
TABLE
2
STYLE
5
23b
100
AcDbSymbolTable
0
STYLE
5
11
100
AcDbSymbolTableRecord
100
AcDbTextStyleTableRecord
2
Standard
3
txt
70
0
71
0
40
0
41
1
42
0
50
0
0
STYLE
5
197
100
AcDbSymbolTableRecord
100
AcDbTextStyleTableRecord
2
iso_b_vert
3
simplex.shx
70
0
71
0
40
0
41
1
42
0
50
0
0
STYLE
5
198
100
AcDbSymbolTableRecord
100
AcDbTextStyleTableRecord
2
DWGDirectTextStyle
3
simplex
70
0
71
0
40
0
41
1
42
0
50
0
0
ENDTAB
0
TABLE
2
DIMSTYLE
5
23c
100
AcDbSymbolTable
100
AcDbDimStyleTable
0
DIMSTYLE
105
27
100
AcDbSymbolTableRecord
100
AcDbDimStyleTableRecord
2
Standard
70
0
3
<>
41
0.18
42
0.0625
44
0.18
140
0.18
147
0.09
73
0
74
0
77
1
271
2
275
0
278
52
280
0
340
11
0
ENDTAB
0
TABLE
2
VIEW
5
23d
100
AcDbSymbolTable
0
ENDTAB
0
TABLE
2
UCS
5
23e
100
AcDbSymbolTable
0
ENDTAB
0
TABLE
2
APPID
5
23f
100
AcDbSymbolTable
0
APPID
5
12
100
AcDbSymbolTableRecord
100
AcDbRegAppTableRecord
2
ACAD
70
0
0
ENDTAB
0
TABLE
2
BLOCK_RECORD
5
240
100
AcDbSymbolTable
0
BLOCK_RECORD
5
1F
100
AcDbSymbolTableRecord
100
AcDbBlockTableRecord
2
*Model_Space
340
0
70
0
0
BLOCK_RECORD
5
1B
100
AcDbSymbolTableRecord
100
AcDbBlockTableRecord
2
*Paper_Space
340
0
70
0
0
BLOCK_RECORD
5
23
100
AcDbSymbolTableRecord
100
AcDbBlockTableRecord
2
*Paper_Space0
340
0
70
0
0
BLOCK_RECORD
5
1A3
100
AcDbSymbolTableRecord
100
AcDbBlockTableRecord
2
DimnDraft3D1
340
0
70
0
0
BLOCK_RECORD
5
1AE
100
AcDbSymbolTableRecord
100
AcDbBlockTableRecord
2
DimnDraft3D2
340
0
70
0
0
BLOCK_RECORD
5
1B8
100
AcDbSymbolTableRecord
100
AcDbBlockTableRecord
2
DimnDraft3D3
340
0
70
0
0
BLOCK_RECORD
5
1C2
100
AcDbSymbolTableRecord
100
AcDbBlockTableRecord
2
DimnDraft3D4
340
0
70
0
0
ENDTAB
0
ENDSEC
0
SECTION
2
BLOCKS
0
BLOCK
5
20
100
AcDbEntity
8
0
100
AcDbBlockBegin
2
*Model_Space
70
0
10
0
20
0
30
0
3
*Model_Space
0
ENDBLK
5
21
100
AcDbEntity
8
0
100
AcDbBlockEnd
0
BLOCK
5
1C
100
AcDbEntity
8
0
100
AcDbBlockBegin
2
*Paper_Space
70
0
10
0
20
0
30
0
3
*Paper_Space
0
ENDBLK
5
1D
100
AcDbEntity
8
0
100
AcDbBlockEnd
0
BLOCK
5
24
100
AcDbEntity
8
0
100
AcDbBlockBegin
2
*Paper_Space0
70
0
10
0
20
0
30
0
3
*Paper_Space0
0
ENDBLK
5
25
100
AcDbEntity
8
0
100
AcDbBlockEnd
0
BLOCK
5
1AB
100
AcDbEntity
8
0
100
AcDbBlockBegin
2
DimnDraft3D1
70
0
10
0
20
0
30
0
3
DimnDraft3D1
0
MTEXT
5
1A4
100
AcDbEntity
8
SK2
62
256
6
ByLayer
370
18
48
1
60
0
100
AcDbMText
10
-40.022091
20
30.081018
30
0
210
0
220
0
230
1
1
\W0.5296;116
40
4.5
41
0
44
1.084337
50
0
71
7
72
5
7
iso_b_vert
0
LINE
5
1A6
100
AcDbEntity
8
SK2
62
256
6
ByLayer
370
13
48
1
60
0
100
AcDbLine
10
-84
20
1.5875
30
0
11
-84
21
30.956018
31
0
39
0
210
0
220
0
230
1
0
LINE
5
1A7
100
AcDbEntity
8
SK2
62
256
6
ByLayer
370
13
48
1
60
0
100
AcDbLine
10
31.75
20
1.5875
30
0
11
31.75
21
30.956018
31
0
39
0
210
0
220
0
230
1
0
LINE
5
1A8
100
AcDbEntity
8
SK2
62
256
6
ByLayer
370
13
48
1
60
0
100
AcDbLine
10
-84
20
28.956018
30
0
11
31.75
21
28.956018
31
0
39
0
210
0
220
0
230
1
0
SOLID
5
1A9
100
AcDbEntity
8
SK2
62
256
6
ByLayer
370
13
48
1
60
0
100
AcDbTrace
10
-84
20
28.956018
30
0
11
-80.500002
21
29.416802
31
0
12
-80.499998
22
28.495234
32
0
13
-84
23
28.956018
33
0
39
0
210
0
220
0
230
1
0
SOLID
5
1AA
100
AcDbEntity
8
SK2
62
256
6
ByLayer
370
13
48
1
60
0
100
AcDbTrace
10
31.75
20
28.956018
30
0
11
28.250002
21
28.495234
31
0
12
28.249998
22
29.416802
32
0
13
31.75
23
28.956018
33
0
39
0
210
0
220
0
230
1
0
ENDBLK
5
1AC
100
AcDbEntity
8
0
100
AcDbBlockEnd
0
BLOCK
5
1B5
100
AcDbEntity
8
0
100
AcDbBlockBegin
2
DimnDraft3D2
70
0
10
0
20
0
30
0
3
DimnDraft3D2
0
MTEXT
5
1AF
100
AcDbEntity
8
2
62
256
6
ByLayer
370
18
48
1
60
0
100
AcDbMText
10
55.446784
20
-0.572083
30
0
210
0
220
0
230
1
1
\W0.6740;32
40
4.5
41
0
44
1.084337
50
90
71
7
72
5
7
iso_b_vert
0
LINE
5
1B0
100
AcDbEntity
8
2
62
256
6
ByLayer
370
13
48
1
60
0
100
AcDbLine
10
33.3375
20
12.6625
30
0
11
58.571784
21
12.6625
31
0
39
0
210
0
220
0
230
1
0
LINE
5
1B1
100
AcDbEntity
8
2
62
256
6
ByLayer
370
13
48
1
60
0
100
AcDbLine
10
43.3375
20
-19.0875
30
0
11
58.571784
21
-19.0875
31
0
39
0
210
0
220
0
230
1
0
LINE
5
1B2
100
AcDbEntity
8
2
62
256
6
ByLayer
370
13
48
1
60
0
100
AcDbLine
10
56.571784
20
12.6625
30
0
11
56.571784
21
-19.0875
31
0
39
0
210
0
220
0
230
1
0
SOLID
5
1B3
100
AcDbEntity
8
2
62
256
6
ByLayer
370
13
48
1
60
0
100
AcDbTrace
10
56.571784
20
12.6625
30
0
11
57.032568
21
9.162502
31
0
12
56.111
22
9.162498
32
0
13
56.571784
23
12.6625
33
0
39
0
210
0
220
0
230
1
0
SOLID
5
1B4
100
AcDbEntity
8
2
62
256
6
ByLayer
370
13
48
1
60
0
100
AcDbTrace
10
56.571784
20
-19.0875
30
0
11
56.111
21
-15.587502
31
0
12
57.032568
22
-15.587498
32
0
13
56.571784
23
-19.0875
33
0
39
0
210
0
220
0
230
1
0
ENDBLK
5
1B6
100
AcDbEntity
8
0
100
AcDbBlockEnd
0
BLOCK
5
1BF
100
AcDbEntity
8
0
100
AcDbBlockBegin
2
DimnDraft3D3
70
0
10
0
20
0
30
0
3
DimnDraft3D3
0
MTEXT
5
1B9
100
AcDbEntity
8
SK2
62
256
6
ByLayer
370
18
48
1
60
0
100
AcDbMText
10
-96.829654
20
-2.281535
30
0
210
0
220
0
230
1
1
\W0.6740;25
40
4.5
41
0
44
1.084337
50
90
71
7
72
5
7
iso_b_vert
0
LINE
5
1BA
100
AcDbEntity
8
SK2
62
256
6
ByLayer
370
13
48
1
60
0
100
AcDbLine
10
-85.5875
20
12.6625
30
0
11
-97.704654
21
12.6625
31
0
39
0
210
0
220
0
230
1
0
LINE
5
1BB
100
AcDbEntity
8
SK2
62
256
6
ByLayer
370
13
48
1
60
0
100
AcDbLine
10
-85.5875
20
-12.6625
30
0
11
-97.704654
21
-12.6625
31
0
39
0
210
0
220
0
230
1
0
LINE
5
1BC
100
AcDbEntity
8
SK2
62
256
6
ByLayer
370
13
48
1
60
0
100
AcDbLine
10
-95.704654
20
12.6625
30
0
11
-95.704654
21
-12.6625
31
0
39
0
210
0
220
0
230
1
0
SOLID
5
1BD
100
AcDbEntity
8
SK2
62
256
6
ByLayer
370
13
48
1
60
0
100
AcDbTrace
10
-95.704654
20
12.6625
30
0
11
-95.24387
21
9.162502
31
0
12
-96.165438
22
9.162498
32
0
13
-95.704654
23
12.6625
33
0
39
0
210
0
220
0
230
1
0
SOLID
5
1BE
100
AcDbEntity
8
SK2
62
256
6
ByLayer
370
13
48
1
60
0
100
AcDbTrace
10
-95.704654
20
-12.6625
30
0
11
-96.165438
21
-9.162502
31
0
12
-95.24387
22
-9.162498
32
0
13
-95.704654
23
-12.6625
33
0
39
0
210
0
220
0
230
1
0
ENDBLK
5
1C0
100
AcDbEntity
8
0
100
AcDbBlockEnd
0
BLOCK
5
1C9
100
AcDbEntity
8
0
100
AcDbBlockBegin
2
DimnDraft3D4
70
0
10
0
20
0
30
0
3
DimnDraft3D4
0
MTEXT
5
1C3
100
AcDbEntity
8
2
62
256
6
ByLayer
370
18
48
1
60
0
100
AcDbMText
10
17.564761
20
-25.599364
30
0
210
0
220
0
230
1
1
\W0.8531;95%%d
40
4.5
41
0
44
1.084337
50
305.713457915011
71
7
72
5
7
iso_b_vert
0
LINE
5
1C4
100
AcDbEntity
8
2
62
256
6
ByLayer
370
13
48
1
60
0
100
AcDbLine
10
25.184651
20
-18.54773
30
0
11
13.368182
21
-17.576239
31
0
39
0
210
0
220
0
230
1
0
LINE
5
1C5
100
AcDbEntity
8
2
62
256
6
ByLayer
370
13
48
1
60
0
100
AcDbLine
10
31.75
20
-1.5875
30
0
11
31.75
21
-37.531337
31
0
39
0
210
0
220
0
230
1
0
ARC
5
1C6
100
AcDbEntity
8
2
62
256
6
ByLayer
370
13
48
1
60
0
100
AcDbCircle
39
0
10
31.75
20
-19.0875
30
0
40
16.4438373540296
210
0
220
0
230
1
100
AcDbArc
50
175.3
51
270
0
SOLID
5
1C7
100
AcDbEntity
8
2
62
256
6
ByLayer
370
13
48
1
60
0
100
AcDbTrace
10
15.361457
20
-17.740116
30
0
11
15.720496
21
-21.252011
31
0
12
14.799316
22
-21.225275
32
0
13
15.361457
23
-17.740116
33
0
39
0
210
0
220
0
230
1
0
SOLID
5
1C8
100
AcDbEntity
8
2
62
256
6
ByLayer
370
13
48
1
60
0
100
AcDbTrace
10
31.75
20
-35.531337
30
0
11
28.230503
21
-35.806019
31
0
12
28.279331
22
-34.885746
32
0
13
31.75
23
-35.531337
33
0
39
0
210
0
220
0
230
1
0
ENDBLK
5
1CA
100
AcDbEntity
8
0
100
AcDbBlockEnd
0
ENDSEC
0
SECTION
2
ENTITIES
0
ARC
5
F2
100
AcDbEntity
8
1
62
256
6
ByLayer
370
18
48
1
60
0
100
AcDbCircle
39
0
10
0.4
20
-35.387321
30
0
40
22.5748213577983
210
0
220
0
230
-1
100
AcDbArc
50
98.930567
51
117.933227
0
ARC
5
F3
100
AcDbEntity
8
1
62
256
6
ByLayer
370
18
48
1
60
0
100
AcDbCircle
39
0
10
-22.991892
20
8.730389
30
0
40
27.3606669266274
210
0
220
0
230
-1
100
AcDbArc
50
275.347236
51
297.933227
0
ELLIPSE
5
F4
100
AcDbEntity
8
1
62
256
6
ByLayer
370
18
48
1
60
0
100
AcDbEllipse
10
21.573404
20
-7.258114
30
0
11
-1.27680210832946
21
-0.0901326060579367
31
0
210
0
220
0
230
-1
40
0.369996
41
1.10363606262673
42
2.02208313378727
0
ELLIPSE
5
F5
100
AcDbEntity
8
1
62
256
6
ByLayer
370
18
48
1
60
0
100
AcDbEllipse
10
-53.552882
20
75.942934
30
0
11
64.8354637171841
21
-72.4461407167724
31
0
210
1.89471440071351E-16
220
2.81309818723699E-16
230
1
40
0.41143
41
-0.0735080348011686
42
0.106892847276592
0
ELLIPSE
5
F6
100
AcDbEntity
8
1
62
256
6
ByLayer
370
13
48
1
60
0
100
AcDbEllipse
10
21.299346
20
-5.728361
30
0
11
1.10317174441384
21
-1.15888399002097
31
0
210
0
220
0
230
1
40
0.029903
41
-2.62801782594835
42
-1.69524794377796
0
ELLIPSE
5
F7
100
AcDbEntity
8
1
62
256
6
ByLayer
370
18
48
1
60
0
100
AcDbEllipse
10
18.502823
20
76.446071
30
0
11
-2.30057808490032
21
99.5729777510809
31
0
210
0
220
0
230
-1
40
0.020765
41
2.72699785080054
42
2.77354145805356
0
ELLIPSE
5
F8
100
AcDbEntity
8
1
62
256
6
ByLayer
370
13
48
1
60
0
100
AcDbEllipse
10
14.0771
20
9.896829
30
0
11
1.14159009423007
21
1.12105845376402
31
0
210
0
220
0
230
1
40
0.124625
41
1.59853779826083
42
3.082067662456
0
ELLIPSE
5
F9
100
AcDbEntity
8
1
62
256
6
ByLayer
370
18
48
1
60
0
100
AcDbEllipse
10
30.529168
20
-1.044367
30
0
11
-0.130280672192272
21
2.02548050645214
31
0
210
0
220
0
230
-1
40
0.006276
41
1.30334400156365
42
1.87748198356516
0
ELLIPSE
5
FA
100
AcDbEntity
8
1
62
256
6
ByLayer
370
18
48
1
60
0
100
AcDbEllipse
10
13.941633
20
-10.802178
30
0
11
1.19715469339484
21
1.84575747054772
31
0
210
0
220
0
230
1
40
0.991822
41
-0.999150016744402
42
-0.0291831326252795
0
ELLIPSE
5
FB
100
AcDbEntity
8
1
62
256
6
ByLayer
370
18
48
1
60
0
100
AcDbEllipse
10
13.941633
20
-10.802178
30
0
11
1.19715469339484
21
1.84575747054772
31
0
210
0
220
0
230
1
40
0.991822
41
-3.11236175087524
42
-0.999150016744414
0
ELLIPSE
5
FC
100
AcDbEntity
8
1
62
256
6
ByLayer
370
13
48
1
60
0
100
AcDbEllipse
10
16.805519
20
-3.558173
30
0
11
-2.43029470239582
21
-3.74699663070212
31
0
210
0
220
0
230
1
40
0.991822
41
-0.105657218111471
42
1.28756340084765
0
ELLIPSE
5
FD
100
AcDbEntity
8
1
62
256
6
ByLayer
370
18
48
1
60
0
100
AcDbEllipse
10
26.431941
20
-5.914814
30
0
11
-3.02395815229973
21
1.82152212260649
31
0
210
0
220
0
230
-1
40
0.84059
41
-1.29611922108901
42
-0.852971452172396
0
ELLIPSE
5
FE
100
AcDbEntity
8
1
62
256
6
ByLayer
370
13
48
1
60
0
100
AcDbEllipse
10
22.006515
20
-0.093997
30
0
11
1.35089360627743
21
0.857371835622543
31
0
210
0
220
0
230
1
40
0.11618
41
1.62401226605179
42
3.10754213024695
0
ELLIPSE
5
FF
100
AcDbEntity
8
1
62
256
6
ByLayer
370
13
48
1
60
0
100
AcDbEllipse
10
24.402603
20
-7.430005
30
0
11
-2.1905328473917
21
0.203877032786968
31
0
210
0
220
0
230
1
40
0.094636
41
-1.16941203388117
42
-0.106865600745949
0
ELLIPSE
5
100
100
AcDbEntity
8
1
62
256
6
ByLayer
370
13
48
1
60
0
100
AcDbEllipse
10
9.799294
20
5.691251
30
0
11
2.39616108115599
21
3.69436985928492
31
0
210
0
220
0
230
1
40
0.991822
41
-0.217347527224522
42
2.82630280749916
0
ELLIPSE
5
101
100
AcDbEntity
8
1
62
256
6
ByLayer
370
13
48
1
60
0
100
AcDbEllipse
10
14.168171
20
-7.14119
30
0
11
1.00844435336461
21
1.24219160606045
31
0
210
0
220
0
230
1
40
0.126916
41
0.100836315393141
42
1.58436617958832
0
ELLIPSE
5
102
100
AcDbEntity
8
1
62
256
6
ByLayer
370
18
48
1
60
0
100
AcDbEllipse
10
42.543293
20
-188.052921
30
0
11
-12.3349844921889
21
191.257812885134
31
0
210
0
220
0
230
-1
40
0.004935
41
-0.0282251144270736
42
0.0635261417015683
0
ELLIPSE
5
103
100
AcDbEntity
8
1
62
256
6
ByLayer
370
18
48
1
60
0
100
AcDbEllipse
10
30.540254
20
-1.312403
30
0
11
-0.195421008353602
21
3.03822076067978
31
0
210
0
220
0
230
-1
40
0.006276
41
-0.0947400712544755
42
1.30334400169513
0
ELLIPSE
5
104
100
AcDbEntity
8
1
62
256
6
ByLayer
370
18
48
1
60
0
100
AcDbEllipse
10
-20.655501
20
-144.119036
30
0
11
-957.271594761854
21
666.238183170284
31
0
210
0
220
0
230
-1
40
0.128612
41
1.52000576351001
42
1.53444829434426
0
ELLIPSE
5
105
100
AcDbEntity
8
1
62
256
6
ByLayer
370
13
48
1
60
0
100
AcDbEllipse
10
52.65183
20
40.752699
30
0
11
-33.4474844858073
21
-51.5688947312568
31
0
210
0
220
0
230
1
40
0.991822
41
-0.315289846090639
42
-0.105657218111474
0
ELLIPSE
5
106
100
AcDbEntity
8
1
62
256
6
ByLayer
370
18
48
1
60
0
100
AcDbEllipse
10
14.04871
20
-10.871628
30
0
11
-1.19715469339483
21
-1.84575747054772
31
0
210
0
220
0
230
1
40
0.991822
41
0
42
6.28318530717959
0
ELLIPSE
5
107
100
AcDbEntity
8
1
62
256
6
ByLayer
370
18
48
1
60
0
100
AcDbEllipse
10
22.82608
20
-8.748438
30
0
11
-1.30994953718448
21
-2.16801746024684
31
0
210
0
220
0
230
-1
40
0.99144
41
2.51072566377328
42
-2.61611448322628
0
ELLIPSE
5
108
100
AcDbEntity
8
1
62
256
6
ByLayer
370
18
48
1
60
0
100
AcDbEllipse
10
53.505245
20
40.199176
30
0
11
-49.7830065276582
21
32.2891608821206
31
0
210
1.63186728827828E-16
220
3.02605329270605E-16
230
1
40
0.991759
41
1.266228524564
42
1.28943525392695
0
ELLIPSE
5
109
100
AcDbEntity
8
1
62
256
6
ByLayer
370
13
48
1
60
0
100
AcDbEllipse
10
5.16408
20
1.901673
30
0
11
1.24643843640124
21
1.00319052241418
31
0
210
0
220
0
230
1
40
0.121336
41
0.127147940576301
42
1.61067780477148
0
ELLIPSE
5
10A
100
AcDbEntity
8
1
62
256
6
ByLayer
370
18
48
1
60
0
100
AcDbEllipse
10
28.075544
20
-9.328167
30
0
11
-0.804729116796754
21
-0.204760331080872
31
0
210
0
220
0
230
-1
40
0.245253
41
2.52203066468257
42
3.05755731899952
0
ELLIPSE
5
10B
100
AcDbEntity
8
1
62
256
6
ByLayer
370
18
48
1
60
0
100
AcDbEllipse
10
13.88274
20
-10.763981
30
0
11
0.897866020046129
21
1.38431810291079
31
0
210
0
220
0
230
1
40
0.991822
41
0
42
6.28318530717959
0
ELLIPSE
5
10C
100
AcDbEntity
8
1
62
256
6
ByLayer
370
13
48
1
60
0
100
AcDbEllipse
10
-29.784177
20
-33.194035
30
0
11
-33.4474844858073
21
-51.5688947312568
31
0
210
0
220
0
230
1
40
0.991822
41
2.71481082410101
42
2.92424512636528
0
ELLIPSE
5
10D
100
AcDbEntity
8
1
62
256
6
ByLayer
370
18
48
1
60
0
100
AcDbEllipse
10
-0.4
20
-35.387321
30
0
11
-22.5748213377363
21
-2.55795230700827E-14
31
0
210
0
220
0
230
-1
40
1
41
1.66177681684563
42
1.72666413350399
0
ELLIPSE
5
10E
100
AcDbEntity
8
1
62
256
6
ByLayer
370
18
48
1
60
0
100
AcDbEllipse
10
18.240919
20
-2.497436
30
0
11
1.56294985995542
21
2.40973568079456
31
0
210
0
220
0
230
1
40
0.991822
41
-0.747624301414365
42
-0.723583707923988
0
ELLIPSE
5
10F
100
AcDbEntity
8
1
62
256
6
ByLayer
370
13
48
1
60
0
100
AcDbEllipse
10
18.240919
20
-2.497436
30
0
11
1.56294985995542
21
2.40973568079456
31
0
210
0
220
0
230
1
40
0.991822
41
-0.723583707923988
42
-0.426781829488786
0
ELLIPSE
5
110
100
AcDbEntity
8
1
62
256
6
ByLayer
370
18
48
1
60
0
100
AcDbEllipse
10
21.053899
20
-7.224061
30
0
11
-2.50437400132037
21
-0.592144887623669
31
0
210
0
220
0
230
-1
40
0.240275
41
2.038773977622
42
2.26575730785085
0
ELLIPSE
5
111
100
AcDbEntity
8
1
62
256
6
ByLayer
370
13
48
1
60
0
100
AcDbEllipse
10
18.084528
20
-2.396001
30
0
11
-2.43029470239582
21
-3.74699663070212
31
0
210
0
220
0
230
1
40
0.991822
41
1.33429958648568
42
2.71481082410101
0
ELLIPSE
5
112
100
AcDbEntity
8
1
62
256
6
ByLayer
370
18
48
1
60
0
100
AcDbEllipse
10
13.192093
20
-10.316028
30
0
11
0.897866020046128
21
1.38431810291079
31
0
210
0
220
0
230
1
40
0.991822
41
-0.999150016744407
42
-0.254199886323754
0
ELLIPSE
5
113
100
AcDbEntity
8
1
62
256
6
ByLayer
370
18
48
1
60
0
100
AcDbEllipse
10
13.192093
20
-10.316028
30
0
11
0.897866020046128
21
1.38431810291079
31
0
210
0
220
0
230
1
40
0.991822
41
-2.8874433506646
42
-0.999150016744413
0
ELLIPSE
5
114
100
AcDbEntity
8
1
62
256
6
ByLayer
370
18
48
1
60
0
100
AcDbEllipse
10
27.925253
20
-7.250875
30
0
11
-0.439952922910349
21
3.08384281805302
31
0
210
0
220
0
230
-1
40
0.962276
41
1.65336022150951
42
1.83845716270556
0
ELLIPSE
5
115
100
AcDbEntity
8
1
62
256
6
ByLayer
370
13
48
1
60
0
100
AcDbEllipse
10
16.961911
20
-3.659608
30
0
11
1.56294985995542
21
2.40973568079456
31
0
210
0
220
0
230
1
40
0.991822
41
3.03593543547832
42
-2.39397682821583
0
ELLIPSE
5
116
100
AcDbEntity
8
1
62
256
6
ByLayer
370
18
48
1
60
0
100
AcDbEllipse
10
22.110282
20
-12.497721
30
0
11
-0.369069837149138
21
-2.66786306339008
31
0
210
0
220
0
230
-1
40
0.245166
41
0.585118225895941
42
0.881733831680332
0
ELLIPSE
5
117
100
AcDbEntity
8
1
62
256
6
ByLayer
370
18
48
1
60
0
100
AcDbEllipse
10
27.217712
20
-6.317665
30
0
11
-1.29143527807532
21
-2.1373756409388
31
0
210
0
220
0
230
-1
40
0.99144
41
-0.458064379400541
42
0.525478170362133
0
ELLIPSE
5
118
100
AcDbEntity
8
1
62
256
6
ByLayer
370
18
48
1
60
0
100
AcDbEllipse
10
10.785778
20
5.051419
30
0
11
-3.01990558529767
21
1.95870486926733
31
0
210
1.63186728827828E-16
220
3.02605329270605E-16
230
1
40
0.991759
41
-1.79912393284519
42
1.266228524564
0
ELLIPSE
5
119
100
AcDbEntity
8
1
62
256
6
ByLayer
370
18
48
1
60
0
100
AcDbEllipse
10
-29.3357
20
-33.484916
30
0
11
-50.0607536334083
21
32.4693071128857
31
0
210
1.63186728827828E-16
220
3.02605329270605E-16
230
1
40
0.991759
41
-1.81691606900046
42
-1.79912393284518
0
ELLIPSE
5
11A
100
AcDbEntity
8
1
62
256
6
ByLayer
370
13
48
1
60
0
100
AcDbEllipse
10
19.865953
20
-7.030815
30
0
11
-1.04822664472952
21
1.20880970432864
31
0
210
0
220
0
230
1
40
0.035667
41
0.481518087993015
42
1.44786634886164
0
ELLIPSE
5
11B
100
AcDbEntity
8
1
62
256
6
ByLayer
370
13
48
1
60
0
100
AcDbEllipse
10
52.808222
20
40.651264
30
0
11
32.5801396433672
21
50.2316337813491
31
0
210
0
220
0
230
1
40
0.991822
41
2.82630280749915
42
3.03593543547832
0
ELLIPSE
5
11C
100
AcDbEntity
8
1
62
256
6
ByLayer
370
18
48
1
60
0
100
AcDbEllipse
10
22.59931
20
-11.947232
30
0
11
-1.32658274702165
21
-2.19554607026473
31
0
210
0
220
0
230
-1
40
0.99144
41
0.255175718502903
42
0.948069014575893
0
ELLIPSE
5
11D
100
AcDbEntity
8
1
62
256
6
ByLayer
370
18
48
1
60
0
100
AcDbEllipse
10
31.026124
20
-9.635967
30
0
11
-0.0314355445528208
21
0.544658898165866
31
0
210
0
220
0
230
-1
40
0.016469
41
-0.805835770279769
42
-0.27030911565492
0
ELLIPSE
5
11E
100
AcDbEntity
8
1
62
256
6
ByLayer
370
18
48
1
60
0
100
AcDbEllipse
10
20.985244
20
-7.156853
30
0
11
-2.2175693116939
21
1.33578288990703
31
0
210
0
220
0
230
-1
40
0.84059
41
2.22084833564177
42
2.28862120141991
0
ELLIPSE
5
11F
100
AcDbEntity
8
1
62
256
6
ByLayer
370
13
48
1
60
0
100
AcDbEllipse
10
9.642902
20
5.792686
30
0
11
-3.26350592359639
21
-5.03163080919247
31
0
210
0
220
0
230
1
40
0.991822
41
2.92424512636527
42
-0.315289846090634
0
ELLIPSE
5
120
100
AcDbEntity
8
1
62
256
6
ByLayer
370
13
48
1
60
0
100
AcDbEllipse
10
-7.12954
20
24.290617
30
0
11
-22.5642600003998
21
-34.7892813626411
31
0
210
0
220
0
230
1
40
0.991822
41
1.28756340084765
42
1.33429958648568
0
ELLIPSE
5
121
100
AcDbEntity
8
1
62
256
6
ByLayer
370
18
48
1
60
0
100
AcDbEllipse
10
20.1912
20
-16.672957
30
0
11
-0.458829443190793
21
-0.759380582049225
31
0
210
0
220
0
230
-1
40
0.99144
41
-2.14108878797099
42
-1.75740149761743
0
ELLIPSE
5
122
100
AcDbEntity
8
1
62
256
6
ByLayer
370
18
48
1
60
0
100
AcDbEllipse
10
22.330758
20
-8.794735
30
0
11
-1.31039940235899
21
-2.16876200460598
31
0
210
0
220
0
230
-1
40
0.99144
41
0.948069014479872
42
2.51072566377105
0
ELLIPSE
5
123
100
AcDbEntity
8
1
62
256
6
ByLayer
370
18
48
1
60
0
100
AcDbEllipse
10
5.978319
20
-58.121999
30
0
11
-15.718153005408
21
-43.8944002543289
31
0
210
0
220
0
230
-1
40
0.036583
41
-2.79949696107353
42
-2.74686078206935
0
ELLIPSE
5
124
100
AcDbEntity
8
1
62
256
6
ByLayer
370
13
48
1
60
0
100
AcDbEllipse
10
-29.627785
20
-33.29547
30
0
11
32.5801396433672
21
50.2316337813491
31
0
210
0
220
0
230
1
40
0.991822
41
-0.426781829488785
42
-0.217347527224517
0
ELLIPSE
5
125
100
AcDbEntity
8
1
62
256
6
ByLayer
370
18
48
1
60
0
100
AcDbEllipse
10
30.539494
20
-1.755713
30
0
11
-0.1954210083542
21
3.03822076068933
31
0
210
0
220
0
230
-1
40
0.006276
41
-1.66553639804814
42
-0.0947400712544802
0
ELLIPSE
5
126
100
AcDbEntity
8
1
62
256
6
ByLayer
370
18
48
1
60
0
100
AcDbEllipse
10
20.866778
20
-9.929577
30
0
11
-0.273653448423695
21
-2.75260318797959
31
0
210
0
220
0
230
-1
40
0.246006
41
0.675933994922834
42
1.53261753379737
0
ELLIPSE
5
127
100
AcDbEntity
8
1
62
256
6
ByLayer
370
18
48
1
60
0
100
AcDbEllipse
10
20.11586
20
-14.375671
30
0
11
-0.470673712517471
21
-0.778983310260288
31
0
210
0
220
0
230
-1
40
0.99144
41
-2.88641693520838
42
-2.14108878706538
0
ELLIPSE
5
128
100
AcDbEntity
8
1
62
256
6
ByLayer
370
18
48
1
60
0
100
AcDbEllipse
10
24.374927
20
-7.727374
30
0
11
-2.1905328473917
21
0.203877032786968
31
0
210
0
220
0
230
1
40
0.094636
41
-1.28879281587186
42
-0.208550834003411
0
ELLIPSE
5
129
100
AcDbEntity
8
1
62
256
6
ByLayer
370
18
48
1
60
0
100
AcDbEllipse
10
31.036346
20
-9.999651
30
0
11
-0.0470525403363313
21
-0.79235416383578
31
0
210
0
220
0
230
1
40
0.332231
41
1.2957592846866
42
3.04108853668089
0
ELLIPSE
5
12A
100
AcDbEntity
8
1
62
256
6
ByLayer
370
18
48
1
60
0
100
AcDbEllipse
10
28.009998
20
-19.039417
30
0
11
1.99139349762882
21
-0.185342757079063
31
0
210
0
220
0
230
1
40
0.094636
41
1.72647772290173
42
2.34738538932802
0
ELLIPSE
5
12B
100
AcDbEntity
8
1
62
256
6
ByLayer
370
18
48
1
60
0
100
AcDbEllipse
10
9.087434
20
-6.713648
30
0
11
-11.4505126113657
21
1.0657208532046
31
0
210
0
220
0
230
1
40
0.094636
41
2.89154254899232
42
2.96397508708244
0
ELLIPSE
5
12C
100
AcDbEntity
8
1
62
256
6
ByLayer
370
18
48
1
60
0
100
AcDbEllipse
10
29.398951
20
38.041936
30
0
11
-9.91812335195265
21
-63.2516227372189
31
0
210
0
220
0
230
-1
40
0.168655
41
-0.732511297375488
42
-0.677796756996319
0
ELLIPSE
5
12D
100
AcDbEntity
8
1
62
256
6
ByLayer
370
13
48
1
60
0
100
AcDbEllipse
10
25.984949
20
-13.776533
30
0
11
0.78966966662693
21
-0.128147639889751
31
0
210
0
220
0
230
1
40
0.051128
41
-1.66363114510427
42
-0.997369540866013
0
ELLIPSE
5
12E
100
AcDbEntity
8
1
62
256
6
ByLayer
370
18
48
1
60
0
100
AcDbEllipse
10
27.577437
20
-68.117969
30
0
11
-4.80363470190477
21
-65.8462712508095
31
0
210
0
220
0
230
-1
40
0.173071
41
2.42695239246357
42
2.48166693294874
0
ELLIPSE
5
12F
100
AcDbEntity
8
1
62
256
6
ByLayer
370
13
48
1
60
0
100
AcDbEllipse
10
23.273392
20
-26.071561
30
0
11
-4.95124367327798
21
12.4884331862299
31
0
210
0
220
0
230
-1
40
0.73479
41
0.265807610420296
42
0.70736979533696
0
ELLIPSE
5
130
100
AcDbEntity
8
1
62
256
6
ByLayer
370
18
48
1
60
0
100
AcDbEllipse
10
30.960548
20
-18.298063
30
0
11
-0.561767697904002
21
-0.560763868389929
31
0
210
0
220
0
230
1
40
0.989122
41
2.15127958480504
42
2.44419909137274
0
ELLIPSE
5
131
100
AcDbEntity
8
1
62
256
6
ByLayer
370
18
48
1
60
0
100
AcDbEllipse
10
24.60897
20
-10.316465
30
0
11
1.99139349762882
21
-0.185342757079063
31
0
210
0
220
0
230
1
40
0.094636
41
1.24782796057158
42
1.91105307632943
0
ELLIPSE
5
132
100
AcDbEntity
8
1
62
256
6
ByLayer
370
13
48
1
60
0
100
AcDbEllipse
10
12.041723
20
-1.254657
30
0
11
-9.55888970141561
21
12.5892102871613
31
0
210
0
220
0
230
-1
40
0.049557
41
-3.08131494777381
42
-2.93022486534049
0
ELLIPSE
5
133
100
AcDbEntity
8
1
62
256
6
ByLayer
370
18
48
1
60
0
100
AcDbEllipse
10
26.070151
20
-6.766269
30
0
11
-11.4505126113657
21
1.0657208532046
31
0
210
0
220
0
230
1
40
0.094636
41
1.30562211285112
42
1.39114035580863
0
ELLIPSE
5
134
100
AcDbEntity
8
1
62
256
6
ByLayer
370
18
48
1
60
0
100
AcDbEllipse
10
24.747353
20
-8.829623
30
0
11
-1.99139349762882
21
0.185342757079062
31
0
210
0
220
0
230
1
40
0.094636
41
-1.89376469301821
42
-1.23053957726036
0
ELLIPSE
5
135
100
AcDbEntity
8
1
62
256
6
ByLayer
370
18
48
1
60
0
100
AcDbEllipse
10
21.624463
20
-15.311353
30
0
11
-0.0819385086300396
21
-0.996637386818037
31
0
210
0
220
0
230
1
40
0.112614
41
-3.14158478311436
42
-1.49164959339925
0
ELLIPSE
5
136
100
AcDbEntity
8
1
62
256
6
ByLayer
370
18
48
1
60
0
100
AcDbEllipse
10
19.037991
20
-18.009233
30
0
11
1.99139349762882
21
-0.185342757079063
31
0
210
0
220
0
230
1
40
0.094636
41
0.113363946775247
42
0.222038618699371
0
ELLIPSE
5
137
100
AcDbEntity
8
1
62
256
6
ByLayer
370
13
48
1
60
0
100
AcDbEllipse
10
26.83197
20
-12.849222
30
0
11
0.21322653469016
21
-0.771060597426704
31
0
210
0
220
0
230
1
40
0.197315
41
-1.54598273020944
42
-0.742867437359324
0
ELLIPSE
5
138
100
AcDbEntity
8
1
62
256
6
ByLayer
370
13
48
1
60
0
100
AcDbEllipse
10
11.410011
20
-1.74208
30
0
11
-10.358966895491
21
12.656153372912
31
0
210
0
220
0
230
-1
40
0.046498
41
-3.03074726613092
42
-2.91601761748274
0
ELLIPSE
5
139
100
AcDbEntity
8
1
62
256
6
ByLayer
370
18
48
1
60
0
100
AcDbEllipse
10
9.664699
20
-20.494505
30
0
11
-4.80363122709695
21
-65.8462377843844
31
0
210
0
220
0
230
-1
40
0.173071
41
-1.66122537865044
42
-1.6431583135717
0
ELLIPSE
5
13A
100
AcDbEntity
8
1
62
256
6
ByLayer
370
18
48
1
60
0
100
AcDbEllipse
10
21.383778
20
-16.587345
30
0
11
0.0245815525890118
21
0.298991216045411
31
0
210
0
220
0
230
1
40
0.112614
41
-3.14158182314043
42
-1.49164959339927
0
ELLIPSE
5
13B
100
AcDbEntity
8
1
62
256
6
ByLayer
370
13
48
1
60
0
100
AcDbEllipse
10
25.751167
20
-1.151255
30
0
11
-8.324514339812
21
-10.2993973094027
31
0
210
0
220
0
230
-1
40
0.80331
41
-1.0128482205066
42
-0.868128888888526
0
ELLIPSE
5
13C
100
AcDbEntity
8
1
62
256
6
ByLayer
370
13
48
1
60
0
100
AcDbEllipse
10
25.99984
20
-13.688378
30
0
11
0.788002768293782
21
-0.138027668100769
31
0
210
0
220
0
230
1
40
0.103523
41
-1.67764683359543
42
-1.01138522935722
0
ELLIPSE
5
13D
100
AcDbEntity
8
1
62
256
6
ByLayer
370
18
48
1
60
0
100
AcDbEllipse
10
22.129075
20
-10.267189
30
0
11
-0.103998703345395
21
-0.281396996612395
31
0
210
0
220
0
230
1
40
0.938438
41
-2.86409315812736
42
-1.11876390613306
0
ELLIPSE
5
13E
100
AcDbEntity
8
1
62
256
6
ByLayer
370
13
48
1
60
0
100
AcDbEllipse
10
31.225222
20
-28.924777
30
0
11
-4.54988718993635
21
14.5073715542518
31
0
210
0
220
0
230
-1
40
0.704986
41
-0.238714916945487
42
-0.0939955853097502
0
ELLIPSE
5
13F
100
AcDbEntity
8
1
62
256
6
ByLayer
370
13
48
1
60
0
100
AcDbEllipse
10
33.447401
20
-3.870769
30
0
11
-8.87475544862887
21
-7.75700218117722
31
0
210
0
220
0
230
-1
40
0.81568
41
-0.747003656981115
42
-0.305441472064804
0
ELLIPSE
5
140
100
AcDbEntity
8
1
62
256
6
ByLayer
370
18
48
1
60
0
100
AcDbEllipse
10
20.98946
20
-11.594904
30
0
11
0.346662344484651
21
0.937989988707985
31
0
210
0
220
0
230
1
40
0.938438
41
-2.86409315812737
42
-1.11876390613305
0
ELLIPSE
5
141
100
AcDbEntity
8
1
62
256
6
ByLayer
370
18
48
1
60
0
100
AcDbEllipse
10
28.009998
20
-19.039417
30
0
11
1.99139349762882
21
-0.185342757079063
31
0
210
0
220
0
230
1
40
0.094636
41
1.68416027357016
42
1.72647772290173
0
ELLIPSE
5
142
100
AcDbEntity
8
1
62
256
6
ByLayer
370
13
48
1
60
0
100
AcDbEllipse
10
25.461059
20
-8.789431
30
0
11
2.72608623207489
21
-0.253721998635456
31
0
210
0
220
0
230
1
40
0.094636
41
1.83979532329475
42
2.06598998245227
0
ELLIPSE
5
143
100
AcDbEntity
8
1
62
256
6
ByLayer
370
18
48
1
60
0
100
AcDbEllipse
10
24.808079
20
-11.284155
30
0
11
11.4505126113657
21
-1.06572085320461
31
0
210
0
220
0
230
1
40
0.094636
41
1.39317876028755
42
1.81130894479898
0
ELLIPSE
5
144
100
AcDbEntity
8
1
62
256
6
ByLayer
370
13
48
1
60
0
100
AcDbEllipse
10
25.805306
20
-1.747624
30
0
11
-10.2018216847773
21
-8.91692773600111
31
0
210
0
220
0
230
-1
40
0.81568
41
-1.1746570249305
42
-1.03780432075968
0
ELLIPSE
5
145
100
AcDbEntity
8
1
62
256
6
ByLayer
370
13
48
1
60
0
100
AcDbEllipse
10
33.501541
20
-4.467138
30
0
11
-10.5794159990901
21
-6.18041617684968
31
0
210
0
220
0
230
-1
40
0.805524
41
-0.889585750248377
42
-0.479058203290119
0
ELLIPSE
5
146
100
AcDbEntity
8
1
62
256
6
ByLayer
370
18
48
1
60
0
100
AcDbEllipse
10
31.756213
20
-23.219554
30
0
11
-5.39394997307429
21
65.5947284982329
31
0
210
0
220
0
230
-1
40
0.016609
41
-1.47722218577354
42
-1.45915511061336
0
ELLIPSE
5
147
100
AcDbEntity
8
1
62
256
6
ByLayer
370
13
48
1
60
0
100
AcDbEllipse
10
31.426678
20
-28.462111
30
0
11
-5.69161655911461
21
14.3558624479998
31
0
210
0
220
0
230
-1
40
0.73479
41
-0.161845757192595
42
-0.0249930530452798
0
ELLIPSE
5
148
100
AcDbEntity
8
1
62
256
6
ByLayer
370
18
48
1
60
0
100
AcDbEllipse
10
25.220166
20
-6.856472
30
0
11
-4.90330445237374
21
65.3045202863736
31
0
210
0
220
0
230
-1
40
0.055183
41
-1.63758585364391
42
-1.61951878112863
0
ELLIPSE
5
149
100
AcDbEntity
8
1
62
256
6
ByLayer
370
18
48
1
60
0
100
AcDbEllipse
10
25.508306
20
-8.281791
30
0
11
-3.23601443364683
21
0.301181980253475
31
0
210
0
220
0
230
1
40
0.094636
41
0
42
1.36080062670603
0
ELLIPSE
5
14A
100
AcDbEntity
8
1
62
256
6
ByLayer
370
18
48
1
60
0
100
AcDbEllipse
10
25.508306
20
-8.281791
30
0
11
-3.23601443364683
21
0.301181980253475
31
0
210
0
220
0
230
1
40
0.094636
41
-1.12783162721771
42
0
0
ELLIPSE
5
14B
100
AcDbEntity
8
1
62
256
6
ByLayer
370
13
48
1
60
0
100
AcDbEllipse
10
23.474848
20
-25.608895
30
0
11
-6.30996846812459
21
12.1910348345129
31
0
210
0
220
0
230
-1
40
0.760982
41
0.404775992175378
42
0.815303539132578
0
ELLIPSE
5
14C
100
AcDbEntity
8
1
62
256
6
ByLayer
370
18
48
1
60
0
100
AcDbEllipse
10
24.946462
20
-9.797313
30
0
11
-11.4505126113657
21
1.0657208532046
31
0
210
0
220
0
230
1
40
0.094636
41
-1.83597054073867
42
-1.74841389330224
0
ELLIPSE
5
14D
100
AcDbEntity
8
1
62
256
6
ByLayer
370
18
48
1
60
0
100
AcDbEllipse
10
21.092811
20
-9.202717
30
0
11
-0.275163235934691
21
-0.744529553536963
31
0
210
0
220
0
230
1
40
0.938438
41
-2.86409315812737
42
-1.11876390613304
0
ELLIPSE
5
14E
100
AcDbEntity
8
1
62
256
6
ByLayer
370
18
48
1
60
0
100
AcDbEllipse
10
32.16831
20
-18.791877
30
0
11
-11.4505126113657
21
1.0657208532046
31
0
210
0
220
0
230
1
40
0.094636
41
-1.35768824848918
42
-0.939558063977751
0
ELLIPSE
5
14F
100
AcDbEntity
8
1
62
256
6
ByLayer
370
18
48
1
60
0
100
AcDbEllipse
10
30.960548
20
-18.298063
30
0
11
-0.561767697904002
21
-0.560763868389929
31
0
210
0
220
0
230
1
40
0.989122
41
0.698869839378413
42
0.991789345946107
0
ELLIPSE
5
150
100
AcDbEntity
8
1
62
256
6
ByLayer
370
18
48
1
60
0
100
AcDbEllipse
10
21.415568
20
-17.709614
30
0
11
0.0650386912250936
21
0.791080925786817
31
0
210
0
220
0
230
1
40
0.112614
41
3.04620646178598
42
-1.49164959339925
0
ELLIPSE
5
151
100
AcDbEntity
8
1
62
256
6
ByLayer
370
18
48
1
60
0
100
AcDbEllipse
10
19.033427
20
-7.611974
30
0
11
-1.99139349762882
21
0.185342757079062
31
0
210
0
220
0
230
1
40
0.094636
41
2.81862428736647
42
-2.80133590405527
0
ELLIPSE
5
152
100
AcDbEntity
8
1
62
256
6
ByLayer
370
18
48
1
60
0
100
AcDbEllipse
10
30.960548
20
-18.298063
30
0
11
-0.561767697904002
21
-0.560763868389929
31
0
210
0
220
0
230
1
40
0.989122
41
0.991789345946107
42
2.15127958480504
0
ELLIPSE
5
153
100
AcDbEntity
8
1
62
256
6
ByLayer
370
18
48
1
60
0
100
AcDbEllipse
10
32.029927
20
-20.278719
30
0
11
11.4505126113657
21
-1.06572085320461
31
0
210
0
220
0
230
1
40
0.094636
41
2.20203458961204
42
2.28959123704847
0
ELLIPSE
5
154
100
AcDbEntity
8
1
62
256
6
ByLayer
370
13
48
1
60
0
100
AcDbEllipse
10
25.27177
20
-14.677912
30
0
11
0.319961464140762
21
-0.733228928415198
31
0
210
0
220
0
230
1
40
0.511668
41
1.21145077635436
42
2.01456606920447
0
POINT
5
6C
100
AcDbEntity
8
80
62
256
6
ByLayer
370
18
48
1
60
0
100
AcDbPoint
10
0
20
0
30
0
39
0
210
0
220
0
230
1
50
360
0
POINT
5
6E
100
AcDbEntity
8
81
62
256
6
ByLayer
370
18
48
1
60
0
100
AcDbPoint
10
31.75
20
-19.0875
30
0
39
0
210
0
220
0
230
1
50
360
0
SPLINE
5
155
100
AcDbEntity
8
1
62
256
6
ByLayer
370
18
48
1
60
0
100
AcDbSpline
70
4
71
3
72
32
73
28
40
0
40
0
40
0
40
0
40
0.125
40
0.125
40
0.187499999999999
40
0.187499999999999
40
0.249999999999998
40
0.249999999999998
40
0.374999999999998
40
0.374999999999998
40
0.437499999999998
40
0.437499999999998
40
0.468749999999998
40
0.468749999999998
40
0.499999999999998
40
0.499999999999998
40
0.625
40
0.625
40
0.687500000000001
40
0.687500000000001
40
0.750000000000001
40
0.750000000000001
40
0.875
40
0.875
40
0.9375
40
0.9375
40
1
40
1
40
1
40
1
41
1
10
20.8646625823785
20
-1.68068022712134
30
0
41
1
10
20.9335944856689
20
-1.7867860024333
30
0
41
1
10
20.9929118297549
20
-1.8986619487826
30
0
41
1
10
21.0673470732259
20
-2.07515108185015
30
0
41
1
10
21.089722458036
20
-2.13543403238447
30
0
41
1
10
21.1294132515641
20
-2.25900496265825
30
0
41
1
10
21.1466436338796
20
-2.32213331592342
30
0
41
1
10
21.1896875458848
20
-2.51240320223172
30
0
41
1
10
21.2073025481832
20
-2.64155690297869
30
0
41
1
10
21.2169120219971
20
-2.8387102859457
30
0
41
1
10
21.2172980913588
20
-2.90500150508086
30
0
41
1
10
21.2134805574273
20
-3.00532235345452
30
0
41
1
10
21.211465614591
20
-3.03898334274899
30
0
41
1
10
21.2059880369379
20
-3.1059621764627
30
0
41
1
10
21.2025264154885
20
-3.13933759879788
30
0
41
1
10
21.1816482766871
20
-3.30564869645104
30
0
41
1
10
21.1536027564481
20
-3.43689902596171
30
0
41
1
10
21.0943786042527
20
-3.63099902029305
30
0
41
1
10
21.0717622325289
20
-3.69523398511041
30
0
41
1
10
21.0205500279987
20
-3.822728206135
30
0
41
1
10
20.9921094309666
20
-3.88553212560916
30
0
41
1
10
20.8995061590581
20
-4.06876919838183
30
0
41
1
10
20.8277285003998
20
-4.18506076130546
30
0
41
1
10
20.7048930382436
20
-4.35062274588256
30
0
41
1
10
20.6613133937329
20
-4.40442593763029
30
0
41
1
10
20.5692547946852
20
-4.50849754105977
30
0
41
1
10
20.5213019355304
20
-4.55818950052765
30
0
41
1
10
20.4714788550269
20
-4.60560284503995
30
0
0
SPLINE
5
156
100
AcDbEntity
8
1
62
256
6
ByLayer
370
18
48
1
60
0
100
AcDbSpline
70
4
71
3
72
30
73
26
40
0
40
0
40
0
40
0
40
0.124999999999997
40
0.124999999999997
40
0.187499999999998
40
0.187499999999998
40
0.249999999999999
40
0.249999999999999
40
0.374999999999998
40
0.374999999999998
40
0.437499999999999
40
0.437499999999999
40
0.5
40
0.5
40
0.625000000000002
40
0.625000000000002
40
0.687500000000002
40
0.687500000000002
40
0.750000000000002
40
0.750000000000002
40
0.875000000000001
40
0.875000000000001
40
0.9375
40
0.9375
40
1
40
1
40
1
40
1
41
1
10
22.5483080223587
20
-6.38269561433813
30
0
41
1
10
22.651961583468
20
-6.3791204878811
30
0
41
1
10
22.7539014443213
20
-6.38364540527903
30
0
41
1
10
22.9038187158052
20
-6.40216822361677
30
0
41
1
10
22.9532895424726
20
-6.4103058769569
30
0
41
1
10
23.051113919313
20
-6.43052430274054
30
0
41
1
10
23.0993841502913
20
-6.44260950416685
30
0
41
1
10
23.2399106656222
20
-6.48401210044233
30
0
41
1
10
23.3287434990905
20
-6.51861654991197
30
0
41
1
10
23.4540557854322
20
-6.58006229213152
30
0
41
1
10
23.4944968726995
20
-6.60213857488137
30
0
41
1
10
23.5725131573262
20
-6.64935427608023
30
0
41
1
10
23.6099016555175
20
-6.67439944289399
30
0
41
1
10
23.7157552208304
20
-6.75252039219444
30
0
41
1
10
23.7784868919222
20
-6.80891590973647
30
0
41
1
10
23.8599138937427
20
-6.89788288455998
30
0
41
1
10
23.8850484002488
20
-6.92842662699502
30
0
41
1
10
23.9302032542364
20
-6.98968935973045
30
0
41
1
10
23.9502037113509
20
-7.02033531408725
30
0
41
1
10
24.0026794940573
20
-7.11155151189641
30
0
41
1
10
24.027624477367
20
-7.17139214610665
30
0
41
1
10
24.0507133711331
20
-7.25673875408089
30
0
41
1
10
24.056031641153
20
-7.28455366092061
30
0
41
1
10
24.0619955133699
20
-7.3378101645167
30
0
41
1
10
24.0626364327095
20
-7.36300950295794
30
0
41
1
10
24.0612496216912
20
-7.38673711885184
30
0
0
SPLINE
5
157
100
AcDbEntity
8
1
62
256
6
ByLayer
370
18
48
1
60
0
100
AcDbSpline
70
4
71
3
72
14
73
10
40
0
40
0
40
0
40
0
40
0.25
40
0.25
40
0.5
40
0.5
40
0.75
40
0.75
40
1
40
1
40
1
40
1
41
1
10
21.3688049471685
20
-14.0940956768287
30
0
41
1
10
21.3649758083175
20
-14.0392665390139
30
0
41
1
10
21.3576321014015
20
-13.9846347983317
30
0
41
1
10
21.3364396639602
20
-13.8789112425115
30
0
41
1
10
21.3226003308841
20
-13.82753518692
30
0
41
1
10
21.2885841962414
20
-13.7279583978105
30
0
41
1
10
21.2682241129644
20
-13.6794649949421
30
0
41
1
10
21.2223853050725
20
-13.5886048436384
30
0
41
1
10
21.1968689761692
20
-13.5459927839173
30
0
41
1
10
21.1690282008731
20
-13.5064755826714
30
0
0
SPLINE
5
158
100
AcDbEntity
8
1
62
256
6
ByLayer
370
18
48
1
60
0
100
AcDbSpline
70
4
71
3
72
12
73
8
40
0
40
0
40
0
40
0
40
0.25
40
0.25
40
0.500000000000001
40
0.500000000000001
40
1
40
1
40
1
40
1
41
1
10
24.1165596463834
20
-7.60678387919751
30
0
41
1
10
24.1589163200628
20
-7.6934257617888
30
0
41
1
10
24.2058895254591
20
-7.77829704354849
30
0
41
1
10
24.3071189701203
20
-7.94193655734608
30
0
41
1
10
24.3614384759289
20
-8.02089198462352
30
0
41
1
10
24.5349877255375
20
-8.24934982176256
30
0
41
1
10
24.6647028175371
20
-8.3905149459861
30
0
41
1
10
24.8086215277705
20
-8.52016400422559
30
0
0
SPLINE
5
159
100
AcDbEntity
8
1
62
256
6
ByLayer
370
18
48
1
60
0
100
AcDbSpline
70
4
71
3
72
8
73
4
40
0
40
0
40
0
40
0
40
1
40
1
40
1
40
1
41
1
10
21.1052676363358
20
-17.8242211963443
30
0
41
1
10
21.0441015215257
20
-17.9864483429583
30
0
41
1
10
20.9829352973562
20
-18.1486754594102
30
0
41
1
10
20.9217689594003
20
-18.3109025444675
30
0
0
SPLINE
5
15A
100
AcDbEntity
8
1
62
256
6
ByLayer
370
18
48
1
60
0
100
AcDbSpline
70
4
71
3
72
14
73
10
40
0
40
0
40
0
40
0
40
0.25
40
0.25
40
0.5
40
0.5
40
0.75
40
0.75
40
1
40
1
40
1
40
1
41
1
10
21.169028200873
20
-13.5064755826714
30
0
41
1
10
21.1528865112262
20
-13.4835640656092
30
0
41
1
10
21.1356227649422
20
-13.4594468465466
30
0
41
1
10
21.0998519441255
20
-13.4103305524982
30
0
41
1
10
21.0812019503583
20
-13.3851261729645
30
0
41
1
10
21.0421900195226
20
-13.3332704645191
30
0
41
1
10
21.0223582276691
20
-13.3073273552925
30
0
41
1
10
20.9825564160541
20
-13.2560113569604
30
0
41
1
10
20.9623445081932
20
-13.2303299727181
30
0
41
1
10
20.9424085997087
20
-13.2053221731513
30
0
0
SPLINE
5
15B
100
AcDbEntity
8
1
62
256
6
ByLayer
370
18
48
1
60
0
100
AcDbSpline
70
4
71
3
72
8
73
4
40
0
40
0
40
0
40
0
40
1
40
1
40
1
40
1
41
1
10
20.4714788550269
20
-4.60560284503993
30
0
41
1
10
20.0271002485609
20
-5.02848869933348
30
0
41
1
10
19.5728037542481
20
-5.44062308268235
30
0
41
1
10
19.1086083565513
20
-5.84202720092378
30
0
0
SPLINE
5
15C
100
AcDbEntity
8
1
62
256
6
ByLayer
370
18
48
1
60
0
100
AcDbSpline
70
4
71
3
72
8
73
4
40
0
40
0
40
0
40
0
40
1
40
1
40
1
40
1
41
1
10
21.3688049471685
20
-14.0940956768288
30
0
41
1
10
21.3695080698747
20
-14.1041636355157
30
0
41
1
10
21.3701711463465
20
-14.1142465556439
30
0
41
1
10
21.3707838656324
20
-14.1241467094402
30
0
0
SPLINE
5
15D
100
AcDbEntity
8
1
62
256
6
ByLayer
370
18
48
1
60
0
100
AcDbSpline
70
4
71
3
72
8
73
4
40
0
40
0
40
0
40
0
40
1
40
1
40
1
40
1
41
1
10
30.9258757945163
20
-6.89002895075345
30
0
41
1
10
30.9259268139171
20
-6.86032091259591
30
0
41
1
10
30.923771006622
20
-6.83064228175851
30
0
41
1
10
30.9194176905658
20
-6.80112183214055
30
0
0
SPLINE
5
15E
100
AcDbEntity
8
1
62
256
6
ByLayer
370
18
48
1
60
0
100
AcDbSpline
70
4
71
3
72
10
73
6
40
0
40
0
40
0
40
0
40
0.5
40
0.5
40
1
40
1
40
1
40
1
41
1
10
16.1566860111159
20
-5.90130332621257
30
0
41
1
10
14.8188070111961
20
-4.74415079764495
30
0
41
1
10
13.5470314146561
20
-3.52821560799288
30
0
41
1
10
11.1345553638281
20
-0.982735359673029
30
0
41
1
10
9.99383307656342
20
0.346795636418903
30
0
41
1
10
8.9184458225767
20
1.7333520726574
30
0
0
SPLINE
5
15F
100
AcDbEntity
8
1
62
256
6
ByLayer
370
18
48
1
60
0
100
AcDbSpline
70
4
71
3
72
16
73
12
40
0
40
0
40
0
40
0
40
0.125000000000002
40
0.125000000000002
40
0.250000000000004
40
0.250000000000004
40
0.500000000000003
40
0.500000000000003
40
0.750000000000001
40
0.750000000000001
40
1
40
1
40
1
40
1
41
1
10
24.1165596463834
20
-7.60678387919751
30
0
41
1
10
24.1103212507533
20
-7.59402304849976
30
0
41
1
10
24.1045139452438
20
-7.58129852171993
30
0
41
1
10
24.0942956065464
20
-7.5571549751632
30
0
41
1
10
24.0898063917898
20
-7.54558717828681
30
0
41
1
10
24.0779671923692
20
-7.51216530240092
30
0
41
1
10
24.0725743390538
20
-7.49260726324303
30
0
41
1
10
24.064952566878
20
-7.4569961091396
30
0
41
1
10
24.0627758723652
20
-7.44109927724665
30
0
41
1
10
24.0605688817506
20
-7.41213794622104
30
0
41
1
10
24.060536130063
20
-7.39894458985924
30
0
41
1
10
24.0612496216912
20
-7.38673711885184
30
0
0
SPLINE
5
160
100
AcDbEntity
8
1
62
256
6
ByLayer
370
18
48
1
60
0
100
AcDbSpline
70
4
71
3
72
32
73
28
40
0
40
0
40
0
40
0
40
0.0312499999999978
40
0.0312499999999978
40
0.0624999999999957
40
0.0624999999999957
40
0.124999999999994
40
0.124999999999994
40
0.249999999999994
40
0.249999999999994
40
0.312499999999995
40
0.312499999999995
40
0.374999999999997
40
0.374999999999997
40
0.499999999999996
40
0.499999999999996
40
0.624999999999996
40
0.624999999999996
40
0.687499999999997
40
0.687499999999997
40
0.749999999999998
40
0.749999999999998
40
0.875
40
0.875
40
0.9375
40
0.9375
40
1
40
1
40
1
40
1
41
1
10
19.1086083565513
20
-5.84202720092381
30
0
41
1
10
19.0823341444358
20
-5.86474732481781
30
0
41
1
10
19.0555096930961
20
-5.88695338899399
30
0
41
1
10
19.0007402030854
20
-5.93031864460681
30
0
41
1
10
18.9727331318697
20
-5.95151921648252
30
0
41
1
10
18.8878384439737
20
-6.01291887490726
30
0
41
1
10
18.8298830771717
20
-6.05109225390464
30
0
41
1
10
18.6520540590844
20
-6.15755969019239
30
0
41
1
10
18.5282483881207
20
-6.21786468447701
30
0
41
1
10
18.334539434189
20
-6.29203316623938
30
0
41
1
10
18.2684659437826
20
-6.31403709556213
30
0
41
1
10
18.1363406280223
20
-6.35166297175527
30
0
41
1
10
18.0699690494713
20
-6.36742450987336
30
0
41
1
10
17.8699631318152
20
-6.40577641730204
30
0
41
1
10
17.7354440954132
20
-6.41950414203893
30
0
41
1
10
17.4640691369321
20
-6.42274344273338
30
0
41
1
10
17.3309246788352
20
-6.41217626637743
30
0
41
1
10
17.1358010581324
20
-6.37918406555121
30
0
41
1
10
17.0714764577258
20
-6.36531210854776
30
0
41
1
10
16.9442778530455
20
-6.33180507239828
30
0
41
1
10
16.8811132306786
20
-6.31205737309114
30
0
41
1
10
16.6962501289822
20
-6.24485475307716
30
0
41
1
10
16.5794995051782
20
-6.18978000447282
30
0
41
1
10
16.4136876520266
20
-6.09255762202872
30
0
41
1
10
16.3599783633219
20
-6.05770031278826
30
0
41
1
10
16.255715773114
20
-5.98304889540998
30
0
41
1
10
16.2050447651717
20
-5.94312957099058
30
0
41
1
10
16.1566860111159
20
-5.90130332621257
30
0
0
SPLINE
5
161
100
AcDbEntity
8
1
62
256
6
ByLayer
370
18
48
1
60
0
100
AcDbSpline
70
4
71
3
72
17
73
13
40
0
40
0
40
0
40
0
40
0.125
40
0.125
40
0.25
40
0.25
40
0.500000000000003
40
0.625000000000003
40
0.625000000000003
40
0.750000000000002
40
0.750000000000002
40
1
40
1
40
1
40
1
41
1
10
20.5937833715957
20
-12.7404815193066
30
0
41
1
10
20.6059460715627
20
-12.7578773139484
30
0
41
1
10
20.6185086726052
20
-12.7756945285281
30
0
41
1
10
20.6445481772701
20
-12.8122924593132
30
0
41
1
10
20.6580948746789
20
-12.8311682701506
30
0
41
1
10
20.6993969695492
20
-12.8882002650962
30
0
41
1
10
20.7422966139651
20
-12.9464347980626
30
0
41
1
10
20.7877857902764
20
-13.0066185729597
30
0
41
1
10
20.8187084603609
20
-13.0471901379877
30
0
41
1
10
20.8343321610526
20
-13.0675201986524
30
0
41
1
10
20.8808313862193
20
-13.1275604832404
30
0
41
1
10
20.9116820283292
20
-13.1667784599798
30
0
41
1
10
20.9424085997088
20
-13.2053221731513
30
0
0
SPLINE
5
162
100
AcDbEntity
8
1
62
256
6
ByLayer
370
18
48
1
60
0
100
AcDbSpline
70
4
71
3
72
8
73
4
40
0
40
0
40
0
40
0
40
1
40
1
40
1
40
1
41
1
10
20.9686172974774
20
-6.87691193622007
30
0
41
1
10
20.952659667563
20
-6.88107132503558
30
0
41
1
10
20.9366925389989
20
-6.88483582381431
30
0
41
1
10
20.92069979794
20
-6.88811306109841
30
0
0
SPLINE
5
163
100
AcDbEntity
8
1
62
256
6
ByLayer
370
18
48
1
60
0
100
AcDbSpline
70
4
71
3
72
10
73
6
40
0
40
0
40
0
40
0
40
0.5
40
0.5
40
1
40
1
40
1
40
1
41
1
10
20.0719308968313
20
-8.55173905779458
30
0
41
1
10
20.0720120896498
20
-8.59401677071619
30
0
41
1
10
20.0729723303855
20
-8.63768652791663
30
0
41
1
10
20.0767453043785
20
-8.72546109260668
30
0
41
1
10
20.0795406466094
20
-8.7695372551751
30
0
41
1
10
20.0832407879737
20
-8.81380145501939
30
0
0
SPLINE
5
164
100
AcDbEntity
8
1
62
256
6
ByLayer
370
18
48
1
60
0
100
AcDbSpline
70
4
71
3
72
27
73
23
40
0
40
0
40
0
40
0
40
0.0312499999999986
40
0.0312499999999986
40
0.0624999999999972
40
0.0937499999999958
40
0.0937499999999958
40
0.124999999999994
40
0.124999999999994
40
0.187499999999995
40
0.187499999999995
40
0.249999999999995
40
0.249999999999995
40
0.374999999999995
40
0.374999999999995
40
0.499999999999995
40
0.499999999999995
40
0.624999999999996
40
0.624999999999996
40
0.749999999999996
40
0.749999999999996
40
1
40
1
40
1
40
1
41
1
10
26.9242304959912
20
-8.900739544879
30
0
41
1
10
26.8930711282305
20
-8.89817777852554
30
0
41
1
10
26.8613692080573
20
-8.89538080694726
30
0
41
1
10
26.798053163227
20
-8.88941755073392
30
0
41
1
10
26.7354060898147
20
-8.88314492865399
30
0
41
1
10
26.6739641541277
20
-8.87631499057088
30
0
41
1
10
26.6130669301416
20
-8.86923315053366
30
0
41
1
10
26.5827752842677
20
-8.86555153519257
30
0
41
1
10
26.4934802830555
20
-8.85427101459578
30
0
41
1
10
26.4365379395556
20
-8.84650888591301
30
0
41
1
10
26.3263813542159
20
-8.8306362878111
30
0
41
1
10
26.2729942804482
20
-8.82249516767507
30
0
41
1
10
26.1183543100299
20
-8.79787491713529
30
0
41
1
10
26.0238628394212
20
-8.7814473496162
30
0
41
1
10
25.8443154515289
20
-8.74857678399744
30
0
41
1
10
25.7594153931991
20
-8.73213353101139
30
0
41
1
10
25.5958734162953
20
-8.69923679069203
30
0
41
1
10
25.5172758759317
20
-8.68278323078411
30
0
41
1
10
25.3645332529409
20
-8.64986882957146
30
0
41
1
10
25.2907553878906
20
-8.63348380788639
30
0
41
1
10
25.075525430599
20
-8.58459437860972
30
0
41
1
10
24.9397923558048
20
-8.55229331628317
30
0
41
1
10
24.8086215277705
20
-8.52016400422559
30
0
0
SPLINE
5
165
100
AcDbEntity
8
1
62
256
6
ByLayer
370
18
48
1
60
0
100
AcDbSpline
70
4
71
2
72
6
73
3
40
0
40
0
40
0
40
1
40
1
40
1
41
0.499999759618596
10
20.444896321329
20
-18.5114704496409
30
0
41
0.500000240381404
10
20.4435041827623
20
-18.5113402907119
30
0
41
0.499999759618596
10
20.4421120575393
20
-18.511209989502
30
0
0
SPLINE
5
166
100
AcDbEntity
8
1
62
256
6
ByLayer
370
18
48
1
60
0
100
AcDbSpline
70
4
71
3
72
19
73
15
40
0
40
0
40
0
40
0
40
0.124999999999999
40
0.124999999999999
40
0.249999999999998
40
0.374999999999997
40
0.374999999999997
40
0.499999999999996
40
0.499999999999996
40
0.749999999999994
40
0.749999999999994
40
0.874999999999997
40
0.874999999999997
40
1
40
1
40
1
40
1
41
1
10
21.3932526124062
20
-16.4413458217244
30
0
41
1
10
21.3925326569315
20
-16.4647935832512
30
0
41
1
10
21.3915162753155
20
-16.488515236359
30
0
41
1
10
21.3888913743517
20
-16.5356992159931
30
0
41
1
10
21.385668557034
20
-16.58284784699
30
0
41
1
10
21.3812019451503
20
-16.6299231908725
30
0
41
1
10
21.3760862805704
20
-16.6769602812496
30
0
41
1
10
21.3732335393944
20
-16.7001457419674
30
0
41
1
10
21.3640571204897
20
-16.7673016137875
30
0
41
1
10
21.3570482797129
20
-16.8095623833018
30
0
41
1
10
21.3454299271432
20
-16.8700915619856
30
0
41
1
10
21.3413611406238
20
-16.8898255513073
30
0
41
1
10
21.3330233995721
20
-16.9278270700262
30
0
41
1
10
21.3287382153687
20
-16.9461853676199
30
0
41
1
10
21.3243470947679
20
-16.9640140329145
30
0
0
SPLINE
5
167
100
AcDbEntity
8
1
62
256
6
ByLayer
370
18
48
1
60
0
100
AcDbSpline
70
4
71
3
72
14
73
10
40
0
40
0
40
0
40
0
40
0.5
40
0.5
40
0.625
40
0.625
40
0.75
40
0.75
40
1
40
1
40
1
40
1
41
1
10
1.65103601542086
20
-12.9058665427749
30
0
41
1
10
1.60951727128315
20
-12.9020786900651
30
0
41
1
10
1.54626798369807
20
-12.8963943179705
30
0
41
1
10
1.44057178668899
20
-12.8876479210135
30
0
41
1
10
1.41798168017425
20
-12.8858088912792
30
0
41
1
10
1.37074663303955
20
-12.8820424874545
30
0
41
1
10
1.34605089547429
20
-12.8801106777678
30
0
41
1
10
1.26879783142513
20
-12.8742064891753
30
0
41
1
10
1.21309186890502
20
-12.8701256198224
30
0
41
1
10
1.1531514333096
20
-12.8659919129874
30
0
0
SPLINE
5
168
100
AcDbEntity
8
1
62
256
6
ByLayer
370
18
48
1
60
0
100
AcDbSpline
70
4
71
3
72
8
73
4
40
0
40
0
40
0
40
0
40
1
40
1
40
1
40
1
41
1
10
30.2985462701615
20
2.77030783087849
30
0
41
1
10
30.2974113966982
20
2.78795170956533
30
0
41
1
10
30.2955982307319
20
2.80550513114088
30
0
41
1
10
30.2931048058613
20
2.82296814952244
30
0
0
SPLINE
5
169
100
AcDbEntity
8
1
62
256
6
ByLayer
370
18
48
1
60
0
100
AcDbSpline
70
4
71
3
72
20
73
16
40
0
40
0
40
0
40
0
40
0.177960496201308
40
0.177960496201308
40
0.266940744301966
40
0.266940744301966
40
0.355920992402624
40
0.355920992402624
40
0.444901240503282
40
0.444901240503282
40
0.533881488603941
40
0.533881488603941
40
0.711841984805264
40
0.711841984805264
40
1
40
1
40
1
40
1
41
1
10
22.223948463387
20
-7.25088731376496
30
0
41
1
10
22.2276145424349
20
-7.21149755776392
30
0
41
1
10
22.2362000191342
20
-7.17399324095896
30
0
41
1
10
22.2559536106537
20
-7.12035564183731
30
0
41
1
10
22.2637315663964
20
-7.10290733814094
30
0
41
1
10
22.2810366704984
20
-7.06994733151643
30
0
41
1
10
22.2906129063814
20
-7.0542831342336
30
0
41
1
10
22.311498810486
20
-7.02446921900506
30
0
41
1
10
22.322889074415
20
-7.01023710172856
30
0
41
1
10
22.3469306516151
20
-6.98369298569682
30
0
41
1
10
22.3595464280987
20
-6.97139216611274
30
0
41
1
10
22.3990169304066
20
-6.93708815560194
30
0
41
1
10
22.4276343264607
20
-6.91757985788445
30
0
41
1
10
22.5068862443585
20
-6.87486321216784
30
0
41
1
10
22.5586130779674
20
-6.85733306369093
30
0
41
1
10
22.6125890476518
20
-6.84682900003901
30
0
0
SPLINE
5
16A
100
AcDbEntity
8
1
62
256
6
ByLayer
370
18
48
1
60
0
100
AcDbSpline
70
4
71
3
72
32
73
28
40
0
40
0
40
0
40
0
40
0.0625000000000014
40
0.0625000000000014
40
0.125000000000003
40
0.125000000000003
40
0.250000000000004
40
0.250000000000004
40
0.312500000000004
40
0.312500000000004
40
0.343750000000004
40
0.343750000000004
40
0.375000000000004
40
0.375000000000004
40
0.500000000000006
40
0.500000000000006
40
0.562500000000008
40
0.562500000000008
40
0.625000000000009
40
0.625000000000009
40
0.750000000000009
40
0.750000000000009
40
0.812500000000008
40
0.812500000000008
40
0.875000000000006
40
0.875000000000006
40
1
40
1
40
1
40
1
41
1
10
20.0719308968313
20
-8.55173905779458
30
0
41
1
10
20.0718094183541
20
-8.48848429861451
30
0
41
1
10
20.0747334398635
20
-8.42493479858769
30
0
41
1
10
20.0868168185487
20
-8.29726892850582
30
0
41
1
10
20.0960548204072
20
-8.23282530050545
30
0
41
1
10
20.1328342022894
20
-8.04210858087401
30
0
41
1
10
20.1692724724118
20
-7.91791385534697
30
0
41
1
10
20.2415668770228
20
-7.73617671433217
30
0
41
1
10
20.2686228939284
20
-7.67636144196379
30
0
41
1
10
20.313785116627
20
-7.58784632620467
30
0
41
1
10
20.3296308517714
20
-7.55850297216796
30
0
41
1
10
20.3625262727821
20
-7.50084054568305
30
0
41
1
10
20.3796107027865
20
-7.47244809917376
30
0
41
1
10
20.4681648770466
20
-7.33265307509757
30
0
41
1
10
20.5489540392786
20
-7.22769803170073
30
0
41
1
10
20.6850181769882
20
-7.08073949253611
30
0
41
1
10
20.7330046811156
20
-7.03338752714265
30
0
41
1
10
20.8335561859325
20
-6.94288697281641
30
0
41
1
10
20.885582968106
20
-6.9001992881746
30
0
41
1
10
21.0467320502189
20
-6.77959410811062
30
0
41
1
10
21.1608853648846
20
-6.70907731675982
30
0
41
1
10
21.342201269774
20
-6.61831619929484
30
0
41
1
10
21.4046641498496
20
-6.59045712296395
30
0
41
1
10
21.5312228437654
20
-6.54068556820934
30
0
41
1
10
21.5952305455852
20
-6.51876483285085
30
0
41
1
10
21.7893642693297
20
-6.46163790131007
30
0
41
1
10
21.9215870049191
20
-6.43500770890967
30
0
41
1
10
22.0565973835964
20
-6.4199144107146
30
0
0
SPLINE
5
16B
100
AcDbEntity
8
1
62
256
6
ByLayer
370
18
48
1
60
0
100
AcDbSpline
70
4
71
3
72
14
73
10
40
0
40
0
40
0
40
0
40
0.25
40
0.25
40
0.5
40
0.5
40
0.75
40
0.75
40
1
40
1
40
1
40
1
41
1
10
0.372276819233662
20
-12.6625
30
0
41
1
10
0.447373555363072
20
-12.6625
30
0
41
1
10
0.52014369371966
20
-12.6677510706788
30
0
41
1
10
0.661477748945259
20
-12.6872376147462
30
0
41
1
10
0.730038639453653
20
-12.7014849202762
30
0
41
1
10
0.863106281824997
20
-12.7380827218951
30
0
41
1
10
0.925785321173464
20
-12.7599192167693
30
0
41
1
10
1.04438047500508
20
-12.8090911285008
30
0
41
1
10
1.10033041885831
20
-12.8364563953213
30
0
41
1
10
1.15315143330957
20
-12.8659919129873
30
0
0
SPLINE
5
16C
100
AcDbEntity
8
1
62
256
6
ByLayer
370
18
48
1
60
0
100
AcDbSpline
70
4
71
3
72
14
73
10
40
0
40
0
40
0
40
0
40
0.25
40
0.25
40
0.5
40
0.5
40
0.75
40
0.75
40
1
40
1
40
1
40
1
41
1
10
20.2296480705074
20
-12.0348282957822
30
0
41
1
10
20.2451811914817
20
-12.1120292011285
30
0
41
1
10
20.2657477882095
20
-12.1862701436168
30
0
41
1
10
20.3147791762108
20
-12.3248615954965
30
0
41
1
10
20.3432312440395
20
-12.3894180179621
30
0
41
1
10
20.4064719671672
20
-12.5085549918699
30
0
41
1
10
20.4412674563493
20
-12.5631344776686
30
0
41
1
10
20.5156725498927
20
-12.6614597532636
30
0
41
1
10
20.5545257606104
20
-12.7041877444797
30
0
41
1
10
20.5937833715959
20
-12.7404815193067
30
0
0
SPLINE
5
16D
100
AcDbEntity
8
1
62
256
6
ByLayer
370
18
48
1
60
0
100
AcDbSpline
70
4
71
3
72
10
73
6
40
0
40
0
40
0
40
0
40
0.5
40
0.5
40
1
40
1
40
1
40
1
41
1
10
14.0925680131437
20
6.75625587201284
30
0
41
1
10
15.3561384932969
20
5.47183363800741
30
0
41
1
10
16.5522989817255
20
4.12635814511785
30
0
41
1
10
18.8103530192146
20
1.31393371928468
30
0
41
1
10
19.8722259328925
20
-0.153038378930376
30
0
41
1
10
20.8646625823785
20
-1.68068022712134
30
0
0
SPLINE
5
16E
100
AcDbEntity
8
1
62
256
6
ByLayer
370
13
48
1
60
0
100
AcDbSpline
70
4
71
1
72
4
73
2
40
0
40
0
40
1
40
1
41
1
10
31.0625416305315
20
-18.4000872674314
30
0
41
1
10
31.7324455368411
20
-18.4551633941495
30
0
0
SPLINE
5
16F
100
AcDbEntity
8
1
62
256
6
ByLayer
370
13
48
1
60
0
100
AcDbSpline
70
4
71
1
72
4
73
2
40
0
40
0
40
1
40
1
41
1
10
31.0625416305315
20
-18.4000872674314
30
0
41
1
10
31.1174095373279
20
-19.0699975157408
30
0
0
SPLINE
5
170
100
AcDbEntity
8
1
62
256
6
ByLayer
370
18
48
1
60
0
100
AcDbSpline
70
4
71
3
72
22
73
18
40
0
40
0
40
0
40
0
40
0.125
40
0.125
40
0.25
40
0.25
40
0.375
40
0.375
40
0.5
40
0.5
40
0.625
40
0.625
40
0.75
40
0.75
40
0.875
40
0.875
40
1
40
1
40
1
40
1
41
1
10
22.1785128635749
20
-9.97786329856456
30
0
41
1
10
22.1571361374366
20
-9.976373107276
30
0
41
1
10
22.1359466021622
20
-9.97727645334331
30
0
41
1
10
22.0939262572782
20
-9.98369514718394
30
0
41
1
10
22.0728768691558
20
-9.98933021660287
30
0
41
1
10
22.0329493229118
20
-10.0048780358768
30
0
41
1
10
22.0139061130631
20
-10.0147641631831
30
0
41
1
10
21.9777017917142
20
-10.0388708356333
30
0
41
1
10
21.960959713251
20
-10.0528525500122
30
0
41
1
10
21.9308247218792
20
-10.0839634634453
30
0
41
1
10
21.9171726758879
20
-10.1014224073446
30
0
41
1
10
21.8940793155741
20
-10.1384707831425
30
0
41
1
10
21.8845681302985
20
-10.1580279830798
30
0
41
1
10
21.8696533828356
20
-10.1992273473629
30
0
41
1
10
21.8643869142459
20
-10.22065300211
30
0
41
1
10
21.8585099943962
20
-10.2635972833465
30
0
41
1
10
21.8578301349986
20
-10.2854889963192
30
0
41
1
10
21.8595244844137
20
-10.3072700079772
30
0
0
SPLINE
5
171
100
AcDbEntity
8
1
62
256
6
ByLayer
370
18
48
1
60
0
100
AcDbSpline
70
4
71
3
72
8
73
4
40
0
40
0
40
0
40
0
40
1
40
1
40
1
40
1
41
1
10
30.8000349969461
20
-13.5052125106016
30
0
41
1
10
30.798527981033
20
-13.4709085102385
30
0
41
1
10
30.7993433903037
20
-13.4363199371259
30
0
41
1
10
30.8025272397651
20
-13.4014411529261
30
0
0
SPLINE
5
172
100
AcDbEntity
8
1
62
256
6
ByLayer
370
18
48
1
60
0
100
AcDbSpline
70
4
71
3
72
22
73
18
40
0
40
0
40
0
40
0
40
0.125
40
0.125
40
0.25
40
0.25
40
0.375
40
0.375
40
0.5
40
0.5
40
0.625
40
0.625
40
0.75
40
0.75
40
0.875
40
0.875
40
1
40
1
40
1
40
1
41
1
10
29.8451153494979
20
-17.5073642473371
30
0
41
1
10
29.8666222514443
20
-17.5089225340187
30
0
41
1
10
29.8879668843754
20
-17.5081003200455
30
0
41
1
10
29.9303416789983
20
-17.5018670400283
30
0
41
1
10
29.9515930792872
20
-17.4963376438377
30
0
41
1
10
29.9919423834981
20
-17.4810104475425
30
0
41
1
10
30.0112062888836
20
-17.4712397667971
30
0
41
1
10
30.0478564659883
20
-17.4473663229582
30
0
41
1
10
30.0648185671242
20
-17.4334997031626
30
0
41
1
10
30.0953613899119
20
-17.4026021276837
30
0
41
1
10
30.1092047658526
20
-17.3852432691098
30
0
41
1
10
30.1326202378075
20
-17.3483633909702
30
0
41
1
10
30.1422630787254
20
-17.3288750605321
30
0
41
1
10
30.1573697825914
20
-17.2877761092744
30
0
41
1
10
30.16269448837
20
-17.2663809185922
30
0
41
1
10
30.1686047167
20
-17.2234540611312
30
0
41
1
10
30.1692602469925
20
-17.2015496215237
30
0
41
1
10
30.1675005831439
20
-17.1797344436709
30
0
0
SPLINE
5
173
100
AcDbEntity
8
1
62
256
6
ByLayer
370
18
48
1
60
0
100
AcDbSpline
70
4
71
3
72
8
73
4
40
0
40
0
40
0
40
0
40
1
40
1
40
1
40
1
41
1
10
22.840997518659
20
-7.52087122560656
30
0
41
1
10
22.8845605888789
20
-7.52352813794303
30
0
41
1
10
22.9281941962577
20
-7.52751634929297
30
0
41
1
10
22.9719002071473
20
-7.53271985007203
30
0
0
SPLINE
5
174
100
AcDbEntity
8
1
62
256
6
ByLayer
370
13
48
1
60
0
100
AcDbSpline
70
4
71
3
72
8
73
4
40
0
40
0
40
0
40
0
40
1
40
1
40
1
40
1
41
1
10
25.905221219716
20
-13.8048534075658
30
0
41
1
10
25.9038109304642
20
-13.7881521496529
30
0
41
1
10
25.9026112685285
20
-13.7714563448171
30
0
41
1
10
25.9015942594202
20
-13.7547689242106
30
0
0
SPLINE
5
175
100
AcDbEntity
8
1
62
256
6
ByLayer
370
13
48
1
60
0
100
AcDbSpline
70
4
71
1
72
4
73
2
40
0
40
0
40
1
40
1
41
1
10
31.4878201267351
20
-15.0560997112191
30
0
41
1
10
30.7939291799765
20
-15.1204609073756
30
0
0
SPLINE
5
176
100
AcDbEntity
8
1
62
256
6
ByLayer
370
18
48
1
60
0
100
AcDbSpline
70
4
71
3
72
28
73
24
40
0
40
0
40
0
40
0
40
0.0702979228873358
40
0.0702979228873358
40
0.140595845774671
40
0.140595845774671
40
0.210893768662006
40
0.210893768662006
40
0.281191691549341
40
0.281191691549341
40
0.351489614436676
40
0.351489614436676
40
0.421787537324011
40
0.421787537324011
40
0.492085460211346
40
0.492085460211346
40
0.562383383098681
40
0.562383383098681
40
0.70297922887335
40
0.70297922887335
40
0.843575074648018
40
0.843575074648018
40
1
40
1
40
1
40
1
41
1
10
31.2295809737328
20
-9.38417871896451
30
0
41
1
10
31.2366287494285
20
-9.34738655655724
30
0
41
1
10
31.2422792216834
20
-9.31030304181198
30
0
41
1
10
31.2506552496593
20
-9.23552881583416
30
0
41
1
10
31.2533689461477
20
-9.19741337788869
30
0
41
1
10
31.2555651508841
20
-9.12410522662205
30
0
41
1
10
31.2551184422122
20
-9.08858523401864
30
0
41
1
10
31.2513813663701
20
-9.01968030815689
30
0
41
1
10
31.2481084562786
20
-8.98688418889583
30
0
41
1
10
31.2393425639605
20
-8.92532254345693
30
0
41
1
10
31.2337847939077
20
-8.896152756992
30
0
41
1
10
31.2210077956755
20
-8.84210838965581
30
0
41
1
10
31.2138275171456
20
-8.81728430401137
30
0
41
1
10
31.1982388755973
20
-8.77130497895416
30
0
41
1
10
31.1898281239743
20
-8.7501554409867
30
0
41
1
10
31.1720105930443
20
-8.71109614415337
30
0
41
1
10
31.1626152710833
20
-8.69324533546995
30
0
41
1
10
31.1338285904308
20
-8.64501559228415
30
0
41
1
10
31.1136522693694
20
-8.61943678386635
30
0
41
1
10
31.0722531068366
20
-8.57850863198072
30
0
41
1
10
31.050889048959
20
-8.56316696022506
30
0
41
1
10
31.0062206321066
20
-8.54058930001756
30
0
41
1
10
30.9828821230932
20
-8.53418711650741
30
0
41
1
10
30.9598406815445
20
-8.53256892166408
30
0
0
SPLINE
5
177
100
AcDbEntity
8
1
62
256
6
ByLayer
370
13
48
1
60
0
100
AcDbSpline
70
4
71
1
72
4
73
2
40
0
40
0
40
1
40
1
41
1
10
30.7939291799765
20
-15.1204609073756
30
0
41
1
10
31.0625416305315
20
-18.4000872674314
30
0
0
SPLINE
5
178
100
AcDbEntity
8
1
62
256
6
ByLayer
370
18
48
1
60
0
100
AcDbSpline
70
4
71
3
72
34
73
30
40
0
40
0
40
0
40
0
40
0.0624999999999909
40
0.0624999999999909
40
0.0937499999999867
40
0.0937499999999867
40
0.124999999999983
40
0.124999999999983
40
0.187499999999978
40
0.187499999999978
40
0.21874999999998
40
0.21874999999998
40
0.249999999999981
40
0.249999999999981
40
0.312499999999985
40
0.312499999999985
40
0.374999999999988
40
0.374999999999988
40
0.437499999999991
40
0.437499999999991
40
0.499999999999994
40
0.499999999999994
40
0.625000000000001
40
0.625000000000001
40
0.687500000000002
40
0.687500000000002
40
0.750000000000004
40
0.750000000000004
40
1
40
1
40
1
40
1
41
1
10
23.7373817440312
20
-17.8375325686885
30
0
41
1
10
23.7272551288036
20
-17.8741633257023
30
0
41
1
10
23.7198166941934
20
-17.9111179985054
30
0
41
1
10
23.7127017286557
20
-17.9670359033391
30
0
41
1
10
23.7110068715829
20
-17.9857565673781
30
0
41
1
10
23.7090113572199
20
-18.0233655073384
30
0
41
1
10
23.7087237296983
20
-18.0422085627501
30
0
41
1
10
23.7099412029797
20
-18.0975913802012
30
0
41
1
10
23.7134809364333
20
-18.1334622779122
30
0
41
1
10
23.7226024145252
20
-18.1858182053629
30
0
41
1
10
23.7263032898431
20
-18.2030969651357
30
0
41
1
10
23.7348077262292
20
-18.2365996453285
30
0
41
1
10
23.7396150234835
20
-18.2528787722489
30
0
41
1
10
23.7555797790188
20
-18.3004167259452
30
0
41
1
10
23.7683251579707
20
-18.3304845166901
30
0
41
1
10
23.7972920543245
20
-18.3871347011025
30
0
41
1
10
23.8132822253536
20
-18.413313895056
30
0
41
1
10
23.8478114428848
20
-18.4621519261609
30
0
41
1
10
23.8663545044906
20
-18.4848046196019
30
0
41
1
10
23.905729515544
20
-18.527049194967
30
0
41
1
10
23.926664215645
20
-18.546706955178
30
0
41
1
10
23.9914060766315
20
-18.6005686100153
30
0
41
1
10
24.0373871519957
20
-18.630102674867
30
0
41
1
10
24.1098516808927
20
-18.6671518079379
30
0
41
1
10
24.1345955417092
20
-18.6782735761654
30
0
41
1
10
24.1851979331672
20
-18.6982795906449
30
0
41
1
10
24.2111223845933
20
-18.7071785296974
30
0
41
1
10
24.3421008683953
20
-18.7461004555895
30
0
41
1
10
24.4518216047345
20
-18.7602641928399
30
0
41
1
10
24.5659174702431
20
-18.7614271613884
30
0
0
SPLINE
5
179
100
AcDbEntity
8
1
62
256
6
ByLayer
370
18
48
1
60
0
100
AcDbSpline
70
4
71
3
72
8
73
4
40
0
40
0
40
0
40
0
40
1
40
1
40
1
40
1
41
1
10
20.5899676473989
20
-12.5693690254141
30
0
41
1
10
20.6933963253501
20
-12.5753329312243
30
0
41
1
10
20.7973763714289
20
-12.5815000225696
30
0
41
1
10
20.9018531692672
20
-12.5878501726865
30
0
0
SPLINE
5
17A
100
AcDbEntity
8
1
62
256
6
ByLayer
370
13
48
1
60
0
100
AcDbSpline
70
4
71
3
72
8
73
4
40
0
40
0
40
0
40
0
40
1
40
1
40
1
40
1
41
1
10
27.8667350454799
20
-18.1373441384733
30
0
41
1
10
27.8387971321868
20
-18.1350472238885
30
0
41
1
10
27.8109212622516
20
-18.1328124623531
30
0
41
1
10
27.7831323885587
20
-18.1306418542978
30
0
0
SPLINE
5
17B
100
AcDbEntity
8
1
62
256
6
ByLayer
370
18
48
1
60
0
100
AcDbSpline
70
4
71
3
72
12
73
8
40
0
40
0
40
0
40
0
40
0.499999999999996
40
0.499999999999996
40
0.749999999999998
40
0.749999999999998
40
1
40
1
40
1
40
1
41
1
10
31.234740244608
20
-14.4807620765521
30
0
41
1
10
31.2647672879255
20
-14.5315507659756
30
0
41
1
10
31.3004116103544
20
-14.5873120292135
30
0
41
1
10
31.3608806820211
20
-14.6771528123838
30
0
41
1
10
31.3822465418701
20
-14.7081698944232
30
0
41
1
10
31.426236054972
20
-14.7707505057194
30
0
41
1
10
31.4489827951306
20
-14.8024989109833
30
0
41
1
10
31.472445594047
20
-14.8346835308647
30
0
0
SPLINE
5
17C
100
AcDbEntity
8
1
62
256
6
ByLayer
370
18
48
1
60
0
100
AcDbSpline
70
4
71
3
72
24
73
20
40
0
40
0
40
0
40
0
40
0.125000000000004
40
0.125000000000004
40
0.187500000000006
40
0.187500000000006
40
0.250000000000007
40
0.250000000000007
40
0.375000000000006
40
0.375000000000006
40
0.500000000000005
40
0.500000000000005
40
0.625000000000003
40
0.625000000000003
40
0.750000000000002
40
0.750000000000002
40
0.875000000000001
40
0.875000000000001
40
1
40
1
40
1
40
1
41
1
10
30.7066573690015
20
-14.9791184894616
30
0
41
1
10
30.6571324566345
20
-14.9987899734822
30
0
41
1
10
30.6093389784972
20
-15.0223543083322
30
0
41
1
10
30.5402666661978
20
-15.0636143768084
30
0
41
1
10
30.5175819319671
20
-15.0784318028805
30
0
41
1
10
30.4736809296186
20
-15.1097062673869
30
0
41
1
10
30.4524775703301
20
-15.1261386878769
30
0
41
1
10
30.3910483842682
20
-15.1777596013559
30
0
41
1
10
30.3529896017288
20
-15.2152569814992
30
0
41
1
10
30.2826843725116
20
-15.2964579638591
30
0
41
1
10
30.2503458522787
20
-15.3404430211485
30
0
41
1
10
30.1938268842055
20
-15.4316433729895
30
0
41
1
10
30.1693177324074
20
-15.4791720213211
30
0
41
1
10
30.1277975165013
20
-15.5780831624993
30
0
41
1
10
30.1107286362576
20
-15.6299023954569
30
0
41
1
10
30.0853774120693
20
-15.7340876786123
30
0
41
1
10
30.0769100874124
20
-15.7867234645655
30
0
41
1
10
30.0683353410498
20
-15.8930719027674
30
0
41
1
10
30.0682679171071
20
-15.9470801459584
30
0
41
1
10
30.0725776926598
20
-16.0007129173231
30
0
0
SPLINE
5
17D
100
AcDbEntity
8
1
62
256
6
ByLayer
370
13
48
1
60
0
100
AcDbSpline
70
4
71
3
72
8
73
4
40
0
40
0
40
0
40
0
40
1
40
1
40
1
40
1
41
1
10
26.405912199072
20
-13.8307690564706
30
0
41
1
10
26.4065706578833
20
-13.8470770294087
30
0
41
1
10
26.4072060903053
20
-13.8634776839313
30
0
41
1
10
26.4078513548569
20
-13.8799706437383
30
0
0
SPLINE
5
17E
100
AcDbEntity
8
1
62
256
6
ByLayer
370
18
48
1
60
0
100
AcDbSpline
70
4
71
3
72
12
73
8
40
0
40
0
40
0
40
0
40
0.499999999999997
40
0.499999999999997
40
0.749999999999998
40
0.749999999999998
40
1
40
1
40
1
40
1
41
1
10
20.9065607645785
20
-13.0660204957853
30
0
41
1
10
20.8566480316966
20
-13.0048295367867
30
0
41
1
10
20.8059550613032
20
-12.9411962763339
30
0
41
1
10
20.7289429494245
20
-12.8427017744519
30
0
41
1
10
20.7031052504027
20
-12.8093454586425
30
0
41
1
10
20.6523264943432
20
-12.743213372039
30
0
41
1
10
20.6272248936699
20
-12.7102331314995
30
0
41
1
10
20.6023973222365
20
-12.6773345946284
30
0
0
SPLINE
5
17F
100
AcDbEntity
8
1
62
256
6
ByLayer
370
18
48
1
60
0
100
AcDbSpline
70
4
71
3
72
8
73
4
40
0
40
0
40
0
40
0
40
1
40
1
40
1
40
1
41
1
10
21.736559923133
20
-14.3534246639348
30
0
41
1
10
21.726834790127
20
-14.3420692135482
30
0
41
1
10
21.7154301432861
20
-14.3305754892354
30
0
41
1
10
21.7025123486747
20
-14.3189571878701
30
0
0
SPLINE
5
180
100
AcDbEntity
8
1
62
256
6
ByLayer
370
18
48
1
60
0
100
AcDbSpline
70
4
71
3
72
24
73
20
40
0
40
0
40
0
40
0
40
0.124999999999995
40
0.124999999999995
40
0.187499999999996
40
0.187499999999996
40
0.249999999999996
40
0.249999999999996
40
0.374999999999997
40
0.374999999999997
40
0.499999999999997
40
0.499999999999997
40
0.624999999999998
40
0.624999999999998
40
0.749999999999999
40
0.749999999999999
40
0.874999999999999
40
0.874999999999999
40
1
40
1
40
1
40
1
41
1
10
21.6403074169135
20
-14.3738430011188
30
0
41
1
10
21.6310192418059
20
-14.3920270011649
30
0
41
1
10
21.6213951469894
20
-14.4141121541247
30
0
41
1
10
21.6065649223733
20
-14.4531880488591
30
0
41
1
10
21.6015326508868
20
-14.4672800349963
30
0
41
1
10
21.5914841831509
20
-14.4971381206406
30
0
41
1
10
21.5864728924463
20
-14.5128801140414
30
0
41
1
10
21.57150987868
20
-14.5624879029185
30
0
41
1
10
21.5616284215602
20
-14.5987203457728
30
0
41
1
10
21.5422308437871
20
-14.6775801093825
30
0
41
1
10
21.5326736718548
20
-14.7204859679579
30
0
41
1
10
21.5147607515548
20
-14.8098257234037
30
0
41
1
10
21.5063199247284
20
-14.8565619126923
30
0
41
1
10
21.4905972854588
20
-14.9541879472401
30
0
41
1
10
21.4832709904922
20
-15.0055137794012
30
0
41
1
10
21.4703658559834
20
-15.1090667679091
30
0
41
1
10
21.4647297218006
20
-15.1615573117942
30
0
41
1
10
21.4551041734302
20
-15.2679594430785
30
0
41
1
10
21.4511012442467
20
-15.3221693784758
30
0
41
1
10
21.4480123594041
20
-15.3761771729942
30
0
0
SPLINE
5
181
100
AcDbEntity
8
1
62
256
6
ByLayer
370
18
48
1
60
0
100
AcDbSpline
70
4
71
3
72
12
73
8
40
0
40
0
40
0
40
0
40
0.5
40
0.5
40
0.75
40
0.75
40
1
40
1
40
1
40
1
41
1
10
30.8502587774838
20
-13.830437979824
30
0
41
1
10
30.8202317341663
20
-13.7796492904005
30
0
41
1
10
30.8022240240739
20
-13.7265874923293
30
0
41
1
10
30.7901959477772
20
-13.6441611024193
30
0
41
1
10
30.7887766405421
20
-13.6161970456973
30
0
41
1
10
30.7908374301053
20
-13.56066490752
30
0
41
1
10
30.7942852468402
20
-13.5329258489799
30
0
41
1
10
30.800034996946
20
-13.5052125106016
30
0
0
SPLINE
5
182
100
AcDbEntity
8
1
62
256
6
ByLayer
370
18
48
1
60
0
100
AcDbSpline
70
4
71
3
72
24
73
20
40
0
40
0
40
0
40
0
40
0.125000000000001
40
0.125000000000001
40
0.187500000000001
40
0.187500000000001
40
0.250000000000001
40
0.250000000000001
40
0.375000000000001
40
0.375000000000001
40
0.5
40
0.5
40
0.625
40
0.625
40
0.75
40
0.75
40
0.875
40
0.875
40
1
40
1
40
1
40
1
41
1
10
21.3282502572086
20
-12.5120093545274
30
0
41
1
10
21.3763497286685
20
-12.4915922176829
30
0
41
1
10
21.4229083309346
20
-12.4673819152057
30
0
41
1
10
21.4903672127495
20
-12.4252778559397
30
0
41
1
10
21.5125520635479
20
-12.4101989392011
30
0
41
1
10
21.5555378040401
20
-12.3784456982092
30
0
41
1
10
21.5763256964808
20
-12.3617959456455
30
0
41
1
10
21.6366174151416
20
-12.3095800192301
30
0
41
1
10
21.6740624995238
20
-12.2717616115635
30
0
41
1
10
21.7433551902079
20
-12.1900309669688
30
0
41
1
10
21.7752948382329
20
-12.1458372583164
30
0
41
1
10
21.8311925439985
20
-12.0543119221202
30
0
41
1
10
21.8554742140192
20
-12.0066642773231
30
0
41
1
10
21.8966512877993
20
-11.9075736373709
30
0
41
1
10
21.9136044836101
20
-11.8556938895062
30
0
41
1
10
21.9388113288129
20
-11.7514330812289
30
0
41
1
10
21.9472482390526
20
-11.6987813853941
30
0
41
1
10
21.9558346420033
20
-11.5924390447917
30
0
41
1
10
21.955944691473
20
-11.538453099154
30
0
41
1
10
21.9517222044248
20
-11.4848659886929
30
0
0
SPLINE
5
183
100
AcDbEntity
8
1
62
256
6
ByLayer
370
18
48
1
60
0
100
AcDbSpline
70
4
71
3
72
24
73
20
40
0
40
0
40
0
40
0
40
0.249999999999989
40
0.249999999999989
40
0.374999999999984
40
0.374999999999984
40
0.499999999999979
40
0.499999999999979
40
0.56249999999998
40
0.56249999999998
40
0.624999999999981
40
0.624999999999981
40
0.749999999999989
40
0.749999999999989
40
0.812499999999988
40
0.812499999999988
40
0.874999999999988
40
0.874999999999988
40
1
40
1
40
1
40
1
41
1
10
28.3626382116595
20
-12.2772456814212
30
0
41
1
10
28.3401019230351
20
-12.3367475626667
30
0
41
1
10
28.322856505999
20
-12.3973403700048
30
0
41
1
10
28.3110337618664
20
-12.4902079735602
30
0
41
1
10
28.3095737541285
20
-12.5208911746361
30
0
41
1
10
28.3129762847555
20
-12.58156269049
30
0
41
1
10
28.3179948142491
20
-12.6119345681399
30
0
41
1
10
28.3311523166647
20
-12.6546737357351
30
0
41
1
10
28.3364584926948
20
-12.6684951315082
30
0
41
1
10
28.3490081799979
20
-12.6952433047086
30
0
41
1
10
28.3563167097866
20
-12.708261645644
30
0
41
1
10
28.3808173721091
20
-12.7451499578063
30
0
41
1
10
28.4003951530287
20
-12.7667482486536
30
0
41
1
10
28.4340857814717
20
-12.795155072843
30
0
41
1
10
28.4460297555397
20
-12.8039281835938
30
0
41
1
10
28.4706032331908
20
-12.8198193606267
30
0
41
1
10
28.4833106280172
20
-12.8270065578051
30
0
41
1
10
28.5225337653857
20
-12.8465832658883
30
0
41
1
10
28.5501420277679
20
-12.8570030970979
30
0
41
1
10
28.5789294972086
20
-12.8652969621563
30
0
0
SPLINE
5
184
100
AcDbEntity
8
1
62
256
6
ByLayer
370
18
48
1
60
0
100
AcDbSpline
70
4
71
3
72
8
73
4
40
0
40
0
40
0
40
0
40
1
40
1
40
1
40
1
41
1
10
30.8025272397651
20
-13.4014411529261
30
0
41
1
10
30.7979196883987
20
-13.399801920868
30
0
41
1
10
30.7933362827155
20
-13.3981641195911
30
0
41
1
10
30.7887767285251
20
-13.3965277316628
30
0
0
SPLINE
5
185
100
AcDbEntity
8
1
62
256
6
ByLayer
370
13
48
1
60
0
100
AcDbSpline
70
4
71
1
72
4
73
2
40
0
40
0
40
1
40
1
41
1
10
27.8667350454799
20
-18.1373441384733
30
0
41
1
10
31.0625416305315
20
-18.4000872674314
30
0
0
SPLINE
5
186
100
AcDbEntity
8
1
62
256
6
ByLayer
370
18
48
1
60
0
100
AcDbSpline
70
4
71
3
72
8
73
4
40
0
40
0
40
0
40
0
40
1
40
1
40
1
40
1
41
1
10
21.7303500792386
20
-14.2451012160959
30
0
41
1
10
21.7348427133369
20
-14.2809670031452
30
0
41
1
10
21.7369285568244
20
-14.3170732311121
30
0
41
1
10
21.736559923133
20
-14.3534246639348
30
0
0
SPLINE
5
187
100
AcDbEntity
8
1
62
256
6
ByLayer
370
13
48
1
60
0
100
AcDbSpline
70
4
71
3
72
22
73
18
40
0
40
0
40
0
40
0
40
0.125000000000005
40
0.125000000000005
40
0.25000000000001
40
0.25000000000001
40
0.312500000000011
40
0.312500000000011
40
0.375000000000012
40
0.375000000000012
40
0.50000000000001
40
0.50000000000001
40
0.625000000000008
40
0.625000000000008
40
0.750000000000006
40
0.750000000000006
40
1
40
1
40
1
40
1
41
1
10
25.9015942594203
20
-13.7547689242106
30
0
41
1
10
25.9102315435861
20
-13.7038955406449
30
0
41
1
10
25.922305069351
20
-13.6535557786661
30
0
41
1
10
25.953209467839
20
-13.5562371538495
30
0
41
1
10
25.9720379270375
20
-13.509095778146
30
0
41
1
10
26.0055572545249
20
-13.4407645960447
30
0
41
1
10
26.0176113546683
20
-13.4183850937445
30
0
41
1
10
26.0435373490474
20
-13.3744483665754
30
0
41
1
10
26.0574823874467
20
-13.3527909463042
30
0
41
1
10
26.1015516496761
20
-13.2899341232885
30
0
41
1
10
26.1337764173837
20
-13.2509410054636
30
0
41
1
10
26.2034870051086
20
-13.1783715203959
30
0
41
1
10
26.2409744801519
20
-13.1447968230246
30
0
41
1
10
26.3209460915109
20
-13.0828296168872
30
0
41
1
10
26.3636762440985
20
-13.0543457109607
30
0
41
1
10
26.4951383072907
20
-12.9785275491146
30
0
41
1
10
26.5880928571629
20
-12.9397687933226
30
0
41
1
10
26.6851654686795
20
-12.9104127952945
30
0
0
SPLINE
5
188
100
AcDbEntity
8
1
62
256
6
ByLayer
370
18
48
1
60
0
100
AcDbSpline
70
4
71
3
72
12
73
8
40
0
40
0
40
0
40
0
40
0.500000000000001
40
0.500000000000001
40
0.75
40
0.75
40
1
40
1
40
1
40
1
41
1
10
21.5456686701993
20
-13.8495405194442
30
0
41
1
10
21.5955814030812
20
-13.9107314784427
30
0
41
1
10
21.6350345576629
20
-13.9750114590171
30
0
41
1
10
21.6811752155852
20
-14.075282252503
30
0
41
1
10
21.6943009734937
20
-14.1093699920511
30
0
41
1
10
21.7157318644331
20
-14.1771907055162
30
0
41
1
10
21.7241396698846
20
-14.2111314789912
30
0
41
1
10
21.7303500792387
20
-14.2451012160959
30
0
0
SPLINE
5
189
100
AcDbEntity
8
1
62
256
6
ByLayer
370
13
48
1
60
0
100
AcDbSpline
70
4
71
3
72
22
73
18
40
0
40
0
40
0
40
0
40
0.124999999999997
40
0.124999999999997
40
0.249999999999994
40
0.249999999999994
40
0.312499999999995
40
0.312499999999995
40
0.374999999999995
40
0.374999999999995
40
0.499999999999997
40
0.499999999999997
40
0.624999999999999
40
0.624999999999999
40
0.75
40
0.75
40
1
40
1
40
1
40
1
41
1
10
26.4078513548569
20
-13.8799706437384
30
0
41
1
10
26.3997785136401
20
-13.931139289266
30
0
41
1
10
26.3887737815242
20
-13.9820381407156
30
0
41
1
10
26.3610472134699
20
-14.0810190990776
30
0
41
1
10
26.3443251522303
20
-14.1292623384771
30
0
41
1
10
26.314800092516
20
-14.1996829351796
30
0
41
1
10
26.3042169082304
20
-14.2228318783999
30
0
41
1
10
26.2815265536794
20
-14.2684611793986
30
0
41
1
10
26.2693557935451
20
-14.2910467304621
30
0
41
1
10
26.2309999872753
20
-14.3568922810705
30
0
41
1
10
26.2030858505086
20
-14.3981403041096
30
0
41
1
10
26.1429866576424
20
-14.4757375414203
30
0
41
1
10
26.110800193977
20
-14.5120852152678
30
0
41
1
10
26.0424415963402
20
-14.580127227055
30
0
41
1
10
26.006062873155
20
-14.611933586579
30
0
41
1
10
25.8946223209316
20
-14.6982250666234
30
0
41
1
10
25.8164361672493
20
-14.7447092190057
30
0
41
1
10
25.7354946395249
20
-14.7825034399881
30
0
0
SPLINE
5
18A
100
AcDbEntity
8
1
62
256
6
ByLayer
370
18
48
1
60
0
100
AcDbSpline
70
4
71
3
72
12
73
8
40
0
40
0
40
0
40
0
40
0.500000000000013
40
0.500000000000013
40
0.750000000000006
40
0.750000000000006
40
1
40
1
40
1
40
1
41
1
10
31.1515009519858
20
-14.9129270934928
30
0
41
1
10
31.075919023069
20
-14.9068091567038
30
0
41
1
10
31.0007612306982
20
-14.9093330332768
30
0
41
1
10
30.8887148509126
20
-14.9258603616596
30
0
41
1
10
30.8513386633645
20
-14.9335667302654
30
0
41
1
10
30.7780266483565
20
-14.9531787050053
30
0
41
1
10
30.7420033971079
20
-14.9650789123305
30
0
41
1
10
30.7066573690015
20
-14.9791184894616
30
0
0
SPLINE
5
18B
100
AcDbEntity
8
1
62
256
6
ByLayer
370
18
48
1
60
0
100
AcDbSpline
70
4
71
3
72
8
73
4
40
0
40
0
40
0
40
0
40
1
40
1
40
1
40
1
41
1
10
31.472445594047
20
-14.8346835308647
30
0
41
1
10
31.4745814236399
20
-14.8690837776379
30
0
41
1
10
31.4770020143461
20
-14.9041676538762
30
0
41
1
10
31.479713008235
20
-14.9399487045649
30
0
0
SPLINE
5
18C
100
AcDbEntity
8
1
62
256
6
ByLayer
370
18
48
1
60
0
100
AcDbSpline
70
4
71
3
72
12
73
8
40
0
40
0
40
0
40
0
40
0.5
40
0.5
40
0.75
40
0.75
40
1
40
1
40
1
40
1
41
1
10
20.9018531692672
20
-12.5878501726865
30
0
41
1
10
20.9741386336534
20
-12.5922437180441
30
0
41
1
10
21.0459206220153
20
-12.5879539472978
30
0
41
1
10
21.1530408529009
20
-12.5688497342333
30
0
41
1
10
21.1888048112642
20
-12.5603000032416
30
0
41
1
10
21.2592036607221
20
-12.5391641420269
30
0
41
1
10
21.2939215691026
20
-12.5265811055567
30
0
41
1
10
21.3282502572086
20
-12.5120093545274
30
0
0
SPLINE
5
18D
100
AcDbEntity
8
1
62
256
6
ByLayer
370
18
48
1
60
0
100
AcDbSpline
70
4
71
3
72
8
73
4
40
0
40
0
40
0
40
0
40
1
40
1
40
1
40
1
41
1
10
31.479713008235
20
-14.9399487045649
30
0
41
1
10
31.3701405153205
20
-14.9307709489529
30
0
41
1
10
31.260742249316
20
-14.9217695689547
30
0
41
1
10
31.1515009519858
20
-14.9129270934928
30
0
0
SPLINE
5
18E
100
AcDbEntity
8
1
62
256
6
ByLayer
370
18
48
1
60
0
100
AcDbSpline
70
4
71
3
72
8
73
4
40
0
40
0
40
0
40
0
40
1
40
1
40
1
40
1
41
1
10
21.7025123486748
20
-14.3189571878701
30
0
41
1
10
21.6987640105778
20
-14.3155859218808
30
0
41
1
10
21.6949559897245
20
-14.3137504845146
30
0
41
1
10
21.6910600013819
20
-14.3134344518089
30
0
0
SPLINE
5
18F
100
AcDbEntity
8
1
62
256
6
ByLayer
370
18
48
1
60
0
100
AcDbSpline
70
4
71
3
72
12
73
8
40
0
40
0
40
0
40
0
40
0.267591030154309
40
0.267591030154309
40
0.633795515077154
40
0.633795515077154
40
1
40
1
40
1
40
1
41
1
10
21.6849878403558
20
-14.3141463606928
30
0
41
1
10
21.6815086504024
20
-14.3152259929249
30
0
41
1
10
21.6779516826396
20
-14.3174523377526
30
0
41
1
10
21.6692984120452
20
-14.3254157830647
30
0
41
1
10
21.6640640985341
20
-14.3322088895742
30
0
41
1
10
21.6528876268638
20
-14.3499371946505
30
0
41
1
10
21.6469364058955
20
-14.3608650442482
30
0
41
1
10
21.6403074169136
20
-14.3738430011188
30
0
0
SPLINE
5
190
100
AcDbEntity
8
1
62
256
6
ByLayer
370
13
48
1
60
0
100
AcDbSpline
70
4
71
3
72
8
73
4
40
0
40
0
40
0
40
0
40
1
40
1
40
1
40
1
41
1
10
27.7831323885587
20
-18.1306418542978
30
0
41
1
10
27.7616061131321
20
-18.3619283938335
30
0
41
1
10
27.7400798377054
20
-18.5932149333691
30
0
41
1
10
27.7185535622787
20
-18.8245014729048
30
0
0
SPLINE
5
191
100
AcDbEntity
8
1
62
256
6
ByLayer
370
18
48
1
60
0
100
AcDbSpline
70
4
71
3
72
28
73
24
40
0
40
0
40
0
40
0
40
0.0624999999999978
40
0.0624999999999978
40
0.124999999999996
40
0.124999999999996
40
0.187499999999993
40
0.187499999999993
40
0.249999999999991
40
0.249999999999991
40
0.312499999999989
40
0.312499999999989
40
0.374999999999987
40
0.374999999999987
40
0.437499999999984
40
0.437499999999984
40
0.499999999999982
40
0.499999999999982
40
0.624999999999985
40
0.624999999999985
40
0.749999999999988
40
0.749999999999988
40
1
40
1
40
1
40
1
41
1
10
29.1587452316317
20
-10.1041019478138
30
0
41
1
10
29.1711890402885
20
-10.0690235747974
30
0
41
1
10
29.180085702125
20
-10.0329747235003
30
0
41
1
10
29.1905555866566
20
-9.95886753707507
30
0
41
1
10
29.1920414743431
20
-9.9203603689856
30
0
41
1
10
29.1873800124717
20
-9.84487005379904
30
0
41
1
10
29.1813620634769
20
-9.80757842787946
30
0
41
1
10
29.162385639044
20
-9.73384932705517
30
0
41
1
10
29.1495491983185
20
-9.6980342687321
30
0
41
1
10
29.1185412764049
20
-9.62949254886968
30
0
41
1
10
29.1001452043882
20
-9.5963118081109
30
0
41
1
10
29.0592435348287
20
-9.5335410027574
30
0
41
1
10
29.036848347106
20
-9.50402330119749
30
0
41
1
10
28.9887886806606
20
-9.44810088670903
30
0
41
1
10
28.9631192445359
20
-9.42170103397416
30
0
41
1
10
28.9088707428623
20
-9.37164610173699
30
0
41
1
10
28.8803264692353
20
-9.34805762692363
30
0
41
1
10
28.7926260941655
20
-9.28231698994341
30
0
41
1
10
28.7308232510964
20
-9.24454779666328
30
0
41
1
10
28.6018895074958
20
-9.1784100215761
30
0
41
1
10
28.5343072686614
20
-9.14996355252757
30
0
41
1
10
28.3292493332514
20
-9.07839902738536
30
0
41
1
10
28.1886039847474
20
-9.04799419180429
30
0
41
1
10
28.0447124730516
20
-9.03086291905791
30
0
0
SPLINE
5
192
100
AcDbEntity
8
1
62
256
6
ByLayer
370
18
48
1
60
0
100
AcDbSpline
70
4
71
3
72
24
73
20
40
0
40
0
40
0
40
0
40
0.250000000000001
40
0.250000000000001
40
0.375000000000001
40
0.375000000000001
40
0.500000000000001
40
0.500000000000001
40
0.562500000000004
40
0.562500000000004
40
0.625000000000006
40
0.625000000000006
40
0.750000000000011
40
0.750000000000011
40
0.812500000000008
40
0.812500000000008
40
0.875000000000006
40
0.875000000000006
40
1
40
1
40
1
40
1
41
1
10
24.3860228061543
20
-15.5872489078121
30
0
41
1
10
24.404555909079
20
-15.5256529469687
30
0
41
1
10
24.4174581407445
20
-15.4627882050872
30
0
41
1
10
24.4219415094376
20
-15.366081350115
30
0
41
1
10
24.4208622741537
20
-15.3340698626679
30
0
41
1
10
24.4121447977724
20
-15.2706180812198
30
0
41
1
10
24.4043106791443
20
-15.2387733596388
30
0
41
1
10
24.3869061951451
20
-15.1938125820176
30
0
41
1
10
24.3801774586839
20
-15.1792470402069
30
0
41
1
10
24.3647681261055
20
-15.1510029771635
30
0
41
1
10
24.3560116914097
20
-15.1372272324119
30
0
41
1
10
24.3272310859214
20
-15.0981000679115
30
0
41
1
10
24.3049028122919
20
-15.0750629852868
30
0
41
1
10
24.2672234712268
20
-15.0445696524139
30
0
41
1
10
24.253975697633
20
-15.0351145198456
30
0
41
1
10
24.2269032267213
20
-15.0179161112239
30
0
41
1
10
24.2129911227754
20
-15.0100987267453
30
0
41
1
10
24.1702710771998
20
-14.9886927744846
30
0
41
1
10
24.1404869370091
20
-14.9771347344414
30
0
41
1
10
24.1096491406822
20
-14.9677683366493
30
0
0
SPLINE
5
193
100
AcDbEntity
8
1
62
256
6
ByLayer
370
13
48
1
60
0
100
AcDbSpline
70
4
71
3
72
22
73
18
40
0
40
0
40
0
40
0
40
0.249999999999984
40
0.249999999999984
40
0.499999999999968
40
0.499999999999968
40
0.562499999999973
40
0.562499999999973
40
0.624999999999977
40
0.624999999999977
40
0.687499999999981
40
0.687499999999981
40
0.749999999999986
40
0.749999999999986
40
0.874999999999993
40
0.874999999999993
40
1
40
1
40
1
40
1
41
1
10
25.4732259801424
20
-14.2152457478951
30
0
41
1
10
25.5275438272344
20
-14.2104669396331
30
0
41
1
10
25.5811314945613
20
-14.2016932528188
30
0
41
1
10
25.6856083961954
20
-14.1704193238395
30
0
41
1
10
25.7372430371812
20
-14.147517679519
30
0
41
1
10
25.7930103070739
20
-14.1046779999421
30
0
41
1
10
25.8038021255896
20
-14.0953122890396
30
0
41
1
10
25.8239238744867
20
-14.075341212205
30
0
41
1
10
25.8333096530359
20
-14.0647033925065
30
0
41
1
10
25.8506222761702
20
-14.0420210517503
30
0
41
1
10
25.8586036556856
20
-14.0298715408869
30
0
41
1
10
25.8726783103701
20
-14.0045964510186
30
0
41
1
10
25.8787621939576
20
-13.9915294151607
30
0
41
1
10
25.8942967935477
20
-13.9511054566584
30
0
41
1
10
25.9010309744239
20
-13.9221949339347
30
0
41
1
10
25.9076718132678
20
-13.8639084942386
30
0
41
1
10
25.9077040062497
20
-13.8342556441568
30
0
41
1
10
25.905221219716
20
-13.8048534075658
30
0
0
SPLINE
5
194
100
AcDbEntity
8
1
62
256
6
ByLayer
370
18
48
1
60
0
100
AcDbSpline
70
4
71
3
72
8
73
4
40
0
40
0
40
0
40
0
40
1
40
1
40
1
40
1
41
1
10
20.6023973222365
20
-12.6773345946284
30
0
41
1
10
20.5975039450813
20
-12.6414918656614
30
0
41
1
10
20.5933557983004
20
-12.6055042991619
30
0
41
1
10
20.5899676473989
20
-12.5693690254141
30
0
0
SPLINE
5
195
100
AcDbEntity
8
1
62
256
6
ByLayer
370
13
48
1
60
0
100
AcDbSpline
70
4
71
3
72
22
73
18
40
0
40
0
40
0
40
0
40
0.249999999999978
40
0.249999999999978
40
0.499999999999956
40
0.499999999999956
40
0.56249999999996
40
0.56249999999996
40
0.624999999999964
40
0.624999999999964
40
0.687499999999968
40
0.687499999999968
40
0.749999999999972
40
0.749999999999972
40
0.874999999999986
40
0.874999999999986
40
1
40
1
40
1
40
1
41
1
10
26.8861090535434
20
-13.4455911393323
30
0
41
1
10
26.8277448574826
20
-13.4482532891485
30
0
41
1
10
26.770096220203
20
-13.4549026692321
30
0
41
1
10
26.6572226148942
20
-13.4817842549193
30
0
41
1
10
26.6011910202024
20
-13.5023858383035
30
0
41
1
10
26.5398574834744
20
-13.5423137854026
30
0
41
1
10
26.5279394107351
20
-13.5510903490188
30
0
41
1
10
26.5055988512964
20
-13.5699007587659
30
0
41
1
10
26.4951154180661
20
-13.5799643916928
30
0
41
1
10
26.4756291285075
20
-13.6015096803976
30
0
41
1
10
26.4665632351233
20
-13.6130918784914
30
0
41
1
10
26.4503854864925
20
-13.6372668330036
30
0
41
1
10
26.4432864605283
20
-13.6498028445474
30
0
41
1
10
26.4248071818098
20
-13.6886864317186
30
0
41
1
10
26.4162271261577
20
-13.7166313712796
30
0
41
1
10
26.4062732862624
20
-13.7731847692359
30
0
41
1
10
26.4047529952649
20
-13.8020591903544
30
0
41
1
10
26.405912199072
20
-13.8307690564706
30
0
0
LINE
5
70
100
AcDbEntity
8
81
62
256
6
ByLayer
370
18
48
1
60
0
100
AcDbLine
10
31.75
20
-19.0875
30
0
11
41.75
21
-19.0875
31
0
39
0
210
0
220
0
230
1
0
LINE
5
71
100
AcDbEntity
8
1
62
256
6
ByLayer
370
18
48
1
60
0
100
AcDbLine
10
17.440748
20
-6.480643
30
0
11
17.973491
21
-6.385722
31
0
39
0
210
0
220
0
230
1
0
LINE
5
73
100
AcDbEntity
8
1
62
256
6
ByLayer
370
18
48
1
60
0
100
AcDbLine
10
21.150127
20
-2.339788
30
0
11
21.012013
21
-1.784299
31
0
39
0
210
0
220
0
230
1
0
LINE
5
74
100
AcDbEntity
8
1
62
256
6
ByLayer
370
18
48
1
60
0
100
AcDbLine
10
30.212108
20
3.203657
30
0
11
16.605687
21
12.6625
31
0
39
0
210
0
220
0
230
1
0
LINE
5
75
100
AcDbEntity
8
1
62
256
6
ByLayer
370
18
48
1
60
0
100
AcDbLine
10
24.137992
20
-7.867385
30
0
11
24.715505
21
-8.432719
31
0
39
0
210
0
220
0
230
1
0
LINE
5
76
100
AcDbEntity
8
1
62
256
6
ByLayer
370
18
48
1
60
0
100
AcDbLine
10
30.925191
20
-7.289887
30
0
11
30.925876
21
-6.890027
31
0
39
0
210
0
220
0
230
1
0
LINE
5
77
100
AcDbEntity
8
1
62
256
6
ByLayer
370
18
48
1
60
0
100
AcDbLine
10
30.924605
20
-6.84994
30
0
11
30.298532
21
2.770453
31
0
39
0
210
0
220
0
230
1
0
LINE
5
78
100
AcDbEntity
8
1
62
256
6
ByLayer
370
18
48
1
60
0
100
AcDbLine
10
21.350529
20
-18.500695
30
0
11
24.468877
21
-18.757069
31
0
39
0
210
0
220
0
230
1
0
LINE
5
79
100
AcDbEntity
8
1
62
256
6
ByLayer
370
18
48
1
60
0
100
AcDbLine
10
21.342138
20
-16.884934
30
0
11
21.359196
21
-16.886337
31
0
39
0
210
0
220
0
230
1
0
LINE
5
7A
100
AcDbEntity
8
1
62
256
6
ByLayer
370
18
48
1
60
0
100
AcDbLine
10
31.009858
20
-8.543728
30
0
11
30.959732
21
-8.525202
31
0
39
0
210
0
220
0
230
1
0
LINE
5
7B
100
AcDbEntity
8
1
62
256
6
ByLayer
370
18
48
1
60
0
100
AcDbLine
10
22.840635
20
-7.520912
30
0
11
20.449279
21
-7.378906
31
0
39
0
210
0
220
0
230
1
0
LINE
5
7C
100
AcDbEntity
8
80
62
256
6
ByLayer
370
18
48
1
60
0
100
AcDbLine
10
0
20
0
30
0
11
-6.6
21
0
31
0
39
0
210
0
220
0
230
1
0
LINE
5
7D
100
AcDbEntity
8
1
62
256
6
ByLayer
370
18
48
1
60
0
100
AcDbLine
10
16.320502
20
12.6625
30
0
11
3.573985
21
12.6625
31
0
39
0
210
0
220
0
230
1
0
LINE
5
7E
100
AcDbEntity
8
1
62
256
6
ByLayer
370
18
48
1
60
0
100
AcDbLine
10
20.17967
20
-9.967371
30
0
11
20.083241
21
-8.813801
31
0
39
0
210
0
220
0
230
1
0
LINE
5
7F
100
AcDbEntity
8
1
62
256
6
ByLayer
370
13
48
1
60
0
100
AcDbLine
10
24.11656
20
-7.606784
30
0
11
25.037524
21
-7.524402
31
0
39
0
210
0
220
0
230
1
0
LINE
5
80
100
AcDbEntity
8
1
62
256
6
ByLayer
370
18
48
1
60
0
100
AcDbLine
10
30.539
20
-2.044344
30
0
11
30.993546
21
-9.046015
31
0
39
0
210
0
220
0
230
1
0
LINE
5
81
100
AcDbEntity
8
1
62
256
6
ByLayer
370
13
48
1
60
0
100
AcDbLine
10
21.072644
20
-16.645894
30
0
11
21.393253
21
-16.441346
31
0
39
0
210
0
220
0
230
1
0
LINE
5
82
100
AcDbEntity
8
1
62
256
6
ByLayer
370
18
48
1
60
0
100
AcDbLine
10
30.186586
20
3.126995
30
0
11
30.982728
21
-9.128628
31
0
39
0
210
0
220
0
230
1
0
LINE
5
83
100
AcDbEntity
8
1
62
256
6
ByLayer
370
18
48
1
60
0
100
AcDbLine
10
28.873218
20
-9.107564
30
0
11
30.997844
21
-9.28224
31
0
39
0
210
0
220
0
230
1
0
LINE
5
84
100
AcDbEntity
8
1
62
256
6
ByLayer
370
13
48
1
60
0
100
AcDbLine
10
20.766237
20
-13.7397
30
0
11
20.942409
21
-13.205322
31
0
39
0
210
0
220
0
230
1
0
LINE
5
85
100
AcDbEntity
8
1
62
256
6
ByLayer
370
13
48
1
60
0
100
AcDbLine
10
20.083241
20
-8.813801
30
0
11
19.819878
21
-9.004357
31
0
39
0
210
0
220
0
230
1
0
LINE
5
86
100
AcDbEntity
8
1
62
256
6
ByLayer
370
18
48
1
60
0
100
AcDbLine
10
21.016134
20
-16.979078
30
0
11
20.442112
21
-18.51121
31
0
39
0
210
0
220
0
230
1
0
LINE
5
87
100
AcDbEntity
8
1
62
256
6
ByLayer
370
13
48
1
60
0
100
AcDbLine
10
13.361478
20
7.525356
30
0
11
12.92922
21
8.78622
31
0
39
0
210
0
220
0
230
1
0
LINE
5
88
100
AcDbEntity
8
1
62
256
6
ByLayer
370
18
48
1
60
0
100
AcDbLine
10
30.982728
20
-9.128628
30
0
11
26.996495
21
-8.8009
31
0
39
0
210
0
220
0
230
1
0
LINE
5
89
100
AcDbEntity
8
1
62
256
6
ByLayer
370
13
48
1
60
0
100
AcDbLine
10
15.155623
20
-5.892424
30
0
11
16.156686
21
-5.901303
31
0
39
0
210
0
220
0
230
1
0
LINE
5
8A
100
AcDbEntity
8
1
62
256
6
ByLayer
370
13
48
1
60
0
100
AcDbLine
10
30.919418
20
-6.801122
30
0
11
30.918934
21
-7.083286
31
0
39
0
210
0
220
0
230
1
0
LINE
5
8B
100
AcDbEntity
8
1
62
256
6
ByLayer
370
13
48
1
60
0
100
AcDbLine
10
22.548308
20
-6.382696
30
0
11
22.616038
21
-6.231675
31
0
39
0
210
0
220
0
230
1
0
LINE
5
8C
100
AcDbEntity
8
1
62
256
6
ByLayer
370
13
48
1
60
0
100
AcDbLine
10
22.223948
20
-7.250887
30
0
11
20.633778
21
-7.147719
31
0
39
0
210
0
220
0
230
1
0
LINE
5
8D
100
AcDbEntity
8
1
62
256
6
ByLayer
370
13
48
1
60
0
100
AcDbLine
10
30.580618
20
-1.655081
30
0
11
30.51336
21
-1.64786
31
0
39
0
210
0
220
0
230
1
0
LINE
5
8E
100
AcDbEntity
8
1
62
256
6
ByLayer
370
18
48
1
60
0
100
AcDbLine
10
0
20
12.6625
30
0
11
0.105555
21
12.6625
31
0
39
0
210
0
220
0
230
1
0
LINE
5
8F
100
AcDbEntity
8
1
62
256
6
ByLayer
370
13
48
1
60
0
100
AcDbLine
10
1.651036
20
12.6625
30
0
11
1.651036
21
-12.905867
31
0
39
0
210
0
220
0
230
1
0
LINE
5
90
100
AcDbEntity
8
1
62
256
6
ByLayer
370
18
48
1
60
0
100
AcDbLine
10
1.651036
20
12.6625
30
0
11
3.573985
21
12.6625
31
0
39
0
210
0
220
0
230
1
0
LINE
5
91
100
AcDbEntity
8
1
62
256
6
ByLayer
370
18
48
1
60
0
100
AcDbLine
10
23.435112
20
-6.937006
30
0
11
22.100238
21
-6.793688
31
0
39
0
210
0
220
0
230
1
0
LINE
5
92
100
AcDbEntity
8
1
62
256
6
ByLayer
370
13
48
1
60
0
100
AcDbLine
10
30.441273
20
-0.501237
30
0
11
30.506998
21
-0.508294
31
0
39
0
210
0
220
0
230
1
0
LINE
5
93
100
AcDbEntity
8
1
62
256
6
ByLayer
370
18
48
1
60
0
100
AcDbLine
10
30.343906
20
1.712077
30
0
11
30.343146
21
1.268767
31
0
39
0
210
0
220
0
230
1
0
LINE
5
94
100
AcDbEntity
8
1
62
256
6
ByLayer
370
18
48
1
60
0
100
AcDbLine
10
28.711316
20
-9.047728
30
0
11
28.873218
21
-9.107564
31
0
39
0
210
0
220
0
230
1
0
LINE
5
95
100
AcDbEntity
8
1
62
256
6
ByLayer
370
18
48
1
60
0
100
AcDbLine
10
30.997844
20
-9.28224
30
0
11
30.982728
21
-9.128628
31
0
39
0
210
0
220
0
230
1
0
LINE
5
96
100
AcDbEntity
8
1
62
256
6
ByLayer
370
18
48
1
60
0
100
AcDbLine
10
0.105555
20
-12.6625
30
0
11
0.372277
21
-12.6625
31
0
39
0
210
0
220
0
230
1
0
LINE
5
97
100
AcDbEntity
8
1
62
256
6
ByLayer
370
18
48
1
60
0
100
AcDbLine
10
30.918934
20
-7.083286
30
0
11
30.580618
21
-1.655081
31
0
39
0
210
0
220
0
230
1
0
LINE
5
98
100
AcDbEntity
8
1
62
256
6
ByLayer
370
13
48
1
60
0
100
AcDbLine
10
8.027006
20
2.781619
30
0
11
6.385022
21
2.915944
31
0
39
0
210
0
220
0
230
1
0
LINE
5
99
100
AcDbEntity
8
1
62
256
6
ByLayer
370
13
48
1
60
0
100
AcDbLine
10
20.864663
20
-1.68068
30
0
11
20.653014
21
-0.945529
31
0
39
0
210
0
220
0
230
1
0
LINE
5
9A
100
AcDbEntity
8
1
62
256
6
ByLayer
370
13
48
1
60
0
100
AcDbLine
10
22.120643
20
-6.277107
30
0
11
22.056597
21
-6.419914
31
0
39
0
210
0
220
0
230
1
0
LINE
5
9B
100
AcDbEntity
8
1
62
256
6
ByLayer
370
13
48
1
60
0
100
AcDbLine
10
20.05742
20
-12.159443
30
0
11
20.229648
21
-12.034828
31
0
39
0
210
0
220
0
230
1
0
LINE
5
9C
100
AcDbEntity
8
1
62
256
6
ByLayer
370
18
48
1
60
0
100
AcDbLine
10
22.202345
20
-7.483007
30
0
11
22.223948
21
-7.250887
31
0
39
0
210
0
220
0
230
1
0
LINE
5
9D
100
AcDbEntity
8
1
62
256
6
ByLayer
370
18
48
1
60
0
100
AcDbLine
10
20.921769
20
-18.310903
30
0
11
20.444896
21
-18.51147
31
0
39
0
210
0
220
0
230
1
0
LINE
5
9E
100
AcDbEntity
8
1
62
256
6
ByLayer
370
13
48
1
60
0
100
AcDbLine
10
21.370784
20
-14.124147
30
0
11
21.020058
21
-14.34791
31
0
39
0
210
0
220
0
230
1
0
LINE
5
9F
100
AcDbEntity
8
1
62
256
6
ByLayer
370
18
48
1
60
0
100
AcDbLine
10
0.105555
20
12.6625
30
0
11
1.651036
21
12.6625
31
0
39
0
210
0
220
0
230
1
0
LINE
5
A0
100
AcDbEntity
8
1
62
256
6
ByLayer
370
18
48
1
60
0
100
AcDbLine
10
16.320502
20
12.6625
30
0
11
16.605687
21
12.6625
31
0
39
0
210
0
220
0
230
1
0
LINE
5
A1
100
AcDbEntity
8
1
62
256
6
ByLayer
370
18
48
1
60
0
100
AcDbLine
10
30.997883
20
-9.259159
30
0
11
30.997844
21
-9.28224
31
0
39
0
210
0
220
0
230
1
0
LINE
5
A2
100
AcDbEntity
8
1
62
256
6
ByLayer
370
18
48
1
60
0
100
AcDbLine
10
21.020058
20
-14.34791
30
0
11
21.072644
21
-16.645894
31
0
39
0
210
0
220
0
230
1
0
LINE
5
A3
100
AcDbEntity
8
1
62
256
6
ByLayer
370
13
48
1
60
0
100
AcDbLine
10
26.996495
20
-8.8009
30
0
11
26.92423
21
-8.90074
31
0
39
0
210
0
220
0
230
1
0
LINE
5
A4
100
AcDbEntity
8
1
62
256
6
ByLayer
370
18
48
1
60
0
100
AcDbLine
10
0
20
-12.6625
30
0
11
0.105555
21
-12.6625
31
0
39
0
210
0
220
0
230
1
0
LINE
5
A5
100
AcDbEntity
8
1
62
256
6
ByLayer
370
18
48
1
60
0
100
AcDbLine
10
0
20
-12.6625
30
0
11
0
21
12.6625
31
0
39
0
210
0
220
0
230
1
0
LINE
5
A6
100
AcDbEntity
8
1
62
256
6
ByLayer
370
13
48
1
60
0
100
AcDbLine
10
0.105555
20
-12.6625
30
0
11
0.105555
21
12.6625
31
0
39
0
210
0
220
0
230
1
0
LINE
5
A7
100
AcDbEntity
8
1
62
256
6
ByLayer
370
18
48
1
60
0
100
AcDbLine
10
30.993434
20
-9.111223
30
0
11
30.993546
21
-9.046015
31
0
39
0
210
0
220
0
230
1
0
LINE
5
A8
100
AcDbEntity
8
1
62
256
6
ByLayer
370
18
48
1
60
0
100
AcDbLine
10
3.104458
20
-13.08617
30
0
11
3.573985
21
12.6625
31
0
39
0
210
0
220
0
230
1
0
LINE
5
A9
100
AcDbEntity
8
1
62
256
6
ByLayer
370
18
48
1
60
0
100
AcDbLine
10
22.616038
20
-6.231675
30
0
11
22.120643
21
-6.277107
31
0
39
0
210
0
220
0
230
1
0
LINE
5
AA
100
AcDbEntity
8
1
62
256
6
ByLayer
370
18
48
1
60
0
100
AcDbLine
10
28.70154
20
-9.046861
30
0
11
26.92423
21
-8.90074
31
0
39
0
210
0
220
0
230
1
0
LINE
5
AB
100
AcDbEntity
8
1
62
256
6
ByLayer
370
13
48
1
60
0
100
AcDbLine
10
30.919418
20
-6.801122
30
0
11
30.293105
21
2.822968
31
0
39
0
210
0
220
0
230
1
0
LINE
5
AC
100
AcDbEntity
8
1
62
256
6
ByLayer
370
13
48
1
60
0
100
AcDbLine
10
21.324347
20
-16.964014
30
0
11
21.016134
21
-16.979078
31
0
39
0
210
0
220
0
230
1
0
LINE
5
AD
100
AcDbEntity
8
1
62
256
6
ByLayer
370
13
48
1
60
0
100
AcDbLine
10
23.289615
20
-6.631375
30
0
11
24.06125
21
-7.386737
31
0
39
0
210
0
220
0
230
1
0
LINE
5
AE
100
AcDbEntity
8
1
62
256
6
ByLayer
370
18
48
1
60
0
100
AcDbLine
10
19.819878
20
-9.004357
30
0
11
20.05742
21
-12.159443
31
0
39
0
210
0
220
0
230
1
0
LINE
5
AF
100
AcDbEntity
8
1
62
256
6
ByLayer
370
13
48
1
60
0
100
AcDbLine
10
20.973744
20
-6.84375
30
0
11
20.968617
21
-6.876912
31
0
39
0
210
0
220
0
230
1
0
LINE
5
B0
100
AcDbEntity
8
SK1
62
256
6
ByLayer
370
18
48
1
60
0
100
AcDbLine
10
-81
20
-12.6625
30
0
11
-84
21
-9.6625
31
0
39
0
210
0
220
0
230
1
0
LINE
5
B2
100
AcDbEntity
8
SK1
62
256
6
ByLayer
370
18
48
1
60
0
100
AcDbLine
10
-81
20
-12.6625
30
0
11
0
21
-12.6625
31
0
39
0
210
0
220
0
230
1
0
LINE
5
B3
100
AcDbEntity
8
SK1
62
256
6
ByLayer
370
18
48
1
60
0
100
AcDbLine
10
-81
20
12.6625
30
0
11
0
21
12.6625
31
0
39
0
210
0
220
0
230
1
0
LINE
5
B4
100
AcDbEntity
8
SK1
62
256
6
ByLayer
370
18
48
1
60
0
100
AcDbLine
10
-84
20
-9.6625
30
0
11
-84
21
9.6625
31
0
39
0
210
0
220
0
230
1
0
LINE
5
B5
100
AcDbEntity
8
SK1
62
256
6
ByLayer
370
18
48
1
60
0
100
AcDbLine
10
-81
20
12.6625
30
0
11
-84
21
9.6625
31
0
39
0
210
0
220
0
230
1
0
LINE
5
B6
100
AcDbEntity
8
SK1
62
256
6
ByLayer
370
18
48
1
60
0
100
AcDbLine
10
0
20
-12.6625
30
0
11
0
21
12.6625
31
0
39
0
210
0
220
0
230
1
0
LINE
5
B7
100
AcDbEntity
8
1
62
256
6
ByLayer
370
13
48
1
60
0
100
AcDbLine
10
31.276918
20
-10.229886
30
0
11
29.158745
21
-10.104102
31
0
39
0
210
0
220
0
230
1
0
LINE
5
B8
100
AcDbEntity
8
1
62
256
6
ByLayer
370
13
48
1
60
0
100
AcDbLine
10
23.960918
20
-10.076958
30
0
11
24.099301
21
-8.590116
31
0
39
0
210
0
220
0
230
1
0
LINE
5
B9
100
AcDbEntity
8
1
62
256
6
ByLayer
370
18
48
1
60
0
100
AcDbLine
10
20.589968
20
-12.569369
30
0
11
20.585192
21
-12.567604
31
0
39
0
210
0
220
0
230
1
0
LINE
5
BA
100
AcDbEntity
8
1
62
256
6
ByLayer
370
13
48
1
60
0
100
AcDbLine
10
26.761362
20
-17.329742
30
0
11
26.62684
21
-18.775092
31
0
39
0
210
0
220
0
230
1
0
LINE
5
BB
100
AcDbEntity
8
1
62
256
6
ByLayer
370
18
48
1
60
0
100
AcDbLine
10
21.166039
20
-8.415929
30
0
11
24.099301
21
-8.590116
31
0
39
0
210
0
220
0
230
1
0
LINE
5
BC
100
AcDbEntity
8
1
62
256
6
ByLayer
370
18
48
1
60
0
100
AcDbLine
10
28.578929
20
-12.865297
30
0
11
30.800035
21
-13.505213
31
0
39
0
210
0
220
0
230
1
0
LINE
5
BD
100
AcDbEntity
8
1
62
256
6
ByLayer
370
18
48
1
60
0
100
AcDbLine
10
31.478181
20
-14.938414
30
0
11
31.48782
21
-15.0561
31
0
39
0
210
0
220
0
230
1
0
LINE
5
BE
100
AcDbEntity
8
1
62
256
6
ByLayer
370
18
48
1
60
0
100
AcDbLine
10
21.73656
20
-14.353425
30
0
11
21.751156
21
-14.354625
31
0
39
0
210
0
220
0
230
1
0
LINE
5
BF
100
AcDbEntity
8
1
62
256
6
ByLayer
370
13
48
1
60
0
100
AcDbLine
10
21.509517
20
-17.654369
30
0
11
23.737382
21
-17.837533
31
0
39
0
210
0
220
0
230
1
0
LINE
5
C0
100
AcDbEntity
8
1
62
256
6
ByLayer
370
13
48
1
60
0
100
AcDbLine
10
27.802156
20
-18.831204
30
0
11
27.866735
21
-18.137344
31
0
39
0
210
0
220
0
230
1
0
LINE
5
C1
100
AcDbEntity
8
1
62
256
6
ByLayer
370
13
48
1
60
0
100
AcDbLine
10
22.9719
20
-7.53272
30
0
11
20.446742
21
-7.382768
31
0
39
0
210
0
220
0
230
1
0
LINE
5
C2
100
AcDbEntity
8
1
62
256
6
ByLayer
370
18
48
1
60
0
100
AcDbLine
10
20.358759
20
-7.517665
30
0
11
20.916506
21
-7.723797
31
0
39
0
210
0
220
0
230
1
0
LINE
5
C3
100
AcDbEntity
8
1
62
256
6
ByLayer
370
13
48
1
60
0
100
AcDbLine
10
28.044712
20
-9.030863
30
0
11
28.784589
21
-9.074799
31
0
39
0
210
0
220
0
230
1
0
LINE
5
C4
100
AcDbEntity
8
1
62
256
6
ByLayer
370
13
48
1
60
0
100
AcDbLine
10
30.995791
20
-9.206107
30
0
11
31.109574
21
-9.212864
31
0
39
0
210
0
220
0
230
1
0
LINE
5
C5
100
AcDbEntity
8
1
62
256
6
ByLayer
370
13
48
1
60
0
100
AcDbLine
10
20.904788
20
-7.849691
30
0
11
20.916506
21
-7.723797
31
0
39
0
210
0
220
0
230
1
0
LINE
5
C6
100
AcDbEntity
8
1
62
256
6
ByLayer
370
13
48
1
60
0
100
AcDbLine
10
20.145497
20
-8.038757
30
0
11
21.166039
21
-8.415929
31
0
39
0
210
0
220
0
230
1
0
LINE
5
C7
100
AcDbEntity
8
1
62
256
6
ByLayer
370
18
48
1
60
0
100
AcDbLine
10
31.109574
20
-9.212864
30
0
11
30.994573
21
-9.170362
31
0
39
0
210
0
220
0
230
1
0
LINE
5
C8
100
AcDbEntity
8
1
62
256
6
ByLayer
370
18
48
1
60
0
100
AcDbLine
10
25.257637
20
-10.196576
30
0
11
26.930482
21
-10.405873
31
0
39
0
210
0
220
0
230
1
0
LINE
5
C9
100
AcDbEntity
8
1
62
256
6
ByLayer
370
18
48
1
60
0
100
AcDbLine
10
21.751156
20
-14.354625
30
0
11
21.509517
21
-17.654369
31
0
39
0
210
0
220
0
230
1
0
LINE
5
CA
100
AcDbEntity
8
1
62
256
6
ByLayer
370
13
48
1
60
0
100
AcDbLine
10
21.932716
20
-11.477842
30
0
11
21.951722
21
-11.484866
31
0
39
0
210
0
220
0
230
1
0
LINE
5
CB
100
AcDbEntity
8
1
62
256
6
ByLayer
370
13
48
1
60
0
100
AcDbLine
10
25.257637
20
-10.196576
30
0
11
25.39602
21
-8.709734
31
0
39
0
210
0
220
0
230
1
0
LINE
5
CC
100
AcDbEntity
8
1
62
256
6
ByLayer
370
18
48
1
60
0
100
AcDbLine
10
30.850259
20
-13.830438
30
0
11
31.23474
21
-14.480762
31
0
39
0
210
0
220
0
230
1
0
LINE
5
CD
100
AcDbEntity
8
1
62
256
6
ByLayer
370
18
48
1
60
0
100
AcDbLine
10
30.78865
20
-13.400617
30
0
11
31.276918
21
-10.229886
31
0
39
0
210
0
220
0
230
1
0
LINE
5
CE
100
AcDbEntity
8
1
62
256
6
ByLayer
370
13
48
1
60
0
100
AcDbLine
10
20.901853
20
-12.58785
30
0
11
20.897205
21
-12.586132
31
0
39
0
210
0
220
0
230
1
0
LINE
5
CF
100
AcDbEntity
8
1
62
256
6
ByLayer
370
18
48
1
60
0
100
AcDbLine
10
20.916294
20
-7.847547
30
0
11
20.339981
21
-7.954063
31
0
39
0
210
0
220
0
230
1
0
LINE
5
D0
100
AcDbEntity
8
1
62
256
6
ByLayer
370
18
48
1
60
0
100
AcDbLine
10
31.48782
20
-15.0561
30
0
11
31.74737
21
-18.225082
31
0
39
0
210
0
220
0
230
1
0
LINE
5
D1
100
AcDbEntity
8
1
62
256
6
ByLayer
370
13
48
1
60
0
100
AcDbLine
10
21.506101
20
-15.380953
30
0
11
21.448012
21
-15.376177
31
0
39
0
210
0
220
0
230
1
0
LINE
5
D2
100
AcDbEntity
8
1
62
256
6
ByLayer
370
18
48
1
60
0
100
AcDbLine
10
26.62684
20
-18.775092
30
0
11
25.353886
21
-18.77498
31
0
39
0
210
0
220
0
230
1
0
LINE
5
D3
100
AcDbEntity
8
1
62
256
6
ByLayer
370
18
48
1
60
0
100
AcDbLine
10
20.906561
20
-13.06602
30
0
11
21.545669
21
-13.849541
31
0
39
0
210
0
220
0
230
1
0
LINE
5
D4
100
AcDbEntity
8
1
62
256
6
ByLayer
370
18
48
1
60
0
100
AcDbLine
10
20.585192
20
-12.567604
30
0
11
20.897205
21
-12.586132
31
0
39
0
210
0
220
0
230
1
0
LINE
5
D5
100
AcDbEntity
8
1
62
256
6
ByLayer
370
18
48
1
60
0
100
AcDbLine
10
25.39602
20
-8.709734
30
0
11
26.19483
21
-8.809676
31
0
39
0
210
0
220
0
230
1
0
LINE
5
D6
100
AcDbEntity
8
1
62
256
6
ByLayer
370
18
48
1
60
0
100
AcDbLine
10
26.919068
20
-8.900289
30
0
11
27.068866
21
-8.919031
31
0
39
0
210
0
220
0
230
1
0
LINE
5
D7
100
AcDbEntity
8
1
62
256
6
ByLayer
370
18
48
1
60
0
100
AcDbLine
10
20.585192
20
-12.567604
30
0
11
20.344102
21
-9.295635
31
0
39
0
210
0
220
0
230
1
0
LINE
5
D8
100
AcDbEntity
8
1
62
256
6
ByLayer
370
18
48
1
60
0
100
AcDbLine
10
24.109649
20
-14.967768
30
0
11
21.73035
21
-14.245101
31
0
39
0
210
0
220
0
230
1
0
LINE
5
D9
100
AcDbEntity
8
1
62
256
6
ByLayer
370
13
48
1
60
0
100
AcDbLine
10
27.866735
20
-18.137344
30
0
11
27.936665
21
-17.385993
31
0
39
0
210
0
220
0
230
1
0
LINE
5
DA
100
AcDbEntity
8
1
62
256
6
ByLayer
370
13
48
1
60
0
100
AcDbLine
10
21.859524
20
-10.30727
30
0
11
21.846099
21
-10.302308
31
0
39
0
210
0
220
0
230
1
0
LINE
5
DB
100
AcDbEntity
8
1
62
256
6
ByLayer
370
13
48
1
60
0
100
AcDbLine
10
22.178513
20
-9.977863
30
0
11
22.156752
21
-9.969821
31
0
39
0
210
0
220
0
230
1
0
LINE
5
DC
100
AcDbEntity
8
1
62
256
6
ByLayer
370
18
48
1
60
0
100
AcDbLine
10
27.068866
20
-8.919031
30
0
11
26.930482
21
-10.405873
31
0
39
0
210
0
220
0
230
1
0
LINE
5
DD
100
AcDbEntity
8
1
62
256
6
ByLayer
370
18
48
1
60
0
100
AcDbLine
10
20.393171
20
-12.47252
30
0
11
20.602397
21
-12.677335
31
0
39
0
210
0
220
0
230
1
0
LINE
5
DE
100
AcDbEntity
8
1
62
256
6
ByLayer
370
18
48
1
60
0
100
AcDbLine
10
21.34234
20
-18.496401
30
0
11
21.018586
21
-18.172068
31
0
39
0
210
0
220
0
230
1
0
LINE
5
DF
100
AcDbEntity
8
1
62
256
6
ByLayer
370
13
48
1
60
0
100
AcDbLine
10
20.344102
20
-9.295635
30
0
11
20.116485
21
-9.211512
31
0
39
0
210
0
220
0
230
1
0
LINE
5
E0
100
AcDbEntity
8
1
62
256
6
ByLayer
370
18
48
1
60
0
100
AcDbLine
10
30.802527
20
-13.401441
30
0
11
30.78865
21
-13.400617
31
0
39
0
210
0
220
0
230
1
0
LINE
5
E1
100
AcDbEntity
8
1
62
256
6
ByLayer
370
18
48
1
60
0
100
AcDbLine
10
21.932716
20
-11.477842
30
0
11
21.846099
21
-10.302308
31
0
39
0
210
0
220
0
230
1
0
LINE
5
E2
100
AcDbEntity
8
1
62
256
6
ByLayer
370
13
48
1
60
0
100
AcDbLine
10
21.033162
20
-18.015461
30
0
11
21.018586
21
-18.172068
31
0
39
0
210
0
220
0
230
1
0
LINE
5
E3
100
AcDbEntity
8
1
62
256
6
ByLayer
370
13
48
1
60
0
100
AcDbLine
10
21.378253
20
-16.563092
30
0
11
21.419286
21
-16.566465
31
0
39
0
210
0
220
0
230
1
0
LINE
5
E4
100
AcDbEntity
8
1
62
256
6
ByLayer
370
18
48
1
60
0
100
AcDbLine
10
21.506101
20
-15.380953
30
0
11
21.419286
21
-16.566465
31
0
39
0
210
0
220
0
230
1
0
LINE
5
E5
100
AcDbEntity
8
1
62
256
6
ByLayer
370
18
48
1
60
0
100
AcDbLine
10
30.88732
20
-19.08485
30
0
11
27.802156
21
-18.831204
31
0
39
0
210
0
220
0
230
1
0
LINE
5
E6
100
AcDbEntity
8
1
62
256
6
ByLayer
370
18
48
1
60
0
100
AcDbLine
10
23.960918
20
-10.076958
30
0
11
22.156752
21
-9.969821
31
0
39
0
210
0
220
0
230
1
0
LINE
5
E7
100
AcDbEntity
8
1
62
256
6
ByLayer
370
18
48
1
60
0
100
AcDbLine
10
25.353886
20
-18.77498
30
0
11
25.492269
21
-17.288138
31
0
39
0
210
0
220
0
230
1
0
LINE
5
E8
100
AcDbEntity
8
2
62
256
6
ByLayer
370
13
48
1
60
0
100
AcDbLine
10
31.75
20
18.729581
30
0
11
0
21
18.729581
31
0
39
0
210
0
220
0
230
1
0
LINE
5
EA
100
AcDbEntity
8
2
62
256
6
ByLayer
370
13
48
1
60
0
100
AcDbLine
10
0
20
3.944817
30
0
11
0
21
20.729581
31
0
39
0
210
0
220
0
230
1
0
LINE
5
EB
100
AcDbEntity
8
2
62
256
6
ByLayer
370
13
48
1
60
0
100
AcDbLine
10
31.75
20
1.5875
30
0
11
31.75
21
20.729581
31
0
39
0
210
0
220
0
230
1
0
LINE
5
EC
100
AcDbEntity
8
1
62
256
6
ByLayer
370
18
48
1
60
1
100
AcDbLine
10
0
20
18.729581
30
0
11
3.499998
21
19.190365
31
0
39
0
210
0
220
0
230
1
0
LINE
5
ED
100
AcDbEntity
8
1
62
256
6
ByLayer
370
18
48
1
60
1
100
AcDbLine
10
3.499998
20
19.190365
30
0
11
3.500002
21
18.268797
31
0
39
0
210
0
220
0
230
1
0
LINE
5
EE
100
AcDbEntity
8
1
62
256
6
ByLayer
370
18
48
1
60
1
100
AcDbLine
10
3.500002
20
18.268797
30
0
11
0
21
18.729581
31
0
39
0
210
0
220
0
230
1
0
LINE
5
EF
100
AcDbEntity
8
1
62
256
6
ByLayer
370
18
48
1
60
1
100
AcDbLine
10
31.75
20
18.729581
30
0
11
28.250002
21
18.268797
31
0
39
0
210
0
220
0
230
1
0
LINE
5
F0
100
AcDbEntity
8
1
62
256
6
ByLayer
370
18
48
1
60
1
100
AcDbLine
10
28.250002
20
18.268797
30
0
11
28.249998
21
19.190365
31
0
39
0
210
0
220
0
230
1
0
LINE
5
F1
100
AcDbEntity
8
1
62
256
6
ByLayer
370
18
48
1
60
1
100
AcDbLine
10
28.249998
20
19.190365
30
0
11
31.75
21
18.729581
31
0
39
0
210
0
220
0
230
1
0
LINE
5
19B
100
AcDbEntity
8
1
62
256
6
ByLayer
370
18
48
1
60
1
100
AcDbLine
10
0
20
18.729581
30
0
11
3.499998
21
19.190365
31
0
39
0
210
0
220
0
230
1
0
LINE
5
19C
100
AcDbEntity
8
1
62
256
6
ByLayer
370
18
48
1
60
1
100
AcDbLine
10
3.499998
20
19.190365
30
0
11
3.500002
21
18.268797
31
0
39
0
210
0
220
0
230
1
0
LINE
5
19D
100
AcDbEntity
8
1
62
256
6
ByLayer
370
18
48
1
60
1
100
AcDbLine
10
3.500002
20
18.268797
30
0
11
0
21
18.729581
31
0
39
0
210
0
220
0
230
1
0
LINE
5
19F
100
AcDbEntity
8
1
62
256
6
ByLayer
370
18
48
1
60
1
100
AcDbLine
10
31.75
20
18.729581
30
0
11
28.250002
21
18.268797
31
0
39
0
210
0
220
0
230
1
0
LINE
5
1A0
100
AcDbEntity
8
1
62
256
6
ByLayer
370
18
48
1
60
1
100
AcDbLine
10
28.250002
20
18.268797
30
0
11
28.249998
21
19.190365
31
0
39
0
210
0
220
0
230
1
0
LINE
5
1A1
100
AcDbEntity
8
1
62
256
6
ByLayer
370
18
48
1
60
1
100
AcDbLine
10
28.249998
20
19.190365
30
0
11
31.75
21
18.729581
31
0
39
0
210
0
220
0
230
1
0
MTEXT
5
196
100
AcDbEntity
8
SK6
62
256
6
ByLayer
370
18
48
1
60
0
100
AcDbMText
10
-76.943446
20
16.41665
30
0
210
0
220
0
230
1
1
\W0.7123;QS-3-80-LL16-20-10C
40
3.5
41
0
44
1.084337
50
0
71
7
72
5
7
iso_b_vert
0
MTEXT
5
19A
100
AcDbEntity
8
2
62
256
6
ByLayer
370
18
48
1
60
0
100
AcDbMText
10
14.311842
20
19.854581
30
0
210
0
220
0
230
1
1
\W0.6740;32
40
4.5
41
0
44
1.084337
50
0
71
7
72
5
7
iso_b_vert
0
HATCH
5
19E
100
AcDbEntity
8
2
62
256
6
ByLayer
370
13
48
1
60
0
100
AcDbHatch
10
0
20
0
30
0
210
0
220
0
230
1
2
ANSI31
70
0
71
0
91
1
92
5
93
3
72
1
10
0
20
18.7295810928903
11
3.49999830744682
21
19.190364834443
72
1
10
3.49999830744682
20
19.190364834443
11
3.50000169255318
21
18.2687973513375
72
1
10
3.50000169255318
20
18.2687973513375
11
0
21
18.7295810928903
97
0
75
0
76
1
52
0
41
0.02
77
0
78
1
53
45
43
0
44
0
45
-0.0449012806053457
46
0.0449012806053458
79
0
47
0
98
1
10
0
20
0
0
HATCH
5
1A2
100
AcDbEntity
8
2
62
256
6
ByLayer
370
13
48
1
60
0
100
AcDbHatch
10
0
20
0
30
0
210
0
220
0
230
1
2
ANSI31
70
0
71
0
91
1
92
5
93
3
72
1
10
31.75
20
18.7295810928903
11
28.2500016925532
21
18.2687973513375
72
1
10
28.2500016925532
20
18.2687973513375
11
28.2499983074468
21
19.190364834443
72
1
10
28.2499983074468
20
19.190364834443
11
31.75
21
18.7295810928903
97
0
75
0
76
1
52
0
41
0.02
77
0
78
1
53
44.9999999999999
43
0
44
0
45
-0.0449012806053457
46
0.0449012806053458
79
0
47
0
98
1
10
0
20
0
0
DIMENSION
5
1AD
100
AcDbEntity
8
SK2
62
256
6
ByLayer
370
13
48
1
60
0
100
AcDbDimension
2
DimnDraft3D1
10
31.75
20
28.956018
30
0
11
-37.902354
21
28.956018
31
0
70
32
71
5
72
1
41
1
210
0
220
0
230
1
3
Standard
100
AcDbAlignedDimension
13
-84
23
1.5875
33
0
14
31.75
24
1.5875
34
0
50
0
100
AcDbRotatedDimension
1001
ACAD
1000
DSTYLE
1002
{
1070
   279
1070
     0
1070
   172
1070
     1
1070
   173
1070
     1
1070
   340
1005
197
1070
   271
1070
     0
1070
   272
1070
     2
1070
    77
1070
     1
1070
    73
1070
     0
1070
   171
1070
     3
1070
   274
1070
     4
1070
   177
1070
   150
1070
   176
1070
     9
1070
   178
1070
    35
1070
    78
1070
     8
1070
    48
1040
-0.005
1070
    41
1041
3.5
1070
   147
1041
2.25
1070
    42
1041
1.5875
1070
    44
1041
2.0
1070
   140
1041
4.5
1070
   343
1005
0
1070
   344
1005
0
1002
}
0
DIMENSION
5
1B7
100
AcDbEntity
8
2
62
256
6
ByLayer
370
13
48
1
60
0
100
AcDbDimension
2
DimnDraft3D2
10
56.571784
20
-19.0875
30
0
11
56.571784
21
0.991075
31
0
70
32
71
5
72
1
41
1
210
0
220
0
230
1
3
Standard
100
AcDbAlignedDimension
13
33.3375
23
12.6625
33
0
14
43.3375
24
-19.0875
34
0
50
90
100
AcDbRotatedDimension
1001
ACAD
1000
DSTYLE
1002
{
1070
    74
1070
     0
1070
   279
1070
     0
1070
   172
1070
     1
1070
   173
1070
     1
1070
   340
1005
197
1070
   271
1070
     0
1070
   272
1070
     2
1070
    77
1070
     1
1070
    73
1070
     0
1070
   171
1070
     3
1070
   274
1070
     4
1070
   177
1070
   150
1070
   176
1070
     9
1070
   178
1070
    35
1070
    78
1070
     8
1070
    48
1040
-0.005
1070
    41
1041
3.5
1070
   147
1041
2.25
1070
    42
1041
1.5875
1070
    44
1041
2.0
1070
   140
1041
4.5
1070
   343
1005
0
1070
   344
1005
0
1002
}
0
DIMENSION
5
1C1
100
AcDbEntity
8
SK2
62
256
6
ByLayer
370
13
48
1
60
0
100
AcDbDimension
2
DimnDraft3D3
10
-95.704654
20
-12.6625
30
0
11
-95.704654
21
-0.718377
31
0
70
32
71
5
72
1
41
1
210
0
220
0
230
1
3
Standard
100
AcDbAlignedDimension
13
-85.5875
23
12.6625
33
0
14
-85.5875
24
-12.6625
34
0
50
90
100
AcDbRotatedDimension
1001
ACAD
1000
DSTYLE
1002
{
1070
    74
1070
     0
1070
   279
1070
     0
1070
   172
1070
     1
1070
   173
1070
     1
1070
   340
1005
197
1070
   271
1070
     0
1070
   272
1070
     2
1070
    77
1070
     1
1070
    73
1070
     0
1070
   171
1070
     3
1070
   274
1070
     4
1070
   177
1070
   150
1070
   176
1070
     9
1070
   178
1070
    35
1070
    78
1070
     8
1070
    48
1040
-0.005
1070
    41
1041
3.5
1070
   147
1041
2.25
1070
    42
1041
1.5875
1070
    44
1041
2.0
1070
   140
1041
4.5
1070
   343
1005
0
1070
   344
1005
0
1002
}
0
DIMENSION
5
1CB
100
AcDbEntity
8
2
62
256
6
ByLayer
370
13
48
1
60
0
100
AcDbDimension
2
DimnDraft3D4
10
31.75
20
5
30
0
11
22.052244
21
-26.059499
31
0
70
34
71
5
72
1
41
1
210
0
220
0
230
1
3
Standard
100
AcDb2LineAngularDimension
13
31.75
23
-19.0875
33
0
14
26.766813
24
-18.677807
34
0
15
31.75
25
0
35
0
16
19.655457
26
-30.228497
36
0
40
0
0
ENDSEC
0
SECTION
2
OBJECTS
0
DICTIONARY
5
235
330
0
100
AcDbDictionary
280
0
281
1
3
ACAD_GROUP
350
236
3
ACAD_MLINESTYLE
350
237
0
DICTIONARY
5
236
330
0
100
AcDbDictionary
280
0
281
1
0
DICTIONARY
5
237
330
0
100
AcDbDictionary
280
0
281
1
3
Standard
350
18
0
MLINESTYLE
5
18
330
237
100
AcDbMlineStyle
2
Standard
70
0
3

62
256
51
90
52
90
71
2
49
-0.5
62
256
6
ByLayer
49
0.5
62
256
6
ByLayer
0
RASTERVARIABLES
5
224
330

100
AcDbRasterVariables
90
0
70
1
71
1
72
1
0
ENDSEC
0
EOF
