0
SECTION
2
HEADER
9
$ACADVER
1
AC1015
9
$DWGCODEPAGE
3
ANSI_1252
9
$HANDSEED
5
242
9
$ANGBASE
50
0
9
$ANGDIR
70
0
9
$ATTMODE
70
1
9
$AUNITS
70
0
9
$AUPREC
70
0
9
$CECOLOR
62
256
9
$CELTSCALE
40
1
9
$CELTYPE
6
ByLayer
9
$CELWEIGHT
370
18
9
$CLAYER
8
0
9
$CMLJUST
70
0
9
$CMLSCALE
40
1
9
$CMLSTYLE
2
Standard
9
$DIMSTYLE
2
Standard
9
$TEXTSIZE
40
0.2
9
$TEXTSTYLE
7
Standard
9
$LUNITS
70
2
9
$LUPREC
70
4
9
$EXTNAMES
290
1
9
$INSUNITS
70
4
9
$LTSCALE
40
1
9
$LWDISPLAY
290
1
9
$PDMODE
70
0
9
$PDSIZE
40
0
9
$PLINEGEN
70
0
0
ENDSEC
0
SECTION
2
CLASSES
0
CLASS
1
RASTERVARIABLES
2
AcDbRasterVariables
3
ISM
90
0
280
0
281
0
0
ENDSEC
0
SECTION
2
TABLES
0
TABLE
2
VPORT
5
238
100
AcDbSymbolTable
0
VPORT
5
1
100
AcDbSymbolTableRecord
100
AcDbViewportTableRecord
2
*Active
70
0
10
0
20
0
11
1
21
1
12
-1
22
1
13
0
23
0
14
0.5
24
0.5
15
10
25
10
16
0
26
0
36
1
17
0
27
0
37
0
0
ENDTAB
0
TABLE
2
LTYPE
5
239
100
AcDbSymbolTable
0
LTYPE
5
14
100
AcDbSymbolTableRecord
100
AcDbLinetypeTableRecord
70
0
2
ByBlock
3

72
65
73
0
40
0
0
LTYPE
5
15
100
AcDbSymbolTableRecord
100
AcDbLinetypeTableRecord
70
0
2
ByLayer
3

72
65
73
0
40
0
0
LTYPE
5
16
100
AcDbSymbolTableRecord
100
AcDbLinetypeTableRecord
70
0
2
CONTINUOUS
3
Solid line
72
65
73
0
40
0
0
LTYPE
5
6A
100
AcDbSymbolTableRecord
100
AcDbLinetypeTableRecord
70
0
2
CENTER
3
____ _ ____ _ ____ _ ____
72
65
73
4
40
47.5
49
22
74
0
49
-8.5
74
0
49
8.5
74
0
49
-8.5
74
0
0
LTYPE
5
6B
100
AcDbSymbolTableRecord
100
AcDbLinetypeTableRecord
70
0
2
DASHED
3
__ __ __ __ __ __ __ __ __
72
65
73
2
40
25.72
49
12.86
74
0
49
-12.86
74
0
0
ENDTAB
0
TABLE
2
LAYER
5
23a
100
AcDbSymbolTable
0
LAYER
5
10
100
AcDbSymbolTableRecord
100
AcDbLayerTableRecord
2
0
70
0
62
7
6
CONTINUOUS
290
1
370
-3
390
0
0
LAYER
5
6D
100
AcDbSymbolTableRecord
100
AcDbLayerTableRecord
2
80
70
0
62
-6
6
CONTINUOUS
290
1
370
-3
390
0
0
LAYER
5
6F
100
AcDbSymbolTableRecord
100
AcDbLayerTableRecord
2
81
70
0
62
-3
6
CONTINUOUS
290
1
370
-3
390
0
0
LAYER
5
72
100
AcDbSymbolTableRecord
100
AcDbLayerTableRecord
2
1
70
0
62
4
6
CONTINUOUS
290
1
370
-3
390
0
0
LAYER
5
E8
100
AcDbSymbolTableRecord
100
AcDbLayerTableRecord
2
2
70
0
62
7
6
CONTINUOUS
290
1
370
-3
390
0
0
LAYER
5
225
100
AcDbSymbolTableRecord
100
AcDbLayerTableRecord
2
SK1
70
0
62
4
6
CONTINUOUS
290
1
370
-3
390
0
0
LAYER
5
226
100
AcDbSymbolTableRecord
100
AcDbLayerTableRecord
2
SK6
70
0
62
5
6
CONTINUOUS
290
1
370
-3
390
0
0
LAYER
5
227
100
AcDbSymbolTableRecord
100
AcDbLayerTableRecord
2
SK2
70
0
62
7
6
CONTINUOUS
290
1
370
-3
390
0
0
ENDTAB
0
TABLE
2
STYLE
5
23b
100
AcDbSymbolTable
0
STYLE
5
11
100
AcDbSymbolTableRecord
100
AcDbTextStyleTableRecord
2
Standard
3
txt
70
0
71
0
40
0
41
1
42
0
50
0
0
STYLE
5
197
100
AcDbSymbolTableRecord
100
AcDbTextStyleTableRecord
2
iso_b_vert
3
simplex.shx
70
0
71
0
40
0
41
1
42
0
50
0
0
STYLE
5
198
100
AcDbSymbolTableRecord
100
AcDbTextStyleTableRecord
2
DWGDirectTextStyle
3
simplex
70
0
71
0
40
0
41
1
42
0
50
0
0
ENDTAB
0
TABLE
2
DIMSTYLE
5
23c
100
AcDbSymbolTable
100
AcDbDimStyleTable
0
DIMSTYLE
105
27
100
AcDbSymbolTableRecord
100
AcDbDimStyleTableRecord
2
Standard
70
0
3
<>
41
0.18
42
0.0625
44
0.18
140
0.18
147
0.09
73
0
74
0
77
1
271
2
275
0
278
52
280
0
340
11
0
ENDTAB
0
TABLE
2
VIEW
5
23d
100
AcDbSymbolTable
0
ENDTAB
0
TABLE
2
UCS
5
23e
100
AcDbSymbolTable
0
ENDTAB
0
TABLE
2
APPID
5
23f
100
AcDbSymbolTable
0
APPID
5
12
100
AcDbSymbolTableRecord
100
AcDbRegAppTableRecord
2
ACAD
70
0
0
ENDTAB
0
TABLE
2
BLOCK_RECORD
5
240
100
AcDbSymbolTable
0
BLOCK_RECORD
5
1F
100
AcDbSymbolTableRecord
100
AcDbBlockTableRecord
2
*Model_Space
340
0
70
0
0
BLOCK_RECORD
5
1B
100
AcDbSymbolTableRecord
100
AcDbBlockTableRecord
2
*Paper_Space
340
0
70
0
0
BLOCK_RECORD
5
23
100
AcDbSymbolTableRecord
100
AcDbBlockTableRecord
2
*Paper_Space0
340
0
70
0
0
BLOCK_RECORD
5
1A3
100
AcDbSymbolTableRecord
100
AcDbBlockTableRecord
2
DimnDraft3D1
340
0
70
0
0
BLOCK_RECORD
5
1AE
100
AcDbSymbolTableRecord
100
AcDbBlockTableRecord
2
DimnDraft3D2
340
0
70
0
0
BLOCK_RECORD
5
1B8
100
AcDbSymbolTableRecord
100
AcDbBlockTableRecord
2
DimnDraft3D3
340
0
70
0
0
BLOCK_RECORD
5
1C2
100
AcDbSymbolTableRecord
100
AcDbBlockTableRecord
2
DimnDraft3D4
340
0
70
0
0
ENDTAB
0
ENDSEC
0
SECTION
2
BLOCKS
0
BLOCK
5
20
100
AcDbEntity
8
0
100
AcDbBlockBegin
2
*Model_Space
70
0
10
0
20
0
30
0
3
*Model_Space
0
ENDBLK
5
21
100
AcDbEntity
8
0
100
AcDbBlockEnd
0
BLOCK
5
1C
100
AcDbEntity
8
0
100
AcDbBlockBegin
2
*Paper_Space
70
0
10
0
20
0
30
0
3
*Paper_Space
0
ENDBLK
5
1D
100
AcDbEntity
8
0
100
AcDbBlockEnd
0
BLOCK
5
24
100
AcDbEntity
8
0
100
AcDbBlockBegin
2
*Paper_Space0
70
0
10
0
20
0
30
0
3
*Paper_Space0
0
ENDBLK
5
25
100
AcDbEntity
8
0
100
AcDbBlockEnd
0
BLOCK
5
1AB
100
AcDbEntity
8
0
100
AcDbBlockBegin
2
DimnDraft3D1
70
0
10
0
20
0
30
0
3
DimnDraft3D1
0
MTEXT
5
1A4
100
AcDbEntity
8
SK2
62
256
6
ByLayer
370
18
48
1
60
0
100
AcDbMText
10
-25.821433
20
26.906018
30
0
210
0
220
0
230
1
1
\W0.6506;104
40
4.5
41
0
44
1.084337
50
0
71
7
72
5
7
iso_b_vert
0
LINE
5
1A6
100
AcDbEntity
8
SK2
62
256
6
ByLayer
370
13
48
1
60
0
100
AcDbLine
10
-69
20
1.5875
30
0
11
-69
21
27.781018
31
0
39
0
210
0
220
0
230
1
0
LINE
5
1A7
100
AcDbEntity
8
SK2
62
256
6
ByLayer
370
13
48
1
60
0
100
AcDbLine
10
34.925
20
1.5875
30
0
11
34.925
21
27.781018
31
0
39
0
210
0
220
0
230
1
0
LINE
5
1A8
100
AcDbEntity
8
SK2
62
256
6
ByLayer
370
13
48
1
60
0
100
AcDbLine
10
-69
20
25.781018
30
0
11
34.925
21
25.781018
31
0
39
0
210
0
220
0
230
1
0
SOLID
5
1A9
100
AcDbEntity
8
SK2
62
256
6
ByLayer
370
13
48
1
60
0
100
AcDbTrace
10
-69
20
25.781018
30
0
11
-65.500002
21
26.241802
31
0
12
-65.499998
22
25.320234
32
0
13
-69
23
25.781018
33
0
39
0
210
0
220
0
230
1
0
SOLID
5
1AA
100
AcDbEntity
8
SK2
62
256
6
ByLayer
370
13
48
1
60
0
100
AcDbTrace
10
34.925
20
25.781018
30
0
11
31.425002
21
25.320234
31
0
12
31.424998
22
26.241802
32
0
13
34.925
23
25.781018
33
0
39
0
210
0
220
0
230
1
0
ENDBLK
5
1AC
100
AcDbEntity
8
0
100
AcDbBlockEnd
0
BLOCK
5
1B5
100
AcDbEntity
8
0
100
AcDbBlockBegin
2
DimnDraft3D2
70
0
10
0
20
0
30
0
3
DimnDraft3D2
0
MTEXT
5
1AF
100
AcDbEntity
8
2
62
256
6
ByLayer
370
18
48
1
60
0
100
AcDbMText
10
58.621784
20
2.602917
30
0
210
0
220
0
230
1
1
\W0.6740;25
40
4.5
41
0
44
1.084337
50
90
71
7
72
5
7
iso_b_vert
0
LINE
5
1B0
100
AcDbEntity
8
2
62
256
6
ByLayer
370
13
48
1
60
0
100
AcDbLine
10
36.5125
20
9.4875
30
0
11
61.746784
21
9.4875
31
0
39
0
210
0
220
0
230
1
0
LINE
5
1B1
100
AcDbEntity
8
2
62
256
6
ByLayer
370
13
48
1
60
0
100
AcDbLine
10
46.5125
20
-15.9125
30
0
11
61.746784
21
-15.9125
31
0
39
0
210
0
220
0
230
1
0
LINE
5
1B2
100
AcDbEntity
8
2
62
256
6
ByLayer
370
13
48
1
60
0
100
AcDbLine
10
59.746784
20
9.4875
30
0
11
59.746784
21
-15.9125
31
0
39
0
210
0
220
0
230
1
0
SOLID
5
1B3
100
AcDbEntity
8
2
62
256
6
ByLayer
370
13
48
1
60
0
100
AcDbTrace
10
59.746784
20
9.4875
30
0
11
60.207568
21
5.987502
31
0
12
59.286
22
5.987498
32
0
13
59.746784
23
9.4875
33
0
39
0
210
0
220
0
230
1
0
SOLID
5
1B4
100
AcDbEntity
8
2
62
256
6
ByLayer
370
13
48
1
60
0
100
AcDbTrace
10
59.746784
20
-15.9125
30
0
11
59.286
21
-12.412502
31
0
12
60.207568
22
-12.412498
32
0
13
59.746784
23
-15.9125
33
0
39
0
210
0
220
0
230
1
0
ENDBLK
5
1B6
100
AcDbEntity
8
0
100
AcDbBlockEnd
0
BLOCK
5
1BF
100
AcDbEntity
8
0
100
AcDbBlockBegin
2
DimnDraft3D3
70
0
10
0
20
0
30
0
3
DimnDraft3D3
0
MTEXT
5
1B9
100
AcDbEntity
8
SK2
62
256
6
ByLayer
370
18
48
1
60
0
100
AcDbMText
10
-81.829654
20
-1.719035
30
0
210
0
220
0
230
1
1
\W0.5469;19
40
4.5
41
0
44
1.084337
50
90
71
7
72
5
7
iso_b_vert
0
LINE
5
1BA
100
AcDbEntity
8
SK2
62
256
6
ByLayer
370
13
48
1
60
0
100
AcDbLine
10
-70.5875
20
9.4875
30
0
11
-82.704654
21
9.4875
31
0
39
0
210
0
220
0
230
1
0
LINE
5
1BB
100
AcDbEntity
8
SK2
62
256
6
ByLayer
370
13
48
1
60
0
100
AcDbLine
10
-70.5875
20
-9.4875
30
0
11
-82.704654
21
-9.4875
31
0
39
0
210
0
220
0
230
1
0
LINE
5
1BC
100
AcDbEntity
8
SK2
62
256
6
ByLayer
370
13
48
1
60
0
100
AcDbLine
10
-80.704654
20
9.4875
30
0
11
-80.704654
21
-9.4875
31
0
39
0
210
0
220
0
230
1
0
SOLID
5
1BD
100
AcDbEntity
8
SK2
62
256
6
ByLayer
370
13
48
1
60
0
100
AcDbTrace
10
-80.704654
20
9.4875
30
0
11
-80.24387
21
5.987502
31
0
12
-81.165438
22
5.987498
32
0
13
-80.704654
23
9.4875
33
0
39
0
210
0
220
0
230
1
0
SOLID
5
1BE
100
AcDbEntity
8
SK2
62
256
6
ByLayer
370
13
48
1
60
0
100
AcDbTrace
10
-80.704654
20
-9.4875
30
0
11
-81.165438
21
-5.987502
31
0
12
-80.24387
22
-5.987498
32
0
13
-80.704654
23
-9.4875
33
0
39
0
210
0
220
0
230
1
0
ENDBLK
5
1C0
100
AcDbEntity
8
0
100
AcDbBlockEnd
0
BLOCK
5
1C9
100
AcDbEntity
8
0
100
AcDbBlockBegin
2
DimnDraft3D4
70
0
10
0
20
0
30
0
3
DimnDraft3D4
0
MTEXT
5
1C3
100
AcDbEntity
8
2
62
256
6
ByLayer
370
18
48
1
60
0
100
AcDbMText
10
20.739761
20
-22.424364
30
0
210
0
220
0
230
1
1
\W0.8531;95%%d
40
4.5
41
0
44
1.084337
50
305.713457915011
71
7
72
5
7
iso_b_vert
0
LINE
5
1C4
100
AcDbEntity
8
2
62
256
6
ByLayer
370
13
48
1
60
0
100
AcDbLine
10
28.359651
20
-15.37273
30
0
11
16.543182
21
-14.401239
31
0
39
0
210
0
220
0
230
1
0
LINE
5
1C5
100
AcDbEntity
8
2
62
256
6
ByLayer
370
13
48
1
60
0
100
AcDbLine
10
34.925
20
-1.5875
30
0
11
34.925
21
-34.356337
31
0
39
0
210
0
220
0
230
1
0
ARC
5
1C6
100
AcDbEntity
8
2
62
256
6
ByLayer
370
13
48
1
60
0
100
AcDbCircle
39
0
10
34.925
20
-15.9125
30
0
40
16.4438373540296
210
0
220
0
230
1
100
AcDbArc
50
175.3
51
270
0
SOLID
5
1C7
100
AcDbEntity
8
2
62
256
6
ByLayer
370
13
48
1
60
0
100
AcDbTrace
10
18.536457
20
-14.565116
30
0
11
18.895496
21
-18.077011
31
0
12
17.974316
22
-18.050275
32
0
13
18.536457
23
-14.565116
33
0
39
0
210
0
220
0
230
1
0
SOLID
5
1C8
100
AcDbEntity
8
2
62
256
6
ByLayer
370
13
48
1
60
0
100
AcDbTrace
10
34.925
20
-32.356337
30
0
11
31.405503
21
-32.631019
31
0
12
31.454331
22
-31.710746
32
0
13
34.925
23
-32.356337
33
0
39
0
210
0
220
0
230
1
0
ENDBLK
5
1CA
100
AcDbEntity
8
0
100
AcDbBlockEnd
0
ENDSEC
0
SECTION
2
ENTITIES
0
ARC
5
F1
100
AcDbEntity
8
1
62
256
6
ByLayer
370
18
48
1
60
0
100
AcDbCircle
39
0
10
-26.973892
20
21.721112
30
0
40
37.2095075645817
210
0
220
0
230
-1
100
AcDbArc
50
275.176118
51
294.129719
0
ARC
5
F2
100
AcDbEntity
8
1
62
256
6
ByLayer
370
18
48
1
60
0
100
AcDbCircle
39
0
10
0.4
20
-39.388929
30
0
40
29.7514289915787
210
0
220
0
230
-1
100
AcDbArc
50
104.081537
51
114.129719
0
ARC
5
F3
100
AcDbEntity
8
1
62
256
6
ByLayer
370
18
48
1
60
0
100
AcDbCircle
39
0
10
-0.372277
20
-11.0875
30
0
40
1.6
210
0
220
0
230
-1
100
AcDbArc
50
90
51
118.146978
0
ARC
5
F4
100
AcDbEntity
8
1
62
256
6
ByLayer
370
18
48
1
60
0
100
AcDbCircle
39
0
10
-3.867507
20
11.0875
30
0
40
1.60000000000006
210
0
220
0
230
-1
100
AcDbArc
50
195
51
270
0
ARC
5
F5
100
AcDbEntity
8
1
62
256
6
ByLayer
370
18
48
1
60
0
100
AcDbCircle
39
0
10
-0.4
20
-39.388929
30
0
40
29.7514289910899
210
0
220
0
230
1
100
AcDbArc
50
81.75312
51
87.057884
0
ELLIPSE
5
F6
100
AcDbEntity
8
1
62
256
6
ByLayer
370
18
48
1
60
0
100
AcDbEllipse
10
34.201124
20
-6.460967
30
0
11
-0.0314355445890536
21
0.544658898712885
31
0
210
0
220
0
230
-1
40
0.016469
41
-0.805835769861681
42
-0.270309115546252
0
ELLIPSE
5
F7
100
AcDbEntity
8
1
62
256
6
ByLayer
370
13
48
1
60
0
100
AcDbEllipse
10
54.468602
20
44.08026
30
0
11
32.5801396433688
21
50.2316337813481
31
0
210
0
220
0
230
1
40
0.991822
41
2.88012753565437
42
3.05832225134646
0
ELLIPSE
5
F8
100
AcDbEntity
8
1
62
256
6
ByLayer
370
18
48
1
60
0
100
AcDbEllipse
10
25.77431
20
-8.772232
30
0
11
-1.32658274734609
21
-2.19554607008153
31
0
210
0
220
0
230
-1
40
0.99144
41
0.255175718358621
42
0.948069014429819
0
ELLIPSE
5
F9
100
AcDbEntity
8
1
62
256
6
ByLayer
370
13
48
1
60
0
100
AcDbEllipse
10
23.963195
20
-2.990212
30
0
11
1.1412547737035
21
-1.12139981340241
31
0
210
0
220
0
230
1
40
0.025712
41
-2.61958923261309
42
-1.69617677157959
0
ELLIPSE
5
FA
100
AcDbEntity
8
1
62
256
6
ByLayer
370
13
48
1
60
0
100
AcDbEllipse
10
13.273628
20
6.76772
30
0
11
2.31862205220087
21
3.57482119715891
31
0
210
0
220
0
230
1
40
0.991822
41
-0.19408939297462
42
2.88012753565437
0
ELLIPSE
5
FB
100
AcDbEntity
8
1
62
256
6
ByLayer
370
18
48
1
60
0
100
AcDbEllipse
10
31.100253
20
-4.075875
30
0
11
-0.439952918829409
21
3.0838428177576
31
0
210
0
220
0
230
-1
40
0.962276
41
1.65336022019704
42
1.83845716144314
0
ELLIPSE
5
FC
100
AcDbEntity
8
1
62
256
6
ByLayer
370
13
48
1
60
0
100
AcDbEllipse
10
-25.344944
20
-33.224148
30
0
11
32.5801396433688
21
50.231633781348
31
0
210
0
220
0
230
1
40
0.991822
41
-0.372208202110959
42
-0.194089392974617
0
ELLIPSE
5
FD
100
AcDbEntity
8
1
62
256
6
ByLayer
370
13
48
1
60
0
100
AcDbEllipse
10
16.897819
20
-4.560417
30
0
11
0.980156078465967
21
1.26463198672429
31
0
210
0
220
0
230
1
40
0.127185
41
0.0979689081917706
42
1.58149877238694
0
ELLIPSE
5
FE
100
AcDbEntity
8
1
62
256
6
ByLayer
370
13
48
1
60
0
100
AcDbEllipse
10
24.428069
20
2.739479
30
0
11
1.30182530667291
21
0.930188621144109
31
0
210
0
220
0
230
1
40
0.118889
41
1.61755968186982
42
3.101089546065
0
ELLIPSE
5
FF
100
AcDbEntity
8
1
62
256
6
ByLayer
370
18
48
1
60
0
100
AcDbEllipse
10
45.066015
20
-174.761088
30
0
11
-11.682331621839
21
181.140670720482
31
0
210
0
220
0
230
-1
40
0.00521
41
-0.028600071316407
42
0.0631364490685249
0
ELLIPSE
5
100
100
AcDbEntity
8
1
62
256
6
ByLayer
370
18
48
1
60
0
100
AcDbEllipse
10
26.00108
20
-5.573438
30
0
11
-1.30994953718864
21
-2.1680174602442
31
0
210
0
220
0
230
-1
40
0.99144
41
2.51072566377134
42
-2.6161144832282
0
ELLIPSE
5
101
100
AcDbEntity
8
1
62
256
6
ByLayer
370
18
48
1
60
0
100
AcDbEllipse
10
24.748404
20
-4.083114
30
0
11
-1.27680210832817
21
-0.0901326060577989
31
0
210
0
220
0
230
-1
40
0.369996
41
1.10363606262611
42
2.02208313378766
0
ELLIPSE
5
102
100
AcDbEntity
8
1
62
256
6
ByLayer
370
13
48
1
60
0
100
AcDbEllipse
10
13.117236
20
6.869156
30
0
11
-3.18596689464134
21
-4.91208214706642
31
0
210
0
220
0
230
1
40
0.991822
41
2.94750326061517
42
-0.261465117935423
0
ELLIPSE
5
103
100
AcDbEntity
8
1
62
256
6
ByLayer
370
13
48
1
60
0
100
AcDbEllipse
10
19.457474
20
-0.915769
30
0
11
-2.43029470239596
21
-3.74699663070203
31
0
210
0
220
0
230
1
40
0.991822
41
-0.0832704022433374
42
1.3232710807829
0
ELLIPSE
5
104
100
AcDbEntity
8
1
62
256
6
ByLayer
370
13
48
1
60
0
100
AcDbEllipse
10
27.577603
20
-4.255005
30
0
11
-2.1905328473917
21
0.203877032786969
31
0
210
0
220
0
230
1
40
0.094636
41
-1.16941203388117
42
-0.106865600745893
0
ELLIPSE
5
105
100
AcDbEntity
8
1
62
256
6
ByLayer
370
18
48
1
60
0
100
AcDbEllipse
10
25.505758
20
-5.619735
30
0
11
-1.31039940235795
21
-2.16876200460665
31
0
210
0
220
0
230
-1
40
0.99144
41
0.94806901448038
42
2.51072566377153
0
ELLIPSE
5
106
100
AcDbEntity
8
1
62
256
6
ByLayer
370
13
48
1
60
0
100
AcDbEllipse
10
20.641323
20
0.236778
30
0
11
-2.43029470239596
21
-3.74699663070203
31
0
210
0
220
0
230
1
40
0.991822
41
1.36794777985424
42
2.76938445147883
0
ELLIPSE
5
107
100
AcDbEntity
8
1
62
256
6
ByLayer
370
18
48
1
60
0
100
AcDbEllipse
10
23.3662
20
-13.497957
30
0
11
-0.458829441314583
21
-0.759380583110546
31
0
210
0
220
0
230
-1
40
0.99144
41
-2.14108878555561
42
-1.75740149517799
0
ELLIPSE
5
108
100
AcDbEntity
8
1
62
256
6
ByLayer
370
13
48
1
60
0
100
AcDbEllipse
10
8.951506
20
2.829729
30
0
11
1.19026631135227
21
1.06923622649996
31
0
210
0
220
0
230
1
40
0.12329
41
0.120517480433512
42
1.60404734462869
0
ELLIPSE
5
109
100
AcDbEntity
8
1
62
256
6
ByLayer
370
18
48
1
60
0
100
AcDbEllipse
10
33.704168
20
2.130633
30
0
11
-0.130280672178971
21
2.02548050624303
31
0
210
0
220
0
230
-1
40
0.006276
41
1.30334400154736
42
1.87748198361003
0
ELLIPSE
5
10A
100
AcDbEntity
8
1
62
256
6
ByLayer
370
18
48
1
60
0
100
AcDbEllipse
10
27.549927
20
-4.552374
30
0
11
-2.1905328473917
21
0.203877032786969
31
0
210
0
220
0
230
1
40
0.094636
41
-1.28879281587186
42
-0.208550834003384
0
ELLIPSE
5
10B
100
AcDbEntity
8
1
62
256
6
ByLayer
370
13
48
1
60
0
100
AcDbEllipse
10
54.312211
20
44.181695
30
0
11
-33.4474844858092
21
-51.5688947312556
31
0
210
0
220
0
230
1
40
0.991822
41
-0.261465117935421
42
-0.0832704022433384
0
ELLIPSE
5
10C
100
AcDbEntity
8
1
62
256
6
ByLayer
370
13
48
1
60
0
100
AcDbEllipse
10
19.613866
20
-1.017204
30
0
11
1.56294985995549
21
2.40973568079451
31
0
210
0
220
0
230
1
40
0.991822
41
3.05832225134646
42
-2.39397797923103
0
ELLIPSE
5
10D
100
AcDbEntity
8
1
62
256
6
ByLayer
370
18
48
1
60
0
100
AcDbEllipse
10
-16.004928
20
-138.669285
30
0
11
-1004.83073945442
21
592.902851461875
31
0
210
0
220
0
230
-1
40
0.128565
41
1.53279644764522
42
1.54408909591118
0
ELLIPSE
5
10E
100
AcDbEntity
8
1
62
256
6
ByLayer
370
18
48
1
60
0
100
AcDbEllipse
10
-0.4
20
-39.388929
30
0
11
5.46506838158144E-15
21
-29.7514291811583
31
0
210
0
220
0
230
-1
40
1
41
-2.94494245932307
42
-2.89582346393249
0
ELLIPSE
5
10F
100
AcDbEntity
8
1
62
256
6
ByLayer
370
18
48
1
60
0
100
AcDbEllipse
10
16.367093
20
-7.141028
30
0
11
0.897866020046173
21
1.38431810291076
31
0
210
0
220
0
230
1
40
0.991822
41
-0.999150016744397
42
-0.254199886323742
0
ELLIPSE
5
110
100
AcDbEntity
8
1
62
256
6
ByLayer
370
18
48
1
60
0
100
AcDbEllipse
10
16.367093
20
-7.141028
30
0
11
0.897866020046173
21
1.38431810291076
31
0
210
0
220
0
230
1
40
0.991822
41
-2.8874433506646
42
-0.999150016744407
0
ELLIPSE
5
111
100
AcDbEntity
8
1
62
256
6
ByLayer
370
13
48
1
60
0
100
AcDbEllipse
10
20.797715
20
0.135342
30
0
11
1.56294985995549
21
2.40973568079451
31
0
210
0
220
0
230
1
40
0.991822
41
-0.747622083239792
42
-0.372208202110967
0
ELLIPSE
5
112
100
AcDbEntity
8
1
62
256
6
ByLayer
370
13
48
1
60
0
100
AcDbEllipse
10
17.354366
20
10.968425
30
0
11
1.11500852343712
21
1.14749988787039
31
0
210
0
220
0
230
1
40
0.125231
41
1.59561013876245
42
3.07914000295763
0
ELLIPSE
5
113
100
AcDbEntity
8
1
62
256
6
ByLayer
370
18
48
1
60
0
100
AcDbEllipse
10
14.18809
20
6.174602
30
0
11
-2.94968671656917
21
1.91316104804256
31
0
210
5.22741996880363E-16
220
-1.12154134472975E-16
230
1
40
0.991759
41
-1.77592063151595
42
1.32022269833037
0
ELLIPSE
5
114
100
AcDbEntity
8
1
62
256
6
ByLayer
370
18
48
1
60
0
100
AcDbEllipse
10
24.228899
20
-4.049061
30
0
11
-2.50437400131334
21
-0.592144887620614
31
0
210
0
220
0
230
-1
40
0.240275
41
2.03877397762092
42
2.26575730785033
0
ELLIPSE
5
115
100
AcDbEntity
8
1
62
256
6
ByLayer
370
18
48
1
60
0
100
AcDbEllipse
10
24.160244
20
-3.981853
30
0
11
-2.21756931169391
21
1.33578288990698
31
0
210
0
220
0
230
-1
40
0.84059
41
2.2208483356418
42
2.28862120141994
0
ELLIPSE
5
116
100
AcDbEntity
8
1
62
256
6
ByLayer
370
18
48
1
60
0
100
AcDbEllipse
10
31.250544
20
-6.153167
30
0
11
-0.80472911680266
21
-0.20476033108288
31
0
210
0
220
0
230
-1
40
0.245253
41
2.52203066468508
42
3.05755731899992
0
ELLIPSE
5
117
100
AcDbEntity
8
1
62
256
6
ByLayer
370
18
48
1
60
0
100
AcDbEllipse
10
23.29086
20
-11.200671
30
0
11
-0.470673712407121
21
-0.778983310322585
31
0
210
0
220
0
230
-1
40
0.99144
41
-2.88641693507008
42
-2.1410887869252
0
ELLIPSE
5
118
100
AcDbEntity
8
1
62
256
6
ByLayer
370
18
48
1
60
0
100
AcDbEllipse
10
21.677823
20
79.62107
30
0
11
-2.30057805029545
21
99.572976638767
31
0
210
0
220
0
230
-1
40
0.020765
41
2.72699784853898
42
2.77354145607303
0
ELLIPSE
5
119
100
AcDbEntity
8
1
62
256
6
ByLayer
370
18
48
1
60
0
100
AcDbEllipse
10
25.285282
20
-9.322721
30
0
11
-0.369069837144249
21
-2.66786306337469
31
0
210
0
220
0
230
-1
40
0.245166
41
0.585118225897485
42
0.881733831683021
0
ELLIPSE
5
11A
100
AcDbEntity
8
1
62
256
6
ByLayer
370
18
48
1
60
0
100
AcDbEllipse
10
29.606941
20
-2.739814
30
0
11
-3.02395815229829
21
1.82152212260741
31
0
210
0
220
0
230
-1
40
0.84059
41
-1.29611922108948
42
-0.852971452172782
0
ELLIPSE
5
11B
100
AcDbEntity
8
1
62
256
6
ByLayer
370
18
48
1
60
0
100
AcDbEllipse
10
-25.109083
20
-33.377128
30
0
11
-50.0993181409972
21
32.4943199772518
31
0
210
5.22741996880363E-16
220
-1.12154134472975E-16
230
1
40
0.991759
41
-1.79660165489634
42
-1.77592063151595
0
ELLIPSE
5
11C
100
AcDbEntity
8
1
62
256
6
ByLayer
370
18
48
1
60
0
100
AcDbEllipse
10
17.05774
20
-7.588981
30
0
11
0.897866020046174
21
1.38431810291076
31
0
210
0
220
0
230
1
40
0.991822
41
0
42
6.28318530717959
0
ELLIPSE
5
11D
100
AcDbEntity
8
1
62
256
6
ByLayer
370
18
48
1
60
0
100
AcDbEllipse
10
33.715254
20
1.862597
30
0
11
-0.195421008351531
21
3.03822076064588
31
0
210
0
220
0
230
-1
40
0.006276
41
-0.0947400712551736
42
1.30334400170364
0
ELLIPSE
5
11E
100
AcDbEntity
8
1
62
256
6
ByLayer
370
18
48
1
60
0
100
AcDbEllipse
10
9.153318
20
-54.947002
30
0
11
-15.7181539086977
21
-43.8944026761264
31
0
210
0
220
0
230
-1
40
0.036583
41
-2.79949697028324
42
-2.74686079283881
0
ELLIPSE
5
11F
100
AcDbEntity
8
1
62
256
6
ByLayer
370
18
48
1
60
0
100
AcDbEllipse
10
55.053017
20
43.70121
30
0
11
-49.8602448676031
21
32.3392575186807
31
0
210
5.22741996880363E-16
220
-1.12154134472975E-16
230
1
40
0.991759
41
1.32022269833037
42
1.34398094106997
0
ELLIPSE
5
120
100
AcDbEntity
8
1
62
256
6
ByLayer
370
13
48
1
60
0
100
AcDbEllipse
10
22.636448
20
-4.281878
30
0
11
-1.09041776766481
21
1.17089243398396
31
0
210
0
220
0
230
1
40
0.031269
41
0.498461461255175
42
1.44667958820687
0
ELLIPSE
5
121
100
AcDbEntity
8
1
62
256
6
ByLayer
370
18
48
1
60
0
100
AcDbEllipse
10
30.392712
20
-3.142665
30
0
11
-1.29143527807544
21
-2.13737564093848
31
0
210
0
220
0
230
-1
40
0.99144
41
-0.458064379400667
42
0.52547817036205
0
ELLIPSE
5
122
100
AcDbEntity
8
1
62
256
6
ByLayer
370
13
48
1
60
0
100
AcDbEllipse
10
-5.459643
20
26.050441
30
0
11
-22.564260000401
21
-34.7892813626403
31
0
210
0
220
0
230
1
40
0.991822
41
1.3232710807829
42
1.36794777985424
0
ELLIPSE
5
123
100
AcDbEntity
8
1
62
256
6
ByLayer
370
18
48
1
60
0
100
AcDbEllipse
10
17.116633
20
-7.627178
30
0
11
1.1971546933949
21
1.84575747054768
31
0
210
0
220
0
230
1
40
0.991822
41
-0.999150016744404
42
-0.0291831326252816
0
ELLIPSE
5
124
100
AcDbEntity
8
1
62
256
6
ByLayer
370
18
48
1
60
0
100
AcDbEllipse
10
17.116633
20
-7.627178
30
0
11
1.1971546933949
21
1.84575747054768
31
0
210
0
220
0
230
1
40
0.991822
41
-3.11236175087524
42
-0.999150016744416
0
ELLIPSE
5
125
100
AcDbEntity
8
1
62
256
6
ByLayer
370
18
48
1
60
0
100
AcDbEllipse
10
33.714494
20
1.419287
30
0
11
-0.195421008353222
21
3.03822076067553
31
0
210
0
220
0
230
-1
40
0.006276
41
-1.66553639805297
42
-0.0947400712530793
0
ELLIPSE
5
126
100
AcDbEntity
8
1
62
256
6
ByLayer
370
18
48
1
60
0
100
AcDbEllipse
10
-53.114931
20
75.458991
30
0
11
68.1509907519654
21
-70.7237991621075
31
0
210
4.99402546965421E-16
220
-9.69392327409693E-17
230
1
40
0.407265
41
-0.0778559624546548
42
0.097495499260014
0
ELLIPSE
5
127
100
AcDbEntity
8
1
62
256
6
ByLayer
370
18
48
1
60
0
100
AcDbEllipse
10
17.22371
20
-7.696628
30
0
11
-1.19715469339489
21
-1.84575747054768
31
0
210
0
220
0
230
1
40
0.991822
41
0
42
6.28318530717959
0
ELLIPSE
5
128
100
AcDbEntity
8
1
62
256
6
ByLayer
370
18
48
1
60
0
100
AcDbEllipse
10
24.041778
20
-6.754577
30
0
11
-0.273653448423224
21
-2.75260318797798
31
0
210
0
220
0
230
-1
40
0.246006
41
0.675933994922905
42
1.53261753379786
0
ELLIPSE
5
129
100
AcDbEntity
8
1
62
256
6
ByLayer
370
13
48
1
60
0
100
AcDbEllipse
10
-25.501336
20
-33.122713
30
0
11
-33.4474844858091
21
-51.5688947312556
31
0
210
0
220
0
230
1
40
0.991822
41
2.76938445147883
42
2.94750326061518
0
ELLIPSE
5
12A
100
AcDbEntity
8
1
62
256
6
ByLayer
370
13
48
1
60
0
100
AcDbEllipse
10
15.216723
20
1.920343
30
0
11
-9.55888970158338
21
12.5892102873886
31
0
210
0
220
0
230
-1
40
0.049557
41
-3.08131494777427
42
-2.93022486534236
0
ELLIPSE
5
12B
100
AcDbEntity
8
1
62
256
6
ByLayer
370
13
48
1
60
0
100
AcDbEllipse
10
29.159949
20
-10.601533
30
0
11
0.78966966662693
21
-0.128147639889751
31
0
210
0
220
0
230
1
40
0.051128
41
-1.66363114510427
42
-0.997369540866067
0
ELLIPSE
5
12C
100
AcDbEntity
8
1
62
256
6
ByLayer
370
18
48
1
60
0
100
AcDbEllipse
10
28.683306
20
-5.106791
30
0
11
-3.23601443364683
21
0.301181980253477
31
0
210
0
220
0
230
1
40
0.094636
41
0
42
1.36080062670603
0
ELLIPSE
5
12D
100
AcDbEntity
8
1
62
256
6
ByLayer
370
18
48
1
60
0
100
AcDbEllipse
10
28.683306
20
-5.106791
30
0
11
-3.23601443364683
21
0.301181980253477
31
0
210
0
220
0
230
1
40
0.094636
41
-1.12783162721769
42
-2.88775590261674E-15
0
ELLIPSE
5
12E
100
AcDbEntity
8
1
62
256
6
ByLayer
370
18
48
1
60
0
100
AcDbEllipse
10
34.135548
20
-15.123063
30
0
11
-0.561767697904019
21
-0.560763868389912
31
0
210
0
220
0
230
1
40
0.989122
41
0.698869839378453
42
0.991789345946128
0
ELLIPSE
5
12F
100
AcDbEntity
8
1
62
256
6
ByLayer
370
18
48
1
60
0
100
AcDbEllipse
10
24.558778
20
-13.412345
30
0
11
0.0245815525890118
21
0.298991216045411
31
0
210
0
220
0
230
1
40
0.112614
41
-3.14158182314022
42
-1.49164959339926
0
ELLIPSE
5
130
100
AcDbEntity
8
1
62
256
6
ByLayer
370
13
48
1
60
0
100
AcDbEllipse
10
14.585011
20
1.43292
30
0
11
-10.358966895162
21
12.6561533724978
31
0
210
0
220
0
230
-1
40
0.046498
41
-3.03074726612931
42
-2.91601761747916
0
ELLIPSE
5
131
100
AcDbEntity
8
1
62
256
6
ByLayer
370
18
48
1
60
0
100
AcDbEllipse
10
34.931205
20
-20.044523
30
0
11
-5.39393705483388
21
65.5945777200938
31
0
210
0
220
0
230
-1
40
0.016609
41
-1.47722244837009
42
-1.45915533211751
0
ELLIPSE
5
132
100
AcDbEntity
8
1
62
256
6
ByLayer
370
18
48
1
60
0
100
AcDbEllipse
10
27.983079
20
-8.109155
30
0
11
11.4505126113657
21
-1.06572085320461
31
0
210
0
220
0
230
1
40
0.094636
41
1.39317876028755
42
1.81130894479898
0
ELLIPSE
5
133
100
AcDbEntity
8
1
62
256
6
ByLayer
370
13
48
1
60
0
100
AcDbEllipse
10
28.636059
20
-5.614431
30
0
11
2.72608623207489
21
-0.253721998635456
31
0
210
0
220
0
230
1
40
0.094636
41
1.83979532329475
42
2.06598998245227
0
ELLIPSE
5
134
100
AcDbEntity
8
1
62
256
6
ByLayer
370
18
48
1
60
0
100
AcDbEllipse
10
24.16446
20
-8.419904
30
0
11
0.346662344484662
21
0.937989988707981
31
0
210
0
220
0
230
1
40
0.938438
41
-2.86409315812736
42
-1.11876390613303
0
ELLIPSE
5
135
100
AcDbEntity
8
1
62
256
6
ByLayer
370
18
48
1
60
0
100
AcDbEllipse
10
24.267811
20
-6.027717
30
0
11
-0.275163235934701
21
-0.744529553536959
31
0
210
0
220
0
230
1
40
0.938438
41
-2.86409315812736
42
-1.11876390613303
0
ELLIPSE
5
136
100
AcDbEntity
8
1
62
256
6
ByLayer
370
18
48
1
60
0
100
AcDbEllipse
10
12.262434
20
-3.538648
30
0
11
-11.4505126113657
21
1.06572085320461
31
0
210
0
220
0
230
1
40
0.094636
41
2.89154254899232
42
2.96397508708245
0
ELLIPSE
5
137
100
AcDbEntity
8
1
62
256
6
ByLayer
370
13
48
1
60
0
100
AcDbEllipse
10
28.980306
20
1.427376
30
0
11
-10.2018216836068
21
-8.91692774291395
31
0
210
0
220
0
230
-1
40
0.81568
41
-1.17465702446489
42
-1.03780432032497
0
ELLIPSE
5
138
100
AcDbEntity
8
1
62
256
6
ByLayer
370
18
48
1
60
0
100
AcDbEllipse
10
28.395187
20
-3.681447
30
0
11
-4.90331862922513
21
65.3047266727832
31
0
210
0
220
0
230
-1
40
0.055184
41
-1.63758600782847
42
-1.61951899219631
0
ELLIPSE
5
139
100
AcDbEntity
8
1
62
256
6
ByLayer
370
18
48
1
60
0
100
AcDbEllipse
10
24.799463
20
-12.136353
30
0
11
-0.0819385086300405
21
-0.996637386818037
31
0
210
0
220
0
230
1
40
0.112614
41
-3.14158478311439
42
-1.49164959339925
0
ELLIPSE
5
13A
100
AcDbEntity
8
1
62
256
6
ByLayer
370
18
48
1
60
0
100
AcDbEllipse
10
35.34331
20
-15.616877
30
0
11
-11.4505126113657
21
1.06572085320461
31
0
210
0
220
0
230
1
40
0.094636
41
-1.35768824848918
42
-0.939558063977755
0
ELLIPSE
5
13B
100
AcDbEntity
8
1
62
256
6
ByLayer
370
18
48
1
60
0
100
AcDbEllipse
10
29.245151
20
-3.591269
30
0
11
-11.4505126113657
21
1.06572085320461
31
0
210
0
220
0
230
1
40
0.094636
41
1.30562211285112
42
1.39114035580863
0
ELLIPSE
5
13C
100
AcDbEntity
8
1
62
256
6
ByLayer
370
18
48
1
60
0
100
AcDbEllipse
10
22.208427
20
-4.436974
30
0
11
-1.99139349762882
21
0.185342757079063
31
0
210
0
220
0
230
1
40
0.094636
41
2.81862428736647
42
-2.80133590405527
0
ELLIPSE
5
13D
100
AcDbEntity
8
1
62
256
6
ByLayer
370
13
48
1
60
0
100
AcDbEllipse
10
36.622401
20
-0.695769
30
0
11
-8.87475544862966
21
-7.75700218117847
31
0
210
0
220
0
230
-1
40
0.81568
41
-0.747003656981036
42
-0.305441472064754
0
ELLIPSE
5
13E
100
AcDbEntity
8
1
62
256
6
ByLayer
370
18
48
1
60
0
100
AcDbEllipse
10
31.184998
20
-15.864417
30
0
11
1.99139349762882
21
-0.185342757079063
31
0
210
0
220
0
230
1
40
0.094636
41
1.68416027357017
42
1.72647772290172
0
ELLIPSE
5
13F
100
AcDbEntity
8
1
62
256
6
ByLayer
370
18
48
1
60
0
100
AcDbEllipse
10
27.78397
20
-7.141465
30
0
11
1.99139349762882
21
-0.185342757079063
31
0
210
0
220
0
230
1
40
0.094636
41
1.24782796057158
42
1.91105307632942
0
ELLIPSE
5
140
100
AcDbEntity
8
1
62
256
6
ByLayer
370
13
48
1
60
0
100
AcDbEllipse
10
28.44677
20
-11.502912
30
0
11
0.319961464140763
21
-0.733228928415198
31
0
210
0
220
0
230
1
40
0.511668
41
1.21145077635435
42
2.01456606920446
0
ELLIPSE
5
141
100
AcDbEntity
8
1
62
256
6
ByLayer
370
13
48
1
60
0
100
AcDbEllipse
10
28.926167
20
2.023745
30
0
11
-8.32451433968424
21
-10.299397309769
31
0
210
0
220
0
230
-1
40
0.80331
41
-1.01284822048116
42
-0.868128888864839
0
ELLIPSE
5
142
100
AcDbEntity
8
1
62
256
6
ByLayer
370
18
48
1
60
0
100
AcDbEllipse
10
22.212991
20
-14.834233
30
0
11
1.99139349762882
21
-0.185342757079063
31
0
210
0
220
0
230
1
40
0.094636
41
0.113363946775266
42
0.222038618699381
0
ELLIPSE
5
143
100
AcDbEntity
8
1
62
256
6
ByLayer
370
18
48
1
60
0
100
AcDbEllipse
10
34.135548
20
-15.123063
30
0
11
-0.561767697904019
21
-0.560763868389912
31
0
210
0
220
0
230
1
40
0.989122
41
2.15127958480508
42
2.44419909137277
0
ELLIPSE
5
144
100
AcDbEntity
8
1
62
256
6
ByLayer
370
13
48
1
60
0
100
AcDbEllipse
10
34.400222
20
-25.749777
30
0
11
-4.54988719097911
21
14.5073715560404
31
0
210
0
220
0
230
-1
40
0.704986
41
-0.238714916908287
42
-0.0939955852822942
0
ELLIPSE
5
145
100
AcDbEntity
8
1
62
256
6
ByLayer
370
18
48
1
60
0
100
AcDbEllipse
10
24.590568
20
-14.534614
30
0
11
0.0650386912250936
21
0.791080925786817
31
0
210
0
220
0
230
1
40
0.112614
41
3.04620646178602
42
-1.49164959339925
0
ELLIPSE
5
146
100
AcDbEntity
8
1
62
256
6
ByLayer
370
18
48
1
60
0
100
AcDbEllipse
10
34.211346
20
-6.824651
30
0
11
-0.0470525403363313
21
-0.79235416383578
31
0
210
0
220
0
230
1
40
0.332231
41
1.29575928468658
42
3.04108853668092
0
ELLIPSE
5
147
100
AcDbEntity
8
1
62
256
6
ByLayer
370
18
48
1
60
0
100
AcDbEllipse
10
12.839663
20
-17.319519
30
0
11
-4.80364171895193
21
-65.8463406879928
31
0
210
0
220
0
230
-1
40
0.173071
41
-1.66122549904986
42
-1.64315846207957
0
ELLIPSE
5
148
100
AcDbEntity
8
1
62
256
6
ByLayer
370
18
48
1
60
0
100
AcDbEllipse
10
27.922353
20
-5.654623
30
0
11
-1.99139349762882
21
0.185342757079063
31
0
210
0
220
0
230
1
40
0.094636
41
-1.89376469301821
42
-1.23053957726037
0
ELLIPSE
5
149
100
AcDbEntity
8
1
62
256
6
ByLayer
370
13
48
1
60
0
100
AcDbEllipse
10
29.17484
20
-10.513378
30
0
11
0.788002768293782
21
-0.13802766810077
31
0
210
0
220
0
230
1
40
0.103523
41
-1.67764683359543
42
-1.01138522935722
0
ELLIPSE
5
14A
100
AcDbEntity
8
1
62
256
6
ByLayer
370
18
48
1
60
0
100
AcDbEllipse
10
30.752437
20
-64.94297
30
0
11
-4.80363466345462
21
-65.8462723146074
31
0
210
0
220
0
230
-1
40
0.173071
41
2.42695239797106
42
2.48166693790776
0
ELLIPSE
5
14B
100
AcDbEntity
8
1
62
256
6
ByLayer
370
18
48
1
60
0
100
AcDbEllipse
10
31.184998
20
-15.864417
30
0
11
1.99139349762882
21
-0.185342757079063
31
0
210
0
220
0
230
1
40
0.094636
41
1.72647772290172
42
2.34738538932801
0
ELLIPSE
5
14C
100
AcDbEntity
8
1
62
256
6
ByLayer
370
18
48
1
60
0
100
AcDbEllipse
10
35.204927
20
-17.103719
30
0
11
11.4505126113657
21
-1.06572085320461
31
0
210
0
220
0
230
1
40
0.094636
41
2.20203458961204
42
2.28959123704847
0
ELLIPSE
5
14D
100
AcDbEntity
8
1
62
256
6
ByLayer
370
13
48
1
60
0
100
AcDbEllipse
10
26.649848
20
-22.433895
30
0
11
-6.3099684681554
21
12.1910348344222
31
0
210
0
220
0
230
-1
40
0.760982
41
0.404775992179976
42
0.815303539138374
0
ELLIPSE
5
14E
100
AcDbEntity
8
1
62
256
6
ByLayer
370
13
48
1
60
0
100
AcDbEllipse
10
34.601678
20
-25.287111
30
0
11
-5.69161655763882
21
14.3558624454056
31
0
210
0
220
0
230
-1
40
0.73479
41
-0.161845757227895
42
-0.0249930530674336
0
ELLIPSE
5
14F
100
AcDbEntity
8
1
62
256
6
ByLayer
370
13
48
1
60
0
100
AcDbEllipse
10
36.676541
20
-1.292138
30
0
11
-10.579415999094
21
-6.18041617689842
31
0
210
0
220
0
230
-1
40
0.805524
41
-0.889585750244743
42
-0.479058203287079
0
ELLIPSE
5
150
100
AcDbEntity
8
1
62
256
6
ByLayer
370
18
48
1
60
0
100
AcDbEllipse
10
25.304075
20
-7.092189
30
0
11
-0.103998703345399
21
-0.281396996612394
31
0
210
0
220
0
230
1
40
0.938438
41
-2.86409315812736
42
-1.11876390613303
0
ELLIPSE
5
151
100
AcDbEntity
8
1
62
256
6
ByLayer
370
18
48
1
60
0
100
AcDbEllipse
10
34.135548
20
-15.123063
30
0
11
-0.561767697904019
21
-0.560763868389912
31
0
210
0
220
0
230
1
40
0.989122
41
0.991789345946128
42
2.15127958480508
0
ELLIPSE
5
152
100
AcDbEntity
8
1
62
256
6
ByLayer
370
18
48
1
60
0
100
AcDbEllipse
10
28.121462
20
-6.622313
30
0
11
-11.4505126113657
21
1.06572085320461
31
0
210
0
220
0
230
1
40
0.094636
41
-1.83597054073867
42
-1.74841389330225
0
ELLIPSE
5
153
100
AcDbEntity
8
1
62
256
6
ByLayer
370
13
48
1
60
0
100
AcDbEllipse
10
30.00697
20
-9.674222
30
0
11
0.213226534690159
21
-0.771060597426705
31
0
210
0
220
0
230
1
40
0.197315
41
-1.54598273020944
42
-0.742867437359341
0
ELLIPSE
5
154
100
AcDbEntity
8
1
62
256
6
ByLayer
370
18
48
1
60
0
100
AcDbEllipse
10
32.573951
20
41.216936
30
0
11
-9.91812333727973
21
-63.2516224245277
31
0
210
0
220
0
230
-1
40
0.168655
41
-0.732511299058668
42
-0.677796758510536
0
ELLIPSE
5
155
100
AcDbEntity
8
1
62
256
6
ByLayer
370
13
48
1
60
0
100
AcDbEllipse
10
26.448392
20
-22.896561
30
0
11
-4.95124367326928
21
12.488433186265
31
0
210
0
220
0
230
-1
40
0.73479
41
0.265807610418892
42
0.707369795335017
0
POINT
5
6C
100
AcDbEntity
8
80
62
256
6
ByLayer
370
18
48
1
60
0
100
AcDbPoint
10
0
20
0
30
0
39
0
210
0
220
0
230
1
50
360
0
POINT
5
6E
100
AcDbEntity
8
81
62
256
6
ByLayer
370
18
48
1
60
0
100
AcDbPoint
10
34.925
20
-15.9125
30
0
39
0
210
0
220
0
230
1
50
360
0
SPLINE
5
156
100
AcDbEntity
8
1
62
256
6
ByLayer
370
18
48
1
60
0
100
AcDbSpline
70
4
71
3
72
26
73
22
40
0
40
0
40
0
40
0
40
0.125000000000001
40
0.125000000000001
40
0.250000000000001
40
0.250000000000001
40
0.375000000000001
40
0.375000000000001
40
0.500000000000002
40
0.500000000000002
40
0.562500000000002
40
0.562500000000002
40
0.625000000000001
40
0.625000000000001
40
0.75
40
0.75
40
0.8125
40
0.8125
40
0.875
40
0.875
40
1
40
1
40
1
40
1
41
1
10
5.41298861244934
20
-10.2109117451662
30
0
41
1
10
5.39003035305649
20
-10.2063378874127
30
0
41
1
10
5.36034670074594
20
-10.2004503530406
30
0
41
1
10
5.28817346514839
20
-10.1862996240785
30
0
41
1
10
5.24568249077763
20
-10.1780355349144
30
0
41
1
10
5.14746215871361
20
-10.1592233666339
30
0
41
1
10
5.09286215998415
20
-10.1488938561888
30
0
41
1
10
4.97386234348994
20
-10.1267897509035
30
0
41
1
10
4.90935410698202
20
-10.114993557015
30
0
41
1
10
4.80484347223034
20
-10.0962953796096
30
0
41
1
10
4.76890716700649
20
-10.0899305811656
30
0
41
1
10
4.69566824850509
20
-10.0771041719653
30
0
41
1
10
4.65824871570425
20
-10.0706215773629
30
0
41
1
10
4.54362351348394
20
-10.0509992034555
30
0
41
1
10
4.46406721992596
20
-10.0376868679198
30
0
41
1
10
4.33987178879261
20
-10.0174649195127
30
0
41
1
10
4.29769778175475
20
-10.0106888366933
30
0
41
1
10
4.21314840488608
20
-9.99729377267104
30
0
41
1
10
4.17059719134789
20
-9.99064594932642
30
0
41
1
10
4.04212174230827
20
-9.97086326018842
30
0
41
1
10
3.95538111351777
20
-9.9578898251379
30
0
41
1
10
3.86750729038684
20
-9.94515361260997
30
0
0
SPLINE
5
157
100
AcDbEntity
8
1
62
256
6
ByLayer
370
18
48
1
60
0
100
AcDbSpline
70
4
71
3
72
20
73
16
40
0
40
0
40
0
40
0
40
0.177960496201753
40
0.177960496201753
40
0.266940744302634
40
0.266940744302634
40
0.355920992403513
40
0.355920992403513
40
0.444901240504393
40
0.444901240504393
40
0.533881488605272
40
0.533881488605272
40
0.711841984807041
40
0.711841984807041
40
1
40
1
40
1
40
1
41
1
10
25.3989484633869
20
-4.07588731376498
30
0
41
1
10
25.4026145424349
20
-4.03649755776394
30
0
41
1
10
25.4112000191342
20
-3.99899324095898
30
0
41
1
10
25.4309536106537
20
-3.94535564183732
30
0
41
1
10
25.4387315663964
20
-3.92790733814096
30
0
41
1
10
25.4560366704983
20
-3.89494733151645
30
0
41
1
10
25.4656129063814
20
-3.87928313423362
30
0
41
1
10
25.486498810486
20
-3.84946921900507
30
0
41
1
10
25.497889074415
20
-3.83523710172858
30
0
41
1
10
25.521930651615
20
-3.80869298569684
30
0
41
1
10
25.5345464280987
20
-3.79639216611275
30
0
41
1
10
25.5740169304065
20
-3.76208815560196
30
0
41
1
10
25.6026343264606
20
-3.74257985788446
30
0
41
1
10
25.681886244358
20
-3.69986321216808
30
0
41
1
10
25.7336130779664
20
-3.68233306369129
30
0
41
1
10
25.7875890476504
20
-3.67182900003931
30
0
0
SPLINE
5
158
100
AcDbEntity
8
1
62
256
6
ByLayer
370
18
48
1
60
0
100
AcDbSpline
70
4
71
3
72
8
73
4
40
0
40
0
40
0
40
0
40
1
40
1
40
1
40
1
41
1
10
33.4717388653934
20
5.97304476703465
30
0
41
1
10
33.4706658370528
20
5.98967009373774
30
0
41
1
10
33.4689227109309
20
6.00615878763918
30
0
41
1
10
33.46650762111
20
6.02251091422963
30
0
0
SPLINE
5
159
100
AcDbEntity
8
1
62
256
6
ByLayer
370
18
48
1
60
0
100
AcDbSpline
70
4
71
3
72
14
73
10
40
0
40
0
40
0
40
0
40
0.25
40
0.25
40
0.5
40
0.5
40
0.75
40
0.75
40
1
40
1
40
1
40
1
41
1
10
24.3440282008729
20
-10.3314755826714
30
0
41
1
10
24.3278865112261
20
-10.3085640656093
30
0
41
1
10
24.3106227649421
20
-10.2844468465466
30
0
41
1
10
24.2748519441253
20
-10.2353305524982
30
0
41
1
10
24.2562019503582
20
-10.2101261729646
30
0
41
1
10
24.2171900195225
20
-10.1582704645192
30
0
41
1
10
24.197358227669
20
-10.1323273552925
30
0
41
1
10
24.1575564160541
20
-10.0810113569605
30
0
41
1
10
24.1373445081931
20
-10.0553299727181
30
0
41
1
10
24.1174085997087
20
-10.0303221731513
30
0
0
SPLINE
5
15A
100
AcDbEntity
8
1
62
256
6
ByLayer
370
18
48
1
60
0
100
AcDbSpline
70
4
71
3
72
16
73
12
40
0
40
0
40
0
40
0
40
0.125000000000003
40
0.125000000000003
40
0.250000000000006
40
0.250000000000006
40
0.500000000000004
40
0.500000000000004
40
0.750000000000002
40
0.750000000000002
40
1
40
1
40
1
40
1
41
1
10
27.2915596463833
20
-4.43178387919758
30
0
41
1
10
27.2853212507532
20
-4.41902304849984
30
0
41
1
10
27.2795139452438
20
-4.40629852172
30
0
41
1
10
27.2692956065464
20
-4.3821549751633
30
0
41
1
10
27.2648063917898
20
-4.37058717828688
30
0
41
1
10
27.2529671923691
20
-4.33716530240099
30
0
41
1
10
27.2475743390537
20
-4.31760726324313
30
0
41
1
10
27.239952566878
20
-4.28199610913967
30
0
41
1
10
27.2377758723651
20
-4.26609927724672
30
0
41
1
10
27.2355688817505
20
-4.23713794622111
30
0
41
1
10
27.2355361300629
20
-4.22394458985931
30
0
41
1
10
27.2362496216912
20
-4.21173711885191
30
0
0
SPLINE
5
15B
100
AcDbEntity
8
1
62
256
6
ByLayer
370
18
48
1
60
0
100
AcDbSpline
70
4
71
3
72
19
73
15
40
0
40
0
40
0
40
0
40
0.125000000000001
40
0.125000000000001
40
0.250000000000002
40
0.375000000000003
40
0.375000000000003
40
0.500000000000004
40
0.500000000000004
40
0.749999999999997
40
0.749999999999997
40
0.874999999999999
40
0.874999999999999
40
1
40
1
40
1
40
1
41
1
10
24.5682526124061
20
-13.2663458217245
30
0
41
1
10
24.5675326569314
20
-13.2897935832512
30
0
41
1
10
24.5665162753155
20
-13.313515236359
30
0
41
1
10
24.5638913743516
20
-13.3606992159932
30
0
41
1
10
24.5606685570339
20
-13.40784784699
30
0
41
1
10
24.5562019451502
20
-13.4549231908725
30
0
41
1
10
24.5510862805703
20
-13.5019602812497
30
0
41
1
10
24.5482335393943
20
-13.5251457419674
30
0
41
1
10
24.5390571204896
20
-13.5923016137876
30
0
41
1
10
24.5320482797128
20
-13.6345623833019
30
0
41
1
10
24.5204299271432
20
-13.6950915619857
30
0
41
1
10
24.5163611406236
20
-13.7148255513073
30
0
41
1
10
24.508023399572
20
-13.7528270700263
30
0
41
1
10
24.5037382153686
20
-13.77118536762
30
0
41
1
10
24.4993470947678
20
-13.7890140329145
30
0
0
SPLINE
5
15C
100
AcDbEntity
8
1
62
256
6
ByLayer
370
18
48
1
60
0
100
AcDbSpline
70
4
71
3
72
8
73
4
40
0
40
0
40
0
40
0
40
1
40
1
40
1
40
1
41
1
10
23.0847956787167
20
-1.91689811434836
30
0
41
1
10
22.6736600215017
20
-2.33513777909107
30
0
41
1
10
22.2531475231975
20
-2.74383748074217
30
0
41
1
10
21.8232757723453
20
-3.14301543605461
30
0
0
SPLINE
5
15D
100
AcDbEntity
8
1
62
256
6
ByLayer
370
18
48
1
60
0
100
AcDbSpline
70
4
71
3
72
32
73
28
40
0
40
0
40
0
40
0
40
0.0625000000000006
40
0.0625000000000006
40
0.125000000000001
40
0.125000000000001
40
0.250000000000002
40
0.250000000000002
40
0.281250000000004
40
0.281250000000004
40
0.312500000000006
40
0.312500000000006
40
0.375000000000007
40
0.375000000000007
40
0.500000000000007
40
0.500000000000007
40
0.562500000000007
40
0.562500000000007
40
0.625000000000007
40
0.625000000000007
40
0.750000000000005
40
0.750000000000005
40
0.875000000000004
40
0.875000000000004
40
0.937500000000002
40
0.937500000000002
40
1
40
1
40
1
40
1
41
1
10
21.8232757723453
20
-3.14301543605461
30
0
41
1
10
21.7720202658524
20
-3.19061118580976
30
0
41
1
10
21.7185370817814
20
-3.23614061064731
30
0
41
1
10
21.6069617184413
20
-3.32292462870026
30
0
41
1
10
21.5494626816984
20
-3.36369775874863
30
0
41
1
10
21.3732739272463
20
-3.47745785468541
30
0
41
1
10
21.2503798204946
20
-3.54237755659821
30
0
41
1
10
21.089973931279
20
-3.6098576710325
30
0
41
1
10
21.0575507768948
20
-3.62266499662033
30
0
41
1
10
20.9920101179777
20
-3.64688030836948
30
0
41
1
10
20.9588477977568
20
-3.65829836147989
30
0
41
1
10
20.8593477550791
20
-3.69009621898698
30
0
41
1
10
20.7926779470793
20
-3.70815250518558
30
0
41
1
10
20.5917048698594
20
-3.75319170611843
30
0
41
1
10
20.4564449940479
20
-3.7711159981487
30
0
41
1
10
20.2516838412877
20
-3.77968925742621
30
0
41
1
10
20.183135662516
20
-3.77943427376502
30
0
41
1
10
20.0481950352304
20
-3.77283923701225
30
0
41
1
10
19.9814479065358
20
-3.76652333969892
30
0
41
1
10
19.7833410901368
20
-3.73876021328522
30
0
41
1
10
19.6539871190638
20
-3.70852770527128
30
0
41
1
10
19.4016021746361
20
-3.62444499345637
30
0
41
1
10
19.2820206515291
20
-3.57177168301743
30
0
41
1
10
19.1120318822693
20
-3.47780292859281
30
0
41
1
10
19.0569423937416
20
-3.44397091547427
30
0
41
1
10
18.9499291373355
20
-3.37127372904322
30
0
41
1
10
18.8978286712234
20
-3.33225610536729
30
0
41
1
10
18.8478505721491
20
-3.29107686500342
30
0
0
SPLINE
5
15E
100
AcDbEntity
8
1
62
256
6
ByLayer
370
18
48
1
60
0
100
AcDbSpline
70
4
71
3
72
30
73
26
40
0
40
0
40
0
40
0
40
0.125
40
0.125
40
0.1875
40
0.1875
40
0.25
40
0.25
40
0.375000000000001
40
0.375000000000001
40
0.437500000000002
40
0.437500000000002
40
0.500000000000003
40
0.500000000000003
40
0.625000000000004
40
0.625000000000004
40
0.687500000000004
40
0.687500000000004
40
0.750000000000004
40
0.750000000000004
40
0.875000000000002
40
0.875000000000002
40
0.937500000000001
40
0.937500000000001
40
1
40
1
40
1
40
1
41
1
10
25.7233080223586
20
-3.20769561433821
30
0
41
1
10
25.8269615834679
20
-3.20412048788117
30
0
41
1
10
25.9289014443212
20
-3.2086454052791
30
0
41
1
10
26.0788187158051
20
-3.22716822361682
30
0
41
1
10
26.1282895424725
20
-3.23530587695697
30
0
41
1
10
26.226113919313
20
-3.25552430274061
30
0
41
1
10
26.2743841502912
20
-3.2676095041669
30
0
41
1
10
26.4149106656221
20
-3.3090121004424
30
0
41
1
10
26.5037434990903
20
-3.34361654991204
30
0
41
1
10
26.6290557854321
20
-3.40506229213159
30
0
41
1
10
26.6694968726994
20
-3.42713857488144
30
0
41
1
10
26.7475131573261
20
-3.47435427608028
30
0
41
1
10
26.7849016555174
20
-3.49939944289406
30
0
41
1
10
26.8907552208303
20
-3.57752039219451
30
0
41
1
10
26.9534868919221
20
-3.63391590973654
30
0
41
1
10
27.0349138937426
20
-3.72288288456005
30
0
41
1
10
27.0600484002487
20
-3.75342662699506
30
0
41
1
10
27.1052032542363
20
-3.81468935973052
30
0
41
1
10
27.1252037113508
20
-3.84533531408732
30
0
41
1
10
27.1776794940571
20
-3.93655151189648
30
0
41
1
10
27.202624477367
20
-3.99639214610673
30
0
41
1
10
27.225713371133
20
-4.08173875408096
30
0
41
1
10
27.2310316411529
20
-4.10955366092065
30
0
41
1
10
27.2369955133698
20
-4.16281016451674
30
0
41
1
10
27.2376364327094
20
-4.18800950295801
30
0
41
1
10
27.2362496216911
20
-4.21173711885191
30
0
0
SPLINE
5
15F
100
AcDbEntity
8
1
62
256
6
ByLayer
370
18
48
1
60
0
100
AcDbSpline
70
4
71
3
72
10
73
6
40
0
40
0
40
0
40
0
40
0.5
40
0.5
40
1
40
1
40
1
40
1
41
1
10
17.5161641803247
20
7.77280610614343
30
0
41
1
10
18.5767678664756
20
6.73880420258845
30
0
41
1
10
19.5933958299494
20
5.66202073915812
30
0
41
1
10
21.5387647591712
20
3.42319074929193
30
0
41
1
10
22.4674984741129
20
2.26113544887639
30
0
41
1
10
23.351158702136
20
1.05644099291979
30
0
0
SPLINE
5
160
100
AcDbEntity
8
1
62
256
6
ByLayer
370
18
48
1
60
0
100
AcDbSpline
70
4
71
3
72
32
73
28
40
0
40
0
40
0
40
0
40
0.124999999999998
40
0.124999999999998
40
0.187499999999998
40
0.187499999999998
40
0.249999999999997
40
0.249999999999997
40
0.374999999999996
40
0.374999999999996
40
0.437499999999995
40
0.437499999999995
40
0.499999999999994
40
0.499999999999994
40
0.624999999999993
40
0.624999999999993
40
0.656249999999993
40
0.656249999999993
40
0.687499999999994
40
0.687499999999994
40
0.749999999999995
40
0.749999999999995
40
0.874999999999998
40
0.874999999999998
40
0.937499999999999
40
0.937499999999999
40
1
40
1
40
1
40
1
41
1
10
23.351158702136
20
1.05644099291982
30
0
41
1
10
23.4270346728566
20
0.952999241929177
30
0
41
1
10
23.4934321710174
20
0.84296940509023
30
0
41
1
10
23.5785745907476
20
0.667931080752055
30
0
41
1
10
23.6045332655625
20
0.607910657293246
30
0
41
1
10
23.6513924940934
20
0.484387401298505
30
0
41
1
10
23.6719471858392
20
0.421792856939447
30
0
41
1
10
23.7251556618019
20
0.231653767537125
30
0
41
1
10
23.7494296368142
20
0.101739737784726
30
0
41
1
10
23.7686481088966
20
-0.0978902762280427
30
0
41
1
10
23.7721736589928
20
-0.165299828754115
30
0
41
1
10
23.773184084385
20
-0.301491573493195
30
0
41
1
10
23.7706676319827
20
-0.369335573266483
30
0
41
1
10
23.7542650425651
20
-0.572113788412707
30
0
41
1
10
23.7315946280353
20
-0.70630010905208
30
0
41
1
10
23.6882385522116
20
-0.872702886842063
30
0
41
1
10
23.6788109018343
20
-0.90591646513721
30
0
41
1
10
23.6584107660463
20
-0.972205631760886
30
0
41
1
10
23.6474052408732
20
-1.00536906343643
30
0
41
1
10
23.6123202994526
20
-1.10379674639736
30
0
41
1
10
23.586175740324
20
-1.16807171328728
30
0
41
1
10
23.4996716102765
20
-1.35695454316803
30
0
41
1
10
23.4313065393257
20
-1.47765175601484
30
0
41
1
10
23.3123015635939
20
-1.65064092055931
30
0
41
1
10
23.2696472431372
20
-1.70719634244156
30
0
41
1
10
23.1803499013505
20
-1.81539816120352
30
0
41
1
10
23.1336010307124
20
-1.86724945532757
30
0
41
1
10
23.0847956787167
20
-1.91689811434836
30
0
0
SPLINE
5
161
100
AcDbEntity
8
1
62
256
6
ByLayer
370
18
48
1
60
0
100
AcDbSpline
70
4
71
3
72
8
73
4
40
0
40
0
40
0
40
0
40
1
40
1
40
1
40
1
41
1
10
24.2802676363357
20
-14.6492211963443
30
0
41
1
10
24.2191015215256
20
-14.8114483429584
30
0
41
1
10
24.1579352973561
20
-14.9736754594103
30
0
41
1
10
24.0967689594002
20
-15.1359025444676
30
0
0
SPLINE
5
162
100
AcDbEntity
8
1
62
256
6
ByLayer
370
18
48
1
60
0
100
AcDbSpline
70
4
71
3
72
14
73
10
40
0
40
0
40
0
40
0
40
0.25
40
0.25
40
0.5
40
0.5
40
0.75
40
0.75
40
1
40
1
40
1
40
1
41
1
10
24.5438049471684
20
-10.9190956768288
30
0
41
1
10
24.5399758083174
20
-10.864266539014
30
0
41
1
10
24.5326321014015
20
-10.8096347983318
30
0
41
1
10
24.5114396639601
20
-10.7039112425115
30
0
41
1
10
24.497600330884
20
-10.6525351869201
30
0
41
1
10
24.4635841962413
20
-10.5529583978106
30
0
41
1
10
24.4432241129643
20
-10.5044649949422
30
0
41
1
10
24.3973853050724
20
-10.4136048436384
30
0
41
1
10
24.3718689761692
20
-10.3709927839174
30
0
41
1
10
24.344028200873
20
-10.3314755826715
30
0
0
SPLINE
5
163
100
AcDbEntity
8
1
62
256
6
ByLayer
370
18
48
1
60
0
100
AcDbSpline
70
4
71
3
72
8
73
4
40
0
40
0
40
0
40
0
40
1
40
1
40
1
40
1
41
1
10
34.1008758490879
20
-3.71503594672751
30
0
41
1
10
34.1009272332001
20
-3.68532602647855
30
0
41
1
10
34.0987713243264
20
-3.65564443615716
30
0
41
1
10
34.0944176905657
20
-3.62612183214057
30
0
0
SPLINE
5
164
100
AcDbEntity
8
1
62
256
6
ByLayer
370
18
48
1
60
0
100
AcDbSpline
70
4
71
2
72
6
73
3
40
0
40
0
40
0
40
1
40
1
40
1
41
0.499998575902624
10
23.6190049281889
20
-15.3368453607608
30
0
41
0.500001424097376
10
23.6179744304454
20
-15.3367520689724
30
0
41
0.499998575902624
10
23.6169439380274
20
-15.3366587198847
30
0
0
SPLINE
5
165
100
AcDbEntity
8
1
62
256
6
ByLayer
370
18
48
1
60
0
100
AcDbSpline
70
4
71
3
72
12
73
8
40
0
40
0
40
0
40
0
40
0.25
40
0.25
40
0.499999999999999
40
0.499999999999999
40
1
40
1
40
1
40
1
41
1
10
27.2915596463834
20
-4.43178387919758
30
0
41
1
10
27.3339163200628
20
-4.51842576178888
30
0
41
1
10
27.3808895254591
20
-4.60329704354857
30
0
41
1
10
27.4821189701202
20
-4.76693655734613
30
0
41
1
10
27.5364384759288
20
-4.84589198462359
30
0
41
1
10
27.7099877255374
20
-5.07434982176264
30
0
41
1
10
27.839702817537
20
-5.21551494598614
30
0
41
1
10
27.9836215277704
20
-5.34516400422567
30
0
0
SPLINE
5
166
100
AcDbEntity
8
1
62
256
6
ByLayer
370
18
48
1
60
0
100
AcDbSpline
70
4
71
3
72
8
73
4
40
0
40
0
40
0
40
0
40
1
40
1
40
1
40
1
41
1
10
24.1436172974773
20
-3.70191193622011
30
0
41
1
10
24.1276596675629
20
-3.70607132503562
30
0
41
1
10
24.1116925389988
20
-3.70983582381427
30
0
41
1
10
24.0956997979399
20
-3.71311306109837
30
0
0
SPLINE
5
167
100
AcDbEntity
8
1
62
256
6
ByLayer
370
18
48
1
60
0
100
AcDbSpline
70
4
71
3
72
10
73
6
40
0
40
0
40
0
40
0
40
0.5
40
0.5
40
1
40
1
40
1
40
1
41
1
10
18.8478505721491
20
-3.29107686500342
30
0
41
1
10
17.7176872908441
20
-2.35988367692036
30
0
41
1
10
16.6312173621039
20
-1.38686271060425
30
0
41
1
10
14.5451781488751
20
0.640744698262552
30
0
41
1
10
13.545600732778
20
1.69532546923776
30
0
41
1
10
12.5893681438125
20
2.79068185705529
30
0
0
SPLINE
5
168
100
AcDbEntity
8
1
62
256
6
ByLayer
370
18
48
1
60
0
100
AcDbSpline
70
4
71
3
72
10
73
6
40
0
40
0
40
0
40
0
40
0.5
40
0.5
40
1
40
1
40
1
40
1
41
1
10
23.2469308968311
20
-5.37673905779462
30
0
41
1
10
23.2470120896497
20
-5.41901677071624
30
0
41
1
10
23.2479723303854
20
-5.4626865279167
30
0
41
1
10
23.2517453043784
20
-5.55046109260672
30
0
41
1
10
23.2545406466093
20
-5.59453725517514
30
0
41
1
10
23.2582407879736
20
-5.63880145501946
30
0
0
SPLINE
5
169
100
AcDbEntity
8
1
62
256
6
ByLayer
370
18
48
1
60
0
100
AcDbSpline
70
4
71
3
72
8
73
4
40
0
40
0
40
0
40
0
40
1
40
1
40
1
40
1
41
1
10
24.5438049471684
20
-10.9190956768288
30
0
41
1
10
24.5445080698746
20
-10.9291636355157
30
0
41
1
10
24.5451711463464
20
-10.9392465556439
30
0
41
1
10
24.5457838656322
20
-10.9491467094403
30
0
0
SPLINE
5
16A
100
AcDbEntity
8
1
62
256
6
ByLayer
370
18
48
1
60
0
100
AcDbSpline
70
4
71
3
72
14
73
10
40
0
40
0
40
0
40
0
40
0.25
40
0.25
40
0.5
40
0.5
40
0.75
40
0.75
40
1
40
1
40
1
40
1
41
1
10
23.4046480705073
20
-8.85982829578228
30
0
41
1
10
23.4201811914817
20
-8.9370292011285
30
0
41
1
10
23.4407477882094
20
-9.01127014361686
30
0
41
1
10
23.4897791762107
20
-9.14986159549647
30
0
41
1
10
23.5182312440394
20
-9.21441801796212
30
0
41
1
10
23.5814719671672
20
-9.33355499186999
30
0
41
1
10
23.6162674563492
20
-9.38813447766867
30
0
41
1
10
23.6906725498926
20
-9.48645975326369
30
0
41
1
10
23.7295257606103
20
-9.52918774447971
30
0
41
1
10
23.7687833715958
20
-9.56548151930673
30
0
0
SPLINE
5
16B
100
AcDbEntity
8
1
62
256
6
ByLayer
370
18
48
1
60
0
100
AcDbSpline
70
4
71
3
72
27
73
23
40
0
40
0
40
0
40
0
40
0.0312500000000017
40
0.0312500000000017
40
0.0625000000000034
40
0.0937500000000051
40
0.0937500000000051
40
0.125000000000007
40
0.125000000000007
40
0.187500000000006
40
0.187500000000006
40
0.250000000000006
40
0.250000000000006
40
0.375000000000005
40
0.375000000000005
40
0.500000000000003
40
0.500000000000003
40
0.625000000000001
40
0.625000000000001
40
0.75
40
0.75
40
1
40
1
40
1
40
1
41
1
10
30.0992304959911
20
-5.72573954487908
30
0
41
1
10
30.0680711282304
20
-5.72317777852558
30
0
41
1
10
30.0363692080572
20
-5.72038080694733
30
0
41
1
10
29.973053163227
20
-5.714417550734
30
0
41
1
10
29.9104060898145
20
-5.70814492865404
30
0
41
1
10
29.8489641541276
20
-5.70131499057095
30
0
41
1
10
29.7880669301415
20
-5.69423315053373
30
0
41
1
10
29.7577752842675
20
-5.69055153519264
30
0
41
1
10
29.6684802830554
20
-5.67927101459586
30
0
41
1
10
29.6115379395555
20
-5.67150888591308
30
0
41
1
10
29.5013813542158
20
-5.65563628781118
30
0
41
1
10
29.4479942804481
20
-5.64749516767515
30
0
41
1
10
29.2933543100298
20
-5.62287491713536
30
0
41
1
10
29.1988628394211
20
-5.60644734961625
30
0
41
1
10
29.0193154515288
20
-5.57357678399751
30
0
41
1
10
28.934415393199
20
-5.55713353101146
30
0
41
1
10
28.7708734162952
20
-5.5242367906921
30
0
41
1
10
28.6922758759316
20
-5.50778323078419
30
0
41
1
10
28.5395332529408
20
-5.47486882957153
30
0
41
1
10
28.4657553878905
20
-5.45848380788647
30
0
41
1
10
28.2505254305989
20
-5.4095943786098
30
0
41
1
10
28.1147923558047
20
-5.37729331628321
30
0
41
1
10
27.9836215277704
20
-5.34516400422567
30
0
0
SPLINE
5
16C
100
AcDbEntity
8
1
62
256
6
ByLayer
370
18
48
1
60
0
100
AcDbSpline
70
4
71
3
72
32
73
28
40
0
40
0
40
0
40
0
40
0.0624999999999989
40
0.0624999999999989
40
0.124999999999998
40
0.124999999999998
40
0.249999999999995
40
0.249999999999995
40
0.312499999999994
40
0.312499999999994
40
0.343749999999994
40
0.343749999999994
40
0.374999999999994
40
0.374999999999994
40
0.499999999999994
40
0.499999999999994
40
0.562499999999994
40
0.562499999999994
40
0.624999999999994
40
0.624999999999994
40
0.749999999999997
40
0.749999999999997
40
0.812499999999997
40
0.812499999999997
40
0.874999999999997
40
0.874999999999997
40
1
40
1
40
1
40
1
41
1
10
23.2469308968311
20
-5.37673905779462
30
0
41
1
10
23.246809418354
20
-5.31348429861455
30
0
41
1
10
23.2497334398634
20
-5.24993479858773
30
0
41
1
10
23.2618168185486
20
-5.12226892850589
30
0
41
1
10
23.2710548204071
20
-5.05782530050553
30
0
41
1
10
23.3078342022894
20
-4.86710858087409
30
0
41
1
10
23.3442724724117
20
-4.74291385534704
30
0
41
1
10
23.4165668770227
20
-4.56117671433222
30
0
41
1
10
23.4436228939283
20
-4.50136144196387
30
0
41
1
10
23.4887851166269
20
-4.41284632620474
30
0
41
1
10
23.5046308517713
20
-4.38350297216803
30
0
41
1
10
23.537526272782
20
-4.32584054568309
30
0
41
1
10
23.5546107027864
20
-4.29744809917383
30
0
41
1
10
23.6431648770465
20
-4.15765307509764
30
0
41
1
10
23.7239540392785
20
-4.05269803170077
30
0
41
1
10
23.8600181769881
20
-3.90573949253618
30
0
41
1
10
23.9080046811155
20
-3.85838752714273
30
0
41
1
10
24.0085561859324
20
-3.76788697281648
30
0
41
1
10
24.0605829681059
20
-3.72519928817468
30
0
41
1
10
24.2217320502188
20
-3.60459410811069
30
0
41
1
10
24.3358853648845
20
-3.53407731675986
30
0
41
1
10
24.5172012697739
20
-3.44331619929491
30
0
41
1
10
24.5796641498495
20
-3.41545712296403
30
0
41
1
10
24.7062228437653
20
-3.36568556820939
30
0
41
1
10
24.7702305455851
20
-3.34376483285092
30
0
41
1
10
24.9643642693296
20
-3.28663790131014
30
0
41
1
10
25.0965870049191
20
-3.26000770890974
30
0
41
1
10
25.2315973835963
20
-3.24491441071464
30
0
0
SPLINE
5
16D
100
AcDbEntity
8
1
62
256
6
ByLayer
370
18
48
1
60
0
100
AcDbSpline
70
4
71
3
72
17
73
13
40
0
40
0
40
0
40
0
40
0.125000000000002
40
0.125000000000002
40
0.250000000000004
40
0.250000000000004
40
0.500000000000005
40
0.625000000000004
40
0.625000000000004
40
0.750000000000003
40
0.750000000000003
40
1
40
1
40
1
40
1
41
1
10
23.7687833715956
20
-9.56548151930664
30
0
41
1
10
23.7809460715626
20
-9.58287731394847
30
0
41
1
10
23.7935086726051
20
-9.60069452852812
30
0
41
1
10
23.8195481772701
20
-9.63729245931327
30
0
41
1
10
23.8330948746788
20
-9.6561682701506
30
0
41
1
10
23.8743969695491
20
-9.71320026509622
30
0
41
1
10
23.917296613965
20
-9.77143479806264
30
0
41
1
10
23.9627857902763
20
-9.83161857295974
30
0
41
1
10
23.9937084603608
20
-9.8721901379877
30
0
41
1
10
24.0093321610525
20
-9.89252019865251
30
0
41
1
10
24.0558313862192
20
-9.95256048324046
30
0
41
1
10
24.0866820283291
20
-9.99177845997988
30
0
41
1
10
24.1174085997087
20
-10.0303221731513
30
0
0
SPLINE
5
16E
100
AcDbEntity
8
1
62
256
6
ByLayer
370
13
48
1
60
0
100
AcDbSpline
70
4
71
1
72
4
73
2
40
0
40
0
40
1
40
1
41
1
10
34.2375416305315
20
-15.2250872674314
30
0
41
1
10
34.2924095373278
20
-15.8949975157409
30
0
0
SPLINE
5
16F
100
AcDbEntity
8
1
62
256
6
ByLayer
370
18
48
1
60
0
100
AcDbSpline
70
4
71
3
72
8
73
4
40
0
40
0
40
0
40
0
40
1
40
1
40
1
40
1
41
1
10
24.8775123486747
20
-11.1439571878702
30
0
41
1
10
24.8737640105776
20
-11.1405859218809
30
0
41
1
10
24.8699559897243
20
-11.1387504845147
30
0
41
1
10
24.8660600013818
20
-11.1384344518089
30
0
0
SPLINE
5
170
100
AcDbEntity
8
1
62
256
6
ByLayer
370
18
48
1
60
0
100
AcDbSpline
70
4
71
3
72
12
73
8
40
0
40
0
40
0
40
0
40
0.267591030138787
40
0.267591030138787
40
0.633795515069394
40
0.633795515069394
40
1
40
1
40
1
40
1
41
1
10
24.8599878403549
20
-11.1391463606931
30
0
41
1
10
24.8565086504017
20
-11.1402259929253
30
0
41
1
10
24.8529516826392
20
-11.1424523377529
30
0
41
1
10
24.8442984120451
20
-11.1504157830648
30
0
41
1
10
24.839064098534
20
-11.1572088895743
30
0
41
1
10
24.8278876268637
20
-11.1749371946506
30
0
41
1
10
24.8219364058954
20
-11.1858650442483
30
0
41
1
10
24.8153074169135
20
-11.1988430011188
30
0
0
SPLINE
5
171
100
AcDbEntity
8
1
62
256
6
ByLayer
370
18
48
1
60
0
100
AcDbSpline
70
4
71
3
72
24
73
20
40
0
40
0
40
0
40
0
40
0.125000000000001
40
0.125000000000001
40
0.187500000000001
40
0.187500000000001
40
0.250000000000001
40
0.250000000000001
40
0.375000000000001
40
0.375000000000001
40
0.5
40
0.5
40
0.625
40
0.625
40
0.75
40
0.75
40
0.875
40
0.875
40
1
40
1
40
1
40
1
41
1
10
24.5032502572085
20
-9.33700935452751
30
0
41
1
10
24.5513497286685
20
-9.31659221768302
30
0
41
1
10
24.5979083309346
20
-9.29238191520577
30
0
41
1
10
24.6653672127494
20
-9.25027785593971
30
0
41
1
10
24.6875520635478
20
-9.23519893920115
30
0
41
1
10
24.73053780404
20
-9.20344569820926
30
0
41
1
10
24.7513256964808
20
-9.18679594564554
30
0
41
1
10
24.8116174151415
20
-9.13458001923016
30
0
41
1
10
24.8490624995237
20
-9.09676161156361
30
0
41
1
10
24.9183551902078
20
-9.01503096696888
30
0
41
1
10
24.9502948382328
20
-8.97083725831641
30
0
41
1
10
25.0061925439984
20
-8.87931192212031
30
0
41
1
10
25.0304742140191
20
-8.83166427732311
30
0
41
1
10
25.0716512877992
20
-8.73257363737096
30
0
41
1
10
25.08860448361
20
-8.68069388950624
30
0
41
1
10
25.1138113288128
20
-8.57643308122891
30
0
41
1
10
25.1222482390525
20
-8.52378138539416
30
0
41
1
10
25.1308346420032
20
-8.41743904479173
30
0
41
1
10
25.1309446914729
20
-8.3634530991541
30
0
41
1
10
25.1267222044246
20
-8.30986598869299
30
0
0
SPLINE
5
172
100
AcDbEntity
8
1
62
256
6
ByLayer
370
18
48
1
60
0
100
AcDbSpline
70
4
71
3
72
12
73
8
40
0
40
0
40
0
40
0
40
0.500000000000005
40
0.500000000000005
40
0.750000000000003
40
0.750000000000003
40
1
40
1
40
1
40
1
41
1
10
34.0252587774837
20
-10.655437979824
30
0
41
1
10
33.9952317341662
20
-10.6046492904005
30
0
41
1
10
33.9772240240738
20
-10.5515874923294
30
0
41
1
10
33.9651959477771
20
-10.4691611024193
30
0
41
1
10
33.963776640542
20
-10.4411970456974
30
0
41
1
10
33.9658374301052
20
-10.38566490752
30
0
41
1
10
33.9692852468401
20
-10.35792584898
30
0
41
1
10
33.9750349969459
20
-10.3302125106016
30
0
0
SPLINE
5
173
100
AcDbEntity
8
1
62
256
6
ByLayer
370
13
48
1
60
0
100
AcDbSpline
70
4
71
3
72
22
73
18
40
0
40
0
40
0
40
0
40
0.124999999999995
40
0.124999999999995
40
0.249999999999989
40
0.249999999999989
40
0.31249999999999
40
0.31249999999999
40
0.374999999999991
40
0.374999999999991
40
0.499999999999992
40
0.499999999999992
40
0.624999999999993
40
0.624999999999993
40
0.749999999999995
40
0.749999999999995
40
1
40
1
40
1
40
1
41
1
10
29.0765942594202
20
-10.5797689242106
30
0
41
1
10
29.085231543586
20
-10.5288955406449
30
0
41
1
10
29.0973050693509
20
-10.4785557786662
30
0
41
1
10
29.1282094678389
20
-10.3812371538495
30
0
41
1
10
29.1470379270374
20
-10.334095778146
30
0
41
1
10
29.1805572545248
20
-10.2657645960448
30
0
41
1
10
29.1926113546681
20
-10.2433850937445
30
0
41
1
10
29.2185373490473
20
-10.1994483665754
30
0
41
1
10
29.2324823874466
20
-10.1777909463043
30
0
41
1
10
29.276551649676
20
-10.1149341232885
30
0
41
1
10
29.3087764173836
20
-10.0759410054636
30
0
41
1
10
29.3784870051085
20
-10.0033715203959
30
0
41
1
10
29.4159744801518
20
-9.96979682302461
30
0
41
1
10
29.4959460915107
20
-9.90782961688726
30
0
41
1
10
29.5386762440984
20
-9.87934571096073
30
0
41
1
10
29.6701383072907
20
-9.80352754911459
30
0
41
1
10
29.7630928571629
20
-9.76476879332267
30
0
41
1
10
29.8601654686794
20
-9.73541279529462
30
0
0
SPLINE
5
174
100
AcDbEntity
8
1
62
256
6
ByLayer
370
18
48
1
60
0
100
AcDbSpline
70
4
71
3
72
8
73
4
40
0
40
0
40
0
40
0
40
1
40
1
40
1
40
1
41
1
10
34.6547130082349
20
-11.7649487045649
30
0
41
1
10
34.5451405153205
20
-11.7557709489529
30
0
41
1
10
34.4357422493159
20
-11.7467695689548
30
0
41
1
10
34.3265009519857
20
-11.7379270934928
30
0
0
SPLINE
5
175
100
AcDbEntity
8
1
62
256
6
ByLayer
370
18
48
1
60
0
100
AcDbSpline
70
4
71
3
72
8
73
4
40
0
40
0
40
0
40
0
40
1
40
1
40
1
40
1
41
1
10
34.6474455940469
20
-11.6596835308648
30
0
41
1
10
34.6495814236398
20
-11.694083777638
30
0
41
1
10
34.652002014346
20
-11.7291676538763
30
0
41
1
10
34.6547130082349
20
-11.7649487045649
30
0
0
SPLINE
5
176
100
AcDbEntity
8
1
62
256
6
ByLayer
370
13
48
1
60
0
100
AcDbSpline
70
4
71
1
72
4
73
2
40
0
40
0
40
1
40
1
41
1
10
33.9689291799764
20
-11.9454609073756
30
0
41
1
10
34.2375416305315
20
-15.2250872674314
30
0
0
SPLINE
5
177
100
AcDbEntity
8
1
62
256
6
ByLayer
370
18
48
1
60
0
100
AcDbSpline
70
4
71
3
72
24
73
20
40
0
40
0
40
0
40
0
40
0.249999999999999
40
0.249999999999999
40
0.374999999999999
40
0.374999999999999
40
0.499999999999999
40
0.499999999999999
40
0.562499999999999
40
0.562499999999999
40
0.624999999999999
40
0.624999999999999
40
0.749999999999999
40
0.749999999999999
40
0.8125
40
0.8125
40
0.875
40
0.875
40
1
40
1
40
1
40
1
41
1
10
27.5610228061542
20
-12.4122489078122
30
0
41
1
10
27.5795559090789
20
-12.3506529469687
30
0
41
1
10
27.5924581407444
20
-12.2877882050872
30
0
41
1
10
27.5969415094375
20
-12.191081350115
30
0
41
1
10
27.5958622741536
20
-12.159069862668
30
0
41
1
10
27.5871447977723
20
-12.0956180812199
30
0
41
1
10
27.5793106791442
20
-12.0637733596389
30
0
41
1
10
27.561906195145
20
-12.0188125820176
30
0
41
1
10
27.5551774586838
20
-12.004247040207
30
0
41
1
10
27.5397681261054
20
-11.9760029771635
30
0
41
1
10
27.5310116914096
20
-11.9622272324119
30
0
41
1
10
27.5022310859213
20
-11.9231000679116
30
0
41
1
10
27.4799028122918
20
-11.9000629852869
30
0
41
1
10
27.4422234712267
20
-11.869569652414
30
0
41
1
10
27.4289756976329
20
-11.8601145198457
30
0
41
1
10
27.4019032267212
20
-11.842916111224
30
0
41
1
10
27.3879911227753
20
-11.8350987267454
30
0
41
1
10
27.3452710771997
20
-11.8136927744847
30
0
41
1
10
27.315486937009
20
-11.8021347344415
30
0
41
1
10
27.2846491406821
20
-11.7927683366494
30
0
0
SPLINE
5
178
100
AcDbEntity
8
1
62
256
6
ByLayer
370
18
48
1
60
0
100
AcDbSpline
70
4
71
3
72
8
73
4
40
0
40
0
40
0
40
0
40
1
40
1
40
1
40
1
41
1
10
26.0159975186565
20
-4.34587122560643
30
0
41
1
10
26.0595605888773
20
-4.34852813794291
30
0
41
1
10
26.1031941962568
20
-4.3525163492929
30
0
41
1
10
26.1469002071473
20
-4.35771985007204
30
0
0
SPLINE
5
179
100
AcDbEntity
8
1
62
256
6
ByLayer
370
18
48
1
60
0
100
AcDbSpline
70
4
71
3
72
22
73
18
40
0
40
0
40
0
40
0
40
0.125
40
0.125
40
0.25
40
0.25
40
0.375
40
0.375
40
0.5
40
0.5
40
0.625
40
0.625
40
0.75
40
0.75
40
0.875
40
0.875
40
1
40
1
40
1
40
1
41
1
10
25.3535128635748
20
-6.80286329856463
30
0
41
1
10
25.3321361374365
20
-6.80137310727605
30
0
41
1
10
25.3109466021621
20
-6.80227645334338
30
0
41
1
10
25.2689262572782
20
-6.80869514718398
30
0
41
1
10
25.2478768691558
20
-6.81433021660294
30
0
41
1
10
25.2079493229117
20
-6.8298780358769
30
0
41
1
10
25.188906113063
20
-6.83976416318311
30
0
41
1
10
25.1527017917142
20
-6.86387083563341
30
0
41
1
10
25.1359597132509
20
-6.87785255001228
30
0
41
1
10
25.1058247218791
20
-6.90896346344533
30
0
41
1
10
25.0921726758878
20
-6.92642240734466
30
0
41
1
10
25.069079315574
20
-6.96347078314253
30
0
41
1
10
25.0595681302984
20
-6.98302798307986
30
0
41
1
10
25.0446533828355
20
-7.02422734736297
30
0
41
1
10
25.0393869142458
20
-7.04565300211004
30
0
41
1
10
25.0335099943961
20
-7.08859728334662
30
0
41
1
10
25.0328301349985
20
-7.11048899631925
30
0
41
1
10
25.0345244844136
20
-7.13227000797721
30
0
0
SPLINE
5
17A
100
AcDbEntity
8
1
62
256
6
ByLayer
370
18
48
1
60
0
100
AcDbSpline
70
4
71
3
72
28
73
24
40
0
40
0
40
0
40
0
40
0.0702979228866692
40
0.0702979228866692
40
0.140595845773338
40
0.140595845773338
40
0.210893768660008
40
0.210893768660008
40
0.281191691546677
40
0.281191691546677
40
0.351489614433346
40
0.351489614433346
40
0.421787537320015
40
0.421787537320015
40
0.492085460206685
40
0.492085460206685
40
0.562383383093354
40
0.562383383093354
40
0.702979228866693
40
0.702979228866693
40
0.843575074640032
40
0.843575074640032
40
1
40
1
40
1
40
1
41
1
10
34.4045809737327
20
-6.20917871896452
30
0
41
1
10
34.4116287494284
20
-6.17238655655726
30
0
41
1
10
34.4172792216833
20
-6.13530304181199
30
0
41
1
10
34.4256552496592
20
-6.06052881583418
30
0
41
1
10
34.4283689461476
20
-6.02241337788871
30
0
41
1
10
34.430565150884
20
-5.94910522662209
30
0
41
1
10
34.4301184422121
20
-5.91358523401866
30
0
41
1
10
34.42638136637
20
-5.84468030815691
30
0
41
1
10
34.4231084562785
20
-5.81188418889585
30
0
41
1
10
34.4143425639605
20
-5.75032254345697
30
0
41
1
10
34.4087847939076
20
-5.72115275699204
30
0
41
1
10
34.3960077956754
20
-5.66710838965585
30
0
41
1
10
34.3888275171455
20
-5.64228430401141
30
0
41
1
10
34.3732388755972
20
-5.59630497895418
30
0
41
1
10
34.3648281239742
20
-5.57515544098672
30
0
41
1
10
34.3470105930442
20
-5.53609614415339
30
0
41
1
10
34.3376152710832
20
-5.51824533547
30
0
41
1
10
34.3088285904307
20
-5.47001559228417
30
0
41
1
10
34.2886522693694
20
-5.44443678386637
30
0
41
1
10
34.2472531068365
20
-5.40350863198077
30
0
41
1
10
34.2258890489589
20
-5.38816696022511
30
0
41
1
10
34.181220632105
20
-5.36558930001689
30
0
41
1
10
34.1578821230904
20
-5.35918711650672
30
0
41
1
10
34.1348406815403
20
-5.3575689216639
30
0
0
SPLINE
5
17B
100
AcDbEntity
8
1
62
256
6
ByLayer
370
18
48
1
60
0
100
AcDbSpline
70
4
71
3
72
12
73
8
40
0
40
0
40
0
40
0
40
0.499999999999993
40
0.499999999999993
40
0.749999999999997
40
0.749999999999997
40
1
40
1
40
1
40
1
41
1
10
24.7206686701992
20
-10.6745405194442
30
0
41
1
10
24.7705814030811
20
-10.7357314784428
30
0
41
1
10
24.8100345576628
20
-10.8000114590172
30
0
41
1
10
24.8561752155851
20
-10.9002822525031
30
0
41
1
10
24.8693009734936
20
-10.9343699920512
30
0
41
1
10
24.890731864433
20
-11.0021907055163
30
0
41
1
10
24.8991396698845
20
-11.0361314789912
30
0
41
1
10
24.9053500792386
20
-11.0701012160959
30
0
0
SPLINE
5
17C
100
AcDbEntity
8
1
62
256
6
ByLayer
370
18
48
1
60
0
100
AcDbSpline
70
4
71
3
72
12
73
8
40
0
40
0
40
0
40
0
40
0.499999999999999
40
0.499999999999999
40
0.75
40
0.75
40
1
40
1
40
1
40
1
41
1
10
34.3265009519857
20
-11.7379270934928
30
0
41
1
10
34.2509190230689
20
-11.7318091567038
30
0
41
1
10
34.1757612306981
20
-11.7343330332769
30
0
41
1
10
34.0637148509125
20
-11.7508603616596
30
0
41
1
10
34.0263386633644
20
-11.7585667302654
30
0
41
1
10
33.9530266483564
20
-11.7781787050054
30
0
41
1
10
33.9170033971078
20
-11.7900789123306
30
0
41
1
10
33.8816573690014
20
-11.8041184894616
30
0
0
SPLINE
5
17D
100
AcDbEntity
8
1
62
256
6
ByLayer
370
13
48
1
60
0
100
AcDbSpline
70
4
71
3
72
22
73
18
40
0
40
0
40
0
40
0
40
0.249999999999976
40
0.249999999999976
40
0.499999999999952
40
0.499999999999952
40
0.562499999999957
40
0.562499999999957
40
0.624999999999961
40
0.624999999999961
40
0.687499999999966
40
0.687499999999966
40
0.74999999999997
40
0.74999999999997
40
0.874999999999985
40
0.874999999999985
40
1
40
1
40
1
40
1
41
1
10
30.0611090535433
20
-10.2705911393324
30
0
41
1
10
30.0027448574825
20
-10.2732532891486
30
0
41
1
10
29.9450962202029
20
-10.2799026692322
30
0
41
1
10
29.8322226148941
20
-10.3067842549194
30
0
41
1
10
29.7761910202023
20
-10.3273858383035
30
0
41
1
10
29.7148574834743
20
-10.3673137854026
30
0
41
1
10
29.702939410735
20
-10.3760903490189
30
0
41
1
10
29.6805988512963
20
-10.394900758766
30
0
41
1
10
29.670115418066
20
-10.4049643916928
30
0
41
1
10
29.6506291285074
20
-10.4265096803977
30
0
41
1
10
29.6415632351233
20
-10.4380918784915
30
0
41
1
10
29.6253854864924
20
-10.4622668330036
30
0
41
1
10
29.6182864605282
20
-10.4748028445475
30
0
41
1
10
29.5998071818097
20
-10.5136864317186
30
0
41
1
10
29.5912271261576
20
-10.5416313712797
30
0
41
1
10
29.5812732862623
20
-10.598184769236
30
0
41
1
10
29.5797529952648
20
-10.6270591903545
30
0
41
1
10
29.5809121990719
20
-10.6557690564706
30
0
0
SPLINE
5
17E
100
AcDbEntity
8
1
62
256
6
ByLayer
370
13
48
1
60
0
100
AcDbSpline
70
4
71
3
72
8
73
4
40
0
40
0
40
0
40
0
40
1
40
1
40
1
40
1
41
1
10
31.0417350454799
20
-14.9623441384733
30
0
41
1
10
31.0137971321868
20
-14.9600472238886
30
0
41
1
10
30.9859212622515
20
-14.9578124623532
30
0
41
1
10
30.9581323885586
20
-14.9556418542979
30
0
0
SPLINE
5
17F
100
AcDbEntity
8
1
62
256
6
ByLayer
370
18
48
1
60
0
100
AcDbSpline
70
4
71
3
72
8
73
4
40
0
40
0
40
0
40
0
40
1
40
1
40
1
40
1
41
1
10
24.9115599231329
20
-11.1784246639349
30
0
41
1
10
24.9018347901269
20
-11.1670692135482
30
0
41
1
10
24.890430143286
20
-11.1555754892354
30
0
41
1
10
24.8775123486746
20
-11.1439571878702
30
0
0
SPLINE
5
180
100
AcDbEntity
8
1
62
256
6
ByLayer
370
13
48
1
60
0
100
AcDbSpline
70
4
71
3
72
8
73
4
40
0
40
0
40
0
40
0
40
1
40
1
40
1
40
1
41
1
10
29.580912199072
20
-10.6557690564706
30
0
41
1
10
29.5815706578833
20
-10.6720770294088
30
0
41
1
10
29.5822060903052
20
-10.6884776839314
30
0
41
1
10
29.5828513548568
20
-10.7049706437384
30
0
0
SPLINE
5
181
100
AcDbEntity
8
1
62
256
6
ByLayer
370
18
48
1
60
0
100
AcDbSpline
70
4
71
3
72
8
73
4
40
0
40
0
40
0
40
0
40
1
40
1
40
1
40
1
41
1
10
33.9775272397651
20
-10.2264411529262
30
0
41
1
10
33.9729196883987
20
-10.2248019208681
30
0
41
1
10
33.9683362827154
20
-10.2231641195912
30
0
41
1
10
33.963776728525
20
-10.2215277316629
30
0
0
SPLINE
5
182
100
AcDbEntity
8
1
62
256
6
ByLayer
370
18
48
1
60
0
100
AcDbSpline
70
4
71
3
72
24
73
20
40
0
40
0
40
0
40
0
40
0.125000000000004
40
0.125000000000004
40
0.187500000000004
40
0.187500000000004
40
0.250000000000004
40
0.250000000000004
40
0.375000000000003
40
0.375000000000003
40
0.500000000000002
40
0.500000000000002
40
0.625000000000002
40
0.625000000000002
40
0.750000000000001
40
0.750000000000001
40
0.875000000000001
40
0.875000000000001
40
1
40
1
40
1
40
1
41
1
10
24.8153074169135
20
-11.1988430011188
30
0
41
1
10
24.8060192418058
20
-11.217027001165
30
0
41
1
10
24.7963951469893
20
-11.2391121541247
30
0
41
1
10
24.7815649223732
20
-11.2781880488592
30
0
41
1
10
24.7765326508867
20
-11.2922800349964
30
0
41
1
10
24.7664841831508
20
-11.3221381206407
30
0
41
1
10
24.7614728924462
20
-11.3378801140414
30
0
41
1
10
24.7465098786799
20
-11.3874879029186
30
0
41
1
10
24.7366284215602
20
-11.4237203457728
30
0
41
1
10
24.717230843787
20
-11.5025801093826
30
0
41
1
10
24.7076736718547
20
-11.5454859679579
30
0
41
1
10
24.6897607515547
20
-11.6348257234037
30
0
41
1
10
24.6813199247283
20
-11.6815619126924
30
0
41
1
10
24.6655972854587
20
-11.7791879472402
30
0
41
1
10
24.6582709904921
20
-11.8305137794012
30
0
41
1
10
24.6453658559833
20
-11.9340667679092
30
0
41
1
10
24.6397297218006
20
-11.9865573117943
30
0
41
1
10
24.6301041734301
20
-12.0929594430786
30
0
41
1
10
24.6261012442466
20
-12.1471693784759
30
0
41
1
10
24.623012359404
20
-12.2011771729942
30
0
0
SPLINE
5
183
100
AcDbEntity
8
1
62
256
6
ByLayer
370
18
48
1
60
0
100
AcDbSpline
70
4
71
3
72
24
73
20
40
0
40
0
40
0
40
0
40
0.249999999999999
40
0.249999999999999
40
0.375000000000003
40
0.375000000000003
40
0.500000000000008
40
0.500000000000008
40
0.562500000000005
40
0.562500000000005
40
0.625000000000002
40
0.625000000000002
40
0.750000000000001
40
0.750000000000001
40
0.812500000000002
40
0.812500000000002
40
0.875000000000002
40
0.875000000000002
40
1
40
1
40
1
40
1
41
1
10
31.5376382116594
20
-9.10224568142124
30
0
41
1
10
31.515101923035
20
-9.16174756266676
30
0
41
1
10
31.4978565059989
20
-9.22234037000484
30
0
41
1
10
31.4860337618663
20
-9.31520797356026
30
0
41
1
10
31.4845737541284
20
-9.34589117463611
30
0
41
1
10
31.4879762847554
20
-9.40656269049003
30
0
41
1
10
31.492994814249
20
-9.43693456814
30
0
41
1
10
31.5061523166646
20
-9.47967373573513
30
0
41
1
10
31.5114584926947
20
-9.4934951315083
30
0
41
1
10
31.5240081799979
20
-9.52024330470866
30
0
41
1
10
31.5313167097865
20
-9.53326164564407
30
0
41
1
10
31.555817372109
20
-9.57014995780631
30
0
41
1
10
31.5753951530286
20
-9.59174824865363
30
0
41
1
10
31.6090857814715
20
-9.62015507284306
30
0
41
1
10
31.6210297555395
20
-9.62892818359387
30
0
41
1
10
31.6456032331908
20
-9.64481936062677
30
0
41
1
10
31.6583106280172
20
-9.65200655780515
30
0
41
1
10
31.6975337653856
20
-9.67158326588839
30
0
41
1
10
31.7251420277678
20
-9.68200309709792
30
0
41
1
10
31.7539294972085
20
-9.6902969621564
30
0
0
SPLINE
5
184
100
AcDbEntity
8
1
62
256
6
ByLayer
370
18
48
1
60
0
100
AcDbSpline
70
4
71
3
72
24
73
20
40
0
40
0
40
0
40
0
40
0.124999999999987
40
0.124999999999987
40
0.187499999999987
40
0.187499999999987
40
0.249999999999987
40
0.249999999999987
40
0.374999999999989
40
0.374999999999989
40
0.499999999999992
40
0.499999999999992
40
0.624999999999994
40
0.624999999999994
40
0.749999999999996
40
0.749999999999996
40
0.874999999999998
40
0.874999999999998
40
1
40
1
40
1
40
1
41
1
10
33.8816573690014
20
-11.8041184894616
30
0
41
1
10
33.8321324566344
20
-11.8237899734822
30
0
41
1
10
33.7843389784972
20
-11.8473543083323
30
0
41
1
10
33.7152666661977
20
-11.8886143768085
30
0
41
1
10
33.692581931967
20
-11.9034318028805
30
0
41
1
10
33.6486809296185
20
-11.934706267387
30
0
41
1
10
33.62747757033
20
-11.951138687877
30
0
41
1
10
33.5660483842681
20
-12.002759601356
30
0
41
1
10
33.5279896017287
20
-12.0402569814993
30
0
41
1
10
33.4576843725115
20
-12.1214579638591
30
0
41
1
10
33.4253458522786
20
-12.1654430211485
30
0
41
1
10
33.3688268842054
20
-12.2566433729895
30
0
41
1
10
33.3443177324073
20
-12.3041720213212
30
0
41
1
10
33.3027975165012
20
-12.4030831624993
30
0
41
1
10
33.2857286362575
20
-12.4549023954569
30
0
41
1
10
33.2603774120692
20
-12.5590876786124
30
0
41
1
10
33.2519100874124
20
-12.6117234645656
30
0
41
1
10
33.2433353410497
20
-12.7180719027675
30
0
41
1
10
33.243267917107
20
-12.7720801459584
30
0
41
1
10
33.2475776926598
20
-12.8257129173232
30
0
0
SPLINE
5
185
100
AcDbEntity
8
1
62
256
6
ByLayer
370
18
48
1
60
0
100
AcDbSpline
70
4
71
3
72
12
73
8
40
0
40
0
40
0
40
0
40
0.499999999999996
40
0.499999999999996
40
0.749999999999998
40
0.749999999999998
40
1
40
1
40
1
40
1
41
1
10
34.4097402446079
20
-11.3057620765522
30
0
41
1
10
34.4397672879254
20
-11.3565507659756
30
0
41
1
10
34.4754116103543
20
-11.4123120292135
30
0
41
1
10
34.535880682021
20
-11.5021528123839
30
0
41
1
10
34.5572465418701
20
-11.5331698944232
30
0
41
1
10
34.6012360549719
20
-11.5957505057194
30
0
41
1
10
34.6239827951305
20
-11.6274989109833
30
0
41
1
10
34.6474455940469
20
-11.6596835308648
30
0
0
SPLINE
5
186
100
AcDbEntity
8
1
62
256
6
ByLayer
370
13
48
1
60
0
100
AcDbSpline
70
4
71
3
72
22
73
18
40
0
40
0
40
0
40
0
40
0.124999999999998
40
0.124999999999998
40
0.249999999999996
40
0.249999999999996
40
0.312499999999997
40
0.312499999999997
40
0.374999999999998
40
0.374999999999998
40
0.499999999999999
40
0.499999999999999
40
0.625000000000001
40
0.625000000000001
40
0.750000000000003
40
0.750000000000003
40
1
40
1
40
1
40
1
41
1
10
29.5828513548568
20
-10.7049706437384
30
0
41
1
10
29.57477851364
20
-10.7561392892661
30
0
41
1
10
29.5637737815241
20
-10.8070381407156
30
0
41
1
10
29.5360472134699
20
-10.9060190990777
30
0
41
1
10
29.5193251522302
20
-10.9542623384772
30
0
41
1
10
29.4898000925159
20
-11.0246829351797
30
0
41
1
10
29.4792169082304
20
-11.0478318784
30
0
41
1
10
29.4565265536794
20
-11.0934611793987
30
0
41
1
10
29.444355793545
20
-11.1160467304622
30
0
41
1
10
29.4059999872752
20
-11.1818922810706
30
0
41
1
10
29.3780858505086
20
-11.2231403041097
30
0
41
1
10
29.3179866576423
20
-11.3007375414204
30
0
41
1
10
29.2858001939769
20
-11.3370852152679
30
0
41
1
10
29.21744159634
20
-11.4051272270551
30
0
41
1
10
29.1810628731549
20
-11.4369335865791
30
0
41
1
10
29.0696223209315
20
-11.5232250666235
30
0
41
1
10
28.9914361672492
20
-11.5697092190058
30
0
41
1
10
28.9104946395248
20
-11.6075034399882
30
0
0
SPLINE
5
187
100
AcDbEntity
8
1
62
256
6
ByLayer
370
18
48
1
60
0
100
AcDbSpline
70
4
71
3
72
12
73
8
40
0
40
0
40
0
40
0
40
0.500000000000002
40
0.500000000000002
40
0.750000000000001
40
0.750000000000001
40
1
40
1
40
1
40
1
41
1
10
24.0768531692671
20
-9.41285017268655
30
0
41
1
10
24.1491386336533
20
-9.4172437180442
30
0
41
1
10
24.2209206220152
20
-9.41295394729792
30
0
41
1
10
24.3280408529009
20
-9.39384973423341
30
0
41
1
10
24.3638048112641
20
-9.38530000324164
30
0
41
1
10
24.434203660722
20
-9.36416414202694
30
0
41
1
10
24.4689215691025
20
-9.35158110555673
30
0
41
1
10
24.5032502572085
20
-9.33700935452748
30
0
0
SPLINE
5
188
100
AcDbEntity
8
1
62
256
6
ByLayer
370
13
48
1
60
0
100
AcDbSpline
70
4
71
1
72
4
73
2
40
0
40
0
40
1
40
1
41
1
10
31.0417350454799
20
-14.9623441384733
30
0
41
1
10
34.2375416305315
20
-15.2250872674314
30
0
0
SPLINE
5
189
100
AcDbEntity
8
1
62
256
6
ByLayer
370
13
48
1
60
0
100
AcDbSpline
70
4
71
1
72
4
73
2
40
0
40
0
40
1
40
1
41
1
10
34.2375416305315
20
-15.2250872674314
30
0
41
1
10
34.907445536841
20
-15.2801633941496
30
0
0
SPLINE
5
18A
100
AcDbEntity
8
1
62
256
6
ByLayer
370
18
48
1
60
0
100
AcDbSpline
70
4
71
3
72
8
73
4
40
0
40
0
40
0
40
0
40
1
40
1
40
1
40
1
41
1
10
33.975034996946
20
-10.3302125106016
30
0
41
1
10
33.9735279810329
20
-10.2959085102386
30
0
41
1
10
33.9743433903036
20
-10.2613199371259
30
0
41
1
10
33.977527239765
20
-10.2264411529262
30
0
0
SPLINE
5
18B
100
AcDbEntity
8
1
62
256
6
ByLayer
370
18
48
1
60
0
100
AcDbSpline
70
4
71
3
72
8
73
4
40
0
40
0
40
0
40
0
40
1
40
1
40
1
40
1
41
1
10
23.7649676473988
20
-9.39436902541419
30
0
41
1
10
23.86839632535
20
-9.40033293122434
30
0
41
1
10
23.9723763714288
20
-9.40650002256965
30
0
41
1
10
24.0768531692671
20
-9.41285017268658
30
0
0
SPLINE
5
18C
100
AcDbEntity
8
1
62
256
6
ByLayer
370
18
48
1
60
0
100
AcDbSpline
70
4
71
3
72
8
73
4
40
0
40
0
40
0
40
0
40
1
40
1
40
1
40
1
41
1
10
24.9053500792385
20
-11.0701012160959
30
0
41
1
10
24.9098427133368
20
-11.1059670031453
30
0
41
1
10
24.9119285568243
20
-11.1420732311122
30
0
41
1
10
24.9115599231329
20
-11.1784246639349
30
0
0
SPLINE
5
18D
100
AcDbEntity
8
1
62
256
6
ByLayer
370
13
48
1
60
0
100
AcDbSpline
70
4
71
1
72
4
73
2
40
0
40
0
40
1
40
1
41
1
10
34.662820126735
20
-11.8810997112192
30
0
41
1
10
33.9689291799764
20
-11.9454609073756
30
0
0
SPLINE
5
18E
100
AcDbEntity
8
1
62
256
6
ByLayer
370
18
48
1
60
0
100
AcDbSpline
70
4
71
3
72
22
73
18
40
0
40
0
40
0
40
0
40
0.125
40
0.125
40
0.25
40
0.25
40
0.375
40
0.375
40
0.5
40
0.5
40
0.625
40
0.625
40
0.75
40
0.75
40
0.875
40
0.875
40
1
40
1
40
1
40
1
41
1
10
33.0201153494978
20
-14.3323642473372
30
0
41
1
10
33.0416222514442
20
-14.3339225340188
30
0
41
1
10
33.0629668843754
20
-14.3331003200455
30
0
41
1
10
33.1053416789982
20
-14.3268670400284
30
0
41
1
10
33.1265930792871
20
-14.3213376438378
30
0
41
1
10
33.166942383498
20
-14.3060104475426
30
0
41
1
10
33.1862062888836
20
-14.2962397667971
30
0
41
1
10
33.2228564659882
20
-14.2723663229582
30
0
41
1
10
33.2398185671241
20
-14.2584997031626
30
0
41
1
10
33.2703613899118
20
-14.2276021276838
30
0
41
1
10
33.2842047658526
20
-14.2102432691098
30
0
41
1
10
33.3076202378074
20
-14.1733633909703
30
0
41
1
10
33.3172630787253
20
-14.1538750605321
30
0
41
1
10
33.3323697825913
20
-14.1127761092744
30
0
41
1
10
33.3376944883699
20
-14.0913809185923
30
0
41
1
10
33.3436047166999
20
-14.0484540611312
30
0
41
1
10
33.3442602469923
20
-14.0265496215237
30
0
41
1
10
33.3425005831438
20
-14.0047344436709
30
0
0
SPLINE
5
18F
100
AcDbEntity
8
1
62
256
6
ByLayer
370
13
48
1
60
0
100
AcDbSpline
70
4
71
3
72
8
73
4
40
0
40
0
40
0
40
0
40
1
40
1
40
1
40
1
41
1
10
30.9581323885586
20
-14.9556418542979
30
0
41
1
10
30.936606113132
20
-15.1869283938335
30
0
41
1
10
30.9150798377053
20
-15.4182149333692
30
0
41
1
10
30.8935535622786
20
-15.6495014729049
30
0
0
SPLINE
5
190
100
AcDbEntity
8
1
62
256
6
ByLayer
370
13
48
1
60
0
100
AcDbSpline
70
4
71
3
72
22
73
18
40
0
40
0
40
0
40
0
40
0.250000000000007
40
0.250000000000007
40
0.500000000000013
40
0.500000000000013
40
0.562500000000012
40
0.562500000000012
40
0.625000000000011
40
0.625000000000011
40
0.68750000000001
40
0.68750000000001
40
0.750000000000008
40
0.750000000000008
40
0.875000000000004
40
0.875000000000004
40
1
40
1
40
1
40
1
41
1
10
28.6482259801423
20
-11.0402457478951
30
0
41
1
10
28.7025438272343
20
-11.0354669396331
30
0
41
1
10
28.7561314945612
20
-11.0266932528189
30
0
41
1
10
28.8606083961953
20
-10.9954193238396
30
0
41
1
10
28.9122430371811
20
-10.9725176795191
30
0
41
1
10
28.9680103070738
20
-10.9296779999422
30
0
41
1
10
28.9788021255895
20
-10.9203122890397
30
0
41
1
10
28.9989238744866
20
-10.9003412122051
30
0
41
1
10
29.0083096530358
20
-10.8897033925065
30
0
41
1
10
29.0256222761701
20
-10.8670210517503
30
0
41
1
10
29.0336036556855
20
-10.8548715408869
30
0
41
1
10
29.04767831037
20
-10.8295964510187
30
0
41
1
10
29.0537621939575
20
-10.8165294151608
30
0
41
1
10
29.0692967935476
20
-10.7761054566585
30
0
41
1
10
29.0760309744238
20
-10.7471949339348
30
0
41
1
10
29.0826718132677
20
-10.6889084942387
30
0
41
1
10
29.0827040062496
20
-10.6592556441569
30
0
41
1
10
29.0802212197159
20
-10.6298534075659
30
0
0
SPLINE
5
191
100
AcDbEntity
8
1
62
256
6
ByLayer
370
13
48
1
60
0
100
AcDbSpline
70
4
71
3
72
8
73
4
40
0
40
0
40
0
40
0
40
1
40
1
40
1
40
1
41
1
10
29.0802212197159
20
-10.6298534075659
30
0
41
1
10
29.0788109304641
20
-10.613152149653
30
0
41
1
10
29.0776112685284
20
-10.5964563448171
30
0
41
1
10
29.0765942594202
20
-10.5797689242106
30
0
0
SPLINE
5
192
100
AcDbEntity
8
1
62
256
6
ByLayer
370
18
48
1
60
0
100
AcDbSpline
70
4
71
3
72
12
73
8
40
0
40
0
40
0
40
0
40
0.50000000000001
40
0.50000000000001
40
0.750000000000005
40
0.750000000000005
40
1
40
1
40
1
40
1
41
1
10
24.0815607645784
20
-9.89102049578534
30
0
41
1
10
24.0316480316964
20
-9.82982953678678
30
0
41
1
10
23.9809550613031
20
-9.766196276334
30
0
41
1
10
23.9039429494244
20
-9.66770177445201
30
0
41
1
10
23.8781052504026
20
-9.63434545864254
30
0
41
1
10
23.8273264943431
20
-9.56821337203903
30
0
41
1
10
23.8022248936698
20
-9.53523313149952
30
0
41
1
10
23.7773973222364
20
-9.50233459462845
30
0
0
SPLINE
5
193
100
AcDbEntity
8
1
62
256
6
ByLayer
370
18
48
1
60
0
100
AcDbSpline
70
4
71
3
72
34
73
30
40
0
40
0
40
0
40
0
40
0.0625000000000027
40
0.0625000000000027
40
0.0937500000000038
40
0.0937500000000038
40
0.125000000000005
40
0.125000000000005
40
0.187500000000007
40
0.187500000000007
40
0.218750000000008
40
0.218750000000008
40
0.25000000000001
40
0.25000000000001
40
0.31250000000001
40
0.31250000000001
40
0.375000000000011
40
0.375000000000011
40
0.437500000000012
40
0.437500000000012
40
0.500000000000012
40
0.500000000000012
40
0.625000000000011
40
0.625000000000011
40
0.687500000000009
40
0.687500000000009
40
0.750000000000006
40
0.750000000000006
40
1
40
1
40
1
40
1
41
1
10
26.9123817440311
20
-14.6625325686886
30
0
41
1
10
26.9022551288034
20
-14.6991633257024
30
0
41
1
10
26.8948166941932
20
-14.7361179985054
30
0
41
1
10
26.8877017286556
20
-14.7920359033392
30
0
41
1
10
26.8860068715828
20
-14.8107565673782
30
0
41
1
10
26.8840113572198
20
-14.8483655073384
30
0
41
1
10
26.8837237296982
20
-14.8672085627501
30
0
41
1
10
26.8849412029797
20
-14.9225913802013
30
0
41
1
10
26.8884809364332
20
-14.9584622779123
30
0
41
1
10
26.8976024145251
20
-15.010818205363
30
0
41
1
10
26.901303289843
20
-15.0280969651358
30
0
41
1
10
26.9098077262292
20
-15.0615996453285
30
0
41
1
10
26.9146150234834
20
-15.0778787722489
30
0
41
1
10
26.9305797790187
20
-15.1254167259453
30
0
41
1
10
26.9433251579706
20
-15.1554845166902
30
0
41
1
10
26.9722920543244
20
-15.2121347011025
30
0
41
1
10
26.9882822253535
20
-15.238313895056
30
0
41
1
10
27.0228114428847
20
-15.287151926161
30
0
41
1
10
27.0413545044905
20
-15.309804619602
30
0
41
1
10
27.0807295155439
20
-15.3520491949671
30
0
41
1
10
27.1016642156449
20
-15.3717069551781
30
0
41
1
10
27.1664060766314
20
-15.4255686100154
30
0
41
1
10
27.2123871519956
20
-15.455102674867
30
0
41
1
10
27.2848516808926
20
-15.4921518079379
30
0
41
1
10
27.3095955417091
20
-15.5032735761655
30
0
41
1
10
27.3601979331671
20
-15.5232795906449
30
0
41
1
10
27.3861223845932
20
-15.5321785296974
30
0
41
1
10
27.5171008683952
20
-15.5711004555895
30
0
41
1
10
27.6268216047344
20
-15.5852641928399
30
0
41
1
10
27.740917470243
20
-15.5864271613885
30
0
0
SPLINE
5
194
100
AcDbEntity
8
1
62
256
6
ByLayer
370
18
48
1
60
0
100
AcDbSpline
70
4
71
3
72
28
73
24
40
0
40
0
40
0
40
0
40
0.0625000000000022
40
0.0625000000000022
40
0.125000000000004
40
0.125000000000004
40
0.187500000000007
40
0.187500000000007
40
0.250000000000009
40
0.250000000000009
40
0.312500000000011
40
0.312500000000011
40
0.375000000000013
40
0.375000000000013
40
0.437500000000015
40
0.437500000000015
40
0.500000000000018
40
0.500000000000018
40
0.625000000000013
40
0.625000000000013
40
0.750000000000009
40
0.750000000000009
40
1
40
1
40
1
40
1
41
1
10
32.3337452316316
20
-6.9291019478139
30
0
41
1
10
32.3461890402884
20
-6.89402357479744
30
0
41
1
10
32.3550857021249
20
-6.85797472350038
30
0
41
1
10
32.3655555866565
20
-6.78386753707514
30
0
41
1
10
32.3670414743429
20
-6.74536036898567
30
0
41
1
10
32.3623800124716
20
-6.66987005379912
30
0
41
1
10
32.3563620634768
20
-6.63257842787951
30
0
41
1
10
32.3373856390439
20
-6.55884932705521
30
0
41
1
10
32.3245491983184
20
-6.52303426873218
30
0
41
1
10
32.2935412764048
20
-6.45449254886978
30
0
41
1
10
32.2751452043881
20
-6.42131180811097
30
0
41
1
10
32.2342435348286
20
-6.35854100275751
30
0
41
1
10
32.2118483471059
20
-6.32902330119757
30
0
41
1
10
32.1637886806605
20
-6.2731008867091
30
0
41
1
10
32.1381192445358
20
-6.24670103397423
30
0
41
1
10
32.0838707428622
20
-6.19664610173706
30
0
41
1
10
32.0553264692352
20
-6.17305762692371
30
0
41
1
10
31.9676260941654
20
-6.10731698994351
30
0
41
1
10
31.9058232510963
20
-6.06954779666336
30
0
41
1
10
31.7768895074957
20
-6.00341002157617
30
0
41
1
10
31.7093072686613
20
-5.97496355252764
30
0
41
1
10
31.5042493332513
20
-5.90339902738543
30
0
41
1
10
31.3636039847474
20
-5.87299419180437
30
0
41
1
10
31.2197124730515
20
-5.85586291905798
30
0
0
SPLINE
5
195
100
AcDbEntity
8
1
62
256
6
ByLayer
370
18
48
1
60
0
100
AcDbSpline
70
4
71
3
72
8
73
4
40
0
40
0
40
0
40
0
40
1
40
1
40
1
40
1
41
1
10
23.7773973222364
20
-9.50233459462848
30
0
41
1
10
23.7725039450812
20
-9.46649186566145
30
0
41
1
10
23.7683557983003
20
-9.43050429916192
30
0
41
1
10
23.7649676473987
20
-9.39436902541419
30
0
0
LINE
5
70
100
AcDbEntity
8
81
62
256
6
ByLayer
370
18
48
1
60
0
100
AcDbLine
10
34.925
20
-15.9125
30
0
11
44.925
21
-15.9125
31
0
39
0
210
0
220
0
230
1
0
LINE
5
71
100
AcDbEntity
8
1
62
256
6
ByLayer
370
18
48
1
60
0
100
AcDbLine
10
20.092702
20
-3.838239
30
0
11
20.625562
21
-3.743297
31
0
39
0
210
0
220
0
230
1
0
LINE
5
73
100
AcDbEntity
8
1
62
256
6
ByLayer
370
18
48
1
60
0
100
AcDbLine
10
23.706231
20
0.295771
30
0
11
23.568808
21
0.848479
31
0
39
0
210
0
220
0
230
1
0
LINE
5
74
100
AcDbEntity
8
1
62
256
6
ByLayer
370
18
48
1
60
0
100
AcDbLine
10
33.387108
20
6.378657
30
0
11
22.270592
21
12.948477
31
0
39
0
210
0
220
0
230
1
0
LINE
5
75
100
AcDbEntity
8
1
62
256
6
ByLayer
370
18
48
1
60
0
100
AcDbLine
10
27.312992
20
-4.692385
30
0
11
27.890505
21
-5.257719
31
0
39
0
210
0
220
0
230
1
0
LINE
5
76
100
AcDbEntity
8
1
62
256
6
ByLayer
370
18
48
1
60
0
100
AcDbLine
10
34.100191
20
-4.114887
30
0
11
34.100876
21
-3.715027
31
0
39
0
210
0
220
0
230
1
0
LINE
5
77
100
AcDbEntity
8
1
62
256
6
ByLayer
370
18
48
1
60
0
100
AcDbLine
10
34.099605
20
-3.67494
30
0
11
33.471766
21
5.972597
31
0
39
0
210
0
220
0
230
1
0
LINE
5
78
100
AcDbEntity
8
1
62
256
6
ByLayer
370
18
48
1
60
0
100
AcDbLine
10
24.525529
20
-15.325695
30
0
11
27.643877
21
-15.582069
31
0
39
0
210
0
220
0
230
1
0
LINE
5
79
100
AcDbEntity
8
1
62
256
6
ByLayer
370
18
48
1
60
0
100
AcDbLine
10
24.517138
20
-13.709934
30
0
11
24.534196
21
-13.711337
31
0
39
0
210
0
220
0
230
1
0
LINE
5
7A
100
AcDbEntity
8
1
62
256
6
ByLayer
370
18
48
1
60
0
100
AcDbLine
10
34.184858
20
-5.368728
30
0
11
34.134732
21
-5.350202
31
0
39
0
210
0
220
0
230
1
0
LINE
5
7B
100
AcDbEntity
8
1
62
256
6
ByLayer
370
18
48
1
60
0
100
AcDbLine
10
26.015635
20
-4.345912
30
0
11
23.624279
21
-4.203906
31
0
39
0
210
0
220
0
230
1
0
LINE
5
7C
100
AcDbEntity
8
80
62
256
6
ByLayer
370
18
48
1
60
0
100
AcDbLine
10
0
20
0
30
0
11
-6.6
21
0
31
0
39
0
210
0
220
0
230
1
0
LINE
5
7D
100
AcDbEntity
8
1
62
256
6
ByLayer
370
13
48
1
60
0
100
AcDbLine
10
17.857543
20
-3.289656
30
0
11
18.847851
21
-3.291077
31
0
39
0
210
0
220
0
230
1
0
LINE
5
7E
100
AcDbEntity
8
1
62
256
6
ByLayer
370
13
48
1
60
0
100
AcDbLine
10
25.723308
20
-3.207696
30
0
11
25.791038
21
-3.056675
31
0
39
0
210
0
220
0
230
1
0
LINE
5
7F
100
AcDbEntity
8
1
62
256
6
ByLayer
370
18
48
1
60
0
100
AcDbLine
10
24.191134
20
-13.804078
30
0
11
23.616944
21
-15.336659
31
0
39
0
210
0
220
0
230
1
0
LINE
5
80
100
AcDbEntity
8
1
62
256
6
ByLayer
370
18
48
1
60
0
100
AcDbLine
10
21.992425
20
12.948477
30
0
11
22.270592
21
12.948477
31
0
39
0
210
0
220
0
230
1
0
LINE
5
81
100
AcDbEntity
8
1
62
256
6
ByLayer
370
18
48
1
60
0
100
AcDbLine
10
24.195058
20
-11.17291
30
0
11
24.247644
21
-13.470894
31
0
39
0
210
0
220
0
230
1
0
LINE
5
82
100
AcDbEntity
8
1
62
256
6
ByLayer
370
18
48
1
60
0
100
AcDbLine
10
5.412989
20
10.67339
30
0
11
6.022597
21
12.948477
31
0
39
0
210
0
220
0
230
1
0
LINE
5
83
100
AcDbEntity
8
1
62
256
6
ByLayer
370
13
48
1
60
0
100
AcDbLine
10
23.351159
20
1.056441
30
0
11
23.122834
21
1.81632
31
0
39
0
210
0
220
0
230
1
0
LINE
5
84
100
AcDbEntity
8
1
62
256
6
ByLayer
370
13
48
1
60
0
100
AcDbLine
10
34.094418
20
-3.626122
30
0
11
34.093934
21
-3.908286
31
0
39
0
210
0
220
0
230
1
0
LINE
5
85
100
AcDbEntity
8
1
62
256
6
ByLayer
370
13
48
1
60
0
100
AcDbLine
10
5.412989
20
10.67339
30
0
11
5.412989
21
-10.210912
31
0
39
0
210
0
220
0
230
1
0
LINE
5
86
100
AcDbEntity
8
1
62
256
6
ByLayer
370
13
48
1
60
0
100
AcDbLine
10
24.499347
20
-13.789014
30
0
11
24.191134
21
-13.804078
31
0
39
0
210
0
220
0
230
1
0
LINE
5
87
100
AcDbEntity
8
1
62
256
6
ByLayer
370
18
48
1
60
0
100
AcDbLine
10
33.518906
20
4.887077
30
0
11
33.518146
21
4.443767
31
0
39
0
210
0
220
0
230
1
0
LINE
5
88
100
AcDbEntity
8
1
62
256
6
ByLayer
370
18
48
1
60
0
100
AcDbLine
10
34.172844
20
-6.10724
30
0
11
34.157728
21
-5.953628
31
0
39
0
210
0
220
0
230
1
0
LINE
5
89
100
AcDbEntity
8
1
62
256
6
ByLayer
370
13
48
1
60
0
100
AcDbLine
10
11.618547
20
3.814968
30
0
11
10.11729
21
3.908853
31
0
39
0
210
0
220
0
230
1
0
LINE
5
8A
100
AcDbEntity
8
1
62
256
6
ByLayer
370
13
48
1
60
0
100
AcDbLine
10
24.148744
20
-3.66875
30
0
11
24.143617
21
-3.701912
31
0
39
0
210
0
220
0
230
1
0
LINE
5
8B
100
AcDbEntity
8
1
62
256
6
ByLayer
370
18
48
1
60
0
100
AcDbLine
10
23.35467
20
-6.792371
30
0
11
23.258241
21
-5.638801
31
0
39
0
210
0
220
0
230
1
0
LINE
5
8C
100
AcDbEntity
8
1
62
256
6
ByLayer
370
18
48
1
60
0
100
AcDbLine
10
33.714
20
1.130656
30
0
11
34.168546
21
-5.871015
31
0
39
0
210
0
220
0
230
1
0
LINE
5
8D
100
AcDbEntity
8
1
62
256
6
ByLayer
370
18
48
1
60
0
100
AcDbLine
10
21.992425
20
12.948477
30
0
11
7.266754
21
12.948477
31
0
39
0
210
0
220
0
230
1
0
LINE
5
8E
100
AcDbEntity
8
1
62
256
6
ByLayer
370
18
48
1
60
0
100
AcDbLine
10
0
20
-9.4875
30
0
11
0.372277
21
-9.4875
31
0
39
0
210
0
220
0
230
1
0
LINE
5
8F
100
AcDbEntity
8
1
62
256
6
ByLayer
370
13
48
1
60
0
100
AcDbLine
10
3.867507
20
-9.945154
30
0
11
3.867507
21
9.4875
31
0
39
0
210
0
220
0
230
1
0
LINE
5
90
100
AcDbEntity
8
1
62
256
6
ByLayer
370
13
48
1
60
0
100
AcDbLine
10
30.171495
20
-5.6259
30
0
11
30.09923
21
-5.72574
31
0
39
0
210
0
220
0
230
1
0
LINE
5
91
100
AcDbEntity
8
1
62
256
6
ByLayer
370
13
48
1
60
0
100
AcDbLine
10
16.646526
20
8.648963
30
0
11
16.232563
21
9.831877
31
0
39
0
210
0
220
0
230
1
0
LINE
5
92
100
AcDbEntity
8
1
62
256
6
ByLayer
370
18
48
1
60
0
100
AcDbLine
10
22.994878
20
-5.829357
30
0
11
23.23242
21
-8.984443
31
0
39
0
210
0
220
0
230
1
0
LINE
5
93
100
AcDbEntity
8
1
62
256
6
ByLayer
370
13
48
1
60
0
100
AcDbLine
10
24.545784
20
-10.949147
30
0
11
24.195058
21
-11.17291
31
0
39
0
210
0
220
0
230
1
0
LINE
5
94
100
AcDbEntity
8
1
62
256
6
ByLayer
370
18
48
1
60
0
100
AcDbLine
10
34.157728
20
-5.953628
30
0
11
30.171495
21
-5.6259
31
0
39
0
210
0
220
0
230
1
0
LINE
5
95
100
AcDbEntity
8
1
62
256
6
ByLayer
370
13
48
1
60
0
100
AcDbLine
10
23.941237
20
-10.5647
30
0
11
24.117409
21
-10.030322
31
0
39
0
210
0
220
0
230
1
0
LINE
5
96
100
AcDbEntity
8
1
62
256
6
ByLayer
370
13
48
1
60
0
100
AcDbLine
10
34.094418
20
-3.626122
30
0
11
33.466508
21
6.022511
31
0
39
0
210
0
220
0
230
1
0
LINE
5
97
100
AcDbEntity
8
1
62
256
6
ByLayer
370
13
48
1
60
0
100
AcDbLine
10
33.755618
20
1.519919
30
0
11
33.68836
21
1.52714
31
0
39
0
210
0
220
0
230
1
0
LINE
5
98
100
AcDbEntity
8
1
62
256
6
ByLayer
370
18
48
1
60
0
100
AcDbLine
10
31.886316
20
-5.872728
30
0
11
32.048218
21
-5.932564
31
0
39
0
210
0
220
0
230
1
0
LINE
5
99
100
AcDbEntity
8
1
62
256
6
ByLayer
370
18
48
1
60
0
100
AcDbLine
10
24.096769
20
-15.135903
30
0
11
23.619005
21
-15.336845
31
0
39
0
210
0
220
0
230
1
0
LINE
5
9A
100
AcDbEntity
8
1
62
256
6
ByLayer
370
18
48
1
60
0
100
AcDbLine
10
33.361472
20
6.303764
30
0
11
34.157728
21
-5.953628
31
0
39
0
210
0
220
0
230
1
0
LINE
5
9B
100
AcDbEntity
8
1
62
256
6
ByLayer
370
13
48
1
60
0
100
AcDbLine
10
24.247644
20
-13.470894
30
0
11
24.568253
21
-13.266346
31
0
39
0
210
0
220
0
230
1
0
LINE
5
9C
100
AcDbEntity
8
1
62
256
6
ByLayer
370
18
48
1
60
0
100
AcDbLine
10
32.048218
20
-5.932564
30
0
11
34.172844
21
-6.10724
31
0
39
0
210
0
220
0
230
1
0
LINE
5
9D
100
AcDbEntity
8
1
62
256
6
ByLayer
370
18
48
1
60
0
100
AcDbLine
10
6.838596
20
-10.531517
30
0
11
7.266754
21
12.948477
31
0
39
0
210
0
220
0
230
1
0
LINE
5
9E
100
AcDbEntity
8
1
62
256
6
ByLayer
370
18
48
1
60
0
100
AcDbLine
10
26.610112
20
-3.762006
30
0
11
25.275238
21
-3.618688
31
0
39
0
210
0
220
0
230
1
0
LINE
5
9F
100
AcDbEntity
8
1
62
256
6
ByLayer
370
13
48
1
60
0
100
AcDbLine
10
25.295643
20
-3.102107
30
0
11
25.231597
21
-3.244914
31
0
39
0
210
0
220
0
230
1
0
LINE
5
A0
100
AcDbEntity
8
1
62
256
6
ByLayer
370
18
48
1
60
0
100
AcDbLine
10
25.791038
20
-3.056675
30
0
11
25.295643
21
-3.102107
31
0
39
0
210
0
220
0
230
1
0
LINE
5
A1
100
AcDbEntity
8
1
62
256
6
ByLayer
370
13
48
1
60
0
100
AcDbLine
10
25.398948
20
-4.075887
30
0
11
23.808778
21
-3.972719
31
0
39
0
210
0
220
0
230
1
0
LINE
5
A2
100
AcDbEntity
8
1
62
256
6
ByLayer
370
18
48
1
60
0
100
AcDbLine
10
7.266754
20
12.948477
30
0
11
6.022597
21
12.948477
31
0
39
0
210
0
220
0
230
1
0
LINE
5
A3
100
AcDbEntity
8
1
62
256
6
ByLayer
370
18
48
1
60
0
100
AcDbLine
10
0
20
-9.4875
30
0
11
0
21
9.4875
31
0
39
0
210
0
220
0
230
1
0
LINE
5
A4
100
AcDbEntity
8
1
62
256
6
ByLayer
370
18
48
1
60
0
100
AcDbLine
10
0
20
9.4875
30
0
11
3.867507
21
9.4875
31
0
39
0
210
0
220
0
230
1
0
LINE
5
A5
100
AcDbEntity
8
1
62
256
6
ByLayer
370
18
48
1
60
0
100
AcDbLine
10
34.168434
20
-5.936223
30
0
11
34.168546
21
-5.871015
31
0
39
0
210
0
220
0
230
1
0
LINE
5
A6
100
AcDbEntity
8
1
62
256
6
ByLayer
370
13
48
1
60
0
100
AcDbLine
10
23.258241
20
-5.638801
30
0
11
22.994878
21
-5.829357
31
0
39
0
210
0
220
0
230
1
0
LINE
5
A7
100
AcDbEntity
8
1
62
256
6
ByLayer
370
18
48
1
60
0
100
AcDbLine
10
34.093934
20
-3.908286
30
0
11
33.755618
21
1.519919
31
0
39
0
210
0
220
0
230
1
0
LINE
5
A8
100
AcDbEntity
8
1
62
256
6
ByLayer
370
18
48
1
60
0
100
AcDbLine
10
34.172883
20
-6.084159
30
0
11
34.172844
21
-6.10724
31
0
39
0
210
0
220
0
230
1
0
LINE
5
A9
100
AcDbEntity
8
1
62
256
6
ByLayer
370
13
48
1
60
0
100
AcDbLine
10
27.29156
20
-4.431784
30
0
11
28.212524
21
-4.349402
31
0
39
0
210
0
220
0
230
1
0
LINE
5
AA
100
AcDbEntity
8
1
62
256
6
ByLayer
370
13
48
1
60
0
100
AcDbLine
10
23.23242
20
-8.984443
30
0
11
23.404648
21
-8.859828
31
0
39
0
210
0
220
0
230
1
0
LINE
5
AB
100
AcDbEntity
8
1
62
256
6
ByLayer
370
13
48
1
60
0
100
AcDbLine
10
33.616273
20
2.673763
30
0
11
33.681998
21
2.666706
31
0
39
0
210
0
220
0
230
1
0
LINE
5
AC
100
AcDbEntity
8
1
62
256
6
ByLayer
370
18
48
1
60
0
100
AcDbLine
10
25.377345
20
-4.308007
30
0
11
25.398948
21
-4.075887
31
0
39
0
210
0
220
0
230
1
0
LINE
5
AD
100
AcDbEntity
8
1
62
256
6
ByLayer
370
18
48
1
60
0
100
AcDbLine
10
31.87654
20
-5.871861
30
0
11
30.09923
21
-5.72574
31
0
39
0
210
0
220
0
230
1
0
LINE
5
AE
100
AcDbEntity
8
1
62
256
6
ByLayer
370
13
48
1
60
0
100
AcDbLine
10
26.464615
20
-3.456375
30
0
11
27.23625
21
-4.211737
31
0
39
0
210
0
220
0
230
1
0
LINE
5
AF
100
AcDbEntity
8
SK1
62
256
6
ByLayer
370
18
48
1
60
0
100
AcDbLine
10
-66
20
-9.4875
30
0
11
0
21
-9.4875
31
0
39
0
210
0
220
0
230
1
0
LINE
5
B1
100
AcDbEntity
8
SK1
62
256
6
ByLayer
370
18
48
1
60
0
100
AcDbLine
10
-66
20
-9.4875
30
0
11
-69
21
-6.4875
31
0
39
0
210
0
220
0
230
1
0
LINE
5
B2
100
AcDbEntity
8
SK1
62
256
6
ByLayer
370
18
48
1
60
0
100
AcDbLine
10
-69
20
-6.4875
30
0
11
-69
21
6.4875
31
0
39
0
210
0
220
0
230
1
0
LINE
5
B3
100
AcDbEntity
8
SK1
62
256
6
ByLayer
370
18
48
1
60
0
100
AcDbLine
10
-66
20
9.4875
30
0
11
-69
21
6.4875
31
0
39
0
210
0
220
0
230
1
0
LINE
5
B4
100
AcDbEntity
8
SK1
62
256
6
ByLayer
370
18
48
1
60
0
100
AcDbLine
10
0
20
-9.4875
30
0
11
0
21
9.4875
31
0
39
0
210
0
220
0
230
1
0
LINE
5
B5
100
AcDbEntity
8
SK1
62
256
6
ByLayer
370
18
48
1
60
0
100
AcDbLine
10
-66
20
9.4875
30
0
11
0
21
9.4875
31
0
39
0
210
0
220
0
230
1
0
LINE
5
B6
100
AcDbEntity
8
1
62
256
6
ByLayer
370
13
48
1
60
0
100
AcDbLine
10
24.684517
20
-14.479369
30
0
11
26.912382
21
-14.662533
31
0
39
0
210
0
220
0
230
1
0
LINE
5
B7
100
AcDbEntity
8
1
62
256
6
ByLayer
370
18
48
1
60
0
100
AcDbLine
10
23.533759
20
-4.342665
30
0
11
24.091506
21
-4.548797
31
0
39
0
210
0
220
0
230
1
0
LINE
5
B8
100
AcDbEntity
8
1
62
256
6
ByLayer
370
13
48
1
60
0
100
AcDbLine
10
25.353513
20
-6.802863
30
0
11
25.331752
21
-6.794821
31
0
39
0
210
0
220
0
230
1
0
LINE
5
B9
100
AcDbEntity
8
1
62
256
6
ByLayer
370
13
48
1
60
0
100
AcDbLine
10
23.519102
20
-6.120635
30
0
11
23.291485
21
-6.036512
31
0
39
0
210
0
220
0
230
1
0
LINE
5
BA
100
AcDbEntity
8
1
62
256
6
ByLayer
370
18
48
1
60
0
100
AcDbLine
10
23.764968
20
-9.394369
30
0
11
23.760192
21
-9.392604
31
0
39
0
210
0
220
0
230
1
0
LINE
5
BB
100
AcDbEntity
8
1
62
256
6
ByLayer
370
18
48
1
60
0
100
AcDbLine
10
23.760192
20
-9.392604
30
0
11
23.519102
21
-6.120635
31
0
39
0
210
0
220
0
230
1
0
LINE
5
BC
100
AcDbEntity
8
1
62
256
6
ByLayer
370
18
48
1
60
0
100
AcDbLine
10
31.753929
20
-9.690297
30
0
11
33.975035
21
-10.330213
31
0
39
0
210
0
220
0
230
1
0
LINE
5
BD
100
AcDbEntity
8
1
62
256
6
ByLayer
370
18
48
1
60
0
100
AcDbLine
10
25.107716
20
-8.302842
30
0
11
25.021099
21
-7.127308
31
0
39
0
210
0
220
0
230
1
0
LINE
5
BE
100
AcDbEntity
8
1
62
256
6
ByLayer
370
18
48
1
60
0
100
AcDbLine
10
23.568171
20
-9.29752
30
0
11
23.777397
21
-9.502335
31
0
39
0
210
0
220
0
230
1
0
LINE
5
BF
100
AcDbEntity
8
1
62
256
6
ByLayer
370
13
48
1
60
0
100
AcDbLine
10
24.208162
20
-14.840461
30
0
11
24.193586
21
-14.997068
31
0
39
0
210
0
220
0
230
1
0
LINE
5
C0
100
AcDbEntity
8
1
62
256
6
ByLayer
370
18
48
1
60
0
100
AcDbLine
10
29.80184
20
-15.600092
30
0
11
28.528886
21
-15.59998
31
0
39
0
210
0
220
0
230
1
0
LINE
5
C1
100
AcDbEntity
8
1
62
256
6
ByLayer
370
13
48
1
60
0
100
AcDbLine
10
24.076853
20
-9.41285
30
0
11
24.072205
21
-9.411132
31
0
39
0
210
0
220
0
230
1
0
LINE
5
C2
100
AcDbEntity
8
1
62
256
6
ByLayer
370
18
48
1
60
0
100
AcDbLine
10
34.025259
20
-10.655438
30
0
11
34.40974
21
-11.305762
31
0
39
0
210
0
220
0
230
1
0
LINE
5
C3
100
AcDbEntity
8
1
62
256
6
ByLayer
370
18
48
1
60
0
100
AcDbLine
10
34.06232
20
-15.90985
30
0
11
30.977156
21
-15.656204
31
0
39
0
210
0
220
0
230
1
0
LINE
5
C4
100
AcDbEntity
8
1
62
256
6
ByLayer
370
18
48
1
60
0
100
AcDbLine
10
34.284574
20
-6.037864
30
0
11
34.169573
21
-5.995362
31
0
39
0
210
0
220
0
230
1
0
LINE
5
C5
100
AcDbEntity
8
1
62
256
6
ByLayer
370
13
48
1
60
0
100
AcDbLine
10
28.432637
20
-7.021576
30
0
11
28.57102
21
-5.534734
31
0
39
0
210
0
220
0
230
1
0
LINE
5
C6
100
AcDbEntity
8
1
62
256
6
ByLayer
370
13
48
1
60
0
100
AcDbLine
10
25.107716
20
-8.302842
30
0
11
25.126722
21
-8.309866
31
0
39
0
210
0
220
0
230
1
0
LINE
5
C7
100
AcDbEntity
8
1
62
256
6
ByLayer
370
18
48
1
60
0
100
AcDbLine
10
24.51734
20
-15.321401
30
0
11
24.193586
21
-14.997068
31
0
39
0
210
0
220
0
230
1
0
LINE
5
C8
100
AcDbEntity
8
1
62
256
6
ByLayer
370
18
48
1
60
0
100
AcDbLine
10
24.91156
20
-11.178425
30
0
11
24.926156
21
-11.179625
31
0
39
0
210
0
220
0
230
1
0
LINE
5
C9
100
AcDbEntity
8
1
62
256
6
ByLayer
370
13
48
1
60
0
100
AcDbLine
10
30.977156
20
-15.656204
30
0
11
31.041735
21
-14.962344
31
0
39
0
210
0
220
0
230
1
0
LINE
5
CA
100
AcDbEntity
8
1
62
256
6
ByLayer
370
13
48
1
60
0
100
AcDbLine
10
34.451918
20
-7.054886
30
0
11
32.333745
21
-6.929102
31
0
39
0
210
0
220
0
230
1
0
LINE
5
CB
100
AcDbEntity
8
1
62
256
6
ByLayer
370
13
48
1
60
0
100
AcDbLine
10
24.553253
20
-13.388092
30
0
11
24.594286
21
-13.391465
31
0
39
0
210
0
220
0
230
1
0
LINE
5
CC
100
AcDbEntity
8
1
62
256
6
ByLayer
370
13
48
1
60
0
100
AcDbLine
10
24.079788
20
-4.674691
30
0
11
24.091506
21
-4.548797
31
0
39
0
210
0
220
0
230
1
0
LINE
5
CD
100
AcDbEntity
8
1
62
256
6
ByLayer
370
13
48
1
60
0
100
AcDbLine
10
25.034524
20
-7.13227
30
0
11
25.021099
21
-7.127308
31
0
39
0
210
0
220
0
230
1
0
LINE
5
CE
100
AcDbEntity
8
1
62
256
6
ByLayer
370
13
48
1
60
0
100
AcDbLine
10
26.1469
20
-4.35772
30
0
11
23.621742
21
-4.207768
31
0
39
0
210
0
220
0
230
1
0
LINE
5
CF
100
AcDbEntity
8
1
62
256
6
ByLayer
370
18
48
1
60
0
100
AcDbLine
10
28.528886
20
-15.59998
30
0
11
28.667269
21
-14.113138
31
0
39
0
210
0
220
0
230
1
0
LINE
5
D0
100
AcDbEntity
8
1
62
256
6
ByLayer
370
13
48
1
60
0
100
AcDbLine
10
29.936362
20
-14.154742
30
0
11
29.80184
21
-15.600092
31
0
39
0
210
0
220
0
230
1
0
LINE
5
D1
100
AcDbEntity
8
1
62
256
6
ByLayer
370
18
48
1
60
0
100
AcDbLine
10
28.57102
20
-5.534734
30
0
11
29.36983
21
-5.634676
31
0
39
0
210
0
220
0
230
1
0
LINE
5
D2
100
AcDbEntity
8
1
62
256
6
ByLayer
370
18
48
1
60
0
100
AcDbLine
10
30.094068
20
-5.725289
30
0
11
30.243866
21
-5.744031
31
0
39
0
210
0
220
0
230
1
0
LINE
5
D3
100
AcDbEntity
8
1
62
256
6
ByLayer
370
18
48
1
60
0
100
AcDbLine
10
33.977527
20
-10.226441
30
0
11
33.96365
21
-10.225617
31
0
39
0
210
0
220
0
230
1
0
LINE
5
D4
100
AcDbEntity
8
1
62
256
6
ByLayer
370
18
48
1
60
0
100
AcDbLine
10
34.653181
20
-11.763414
30
0
11
34.66282
21
-11.8811
31
0
39
0
210
0
220
0
230
1
0
LINE
5
D5
100
AcDbEntity
8
1
62
256
6
ByLayer
370
13
48
1
60
0
100
AcDbLine
10
31.219712
20
-5.855863
30
0
11
31.959589
21
-5.899799
31
0
39
0
210
0
220
0
230
1
0
LINE
5
D6
100
AcDbEntity
8
1
62
256
6
ByLayer
370
13
48
1
60
0
100
AcDbLine
10
34.170791
20
-6.031107
30
0
11
34.284574
21
-6.037864
31
0
39
0
210
0
220
0
230
1
0
LINE
5
D7
100
AcDbEntity
8
1
62
256
6
ByLayer
370
13
48
1
60
0
100
AcDbLine
10
27.135918
20
-6.901958
30
0
11
27.274301
21
-5.415116
31
0
39
0
210
0
220
0
230
1
0
LINE
5
D8
100
AcDbEntity
8
1
62
256
6
ByLayer
370
18
48
1
60
0
100
AcDbLine
10
24.681101
20
-12.205953
30
0
11
24.594286
21
-13.391465
31
0
39
0
210
0
220
0
230
1
0
LINE
5
D9
100
AcDbEntity
8
1
62
256
6
ByLayer
370
13
48
1
60
0
100
AcDbLine
10
24.681101
20
-12.205953
30
0
11
24.623012
21
-12.201177
31
0
39
0
210
0
220
0
230
1
0
LINE
5
DA
100
AcDbEntity
8
1
62
256
6
ByLayer
370
18
48
1
60
0
100
AcDbLine
10
28.432637
20
-7.021576
30
0
11
30.105482
21
-7.230873
31
0
39
0
210
0
220
0
230
1
0
LINE
5
DB
100
AcDbEntity
8
1
62
256
6
ByLayer
370
13
48
1
60
0
100
AcDbLine
10
23.320497
20
-4.863757
30
0
11
24.341039
21
-5.240929
31
0
39
0
210
0
220
0
230
1
0
LINE
5
DC
100
AcDbEntity
8
1
62
256
6
ByLayer
370
18
48
1
60
0
100
AcDbLine
10
24.341039
20
-5.240929
30
0
11
27.274301
21
-5.415116
31
0
39
0
210
0
220
0
230
1
0
LINE
5
DD
100
AcDbEntity
8
1
62
256
6
ByLayer
370
18
48
1
60
0
100
AcDbLine
10
27.284649
20
-11.792768
30
0
11
24.90535
21
-11.070101
31
0
39
0
210
0
220
0
230
1
0
LINE
5
DE
100
AcDbEntity
8
1
62
256
6
ByLayer
370
18
48
1
60
0
100
AcDbLine
10
30.243866
20
-5.744031
30
0
11
30.105482
21
-7.230873
31
0
39
0
210
0
220
0
230
1
0
LINE
5
DF
100
AcDbEntity
8
1
62
256
6
ByLayer
370
18
48
1
60
0
100
AcDbLine
10
33.96365
20
-10.225617
30
0
11
34.451918
21
-7.054886
31
0
39
0
210
0
220
0
230
1
0
LINE
5
E0
100
AcDbEntity
8
1
62
256
6
ByLayer
370
18
48
1
60
0
100
AcDbLine
10
23.760192
20
-9.392604
30
0
11
24.072205
21
-9.411132
31
0
39
0
210
0
220
0
230
1
0
LINE
5
E1
100
AcDbEntity
8
1
62
256
6
ByLayer
370
18
48
1
60
0
100
AcDbLine
10
24.091294
20
-4.672547
30
0
11
23.514981
21
-4.779063
31
0
39
0
210
0
220
0
230
1
0
LINE
5
E2
100
AcDbEntity
8
1
62
256
6
ByLayer
370
18
48
1
60
0
100
AcDbLine
10
27.135918
20
-6.901958
30
0
11
25.331752
21
-6.794821
31
0
39
0
210
0
220
0
230
1
0
LINE
5
E3
100
AcDbEntity
8
1
62
256
6
ByLayer
370
18
48
1
60
0
100
AcDbLine
10
24.081561
20
-9.89102
30
0
11
24.720669
21
-10.674541
31
0
39
0
210
0
220
0
230
1
0
LINE
5
E4
100
AcDbEntity
8
1
62
256
6
ByLayer
370
13
48
1
60
0
100
AcDbLine
10
31.041735
20
-14.962344
30
0
11
31.111665
21
-14.210993
31
0
39
0
210
0
220
0
230
1
0
LINE
5
E5
100
AcDbEntity
8
1
62
256
6
ByLayer
370
18
48
1
60
0
100
AcDbLine
10
24.926156
20
-11.179625
30
0
11
24.684517
21
-14.479369
31
0
39
0
210
0
220
0
230
1
0
LINE
5
E6
100
AcDbEntity
8
1
62
256
6
ByLayer
370
18
48
1
60
0
100
AcDbLine
10
34.66282
20
-11.8811
30
0
11
34.92237
21
-15.050082
31
0
39
0
210
0
220
0
230
1
0
LINE
5
E7
100
AcDbEntity
8
2
62
256
6
ByLayer
370
13
48
1
60
0
100
AcDbLine
10
34.925
20
15.554581
30
0
11
0
21
15.554581
31
0
39
0
210
0
220
0
230
1
0
LINE
5
E9
100
AcDbEntity
8
2
62
256
6
ByLayer
370
13
48
1
60
0
100
AcDbLine
10
0
20
3.944817
30
0
11
0
21
17.554581
31
0
39
0
210
0
220
0
230
1
0
LINE
5
EA
100
AcDbEntity
8
2
62
256
6
ByLayer
370
13
48
1
60
0
100
AcDbLine
10
34.925
20
1.5875
30
0
11
34.925
21
17.554581
31
0
39
0
210
0
220
0
230
1
0
LINE
5
EB
100
AcDbEntity
8
1
62
256
6
ByLayer
370
18
48
1
60
1
100
AcDbLine
10
0
20
15.554581
30
0
11
3.499998
21
16.015365
31
0
39
0
210
0
220
0
230
1
0
LINE
5
EC
100
AcDbEntity
8
1
62
256
6
ByLayer
370
18
48
1
60
1
100
AcDbLine
10
3.499998
20
16.015365
30
0
11
3.500002
21
15.093797
31
0
39
0
210
0
220
0
230
1
0
LINE
5
ED
100
AcDbEntity
8
1
62
256
6
ByLayer
370
18
48
1
60
1
100
AcDbLine
10
3.500002
20
15.093797
30
0
11
0
21
15.554581
31
0
39
0
210
0
220
0
230
1
0
LINE
5
EE
100
AcDbEntity
8
1
62
256
6
ByLayer
370
18
48
1
60
1
100
AcDbLine
10
34.925
20
15.554581
30
0
11
31.425002
21
15.093797
31
0
39
0
210
0
220
0
230
1
0
LINE
5
EF
100
AcDbEntity
8
1
62
256
6
ByLayer
370
18
48
1
60
1
100
AcDbLine
10
31.425002
20
15.093797
30
0
11
31.424998
21
16.015365
31
0
39
0
210
0
220
0
230
1
0
LINE
5
F0
100
AcDbEntity
8
1
62
256
6
ByLayer
370
18
48
1
60
1
100
AcDbLine
10
31.424998
20
16.015365
30
0
11
34.925
21
15.554581
31
0
39
0
210
0
220
0
230
1
0
LINE
5
19B
100
AcDbEntity
8
1
62
256
6
ByLayer
370
18
48
1
60
1
100
AcDbLine
10
0
20
15.554581
30
0
11
3.499998
21
16.015365
31
0
39
0
210
0
220
0
230
1
0
LINE
5
19C
100
AcDbEntity
8
1
62
256
6
ByLayer
370
18
48
1
60
1
100
AcDbLine
10
3.499998
20
16.015365
30
0
11
3.500002
21
15.093797
31
0
39
0
210
0
220
0
230
1
0
LINE
5
19D
100
AcDbEntity
8
1
62
256
6
ByLayer
370
18
48
1
60
1
100
AcDbLine
10
3.500002
20
15.093797
30
0
11
0
21
15.554581
31
0
39
0
210
0
220
0
230
1
0
LINE
5
19F
100
AcDbEntity
8
1
62
256
6
ByLayer
370
18
48
1
60
1
100
AcDbLine
10
34.925
20
15.554581
30
0
11
31.425002
21
15.093797
31
0
39
0
210
0
220
0
230
1
0
LINE
5
1A0
100
AcDbEntity
8
1
62
256
6
ByLayer
370
18
48
1
60
1
100
AcDbLine
10
31.425002
20
15.093797
30
0
11
31.424998
21
16.015365
31
0
39
0
210
0
220
0
230
1
0
LINE
5
1A1
100
AcDbEntity
8
1
62
256
6
ByLayer
370
18
48
1
60
1
100
AcDbLine
10
31.424998
20
16.015365
30
0
11
34.925
21
15.554581
31
0
39
0
210
0
220
0
230
1
0
MTEXT
5
196
100
AcDbEntity
8
SK6
62
256
6
ByLayer
370
18
48
1
60
0
100
AcDbMText
10
-61.943446
20
13.24165
30
0
210
0
220
0
230
1
1
\W0.7123;QS-3-80-LL12-22-10C
40
3.5
41
0
44
1.084337
50
0
71
7
72
5
7
iso_b_vert
0
MTEXT
5
19A
100
AcDbEntity
8
2
62
256
6
ByLayer
370
18
48
1
60
0
100
AcDbMText
10
15.899342
20
16.679581
30
0
210
0
220
0
230
1
1
\W0.6740;35
40
4.5
41
0
44
1.084337
50
0
71
7
72
5
7
iso_b_vert
0
HATCH
5
19E
100
AcDbEntity
8
2
62
256
6
ByLayer
370
13
48
1
60
0
100
AcDbHatch
10
0
20
0
30
0
210
0
220
0
230
1
2
ANSI31
70
0
71
0
91
1
92
5
93
3
72
1
10
0
20
15.5545810928903
11
3.49999830744682
21
16.0153648344431
72
1
10
3.49999830744682
20
16.0153648344431
11
3.50000169255318
21
15.0937973513375
72
1
10
3.50000169255318
20
15.0937973513375
11
0
21
15.5545810928903
97
0
75
0
76
1
52
0
41
0.02
77
0
78
1
53
45
43
0
44
0
45
-0.0449012806053457
46
0.0449012806053458
79
0
47
0
98
1
10
0
20
0
0
HATCH
5
1A2
100
AcDbEntity
8
2
62
256
6
ByLayer
370
13
48
1
60
0
100
AcDbHatch
10
0
20
0
30
0
210
0
220
0
230
1
2
ANSI31
70
0
71
0
91
1
92
5
93
3
72
1
10
34.925
20
15.5545810928903
11
31.4250016925532
21
15.0937973513375
72
1
10
31.4250016925532
20
15.0937973513375
11
31.4249983074468
21
16.0153648344431
72
1
10
31.4249983074468
20
16.0153648344431
11
34.925
21
15.5545810928903
97
0
75
0
76
1
52
0
41
0.02
77
0
78
1
53
44.9999999999999
43
0
44
0
45
-0.0449012806053457
46
0.0449012806053458
79
0
47
0
98
1
10
0
20
0
0
DIMENSION
5
1AD
100
AcDbEntity
8
SK2
62
256
6
ByLayer
370
13
48
1
60
0
100
AcDbDimension
2
DimnDraft3D1
10
34.925
20
25.781018
30
0
11
-22.902354
21
25.781018
31
0
70
32
71
5
72
1
41
1
210
0
220
0
230
1
3
Standard
100
AcDbAlignedDimension
13
-69
23
1.5875
33
0
14
34.925
24
1.5875
34
0
50
0
100
AcDbRotatedDimension
1001
ACAD
1000
DSTYLE
1002
{
1070
   279
1070
     0
1070
   172
1070
     1
1070
   173
1070
     1
1070
   340
1005
197
1070
   271
1070
     0
1070
   272
1070
     2
1070
    77
1070
     1
1070
    73
1070
     0
1070
   171
1070
     3
1070
   274
1070
     4
1070
   177
1070
   150
1070
   176
1070
     9
1070
   178
1070
    35
1070
    78
1070
     8
1070
    48
1040
-0.005
1070
    41
1041
3.5
1070
   147
1041
2.25
1070
    42
1041
1.5875
1070
    44
1041
2.0
1070
   140
1041
4.5
1070
   343
1005
0
1070
   344
1005
0
1002
}
0
DIMENSION
5
1B7
100
AcDbEntity
8
2
62
256
6
ByLayer
370
13
48
1
60
0
100
AcDbDimension
2
DimnDraft3D2
10
59.746784
20
-15.9125
30
0
11
59.746784
21
4.166075
31
0
70
32
71
5
72
1
41
1
210
0
220
0
230
1
3
Standard
100
AcDbAlignedDimension
13
36.5125
23
9.4875
33
0
14
46.5125
24
-15.9125
34
0
50
90
100
AcDbRotatedDimension
1001
ACAD
1000
DSTYLE
1002
{
1070
    74
1070
     0
1070
   279
1070
     0
1070
   172
1070
     1
1070
   173
1070
     1
1070
   340
1005
197
1070
   271
1070
     0
1070
   272
1070
     2
1070
    77
1070
     1
1070
    73
1070
     0
1070
   171
1070
     3
1070
   274
1070
     4
1070
   177
1070
   150
1070
   176
1070
     9
1070
   178
1070
    35
1070
    78
1070
     8
1070
    48
1040
-0.005
1070
    41
1041
3.5
1070
   147
1041
2.25
1070
    42
1041
1.5875
1070
    44
1041
2.0
1070
   140
1041
4.5
1070
   343
1005
0
1070
   344
1005
0
1002
}
0
DIMENSION
5
1C1
100
AcDbEntity
8
SK2
62
256
6
ByLayer
370
13
48
1
60
0
100
AcDbDimension
2
DimnDraft3D3
10
-80.704654
20
-9.4875
30
0
11
-80.704654
21
-0.718377
31
0
70
32
71
5
72
1
41
1
210
0
220
0
230
1
3
Standard
100
AcDbAlignedDimension
13
-70.5875
23
9.4875
33
0
14
-70.5875
24
-9.4875
34
0
50
90
100
AcDbRotatedDimension
1001
ACAD
1000
DSTYLE
1002
{
1070
    74
1070
     0
1070
   279
1070
     0
1070
   172
1070
     1
1070
   173
1070
     1
1070
   340
1005
197
1070
   271
1070
     0
1070
   272
1070
     2
1070
    77
1070
     1
1070
    73
1070
     0
1070
   171
1070
     3
1070
   274
1070
     4
1070
   177
1070
   150
1070
   176
1070
     9
1070
   178
1070
    35
1070
    78
1070
     8
1070
    48
1040
-0.005
1070
    41
1041
3.5
1070
   147
1041
2.25
1070
    42
1041
1.5875
1070
    44
1041
2.0
1070
   140
1041
4.5
1070
   343
1005
0
1070
   344
1005
0
1002
}
0
DIMENSION
5
1CB
100
AcDbEntity
8
2
62
256
6
ByLayer
370
13
48
1
60
0
100
AcDbDimension
2
DimnDraft3D4
10
34.925
20
5
30
0
11
25.227244
21
-22.884499
31
0
70
34
71
5
72
1
41
1
210
0
220
0
230
1
3
Standard
100
AcDb2LineAngularDimension
13
34.925
23
-15.9125
33
0
14
29.941813
24
-15.502807
34
0
15
34.925
25
0
35
0
16
22.830457
26
-27.053497
36
0
40
0
0
ENDSEC
0
SECTION
2
OBJECTS
0
DICTIONARY
5
235
330
0
100
AcDbDictionary
280
0
281
1
3
ACAD_GROUP
350
236
3
ACAD_MLINESTYLE
350
237
0
DICTIONARY
5
236
330
0
100
AcDbDictionary
280
0
281
1
0
DICTIONARY
5
237
330
0
100
AcDbDictionary
280
0
281
1
3
Standard
350
18
0
MLINESTYLE
5
18
330
237
100
AcDbMlineStyle
2
Standard
70
0
3

62
256
51
90
52
90
71
2
49
-0.5
62
256
6
ByLayer
49
0.5
62
256
6
ByLayer
0
RASTERVARIABLES
5
224
330

100
AcDbRasterVariables
90
0
70
1
71
1
72
1
0
ENDSEC
0
EOF
