0
SECTION
2
HEADER
9
$ACADVER
1
AC1015
9
$DWGCODEPAGE
3
ANSI_1252
9
$HANDSEED
5
31a
9
$ANGBASE
50
0
9
$ANGDIR
70
0
9
$ATTMODE
70
1
9
$AUNITS
70
0
9
$AUPREC
70
0
9
$CECOLOR
62
256
9
$CELTSCALE
40
1
9
$CELTYPE
6
ByLayer
9
$CELWEIGHT
370
-1
9
$CLAYER
8
0
9
$CMLJUST
70
0
9
$CMLSCALE
40
1
9
$CMLSTYLE
2
Standard
9
$DIMSTYLE
2
Standard
9
$TEXTSIZE
40
0.2
9
$TEXTSTYLE
7
Standard
9
$LUNITS
70
2
9
$LUPREC
70
4
9
$EXTNAMES
290
1
9
$INSUNITS
70
4
9
$LTSCALE
40
1
9
$LWDISPLAY
290
0
9
$PDMODE
70
0
9
$PDSIZE
40
0
9
$PLINEGEN
70
0
0
ENDSEC
0
SECTION
2
CLASSES
0
CLASS
1
RASTERVARIABLES
2
AcDbRasterVariables
3
ISM
90
0
280
0
281
0
0
ENDSEC
0
SECTION
2
TABLES
0
TABLE
2
VPORT
5
310
100
AcDbSymbolTable
0
VPORT
5
1
100
AcDbSymbolTableRecord
100
AcDbViewportTableRecord
2
*Active
70
0
10
0
20
0
11
1
21
1
12
-1
22
1
13
0
23
0
14
0.5
24
0.5
15
10
25
10
16
0
26
0
36
1
17
0
27
0
37
0
0
ENDTAB
0
TABLE
2
LTYPE
5
311
100
AcDbSymbolTable
0
LTYPE
5
14
100
AcDbSymbolTableRecord
100
AcDbLinetypeTableRecord
70
0
2
ByBlock
3

72
65
73
0
40
0
0
LTYPE
5
15
100
AcDbSymbolTableRecord
100
AcDbLinetypeTableRecord
70
0
2
ByLayer
3

72
65
73
0
40
0
0
LTYPE
5
16
100
AcDbSymbolTableRecord
100
AcDbLinetypeTableRecord
70
0
2
CONTINUOUS
3
Solid line
72
65
73
0
40
0
0
LTYPE
5
3B
100
AcDbSymbolTableRecord
100
AcDbLinetypeTableRecord
70
0
2
DASHED
3
__ __ __ __ __ __ __ __ __
72
65
73
2
40
25.72
49
12.86
74
0
49
-12.86
74
0
0
LTYPE
5
3C
100
AcDbSymbolTableRecord
100
AcDbLinetypeTableRecord
70
0
2
HIDDEN
3
_ _ _ _ _ _ _ _ _ _ _ _ _ _ _
72
65
73
2
40
0.5
49
0.25
74
0
49
-0.25
74
0
0
LTYPE
5
3D
100
AcDbSymbolTableRecord
100
AcDbLinetypeTableRecord
70
0
2
PHANTOM
3
____ _ _ ____ _ _ _____ _ _ ____
72
65
73
6
40
50.5
49
18
74
0
49
-6.5
74
0
49
6.5
74
0
49
-6.5
74
0
49
6.5
74
0
49
-6.5
74
0
0
LTYPE
5
3E
100
AcDbSymbolTableRecord
100
AcDbLinetypeTableRecord
70
0
2
CENTER
3
____ _ ____ _ ____ _ ____
72
65
73
4
40
47.5
49
22
74
0
49
-8.5
74
0
49
8.5
74
0
49
-8.5
74
0
0
LTYPE
5
3F
100
AcDbSymbolTableRecord
100
AcDbLinetypeTableRecord
70
0
2
DOT
3
.........................
72
65
73
2
40
10
49
0
74
0
49
-10
74
0
0
LTYPE
5
40
100
AcDbSymbolTableRecord
100
AcDbLinetypeTableRecord
70
0
2
DASHDOT
3
_._._._._._._._._._._._._._._._.
72
65
73
4
40
70
49
31
74
0
49
-13
74
0
49
13
74
0
49
-13
74
0
0
ENDTAB
0
TABLE
2
LAYER
5
312
100
AcDbSymbolTable
0
LAYER
5
10
100
AcDbSymbolTableRecord
100
AcDbLayerTableRecord
2
0
70
0
62
7
6
CONTINUOUS
290
1
370
-3
390
0
0
LAYER
5
42
100
AcDbSymbolTableRecord
100
AcDbLayerTableRecord
2
80
70
0
62
-6
6
CONTINUOUS
290
1
370
-3
390
0
0
LAYER
5
44
100
AcDbSymbolTableRecord
100
AcDbLayerTableRecord
2
81
70
0
62
-3
6
CONTINUOUS
290
1
370
-3
390
0
0
LAYER
5
46
100
AcDbSymbolTableRecord
100
AcDbLayerTableRecord
2
2
70
0
62
7
6
CONTINUOUS
290
1
370
-3
390
0
0
LAYER
5
4A
100
AcDbSymbolTableRecord
100
AcDbLayerTableRecord
2
1
70
0
62
4
6
CONTINUOUS
290
1
370
-3
390
0
0
LAYER
5
2fd
100
AcDbSymbolTableRecord
100
AcDbLayerTableRecord
2
SK1
70
0
62
4
6
CONTINUOUS
290
1
370
-3
390
0
0
LAYER
5
2fe
100
AcDbSymbolTableRecord
100
AcDbLayerTableRecord
2
SK2
70
0
62
7
6
CONTINUOUS
290
1
370
-3
390
0
0
LAYER
5
2ff
100
AcDbSymbolTableRecord
100
AcDbLayerTableRecord
2
SK6
70
0
62
5
6
CONTINUOUS
290
1
370
-3
390
0
0
ENDTAB
0
TABLE
2
STYLE
5
313
100
AcDbSymbolTable
0
STYLE
5
11
100
AcDbSymbolTableRecord
100
AcDbTextStyleTableRecord
2
Standard
3
txt
70
0
71
0
40
0
41
1
42
0
50
0
0
STYLE
5
2A1
100
AcDbSymbolTableRecord
100
AcDbTextStyleTableRecord
2
DEFAULT
3
simplex.shx
70
0
71
0
40
0
41
1
42
0
50
0
0
STYLE
5
2C4
100
AcDbSymbolTableRecord
100
AcDbTextStyleTableRecord
2
DWGDirectTextStyle
3
SIMPLEX
70
0
71
0
40
0
41
1
42
0
50
0
0
ENDTAB
0
TABLE
2
DIMSTYLE
5
314
100
AcDbSymbolTable
100
AcDbDimStyleTable
0
DIMSTYLE
105
27
100
AcDbSymbolTableRecord
100
AcDbDimStyleTableRecord
2
Standard
70
0
3
<>
41
0.18
42
0.0625
44
0.18
140
0.18
147
0.09
73
0
74
0
77
1
271
2
275
0
278
52
280
0
340
11
0
ENDTAB
0
TABLE
2
VIEW
5
315
100
AcDbSymbolTable
0
ENDTAB
0
TABLE
2
UCS
5
316
100
AcDbSymbolTable
0
ENDTAB
0
TABLE
2
APPID
5
317
100
AcDbSymbolTable
0
APPID
5
12
100
AcDbSymbolTableRecord
100
AcDbRegAppTableRecord
2
ACAD
70
0
0
ENDTAB
0
TABLE
2
BLOCK_RECORD
5
318
100
AcDbSymbolTable
0
BLOCK_RECORD
5
1F
100
AcDbSymbolTableRecord
100
AcDbBlockTableRecord
2
*Model_Space
340
0
70
0
0
BLOCK_RECORD
5
1B
100
AcDbSymbolTableRecord
100
AcDbBlockTableRecord
2
*Paper_Space
340
0
70
0
0
BLOCK_RECORD
5
23
100
AcDbSymbolTableRecord
100
AcDbBlockTableRecord
2
*Paper_Space0
340
0
70
0
0
BLOCK_RECORD
5
2C9
100
AcDbSymbolTableRecord
100
AcDbBlockTableRecord
2
DimnDraft3D1
340
0
70
0
0
BLOCK_RECORD
5
2D7
100
AcDbSymbolTableRecord
100
AcDbBlockTableRecord
2
_CLOSED
340
0
70
0
0
ENDTAB
0
ENDSEC
0
SECTION
2
BLOCKS
0
BLOCK
5
20
100
AcDbEntity
8
0
100
AcDbBlockBegin
2
*Model_Space
70
0
10
0
20
0
30
0
3
*Model_Space
0
ENDBLK
5
21
100
AcDbEntity
8
0
100
AcDbBlockEnd
0
BLOCK
5
1C
100
AcDbEntity
8
0
100
AcDbBlockBegin
2
*Paper_Space
70
0
10
0
20
0
30
0
3
*Paper_Space
0
ENDBLK
5
1D
100
AcDbEntity
8
0
100
AcDbBlockEnd
0
BLOCK
5
24
100
AcDbEntity
8
0
100
AcDbBlockBegin
2
*Paper_Space0
70
0
10
0
20
0
30
0
3
*Paper_Space0
0
ENDBLK
5
25
100
AcDbEntity
8
0
100
AcDbBlockEnd
0
BLOCK
5
2D4
100
AcDbEntity
8
0
100
AcDbBlockBegin
2
DimnDraft3D1
70
0
10
0
20
0
30
0
3
DimnDraft3D1
0
MTEXT
5
2CA
100
AcDbEntity
8
SK2
62
256
6
ByLayer
370
-1
48
1
60
0
100
AcDbMText
10
-59.523237
20
-0.941447
30
0
210
0
220
0
230
1
1
\W01.000;\fsimplex.shx,bigfont.shx;16 
40
4.5
41
0
44
1.084337
50
90
71
7
72
5
7
DEFAULT
0
LINE
5
2CB
100
AcDbEntity
8
SK2
62
256
6
ByLayer
370
-1
48
1
60
0
100
AcDbLine
10
-50.148237
20
7.9625
30
0
11
-61.398237
21
7.9625
31
0
39
0
210
0
220
0
230
1
0
LINE
5
2CC
100
AcDbEntity
8
SK2
62
256
6
ByLayer
370
-1
48
1
60
0
100
AcDbLine
10
-50.148237
20
-7.9625
30
0
11
-61.398237
21
-7.9625
31
0
39
0
210
0
220
0
230
1
0
LINE
5
2CD
100
AcDbEntity
8
SK2
62
256
6
ByLayer
370
-1
48
1
60
0
100
AcDbLine
10
-58.398237
20
7.9625
30
0
11
-58.398237
21
-7.9625
31
0
39
0
210
0
220
0
230
1
0
LINE
5
2CE
100
AcDbEntity
8
SK2
62
256
6
ByLayer
370
-1
48
1
60
0
100
AcDbLine
10
-58.398237
20
7.9625
30
0
11
-58.00328
21
4.962501
31
0
39
0
210
0
220
0
230
1
0
LINE
5
2CF
100
AcDbEntity
8
SK2
62
256
6
ByLayer
370
-1
48
1
60
0
100
AcDbLine
10
-58.398237
20
7.9625
30
0
11
-58.793195
21
4.962499
31
0
39
0
210
0
220
0
230
1
0
LINE
5
2D0
100
AcDbEntity
8
SK2
62
256
6
ByLayer
370
-1
48
1
60
0
100
AcDbLine
10
-58.00328
20
4.962501
30
0
11
-58.793195
21
4.962499
31
0
39
0
210
0
220
0
230
1
0
LINE
5
2D1
100
AcDbEntity
8
SK2
62
256
6
ByLayer
370
-1
48
1
60
0
100
AcDbLine
10
-58.398237
20
-7.9625
30
0
11
-58.793195
21
-4.962501
31
0
39
0
210
0
220
0
230
1
0
LINE
5
2D2
100
AcDbEntity
8
SK2
62
256
6
ByLayer
370
-1
48
1
60
0
100
AcDbLine
10
-58.398237
20
-7.9625
30
0
11
-58.00328
21
-4.962499
31
0
39
0
210
0
220
0
230
1
0
LINE
5
2D3
100
AcDbEntity
8
SK2
62
256
6
ByLayer
370
-1
48
1
60
0
100
AcDbLine
10
-58.793195
20
-4.962501
30
0
11
-58.00328
21
-4.962499
31
0
39
0
210
0
220
0
230
1
0
ENDBLK
5
2D5
100
AcDbEntity
8
0
100
AcDbBlockEnd
0
BLOCK
5
2D8
100
AcDbEntity
8
0
100
AcDbBlockBegin
2
_CLOSED
70
0
10
0
20
0
30
0
3
_CLOSED
0
LINE
5
2DA
100
AcDbEntity
8
0
62
256
6
ByLayer
370
-2
48
1
60
0
100
AcDbLine
10
-1
20
0.166667
30
0
11
0
21
0
31
0
39
0
210
0
220
0
230
1
0
LINE
5
2DB
100
AcDbEntity
8
0
62
256
6
ByLayer
370
-2
48
1
60
0
100
AcDbLine
10
0
20
0
30
0
11
-1
21
-0.166667
31
0
39
0
210
0
220
0
230
1
0
LINE
5
2DC
100
AcDbEntity
8
0
62
256
6
ByLayer
370
-2
48
1
60
0
100
AcDbLine
10
-1
20
0.166667
30
0
11
-1
21
-0.166667
31
0
39
0
210
0
220
0
230
1
0
LINE
5
2DD
100
AcDbEntity
8
0
62
256
6
ByLayer
370
-2
48
1
60
0
100
AcDbLine
10
0
20
0
30
0
11
-1
21
0
31
0
39
0
210
0
220
0
230
1
0
ENDBLK
5
2D9
100
AcDbEntity
8
0
100
AcDbBlockEnd
0
ENDSEC
0
SECTION
2
ENTITIES
0
ELLIPSE
5
17E
100
AcDbEntity
8
1
62
256
6
ByLayer
370
-1
48
1
60
0
100
AcDbEllipse
10
12.578027
20
-4.222931
30
0
11
-0.163118636092605
21
1.64778628540054
31
0
210
0
220
0
230
1
40
0.984662
41
0.916196749458687
42
2.05108691089131
0
ELLIPSE
5
17F
100
AcDbEntity
8
1
62
256
6
ByLayer
370
-1
48
1
60
0
100
AcDbEllipse
10
18.017934
20
-4.408896
30
0
11
-4.60966553486866
21
-1.73358190519365
31
0
210
0
220
0
230
1
40
0.221124
41
-0.773224132310399
42
-0.361365533167321
0
ELLIPSE
5
180
100
AcDbEntity
8
1
62
256
6
ByLayer
370
-1
48
1
60
0
100
AcDbEllipse
10
7.316848
20
6.117249
30
0
11
-1.08030563156166
21
2.62885183888631
31
0
210
0
220
0
230
1
40
0.404754
41
1.88187489699763
42
2.16448789920999
0
ELLIPSE
5
181
100
AcDbEntity
8
1
62
256
6
ByLayer
370
-1
48
1
60
0
100
AcDbEllipse
10
10.781768
20
0.055967
30
0
11
-1.08030563159541
21
2.62885183952187
31
0
210
0
220
0
230
1
40
0.404754
41
1.59926189497487
42
1.88187489713808
0
ELLIPSE
5
182
100
AcDbEntity
8
1
62
256
6
ByLayer
370
-1
48
1
60
0
100
AcDbEllipse
10
12.246687
20
-3.754394
30
0
11
-0.197022175593695
21
1.99027190663093
31
0
210
0
220
0
230
1
40
0.984662
41
-2.47092466409964
42
-1.81584635951601
0
ELLIPSE
5
183
100
AcDbEntity
8
1
62
256
6
ByLayer
370
-1
48
1
60
0
100
AcDbEllipse
10
14.521729
20
-4.754989
30
0
11
-6.17401383372978
21
-2.17793926488443
31
0
210
0
220
0
230
1
40
0.084927
41
1.37128059367144
42
1.3862231300701
0
ELLIPSE
5
184
100
AcDbEntity
8
1
62
256
6
ByLayer
370
-1
48
1
60
0
100
AcDbEllipse
10
11.824784
20
-3.796159
30
0
11
-0.208520514880177
21
2.1064254390231
31
0
210
0
220
0
230
1
40
0.984662
41
-2.54289838283158
42
-1.88241829184335
0
ELLIPSE
5
185
100
AcDbEntity
8
1
62
256
6
ByLayer
370
-1
48
1
60
0
100
AcDbEllipse
10
11.56495
20
-5.047694
30
0
11
-0.162543294864798
21
1.64197432297052
31
0
210
0
220
0
230
1
40
0.984662
41
-2.74088988484876
42
-1.4082655127356
0
ELLIPSE
5
186
100
AcDbEntity
8
1
62
256
6
ByLayer
370
-1
48
1
60
0
100
AcDbEllipse
10
12.826318
20
-4.922827
30
0
11
0.162543294864798
21
-1.64197432297052
31
0
210
0
220
0
230
1
40
0.984662
41
-1.54406122909892
42
1.46466002425769
0
ELLIPSE
5
187
100
AcDbEntity
8
1
62
256
6
ByLayer
370
-1
48
1
60
0
100
AcDbEllipse
10
12.004215
20
-5.00421
30
0
11
0.162543294864798
21
-1.64197432297052
31
0
210
0
220
0
230
1
40
0.984662
41
1.03785883986451
42
1.35893418721631
0
ELLIPSE
5
188
100
AcDbEntity
8
1
62
256
6
ByLayer
370
-1
48
1
60
0
100
AcDbEllipse
10
11.582313
20
-5.045975
30
0
11
-0.162543294864798
21
1.64197432297052
31
0
210
0
220
0
230
1
40
0.984662
41
-1.89698289101557
42
-1.40825361869232
0
ELLIPSE
5
189
100
AcDbEntity
8
1
62
256
6
ByLayer
370
-1
48
1
60
0
100
AcDbEllipse
10
6.046261
20
7.134639
30
0
11
0.0180802375823472
21
-0.199181085971951
31
0
210
0
220
0
230
1
40
0.984685
41
3.14158796552854
42
-2.70713969510981
0
ELLIPSE
5
18A
100
AcDbEntity
8
1
62
256
6
ByLayer
370
-1
48
1
60
0
100
AcDbEllipse
10
13.134768
20
3.260469
30
0
11
-0.272104028280542
21
2.9976362646461
31
0
210
0
220
0
230
1
40
0.984685
41
-0.0919249144870086
42
-2.99669167047501E-16
0
ELLIPSE
5
18B
100
AcDbEntity
8
1
62
256
6
ByLayer
370
-1
48
1
60
0
100
AcDbEllipse
10
13.134768
20
3.260469
30
0
11
-0.272104028280542
21
2.9976362646461
31
0
210
0
220
0
230
1
40
0.984685
41
0
42
0.378891176427945
0
ELLIPSE
5
18C
100
AcDbEntity
8
1
62
256
6
ByLayer
370
-1
48
1
60
0
100
AcDbEllipse
10
13.134768
20
3.260469
30
0
11
-0.272104028280542
21
2.9976362646461
31
0
210
0
220
0
230
1
40
0.984685
41
2.76257471391443
42
-0.0919249144870121
0
ELLIPSE
5
18D
100
AcDbEntity
8
1
62
256
6
ByLayer
370
-1
48
1
60
0
100
AcDbEllipse
10
9.655636
20
7.769724
30
0
11
0.0180802375823472
21
-0.199181085971951
31
0
210
0
220
0
230
1
40
0.984685
41
-3.14158718612352
42
-2.70713969510978
0
ELLIPSE
5
18E
100
AcDbEntity
8
1
62
256
6
ByLayer
370
-1
48
1
60
0
100
AcDbEllipse
10
7.807087
20
7.401368
30
0
11
-0.0117521544285256
21
0.129467705881769
31
0
210
0
220
0
230
1
40
0.984685
41
-1.01564222048939E-05
42
0.43445295848
0
ELLIPSE
5
18F
100
AcDbEntity
8
1
62
256
6
ByLayer
370
-1
48
1
60
0
100
AcDbEllipse
10
12.495891
20
-4.481091
30
0
11
0.0180802375823472
21
-0.199181085971951
31
0
210
0
220
0
230
1
40
0.984685
41
-0.612744592716628
42
-1.19043037784759E-05
0
ELLIPSE
5
190
100
AcDbEntity
8
1
62
256
6
ByLayer
370
-1
48
1
60
0
100
AcDbEllipse
10
11.937439
20
-3.38962
30
0
11
0.0117521544285257
21
-0.129467705881768
31
0
210
0
220
0
230
1
40
0.984685
41
-0.612744592716596
42
-1.07325121028845E-05
0
ELLIPSE
5
191
100
AcDbEntity
8
1
62
256
6
ByLayer
370
-1
48
1
60
0
100
AcDbEllipse
10
13.091102
20
3.256505
30
0
11
-0.264066187850109
21
2.90908732946141
31
0
210
0
220
0
230
1
40
0.984685
41
-0.0919247418532728
42
-3.08790717088645E-16
0
ELLIPSE
5
192
100
AcDbEntity
8
1
62
256
6
ByLayer
370
-1
48
1
60
0
100
AcDbEllipse
10
13.091102
20
3.256505
30
0
11
-0.264066187850109
21
2.90908732946141
31
0
210
0
220
0
230
1
40
0.984685
41
0
42
0.77011756199547
0
ELLIPSE
5
193
100
AcDbEntity
8
1
62
256
6
ByLayer
370
-1
48
1
60
0
100
AcDbEllipse
10
13.091102
20
3.256505
30
0
11
-0.264066187850109
21
2.90908732946141
31
0
210
0
220
0
230
1
40
0.984685
41
2.37134805682969
42
-2.21606450544835
0
ELLIPSE
5
194
100
AcDbEntity
8
1
62
256
6
ByLayer
370
-1
48
1
60
0
100
AcDbEllipse
10
13.091102
20
3.256505
30
0
11
-0.264066187850109
21
2.90908732946141
31
0
210
0
220
0
230
1
40
0.984685
41
-0.880494727721678
42
-0.091924741853261
0
ELLIPSE
5
195
100
AcDbEntity
8
1
62
256
6
ByLayer
370
-1
48
1
60
0
100
AcDbEllipse
10
6.282807
20
7.071077
30
0
11
-3.09999952421012
21
0.00171752643496663
31
0
210
0
220
0
230
1
40
0.053315
41
1.30969181511992
42
1.42338015756631
0
ELLIPSE
5
196
100
AcDbEntity
8
1
62
256
6
ByLayer
370
-1
48
1
60
0
100
AcDbEllipse
10
13.078303
20
3.259459
30
0
11
0.127108856584272
21
-1.28402392056296
31
0
210
0
220
0
230
1
40
0.984662
41
-1.36444026834926
42
-0.76732532320803
0
ELLIPSE
5
197
100
AcDbEntity
8
1
62
256
6
ByLayer
370
-1
48
1
60
0
100
AcDbEllipse
10
13.126049
20
3.264185
30
0
11
-0.268442714246407
21
2.71174547278463
31
0
210
0
220
0
230
1
40
0.984662
41
0
42
-3.14154120612562
0
ELLIPSE
5
198
100
AcDbEntity
8
1
62
256
6
ByLayer
370
-1
48
1
60
0
100
AcDbEllipse
10
12.344086
20
4.543844
30
0
11
-0.33478920294324
21
-0.19828942190746
31
0
210
0
220
0
230
1
40
0.494673
41
0.152897912345316
42
0.815285064497173
0
ELLIPSE
5
199
100
AcDbEntity
8
1
62
256
6
ByLayer
370
-1
48
1
60
0
100
AcDbEllipse
10
13.08273
20
1.776278
30
0
11
-0.388113116813994
21
0.000380450307990785
31
0
210
0
220
0
230
1
40
0.497203
41
2.27217074989547
42
-3.08247600625897
0
ELLIPSE
5
19A
100
AcDbEntity
8
1
62
256
6
ByLayer
370
-1
48
1
60
0
100
AcDbEllipse
10
13.073875
20
4.74264
30
0
11
-0.388113116813991
21
0.000380450307994057
31
0
210
0
220
0
230
1
40
0.497203
41
3.08641908149596
42
-1.68583207080395
0
ELLIPSE
5
19B
100
AcDbEntity
8
1
62
256
6
ByLayer
370
-1
48
1
60
0
100
AcDbEllipse
10
13.812519
20
1.975073
30
0
11
-0.334789202943408
21
-0.198289421907751
31
0
210
0
220
0
230
1
40
0.494673
41
-2.32630559314629
42
-1.578421279785
0
ELLIPSE
5
19C
100
AcDbEntity
8
1
62
256
6
ByLayer
370
-1
48
1
60
0
100
AcDbEllipse
10
13.804851
20
4.543844
30
0
11
-0.335790509926983
21
0.198599298572399
31
0
210
0
220
0
230
1
40
0.492091
41
1.58029449206707
42
2.55058598128521
0
ELLIPSE
5
19D
100
AcDbEntity
8
1
62
256
6
ByLayer
370
-1
48
1
60
0
100
AcDbEllipse
10
14.345661
20
2.517868
30
0
11
-0.191488483430401
21
-0.342136907191938
31
0
210
0
220
0
230
1
40
0.487198
41
0.934133529178665
42
-3.09379216279871
0
ELLIPSE
5
19E
100
AcDbEntity
8
1
62
256
6
ByLayer
370
-1
48
1
60
0
100
AcDbEllipse
10
14.341234
20
4.001049
30
0
11
-0.193857669878161
21
0.341952608842193
31
0
210
0
220
0
230
1
40
0.484716
41
3.09182378148309
42
-0.897947826113514
0
ELLIPSE
5
19F
100
AcDbEntity
8
1
62
256
6
ByLayer
370
-1
48
1
60
0
100
AcDbEllipse
10
13.078303
20
3.259459
30
0
11
-0.127108856584272
21
1.28402392056295
31
0
210
0
220
0
230
1
40
0.984662
41
0.533818252293919
42
1.13559682605488
0
ELLIPSE
5
1A0
100
AcDbEntity
8
1
62
256
6
ByLayer
370
-1
48
1
60
0
100
AcDbEllipse
10
13.078303
20
3.259459
30
0
11
-0.127108856584272
21
1.28402392056295
31
0
210
0
220
0
230
1
40
0.984662
41
-0.620766087096147
42
0.1076092584926
0
ELLIPSE
5
1A1
100
AcDbEntity
8
1
62
256
6
ByLayer
370
-1
48
1
60
0
100
AcDbEllipse
10
13.078303
20
3.259459
30
0
11
-0.127108856584272
21
1.28402392056295
31
0
210
0
220
0
230
1
40
0.984662
41
2.89058537899357
42
-2.71516118948927
0
ELLIPSE
5
1A2
100
AcDbEntity
8
1
62
256
6
ByLayer
370
-1
48
1
60
0
100
AcDbEllipse
10
17.128063
20
0.890262
30
0
11
-3.30643715532042E-16
21
-1.8
31
0
210
0
220
0
230
1
40
0.173648
41
0.527406108412261
42
0.754298911171548
0
ELLIPSE
5
1A3
100
AcDbEntity
8
1
62
256
6
ByLayer
370
-1
48
1
60
0
100
AcDbEllipse
10
17.303786
20
0.699075
30
0
11
-4.59227382683391E-17
21
-0.25
31
0
210
0
220
0
230
1
40
0.173648
41
-1.09015436395412
42
-0.502338150264381
0
ELLIPSE
5
1A4
100
AcDbEntity
8
1
62
256
6
ByLayer
370
-1
48
1
60
0
100
AcDbEllipse
10
17.311727
20
0.058149
30
0
11
-4.59227382683391E-17
21
-0.25
31
0
210
0
220
0
230
1
40
0.173648
41
1.58333030586885
42
2.41236170056601
0
ELLIPSE
5
1A5
100
AcDbEntity
8
1
62
256
6
ByLayer
370
-1
48
1
60
0
100
AcDbEllipse
10
17.13239
20
-1.097666
30
0
11
-3.30643715532042E-16
21
-1.8
31
0
210
0
220
0
230
1
40
0.173648
41
2.41236170056618
42
2.63925450332543
0
ELLIPSE
5
1A6
100
AcDbEntity
8
1
62
256
6
ByLayer
370
-1
48
1
60
0
100
AcDbEllipse
10
17.307225
20
-0.881175
30
0
11
-4.59227382683391E-17
21
-0.25
31
0
210
0
220
0
230
1
40
0.173648
41
-2.61418654517731
42
-2.03075104594593
0
ELLIPSE
5
1A7
100
AcDbEntity
8
1
62
256
6
ByLayer
370
-1
48
1
60
0
100
AcDbEllipse
10
17.312375
20
-0.239304
30
0
11
-4.59227382683391E-17
21
-0.25
31
0
210
0
220
0
230
1
40
0.173648
41
0.754298911171768
42
1.58333030586885
0
ELLIPSE
5
1A8
100
AcDbEntity
8
1
62
256
6
ByLayer
370
-1
48
1
60
0
100
AcDbEllipse
10
14.539068
20
3.259459
30
0
11
-0.00153284667915203
21
0.394041092520339
31
0
210
0
220
0
230
1
40
0.482349
41
0.158646496810231
42
1.56891995827576
0
ELLIPSE
5
1A9
100
AcDbEntity
8
1
62
256
6
ByLayer
370
-1
48
1
60
0
100
AcDbEllipse
10
13.804851
20
4.543844
30
0
11
-0.335790509925871
21
0.198599298572633
31
0
210
0
220
0
230
1
40
0.492091
41
0.170021030608338
42
1.58029449207148
0
ELLIPSE
5
1AA
100
AcDbEntity
8
1
62
256
6
ByLayer
370
-1
48
1
60
0
100
AcDbEllipse
10
14.539068
20
3.259459
30
0
11
-0.00153284668067835
21
0.394041092521564
31
0
210
0
220
0
230
1
40
0.482349
41
1.56891995826666
42
2.97919341972885
0
ELLIPSE
5
1AB
100
AcDbEntity
8
1
62
256
6
ByLayer
370
-1
48
1
60
0
100
AcDbEllipse
10
13.078303
20
3.259459
30
0
11
-0.127108856584272
21
1.28402392056295
31
0
210
0
220
0
230
1
40
0.984662
41
-2.71516118948932
42
-1.66796363829269
0
ELLIPSE
5
1AC
100
AcDbEntity
8
1
62
256
6
ByLayer
370
-1
48
1
60
0
100
AcDbEllipse
10
13.078303
20
3.259459
30
0
11
-0.127108856584272
21
1.28402392056295
31
0
210
0
220
0
230
1
40
0.984662
41
-1.66796363829274
42
-0.620766087096104
0
ELLIPSE
5
1AD
100
AcDbEntity
8
1
62
256
6
ByLayer
370
-1
48
1
60
0
100
AcDbEllipse
10
13.351758
20
3.286529
30
0
11
0.165143987582636
21
-1.66824591213806
31
0
210
0
220
0
230
1
40
0.984662
41
1.99722779089539
42
3.04442534209198
0
ELLIPSE
5
1AE
100
AcDbEntity
8
1
62
256
6
ByLayer
370
-1
48
1
60
0
100
AcDbEllipse
10
13.351758
20
3.286529
30
0
11
0.165143987582636
21
-1.66824591213806
31
0
210
0
220
0
230
1
40
0.984662
41
-1.1443648626944
42
-0.0971673114978243
0
ELLIPSE
5
1AF
100
AcDbEntity
8
1
62
256
6
ByLayer
370
-1
48
1
60
0
100
AcDbEllipse
10
13.351758
20
3.286529
30
0
11
0.165143987582636
21
-1.66824591213806
31
0
210
0
220
0
230
1
40
0.984662
41
3.04442534209198
42
-2.19156241389102
0
ELLIPSE
5
1B0
100
AcDbEntity
8
1
62
256
6
ByLayer
370
-1
48
1
60
0
100
AcDbEllipse
10
13.351758
20
3.286529
30
0
11
0.165143987582636
21
-1.66824591213806
31
0
210
0
220
0
230
1
40
0.984662
41
-0.0971673114978243
42
0.950030239698778
0
ELLIPSE
5
1B1
100
AcDbEntity
8
1
62
256
6
ByLayer
370
-1
48
1
60
0
100
AcDbEllipse
10
13.351758
20
3.286529
30
0
11
0.165143987582636
21
-1.66824591213806
31
0
210
0
220
0
230
1
40
0.984662
41
-2.19156241389102
42
-1.1443648626944
0
ELLIPSE
5
1B2
100
AcDbEntity
8
1
62
256
6
ByLayer
370
-1
48
1
60
0
100
AcDbEllipse
10
13.351758
20
3.286529
30
0
11
0.165143987582636
21
-1.66824591213806
31
0
210
0
220
0
230
1
40
0.984662
41
0.950030239698778
42
1.99722779089539
0
ELLIPSE
5
1B3
100
AcDbEntity
8
1
62
256
6
ByLayer
370
-1
48
1
60
0
100
AcDbEllipse
10
13.3411
20
3.285474
30
0
11
-0.268442714246408
21
2.71174547278464
31
0
210
0
220
0
230
1
40
0.984662
41
0
42
6.28318530717959
0
ELLIPSE
5
1B4
100
AcDbEntity
8
1
62
256
6
ByLayer
370
-1
48
1
60
0
100
AcDbEllipse
10
13.351758
20
3.286529
30
0
11
-0.177319958034328
21
1.79124471596786
31
0
210
0
220
0
230
1
40
0.984662
41
0
42
6.28318530717959
0
ELLIPSE
5
1B5
100
AcDbEntity
8
1
62
256
6
ByLayer
370
-1
48
1
60
0
100
AcDbEllipse
10
13.812519
20
1.975073
30
0
11
-0.334789202944335
21
-0.198289421907667
31
0
210
0
220
0
230
1
40
0.494673
41
-1.57842127978188
42
-0.168147818324422
0
ELLIPSE
5
1B6
100
AcDbEntity
8
1
62
256
6
ByLayer
370
-1
48
1
60
0
100
AcDbEllipse
10
6.283417
20
8.169513
30
0
11
1.40969978363841
21
-0.000781031295284753
31
0
210
0
220
0
230
1
40
0.053315
41
0.698069240706286
42
1.74526679190291
0
ELLIPSE
5
1B7
100
AcDbEntity
8
1
62
256
6
ByLayer
370
-1
48
1
60
0
100
AcDbEllipse
10
6.283417
20
8.169513
30
0
11
1.40969978363841
21
-0.000781031295284753
31
0
210
0
220
0
230
1
40
0.053315
41
1.74526679190291
42
2.79246434309947
0
ELLIPSE
5
1B8
100
AcDbEntity
8
1
62
256
6
ByLayer
370
-1
48
1
60
0
100
AcDbEllipse
10
6.283417
20
8.169513
30
0
11
1.40969978363841
21
-0.000781031295284753
31
0
210
0
220
0
230
1
40
0.053315
41
-1.39632586168688
42
-0.349128310490274
0
ELLIPSE
5
1B9
100
AcDbEntity
8
1
62
256
6
ByLayer
370
-1
48
1
60
0
100
AcDbEllipse
10
6.283417
20
8.169513
30
0
11
1.40969978363841
21
-0.000781031295284753
31
0
210
0
220
0
230
1
40
0.053315
41
2.79246434309947
42
-2.44352341288357
0
ELLIPSE
5
1BA
100
AcDbEntity
8
1
62
256
6
ByLayer
370
-1
48
1
60
0
100
AcDbEllipse
10
6.283417
20
8.169513
30
0
11
1.40969978363841
21
-0.000781031295284753
31
0
210
0
220
0
230
1
40
0.053315
41
-2.44352341288357
42
-1.39632586168688
0
ELLIPSE
5
1BB
100
AcDbEntity
8
1
62
256
6
ByLayer
370
-1
48
1
60
0
100
AcDbEllipse
10
6.283417
20
8.169513
30
0
11
1.40969978363841
21
-0.000781031295284753
31
0
210
0
220
0
230
1
40
0.053315
41
-0.349128310490274
42
0.698069240706286
0
ELLIPSE
5
1BC
100
AcDbEntity
8
1
62
256
6
ByLayer
370
-1
48
1
60
0
100
AcDbEllipse
10
15.413124
20
-3.070898
30
0
11
-2.31605435472764
21
-1.37369458524324
31
0
210
0
220
0
230
1
40
0.315635
41
-0.170580785111141
42
-0.00298511007200955
0
ELLIPSE
5
1BD
100
AcDbEntity
8
1
62
256
6
ByLayer
370
-1
48
1
60
0
100
AcDbEllipse
10
18.871321
20
4.863874
30
0
11
-0.0456617360727769
21
0.124163624835416
31
0
210
0
220
0
230
1
40
0.697969
41
0.951900384491699
42
1.2967086752313
0
ELLIPSE
5
1BE
100
AcDbEntity
8
1
62
256
6
ByLayer
370
-1
48
1
60
0
100
AcDbEllipse
10
18.642627
20
7.394646
30
0
11
0.16420228264977
21
0.286247463521696
31
0
210
0
220
0
230
1
40
0.007742
41
-1.5842494626375
42
-1.23518361223704
0
ELLIPSE
5
1BF
100
AcDbEntity
8
1
62
256
6
ByLayer
370
-1
48
1
60
0
100
AcDbEllipse
10
17.750357
20
8.031007
30
0
11
0.319998801299914
21
0.000875880481822916
31
0
210
0
220
0
230
1
40
0.015521
41
-1.74535049498341
42
-1.57081756978409
0
ELLIPSE
5
1C0
100
AcDbEntity
8
1
62
256
6
ByLayer
370
-1
48
1
60
0
100
AcDbEllipse
10
11.101906
20
-2.566344
30
0
11
-0.0117521544285257
21
0.129467705881769
31
0
210
0
220
0
230
1
40
0.984685
41
-1.65328798638698
42
-0.612744592716605
0
ELLIPSE
5
1C1
100
AcDbEntity
8
1
62
256
6
ByLayer
370
-1
48
1
60
0
100
AcDbEllipse
10
14.425781
20
-2.7373
30
0
11
0.161632485826136
21
0.276179180108972
31
0
210
0
220
0
230
1
40
0.142623
41
1.67227178372676
42
1.84680470892619
0
ELLIPSE
5
1C2
100
AcDbEntity
8
1
62
256
6
ByLayer
370
-1
48
1
60
0
100
AcDbEllipse
10
6.283417
20
8.169513
30
0
11
-1.69999973908298
21
0.000941869335304288
31
0
210
0
220
0
230
1
40
0.053315
41
0
42
6.28318530717959
0
ELLIPSE
5
1C3
100
AcDbEntity
8
1
62
256
6
ByLayer
370
-1
48
1
60
0
100
AcDbEllipse
10
14.013125
20
-3.589609
30
0
11
-0.138398498626077
21
0.213648907270896
31
0
210
0
220
0
230
1
40
0.952315
41
-1.92630059604856
42
-1.62136333106758
0
ELLIPSE
5
1C4
100
AcDbEntity
8
1
62
256
6
ByLayer
370
-1
48
1
60
0
100
AcDbEllipse
10
9.013876
20
7.446006
30
0
11
-0.161057566543059
21
0.028874706419986
31
0
210
0
220
0
230
1
40
0.77681
41
2.00013870748812
42
2.3449469985282
0
ELLIPSE
5
1C5
100
AcDbEntity
8
1
62
256
6
ByLayer
370
-1
48
1
60
0
100
AcDbEllipse
10
18.644613
20
6.669077
30
0
11
-0.165766666325404
21
0.285344374984618
31
0
210
0
220
0
230
1
40
0.007779
41
1.58422822348669
42
1.93329407388585
0
ELLIPSE
5
1C6
100
AcDbEntity
8
1
62
256
6
ByLayer
370
-1
48
1
60
0
100
AcDbEllipse
10
19.156585
20
5.335304
30
0
11
-0.132004968946107
21
-0.00035988329609768
31
0
210
0
220
0
230
1
40
0.984689
41
2.10105994449251
42
-3.14158196902579
0
ELLIPSE
5
1C7
100
AcDbEntity
8
1
62
256
6
ByLayer
370
-1
48
1
60
0
100
AcDbEllipse
10
16.51157
20
8.035893
30
0
11
-0.176125829983118
21
-0.000349642819803911
31
0
210
0
220
0
230
1
40
0.013275
41
-2.75421869631596
42
-1.71923844992906
0
ELLIPSE
5
1C8
100
AcDbEntity
8
1
62
256
6
ByLayer
370
-1
48
1
60
0
100
AcDbEllipse
10
18.459228
20
7.828004
30
0
11
-0.203084567622982
21
-0.000553666933257614
31
0
210
0
220
0
230
1
40
0.984689
41
-2.10103857692276
42
-1.57078564384216
0
ELLIPSE
5
1C9
100
AcDbEntity
8
1
62
256
6
ByLayer
370
-1
48
1
60
0
100
AcDbEllipse
10
13.447139
20
7.160537
30
0
11
0.135500750613122
21
-0.0643393082281792
31
0
210
0
220
0
230
1
40
0.089727
41
1.42014369360362
42
2.12893318312605
0
ELLIPSE
5
1CA
100
AcDbEntity
8
1
62
256
6
ByLayer
370
-1
48
1
60
0
100
AcDbEllipse
10
8.469953
20
7.461538
30
0
11
-0.0393851345110304
21
-0.124684027146564
31
0
210
0
220
0
230
1
40
0.960533
41
2.91784637265227
42
-2.32479554085851
0
ELLIPSE
5
1CB
100
AcDbEntity
8
1
62
256
6
ByLayer
370
-1
48
1
60
0
100
AcDbEllipse
10
19.809362
20
7.045159
30
0
11
-1.20875917746724
21
0.275308280244399
31
0
210
0
220
0
230
1
40
0.044146
41
-1.62751892850393
42
-1.45992325659039
0
ELLIPSE
5
1CC
100
AcDbEntity
8
1
62
256
6
ByLayer
370
-1
48
1
60
0
100
AcDbEllipse
10
12.314726
20
8.035893
30
0
11
-0.150100272484484
21
-0.000410293040178319
31
0
210
0
220
0
230
1
40
0.015511
41
-2.45402146329594
42
-1.74523197494529
0
ELLIPSE
5
1CD
100
AcDbEntity
8
1
62
256
6
ByLayer
370
-1
48
1
60
0
100
AcDbEllipse
10
6.950156
20
5.997931
30
0
11
0.118305764501746
21
0.225396863522227
31
0
210
0
220
0
230
1
40
0.956983
41
-2.98914578897236
42
-2.68420852399131
0
ELLIPSE
5
1CE
100
AcDbEntity
8
1
62
256
6
ByLayer
370
-1
48
1
60
0
100
AcDbEllipse
10
10.874837
20
-1.542479
30
0
11
0.0180802375823472
21
-0.199181085971951
31
0
210
0
220
0
230
1
40
0.984685
41
-1.13634336831495
42
-0.612744592716643
0
ELLIPSE
5
1CF
100
AcDbEntity
8
1
62
256
6
ByLayer
370
-1
48
1
60
0
100
AcDbEllipse
10
7.025791
20
6.688634
30
0
11
-0.32985002043205
21
0.00994806619280007
31
0
210
0
220
0
230
1
40
0.131594
41
-1.30688997975211
42
-0.957824129353265
0
ELLIPSE
5
1D0
100
AcDbEntity
8
1
62
256
6
ByLayer
370
-1
48
1
60
0
100
AcDbEllipse
10
19.154743
20
6.008282
30
0
11
-0.132004968938481
21
-0.000359883240076125
31
0
210
0
220
0
230
1
40
0.984689
41
-3.1415819686089
42
-2.18886229166291
0
ELLIPSE
5
1D1
100
AcDbEntity
8
1
62
256
6
ByLayer
370
-1
48
1
60
0
100
AcDbEllipse
10
18.348829
20
6.894823
30
0
11
-0.49132586044009
21
-0.830376881087612
31
0
210
0
220
0
230
1
40
0.342013
41
-3.13698302547689
42
-2.31470180313178
0
ELLIPSE
5
1D2
100
AcDbEntity
8
1
62
256
6
ByLayer
370
-1
48
1
60
0
100
AcDbEllipse
10
13.447018
20
-3.191989
30
0
11
-0.02082150685074
21
-0.329342473502074
31
0
210
0
220
0
230
1
40
0.570502
41
-2.20304709528559
42
-1.38076587295058
0
ELLIPSE
5
1D3
100
AcDbEntity
8
1
62
256
6
ByLayer
370
-1
48
1
60
0
100
AcDbEllipse
10
19.262586
20
6.309268
30
0
11
-0.132004968942955
21
-0.000359883347617255
31
0
210
0
220
0
230
1
40
0.984689
41
-1.04053270949484
42
1.06841797393387E-05
0
ELLIPSE
5
1D4
100
AcDbEntity
8
1
62
256
6
ByLayer
370
-1
48
1
60
0
100
AcDbEllipse
10
14.066902
20
-3.554773
30
0
11
0.168459357975663
21
-0.283763008002149
31
0
210
0
220
0
230
1
40
0.304906
41
-1.55887814206457
42
-1.20981229166575
0
ELLIPSE
5
1D5
100
AcDbEntity
8
1
62
256
6
ByLayer
370
-1
48
1
60
0
100
AcDbEllipse
10
18.643316
20
7.391409
30
0
11
-0.254558441227157
21
3.11733884545897E-17
31
0
210
0
220
0
230
1
40
0.99988
41
-0.839157347883406
42
-0.534219985806983
0
ELLIPSE
5
1D6
100
AcDbEntity
8
1
62
256
6
ByLayer
370
-1
48
1
60
0
100
AcDbEllipse
10
17.752332
20
7.309407
30
0
11
0.272189295186316
21
0.168264635577345
31
0
210
0
220
0
230
1
40
0.078857
41
1.72740842256119
42
2.76238866899401
0
ELLIPSE
5
1D7
100
AcDbEntity
8
1
62
256
6
ByLayer
370
-1
48
1
60
0
100
AcDbEllipse
10
18.348101
20
7.160765
30
0
11
-0.495864210021412
21
0.827675111830498
31
0
210
0
220
0
230
1
40
0.342013
41
2.31470168142582
42
3.13698290375759
0
ELLIPSE
5
1D8
100
AcDbEntity
8
1
62
256
6
ByLayer
370
-1
48
1
60
0
100
AcDbEllipse
10
14.46901
20
-3.653286
30
0
11
-0.0823724031155483
21
0.183198314588655
31
0
210
0
220
0
230
1
40
0.958693
41
-3.03303518413221
42
-2.50278225102109
0
ELLIPSE
5
1D9
100
AcDbEntity
8
1
62
256
6
ByLayer
370
-1
48
1
60
0
100
AcDbEllipse
10
12.600305
20
-3.32945
30
0
11
-0.0535420620043367
21
0.119078904483375
31
0
210
0
220
0
230
1
40
0.958693
41
2.2096067295156
42
-3.12085890073611
0
ELLIPSE
5
1DA
100
AcDbEntity
8
1
62
256
6
ByLayer
370
-1
48
1
60
0
100
AcDbEllipse
10
13.723122
20
-3.090837
30
0
11
-0.485450528825854
21
0.833793599928814
31
0
210
0
220
0
230
1
40
0.325762
41
-3.13882244233725
42
-2.31654122000321
0
ELLIPSE
5
1DB
100
AcDbEntity
8
1
62
256
6
ByLayer
370
-1
48
1
60
0
100
AcDbEllipse
10
7.120005
20
4.483894
30
0
11
-0.18980954910968
21
0.325785750369602
31
0
210
0
220
0
230
1
40
0.134321
41
1.50813151133447
42
2.54311175778619
0
ELLIPSE
5
1DC
100
AcDbEntity
8
1
62
256
6
ByLayer
370
-1
48
1
60
0
100
AcDbEllipse
10
13.950328
20
-3.223809
30
0
11
-0.931731499528992
21
0.000583048782855456
31
0
210
0
220
0
230
1
40
0.349309
41
-0.809560664681933
42
0.0127205576555462
0
ELLIPSE
5
1DD
100
AcDbEntity
8
1
62
256
6
ByLayer
370
-1
48
1
60
0
100
AcDbEllipse
10
7.004106
20
5.969613
30
0
11
0.0155171404431585
21
-0.329634977440907
31
0
210
0
220
0
230
1
40
0.571905
41
-1.72306273859039
42
-0.900781516255409
0
ELLIPSE
5
1DE
100
AcDbEntity
8
1
62
256
6
ByLayer
370
-1
48
1
60
0
100
AcDbEllipse
10
13.030971
20
6.652089
30
0
11
0.0367863585044499
21
0.145419269108265
31
0
210
0
220
0
230
1
40
0.164735
41
-1.51290410519051
42
-1.33837117999111
0
ELLIPSE
5
1DF
100
AcDbEntity
8
1
62
256
6
ByLayer
370
-1
48
1
60
0
100
AcDbEllipse
10
13.396274
20
-4.256289
30
0
11
-0.748651020344245
21
-0.868264095886752
31
0
210
0
220
0
230
1
40
0.006448
41
-1.45645588834848
42
-1.28886021596439
0
ELLIPSE
5
1E0
100
AcDbEntity
8
1
62
256
6
ByLayer
370
-1
48
1
60
0
100
AcDbEllipse
10
13.309706
20
3.276349
30
0
11
-0.278473250631766
21
3.06780285504269
31
0
210
0
220
0
230
1
40
0.984685
41
0
42
6.28318530717959
0
ELLIPSE
5
1E1
100
AcDbEntity
8
1
62
256
6
ByLayer
370
-1
48
1
60
0
100
AcDbEllipse
10
17.447119
20
5.659471
30
0
11
-2.44476098368926
21
-1.42021440909423
31
0
210
0
220
0
230
1
40
0.300609
41
-3.13729904536041
42
-2.96970337037665
0
ELLIPSE
5
1E2
100
AcDbEntity
8
1
62
256
6
ByLayer
370
-1
48
1
60
0
100
AcDbEllipse
10
10.529157
20
1.370877
30
0
11
-0.144249644291543
21
-0.0411344152962374
31
0
210
0
220
0
230
1
40
0.032944
41
1.56840483871184
42
1.74293776391145
0
ELLIPSE
5
1E3
100
AcDbEntity
8
1
62
256
6
ByLayer
370
-1
48
1
60
0
100
AcDbEllipse
10
12.025351
20
-2.992961
30
0
11
-0.0535420620012472
21
0.119078904485967
31
0
210
0
220
0
230
1
40
0.958693
41
1.16906333587598
42
2.20960672954912
0
ELLIPSE
5
1E4
100
AcDbEntity
8
1
62
256
6
ByLayer
370
-1
48
1
60
0
100
AcDbEllipse
10
13.854684
20
-3.189782
30
0
11
-0.285282473313292
21
-0.165873175710392
31
0
210
0
220
0
230
1
40
0.015422
41
1.26110651584097
42
2.14212784185025
0
ELLIPSE
5
1E5
100
AcDbEntity
8
1
62
256
6
ByLayer
370
-1
48
1
60
0
100
AcDbEllipse
10
18.645302
20
6.665841
30
0
11
-0.254558441227157
21
3.11733884545897E-17
31
0
210
0
220
0
230
1
40
0.99988
41
0.539694073108227
42
0.84463124083885
0
ELLIPSE
5
1E6
100
AcDbEntity
8
1
62
256
6
ByLayer
370
-1
48
1
60
0
100
AcDbEllipse
10
16.719387
20
2.250832
30
0
11
0.108836897204719
21
-0.103220781855445
31
0
210
0
220
0
230
1
40
0.131791
41
1.28087309252931
42
1.45540601772876
0
ELLIPSE
5
1E7
100
AcDbEntity
8
1
62
256
6
ByLayer
370
-1
48
1
60
0
100
AcDbEllipse
10
18.644613
20
6.669077
30
0
11
0.28259193885026
21
0.170416537040426
31
0
210
0
220
0
230
1
40
0.354474
41
-2.4061566181726
42
-1.58387539583759
0
ELLIPSE
5
1E8
100
AcDbEntity
8
1
62
256
6
ByLayer
370
-1
48
1
60
0
100
AcDbEllipse
10
18.812142
20
4.314427
30
0
11
-0.00056188095302821
21
0.283036697861095
31
0
210
0
220
0
230
1
40
0.092036
41
-1.56262635413334
42
-0.527646107675456
0
ELLIPSE
5
1E9
100
AcDbEntity
8
1
62
256
6
ByLayer
370
-1
48
1
60
0
100
AcDbEllipse
10
13.079321
20
-1.705051
30
0
11
-0.11141839913479
21
2.78797894942938
31
0
210
0
220
0
230
1
40
0.293981
41
3.13168124240018
42
-2.98390838982709
0
ELLIPSE
5
1EA
100
AcDbEntity
8
1
62
256
6
ByLayer
370
-1
48
1
60
0
100
AcDbEllipse
10
19.631525
20
7.03558
30
0
11
0.00183525231900513
21
-0.329994896701336
31
0
210
0
220
0
230
1
40
0.179002
41
1.25431002652254
42
1.85572942283348
0
ELLIPSE
5
1EB
100
AcDbEntity
8
1
62
256
6
ByLayer
370
-1
48
1
60
0
100
AcDbEllipse
10
6.661193
20
5.623494
30
0
11
-0.0605925147175595
21
-0.191821580208179
31
0
210
0
220
0
230
1
40
0.960533
41
-1.28425214675029
42
-0.753999213647507
0
ELLIPSE
5
1EC
100
AcDbEntity
8
1
62
256
6
ByLayer
370
-1
48
1
60
0
100
AcDbEllipse
10
11.362485
20
-3.053131
30
0
11
-0.0117521544285256
21
0.129467705881769
31
0
210
0
220
0
230
1
40
0.984685
41
1.48830466720288
42
2.52884806087319
0
ELLIPSE
5
1ED
100
AcDbEntity
8
1
62
256
6
ByLayer
370
-1
48
1
60
0
100
AcDbEllipse
10
18.643369
20
3.533243
30
0
11
0.0180802375823472
21
-0.199181085971951
31
0
210
0
220
0
230
1
40
0.984685
41
0.95805173407828
42
1.48165050967658
0
ELLIPSE
5
1EE
100
AcDbEntity
8
1
62
256
6
ByLayer
370
-1
48
1
60
0
100
AcDbEllipse
10
12.141889
20
-3.632631
30
0
11
-0.0117521544285256
21
0.129467705881768
31
0
210
0
220
0
230
1
40
0.984685
41
-1.65328798638701
42
-0.612744592716602
0
ELLIPSE
5
1EF
100
AcDbEntity
8
1
62
256
6
ByLayer
370
-1
48
1
60
0
100
AcDbEllipse
10
6.896881
20
4.87439
30
0
11
-0.162018972073839
21
0.275952627615931
31
0
210
0
220
0
230
1
40
0.158144
41
1.32187722636308
42
1.4964101515625
0
ELLIPSE
5
1F0
100
AcDbEntity
8
1
62
256
6
ByLayer
370
-1
48
1
60
0
100
AcDbEllipse
10
14.425781
20
-2.7373
30
0
11
0.0113395985135384
21
-0.319799020488731
31
0
210
0
220
0
230
1
40
0.174084
41
-2.59617841502482
42
-1.56119816859219
0
ELLIPSE
5
1F1
100
AcDbEntity
8
1
62
256
6
ByLayer
370
-1
48
1
60
0
100
AcDbEllipse
10
7.896842
20
7.12505
30
0
11
-0.0393851345059252
21
-0.124684027149009
31
0
210
0
220
0
230
1
40
0.960533
41
-2.32479554089668
42
-1.37207586398277
0
ELLIPSE
5
1F2
100
AcDbEntity
8
1
62
256
6
ByLayer
370
-1
48
1
60
0
100
AcDbEllipse
10
11.420205
20
-2.109801
30
0
11
-0.243081776440344
21
0.140924866110192
31
0
210
0
220
0
230
1
40
0.053924
41
-2.68181905540813
42
-1.64683880897569
0
ELLIPSE
5
1F3
100
AcDbEntity
8
1
62
256
6
ByLayer
370
-1
48
1
60
0
100
AcDbEllipse
10
7.507264
20
5.993299
30
0
11
-0.931737083198792
21
0.00318186459754768
31
0
210
0
220
0
230
1
40
0.351013
41
-0.0093863757591351
42
0.812894846570192
0
ELLIPSE
5
1F4
100
AcDbEntity
8
1
62
256
6
ByLayer
370
-1
48
1
60
0
100
AcDbEllipse
10
14.066902
20
-3.554773
30
0
11
0.265139820720223
21
0.19647105503979
31
0
210
0
220
0
230
1
40
0.340178
41
-1.8962383050042
42
-1.0739570826692
0
ELLIPSE
5
1F5
100
AcDbEntity
8
1
62
256
6
ByLayer
370
-1
48
1
60
0
100
AcDbEllipse
10
17.306247
20
8.031007
30
0
11
-0.375735103938417
21
-0.000745904681909252
31
0
210
0
220
0
230
1
40
0.013275
41
0.38737395727305
42
1.42235420371379
0
ELLIPSE
5
1F6
100
AcDbEntity
8
1
62
256
6
ByLayer
370
-1
48
1
60
0
100
AcDbEllipse
10
7.640313
20
7.096563
30
0
11
-0.0393851345104124
21
-0.12468402714676
31
0
210
0
220
0
230
1
40
0.960533
41
0.816797112727861
42
1.76951678964767
0
ELLIPSE
5
1F7
100
AcDbEntity
8
1
62
256
6
ByLayer
370
-1
48
1
60
0
100
AcDbEllipse
10
16.290858
20
1.798988
30
0
11
0.108836897204719
21
-0.103220781855445
31
0
210
0
220
0
230
1
40
0.131791
41
1.28087309252943
42
1.45540601772888
0
ELLIPSE
5
1F8
100
AcDbEntity
8
1
62
256
6
ByLayer
370
-1
48
1
60
0
100
AcDbEllipse
10
18.644613
20
6.669077
30
0
11
-0.283086776769781
21
-0.169593268787697
31
0
210
0
220
0
230
1
40
0.013326
41
0.681816525924684
42
1.56283785193288
0
ELLIPSE
5
1F9
100
AcDbEntity
8
1
62
256
6
ByLayer
370
-1
48
1
60
0
100
AcDbEllipse
10
7.622004
20
6.332398
30
0
11
0.286191286725685
21
-0.164300174687359
31
0
210
0
220
0
230
1
40
0.011457
41
-1.86495659313835
42
-0.983935267129202
0
ELLIPSE
5
1FA
100
AcDbEntity
8
1
62
256
6
ByLayer
370
-1
48
1
60
0
100
AcDbEllipse
10
7.025791
20
6.688634
30
0
11
-0.295887399852021
21
-0.146118604595069
31
0
210
0
220
0
230
1
40
0.410668
41
-1.69717966239799
42
-1.0957602660871
0
ELLIPSE
5
1FB
100
AcDbEntity
8
1
62
256
6
ByLayer
370
-1
48
1
60
0
100
AcDbEllipse
10
12.808032
20
-3.572163
30
0
11
-0.0535420619946762
21
0.119078904490548
31
0
210
0
220
0
230
1
40
0.958693
41
-1.9725293176461
42
-0.931985923985392
0
ELLIPSE
5
1FC
100
AcDbEntity
8
1
62
256
6
ByLayer
370
-1
48
1
60
0
100
AcDbEllipse
10
9.886374
20
1.483803
30
0
11
-0.0109765333732292
21
0.1495978466259
31
0
210
0
220
0
230
1
40
0.174315
41
-2.27657293682665
42
-1.56778344730412
0
ELLIPSE
5
1FD
100
AcDbEntity
8
1
62
256
6
ByLayer
370
-1
48
1
60
0
100
AcDbEllipse
10
7.600122
20
3.742713
30
0
11
-0.0889732261439735
21
0.152712070483157
31
0
210
0
220
0
230
1
40
0.134321
41
-1.63346114227001
42
-0.598480895804151
0
ELLIPSE
5
1FE
100
AcDbEntity
8
1
62
256
6
ByLayer
370
-1
48
1
60
0
100
AcDbEllipse
10
12.430261
20
6.804049
30
0
11
0.0367863585044499
21
0.145419269108265
31
0
210
0
220
0
230
1
40
0.164735
41
-1.51290410519049
42
-1.33837117999106
0
ELLIPSE
5
1FF
100
AcDbEntity
8
1
62
256
6
ByLayer
370
-1
48
1
60
0
100
AcDbEllipse
10
14.425781
20
-2.7373
30
0
11
0.00572482928562402
21
0.319948787042005
31
0
210
0
220
0
230
1
40
0.256832
41
0.556928889643699
42
1.74207351478783
0
ELLIPSE
5
200
100
AcDbEntity
8
1
62
256
6
ByLayer
370
-1
48
1
60
0
100
AcDbEllipse
10
18.427628
20
7.03127
30
0
11
0.283086776769781
21
0.169593268787697
31
0
210
0
220
0
230
1
40
0.013326
41
-2.45977612766825
42
-1.57875480165702
0
ELLIPSE
5
201
100
AcDbEntity
8
1
62
256
6
ByLayer
370
-1
48
1
60
0
100
AcDbEllipse
10
6.947463
20
7.060508
30
0
11
-0.289730896113586
21
1.14560443961736
31
0
210
0
220
0
230
1
40
0.218276
41
1.37589550949951
42
1.54349118419607
0
ELLIPSE
5
202
100
AcDbEntity
8
1
62
256
6
ByLayer
370
-1
48
1
60
0
100
AcDbEllipse
10
7.025791
20
6.688634
30
0
11
-0.169262396137941
21
-0.283284735299385
31
0
210
0
220
0
230
1
40
0.289738
41
-1.90384570816421
42
-1.55477985776534
0
ELLIPSE
5
203
100
AcDbEntity
8
1
62
256
6
ByLayer
370
-1
48
1
60
0
100
AcDbEllipse
10
18.427628
20
7.03127
30
0
11
0.284010899060889
21
-0.168041093827152
31
0
210
0
220
0
230
1
40
0.013348
41
-2.44389568253222
42
-1.56287435652419
0
ELLIPSE
5
204
100
AcDbEntity
8
1
62
256
6
ByLayer
370
-1
48
1
60
0
100
AcDbEllipse
10
13.447018
20
-3.191989
30
0
11
0.329788829487308
21
0.0118037259113881
31
0
210
0
220
0
230
1
40
0.162283
41
-2.18480282662795
42
-1.83573697622908
0
ELLIPSE
5
205
100
AcDbEntity
8
1
62
256
6
ByLayer
370
-1
48
1
60
0
100
AcDbEllipse
10
17.752332
20
7.309407
30
0
11
-0.278191912985564
21
-0.158143161563922
31
0
210
0
220
0
230
1
40
0.013504
41
0.377999582705627
42
1.56314420785064
0
ELLIPSE
5
206
100
AcDbEntity
8
1
62
256
6
ByLayer
370
-1
48
1
60
0
100
AcDbEllipse
10
18.642627
20
7.394646
30
0
11
-0.284491903543768
21
0.167225467013979
31
0
210
0
220
0
230
1
40
0.329409
41
-1.57461717098194
42
-0.75233594864688
0
ELLIPSE
5
207
100
AcDbEntity
8
1
62
256
6
ByLayer
370
-1
48
1
60
0
100
AcDbEllipse
10
7.511399
20
5.23519
30
0
11
0.273970542679927
21
-0.165348546239954
31
0
210
0
220
0
230
1
40
0.018074
41
-1.86463385082656
42
-0.679489225682698
0
ELLIPSE
5
208
100
AcDbEntity
8
1
62
256
6
ByLayer
370
-1
48
1
60
0
100
AcDbEllipse
10
10.701338
20
0.767073
30
0
11
-0.144249644291543
21
-0.0411344152962374
31
0
210
0
220
0
230
1
40
0.032944
41
1.56840483871198
42
1.7429377639113
0
ELLIPSE
5
209
100
AcDbEntity
8
1
62
256
6
ByLayer
370
-1
48
1
60
0
100
AcDbEllipse
10
7.568054
20
6.360715
30
0
11
0.118305764501746
21
0.225396863522227
31
0
210
0
220
0
230
1
40
0.956983
41
-1.61029446388621
42
-1.30535719890517
0
ELLIPSE
5
20A
100
AcDbEntity
8
1
62
256
6
ByLayer
370
-1
48
1
60
0
100
AcDbEllipse
10
7.511399
20
5.23519
30
0
11
-0.28379783835128
21
0.147847174295421
31
0
210
0
220
0
230
1
40
0.095227
41
1.42356277204934
42
2.45854301848202
0
ELLIPSE
5
20B
100
AcDbEntity
8
1
62
256
6
ByLayer
370
-1
48
1
60
0
100
AcDbEllipse
10
7.004106
20
5.969613
30
0
11
0.00274347164032304
21
0.329988595808035
31
0
210
0
220
0
230
1
40
0.26032
41
1.43770026579285
42
2.31872159180225
0
ELLIPSE
5
20C
100
AcDbEntity
8
1
62
256
6
ByLayer
370
-1
48
1
60
0
100
AcDbEllipse
10
19.020874
20
5.077897
30
0
11
-0.276792282385935
21
-0.160605130353052
31
0
210
0
220
0
230
1
40
0.074719
41
-1.56380547518523
42
-0.767263538813478
0
ELLIPSE
5
20D
100
AcDbEntity
8
1
62
256
6
ByLayer
370
-1
48
1
60
0
100
AcDbEllipse
10
19.272056
20
7.033581
30
0
11
-0.165766666325404
21
0.285344374984618
31
0
210
0
220
0
230
1
40
0.007779
41
1.58422822348669
42
1.93329407388551
0
ELLIPSE
5
20E
100
AcDbEntity
8
1
62
256
6
ByLayer
370
-1
48
1
60
0
100
AcDbEllipse
10
7.411787
20
5.966224
30
0
11
-0.286191286725685
21
0.164300174687359
31
0
210
0
220
0
230
1
40
0.011457
41
1.27663606045144
42
2.15765738646174
0
ELLIPSE
5
20F
100
AcDbEntity
8
1
62
256
6
ByLayer
370
-1
48
1
60
0
100
AcDbEllipse
10
13.396274
20
-4.256289
30
0
11
-0.289490855998166
21
-1.13451433085661
31
0
210
0
220
0
230
1
40
0.214503
41
-1.51916835126142
42
-1.35157267537512
0
ELLIPSE
5
210
100
AcDbEntity
8
1
62
256
6
ByLayer
370
-1
48
1
60
0
100
AcDbEllipse
10
15.042275
20
-3.0981
30
0
11
-0.16163248582614
21
-0.276179180108969
31
0
210
0
220
0
230
1
40
0.142623
41
-1.46932086986304
42
-1.29478794466361
0
ELLIPSE
5
211
100
AcDbEntity
8
1
62
256
6
ByLayer
370
-1
48
1
60
0
100
AcDbEllipse
10
13.800906
20
-3.224618
30
0
11
-0.138398498626077
21
0.213648907270896
31
0
210
0
220
0
230
1
40
0.952315
41
-1.62136333106755
42
-0.547449270962436
0
ELLIPSE
5
212
100
AcDbEntity
8
1
62
256
6
ByLayer
370
-1
48
1
60
0
100
AcDbEllipse
10
19.825554
20
7.019406
30
0
11
-0.203084567604917
21
-0.000553666692496418
31
0
210
0
220
0
230
1
40
0.984689
41
2.10105994407741
42
-3.14158196942756
0
ELLIPSE
5
213
100
AcDbEntity
8
1
62
256
6
ByLayer
370
-1
48
1
60
0
100
AcDbEllipse
10
13.854684
20
-3.189782
30
0
11
0.00178662304630283
21
-0.329995163567726
31
0
210
0
220
0
230
1
40
0.260526
41
-2.286569267832
42
-1.40554794182247
0
ELLIPSE
5
214
100
AcDbEntity
8
1
62
256
6
ByLayer
370
-1
48
1
60
0
100
AcDbEllipse
10
17.439642
20
8.391164
30
0
11
-2.45249889096824
21
1.40681163195308
31
0
210
0
220
0
230
1
40
0.300608
41
2.96970347922962
42
3.13729915432939
0
ELLIPSE
5
215
100
AcDbEntity
8
1
62
256
6
ByLayer
370
-1
48
1
60
0
100
AcDbEllipse
10
12.758661
20
-3.543269
30
0
11
-0.0535420619940145
21
0.119078904490607
31
0
210
0
220
0
230
1
40
0.958693
41
-0.931985923974158
42
0.0207337529442395
0
ELLIPSE
5
216
100
AcDbEntity
8
1
62
256
6
ByLayer
370
-1
48
1
60
0
100
AcDbEllipse
10
17.339439
20
2.044302
30
0
11
-0.0805518628637626
21
-0.126536150522993
31
0
210
0
220
0
230
1
40
0.138793
41
0.968744266590209
42
1.67753375611265
0
ELLIPSE
5
217
100
AcDbEntity
8
1
62
256
6
ByLayer
370
-1
48
1
60
0
100
AcDbEllipse
10
13.157825
20
-4.406646
30
0
11
-0.0823724030724879
21
0.183198314597814
31
0
210
0
220
0
230
1
40
0.958693
41
1.16906333591697
42
2.20960672958444
0
ELLIPSE
5
218
100
AcDbEntity
8
1
62
256
6
ByLayer
370
-1
48
1
60
0
100
AcDbEllipse
10
16.517473
20
1.177613
30
0
11
-0.124592254826947
21
-0.0835270617053963
31
0
210
0
220
0
230
1
40
0.084588
41
1.72439265866673
42
2.43318214818926
0
ELLIPSE
5
219
100
AcDbEntity
8
1
62
256
6
ByLayer
370
-1
48
1
60
0
100
AcDbEllipse
10
7.357836
20
5.994541
30
0
11
0.118305764501746
21
0.225396863522227
31
0
210
0
220
0
230
1
40
0.956983
41
-2.68420852399138
42
-1.61029446388618
0
ELLIPSE
5
21A
100
AcDbEntity
8
1
62
256
6
ByLayer
370
-1
48
1
60
0
100
AcDbEllipse
10
8.837644
20
7.43268
30
0
11
-0.279747322408061
21
0.155773091087541
31
0
210
0
220
0
230
1
40
0.099584
41
1.27347863749329
42
2.07002057389445
0
ELLIPSE
5
21B
100
AcDbEntity
8
1
62
256
6
ByLayer
370
-1
48
1
60
0
100
AcDbEllipse
10
13.393241
20
-3.226825
30
0
11
-0.138398498626077
21
0.213648907270896
31
0
210
0
220
0
230
1
40
0.952315
41
-0.547449270962367
42
-0.242512005981365
0
ELLIPSE
5
21C
100
AcDbEntity
8
1
62
256
6
ByLayer
370
-1
48
1
60
0
100
AcDbEllipse
10
7.280786
20
5.860328
30
0
11
-0.480039673591179
21
-0.836978963707095
31
0
210
0
220
0
230
1
40
0.327324
41
2.3134703048411
42
3.13575152717798
0
ELLIPSE
5
21D
100
AcDbEntity
8
1
62
256
6
ByLayer
370
-1
48
1
60
0
100
AcDbEllipse
10
15.739294
20
-1.956652
30
0
11
-0.0885856203278277
21
-0.152801635015811
31
0
210
0
220
0
230
1
40
0.121299
41
0.621456720731556
42
1.65643696724062
0
ELLIPSE
5
21E
100
AcDbEntity
8
1
62
256
6
ByLayer
370
-1
48
1
60
0
100
AcDbEllipse
10
12.47465
20
-4.46866
30
0
11
0.0180802375823472
21
-0.199181085971951
31
0
210
0
220
0
230
1
40
0.984685
41
-1.65328798638698
42
-0.612744592716637
0
ELLIPSE
5
21F
100
AcDbEntity
8
1
62
256
6
ByLayer
370
-1
48
1
60
0
100
AcDbEllipse
10
15.263262
20
-2.707604
30
0
11
-0.188982656707167
21
-0.325976821383583
31
0
210
0
220
0
230
1
40
0.121299
41
-2.52013593284692
42
-1.4851556863864
0
ELLIPSE
5
220
100
AcDbEntity
8
1
62
256
6
ByLayer
370
-1
48
1
60
0
100
AcDbEllipse
10
7.511399
20
5.23519
30
0
11
0.162018972073843
21
-0.275952627615928
31
0
210
0
220
0
230
1
40
0.158144
41
-1.81971542722668
42
-1.64518250202729
0
ELLIPSE
5
221
100
AcDbEntity
8
1
62
256
6
ByLayer
370
-1
48
1
60
0
100
AcDbEllipse
10
13.47263
20
-3.90757
30
0
11
0.329788829487308
21
0.0118037259113881
31
0
210
0
220
0
230
1
40
0.162283
41
-2.18480282662792
42
-1.83573697622904
0
ELLIPSE
5
222
100
AcDbEntity
8
1
62
256
6
ByLayer
370
-1
48
1
60
0
100
AcDbEllipse
10
6.729436
20
7.196653
30
0
11
-0.0605925146374572
21
-0.19182158022253
31
0
210
0
220
0
230
1
40
0.960533
41
2.91784637267897
42
-2.32479554082819
0
ELLIPSE
5
223
100
AcDbEntity
8
1
62
256
6
ByLayer
370
-1
48
1
60
0
100
AcDbEllipse
10
17.057314
20
0.372365
30
0
11
-0.083718767565818
21
-0.143968152900865
31
0
210
0
220
0
230
1
40
0.128583
41
1.66180577868457
42
2.37059526813931
0
ELLIPSE
5
224
100
AcDbEntity
8
1
62
256
6
ByLayer
370
-1
48
1
60
0
100
AcDbEllipse
10
12.294909
20
7.452014
30
0
11
0.149913678706951
21
-0.0050881171909674
31
0
210
0
220
0
230
1
40
0.021972
41
0.688140091615711
42
1.3969295811392
0
ELLIPSE
5
225
100
AcDbEntity
8
1
62
256
6
ByLayer
370
-1
48
1
60
0
100
AcDbEllipse
10
13.326743
20
-4.202278
30
0
11
-0.29574772036001
21
0.14640111304856
31
0
210
0
220
0
230
1
40
0.435879
41
1.11094647285999
42
1.71236586917088
0
ELLIPSE
5
226
100
AcDbEntity
8
1
62
256
6
ByLayer
370
-1
48
1
60
0
100
AcDbEllipse
10
7.411787
20
5.966224
30
0
11
0.00274347164032304
21
0.329988595808035
31
0
210
0
220
0
230
1
40
0.26032
41
1.43770026579285
42
2.31872159180225
0
ELLIPSE
5
227
100
AcDbEntity
8
1
62
256
6
ByLayer
370
-1
48
1
60
0
100
AcDbEllipse
10
11.763813
20
-2.506261
30
0
11
-0.104613575043842
21
-0.108175544551424
31
0
210
0
220
0
230
1
40
0.746721
41
2.89770941769849
42
-3.04066759860565
0
ELLIPSE
5
228
100
AcDbEntity
8
1
62
256
6
ByLayer
370
-1
48
1
60
0
100
AcDbEllipse
10
6.708263
20
7.184222
30
0
11
-0.0605925146308356
21
-0.191821580226347
31
0
210
0
220
0
230
1
40
0.960533
41
-2.32479554086376
42
-1.28425214719828
0
ELLIPSE
5
229
100
AcDbEntity
8
1
62
256
6
ByLayer
370
-1
48
1
60
0
100
AcDbEllipse
10
13.47263
20
-3.90757
30
0
11
0.168459357975663
21
-0.283763008002149
31
0
210
0
220
0
230
1
40
0.304906
41
-1.55887814206455
42
-1.20981229166567
0
ELLIPSE
5
22A
100
AcDbEntity
8
1
62
256
6
ByLayer
370
-1
48
1
60
0
100
AcDbEllipse
10
18.428317
20
7.028034
30
0
11
-0.254558441227157
21
3.11733884545897E-17
31
0
210
0
220
0
230
1
40
0.99988
41
-0.534219985807005
42
0.539694073108255
0
ELLIPSE
5
22B
100
AcDbEntity
8
1
62
256
6
ByLayer
370
-1
48
1
60
0
100
AcDbEllipse
10
8.97091
20
5.835434
30
0
11
-2.32235940215297
21
1.38920876450569
31
0
210
0
220
0
230
1
40
0.314059
41
0.00587611184378522
42
0.173471786622628
0
ELLIPSE
5
22C
100
AcDbEntity
8
1
62
256
6
ByLayer
370
-1
48
1
60
0
100
AcDbEllipse
10
6.025089
20
7.122208
30
0
11
0.0180802375823472
21
-0.199181085971951
31
0
210
0
220
0
230
1
40
0.984685
41
-2.70713969510984
42
-1.66659630143947
0
ELLIPSE
5
22D
100
AcDbEntity
8
1
62
256
6
ByLayer
370
-1
48
1
60
0
100
AcDbEllipse
10
13.47263
20
-3.90757
30
0
11
0.29574772036001
21
-0.14640111304856
31
0
210
0
220
0
230
1
40
0.435879
41
-2.03064618072981
42
-1.4292267844189
0
ELLIPSE
5
22E
100
AcDbEntity
8
1
62
256
6
ByLayer
370
-1
48
1
60
0
100
AcDbEllipse
10
10.410912
20
7.838282
30
0
11
0.0180802375823472
21
-0.199181085971951
31
0
210
0
220
0
230
1
40
0.984685
41
3.05244683647154
42
-2.70713969510981
0
ELLIPSE
5
22F
100
AcDbEntity
8
1
62
256
6
ByLayer
370
-1
48
1
60
0
100
AcDbEllipse
10
19.272056
20
7.033581
30
0
11
-0.00183525231900525
21
0.329994896701336
31
0
210
0
220
0
230
1
40
0.179002
41
-1.88728262706725
42
-1.28586323075626
0
ELLIPSE
5
230
100
AcDbEntity
8
1
62
256
6
ByLayer
370
-1
48
1
60
0
100
AcDbEllipse
10
17.827616
20
1.733532
30
0
11
-0.0758145711651913
21
-0.129549340949912
31
0
210
0
220
0
230
1
40
0.142526
41
0.963409593763561
42
1.6721990830921
0
ELLIPSE
5
231
100
AcDbEntity
8
1
62
256
6
ByLayer
370
-1
48
1
60
0
100
AcDbEllipse
10
13.862781
20
8.035893
30
0
11
-0.166222918676595
21
-0.000370480982608687
31
0
210
0
220
0
230
1
40
0.014047
41
-1.72815699175217
42
-1.01936750165328
0
ELLIPSE
5
232
100
AcDbEntity
8
1
62
256
6
ByLayer
370
-1
48
1
60
0
100
AcDbEllipse
10
9.708644
20
0.052528
30
0
11
-0.0759965875910333
21
0.12944322098145
31
0
210
0
220
0
230
1
40
0.158036
41
-1.64512853832924
42
-0.936339048800945
0
ELLIPSE
5
233
100
AcDbEntity
8
1
62
256
6
ByLayer
370
-1
48
1
60
0
100
AcDbEllipse
10
19.262744
20
6.25148
30
0
11
-0.132004968938625
21
-0.000359883241814203
31
0
210
0
220
0
230
1
40
0.984689
41
1.06849679564644E-05
42
0.952730361913351
0
ELLIPSE
5
234
100
AcDbEntity
8
1
62
256
6
ByLayer
370
-1
48
1
60
0
100
AcDbEllipse
10
19.825486
20
7.044268
30
0
11
-0.203084567602523
21
-0.000553666597309722
31
0
210
0
220
0
230
1
40
0.984689
41
-3.14158196896782
42
-2.10103857528576
0
ELLIPSE
5
235
100
AcDbEntity
8
1
62
256
6
ByLayer
370
-1
48
1
60
0
100
AcDbEllipse
10
14.066902
20
-3.554773
30
0
11
-0.285282473313292
21
-0.165873175710392
31
0
210
0
220
0
230
1
40
0.015422
41
1.26110651584082
42
2.14212784185067
0
ELLIPSE
5
236
100
AcDbEntity
8
1
62
256
6
ByLayer
370
-1
48
1
60
0
100
AcDbEllipse
10
6.947463
20
7.060509
30
0
11
-0.753175218175891
21
0.876144386703588
31
0
210
0
220
0
230
1
40
0.022981
41
1.30829856392628
42
1.47589424586298
0
ELLIPSE
5
237
100
AcDbEntity
8
1
62
256
6
ByLayer
370
-1
48
1
60
0
100
AcDbEllipse
10
17.752332
20
7.309407
30
0
11
-0.319998801299914
21
-0.000875880481828063
31
0
210
0
220
0
230
1
40
0.015521
41
1.39624215860629
42
1.57077508380566
0
ELLIPSE
5
238
100
AcDbEntity
8
1
62
256
6
ByLayer
370
-1
48
1
60
0
100
AcDbEllipse
10
18.642627
20
7.394646
30
0
11
0.284010899060889
21
-0.168041093827152
31
0
210
0
220
0
230
1
40
0.013348
41
-2.44389568253462
42
-1.56287435652418
0
ELLIPSE
5
239
100
AcDbEntity
8
1
62
256
6
ByLayer
370
-1
48
1
60
0
100
AcDbEllipse
10
19.272056
20
7.033581
30
0
11
0.16420228264977
21
0.286247463521696
31
0
210
0
220
0
230
1
40
0.007742
41
-1.58424946263745
42
-1.23518361223888
0
ELLIPSE
5
23A
100
AcDbEntity
8
1
62
256
6
ByLayer
370
-1
48
1
60
0
100
AcDbEllipse
10
9.618639
20
7.617327
30
0
11
-0.242365818372478
21
-0.141207362975462
31
0
210
0
220
0
230
1
40
0.0396
41
0.620384819665465
42
1.65536506609217
0
ELLIPSE
5
23B
100
AcDbEntity
8
1
62
256
6
ByLayer
370
-1
48
1
60
0
100
AcDbEllipse
10
13.179066
20
-4.419077
30
0
11
-0.082372403074838
21
0.183198314595972
31
0
210
0
220
0
230
1
40
0.958693
41
2.20960672957086
42
-3.03303518393781
0
ELLIPSE
5
23C
100
AcDbEntity
8
1
62
256
6
ByLayer
370
-1
48
1
60
0
100
AcDbEllipse
10
8.930891
20
1.413696
30
0
11
-0.0840311248101604
21
0.1438729574542
31
0
210
0
220
0
230
1
40
0.142448
41
-2.34621774090638
42
-1.6374282514454
0
ELLIPSE
5
23D
100
AcDbEntity
8
1
62
256
6
ByLayer
370
-1
48
1
60
0
100
AcDbEllipse
10
6.644584
20
4.469587
30
0
11
-0.0938360331185765
21
-2.80143478367213
31
0
210
0
220
0
230
1
40
0.29273
41
2.98112325985356
42
-3.13446637235424
0
ELLIPSE
5
23E
100
AcDbEntity
8
1
62
256
6
ByLayer
370
-1
48
1
60
0
100
AcDbEllipse
10
10.216638
20
0.325638
30
0
11
-0.0710291567746879
21
0.132116838018009
31
0
210
0
220
0
230
1
40
0.160766
41
-1.63918504400253
42
-0.930395554479892
0
ELLIPSE
5
23F
100
AcDbEntity
8
1
62
256
6
ByLayer
370
-1
48
1
60
0
100
AcDbEllipse
10
13.447018
20
-3.191989
30
0
11
-0.00178662304630954
21
0.329995163567726
31
0
210
0
220
0
230
1
40
0.260526
41
0.855023385757953
42
1.73604471176731
0
ELLIPSE
5
240
100
AcDbEntity
8
1
62
256
6
ByLayer
370
-1
48
1
60
0
100
AcDbEllipse
10
11.945182
20
-2.692915
30
0
11
-0.00204550558941956
21
0.320084952863711
31
0
210
0
220
0
230
1
40
0.17433
41
0.941297790840379
42
1.73783972718981
0
ELLIPSE
5
241
100
AcDbEntity
8
1
62
256
6
ByLayer
370
-1
48
1
60
0
100
AcDbEllipse
10
6.87828
20
6.987341
30
0
11
0.295887399852021
21
0.146118604595069
31
0
210
0
220
0
230
1
40
0.410668
41
1.44441299119179
42
2.04583238750266
0
ELLIPSE
5
242
100
AcDbEntity
8
1
62
256
6
ByLayer
370
-1
48
1
60
0
100
AcDbEllipse
10
7.004106
20
5.969613
30
0
11
-0.32985002043205
21
0.00994806619280007
31
0
210
0
220
0
230
1
40
0.131594
41
-1.30688997975214
42
-0.95782412935327
0
ELLIPSE
5
243
100
AcDbEntity
8
1
62
256
6
ByLayer
370
-1
48
1
60
0
100
AcDbEllipse
10
7.622004
20
6.332398
30
0
11
-0.267449075294889
21
0.19331578343195
31
0
210
0
220
0
230
1
40
0.316515
41
-2.08704564696274
42
-1.26476442462775
0
ELLIPSE
5
244
100
AcDbEntity
8
1
62
256
6
ByLayer
370
-1
48
1
60
0
100
AcDbEllipse
10
7.591101
20
7.067669
30
0
11
-0.0393851345133718
21
-0.124684027145283
31
0
210
0
220
0
230
1
40
0.960533
41
-0.223746280918855
42
0.816797112752308
0
ELLIPSE
5
245
100
AcDbEntity
8
1
62
256
6
ByLayer
370
-1
48
1
60
0
100
AcDbEllipse
10
19.809362
20
7.045159
30
0
11
-1.20713079962268
21
-0.289513308652837
31
0
210
0
220
0
230
1
40
0.065395
41
1.45461119797859
42
1.62220687024476
0
ELLIPSE
5
246
100
AcDbEntity
8
1
62
256
6
ByLayer
370
-1
48
1
60
0
100
AcDbEllipse
10
7.622004
20
6.332398
30
0
11
-0.169262396137941
21
-0.283284735299385
31
0
210
0
220
0
230
1
40
0.289738
41
-1.90384570816422
42
-1.55477985776529
0
POINT
5
41
100
AcDbEntity
8
80
62
256
6
ByLayer
370
-1
48
1
60
0
100
AcDbPoint
10
0
20
0
30
0
39
0
210
0
220
0
230
1
50
360
0
POINT
5
43
100
AcDbEntity
8
81
62
256
6
ByLayer
370
-1
48
1
60
0
100
AcDbPoint
10
21.351763
20
8.0375
30
0
39
0
210
0
220
0
230
1
50
360
0
POINT
5
45
100
AcDbEntity
8
2
62
256
6
ByLayer
370
-1
48
1
60
0
100
AcDbPoint
10
21.351763
20
8.0375
30
0
39
0
210
0
220
0
230
1
50
360
0
POINT
5
47
100
AcDbEntity
8
2
62
256
6
ByLayer
370
-1
48
1
60
0
100
AcDbPoint
10
21.395563
20
8.036017
30
0
39
0
210
0
220
0
230
1
50
360
0
POINT
5
48
100
AcDbEntity
8
2
62
256
6
ByLayer
370
-1
48
1
60
0
100
AcDbPoint
10
20.028596
20
7.032392
30
0
39
0
210
0
220
0
230
1
50
360
0
SPLINE
5
247
100
AcDbEntity
8
1
62
256
6
ByLayer
370
-1
48
1
60
0
100
AcDbSpline
70
4
71
1
72
4
73
2
40
0
40
0
40
1
40
1
41
1
10
16.4504879666242
20
-1.40142082895676
30
0
41
1
10
16.9588305232128
20
-1.23596797215748
30
0
0
SPLINE
5
248
100
AcDbEntity
8
1
62
256
6
ByLayer
370
-1
48
1
60
0
100
AcDbSpline
70
4
71
3
72
11
73
7
40
0
40
0
40
0
40
0
40
0.272322054111894
40
0.573542789568779
40
0.858642139971096
40
1
40
1
40
1
40
1
41
1
10
3.5423029203123
20
7.47707603292204
30
0
41
1
10
3.62839402043207
20
7.55861285688218
30
0
41
1
10
3.8146964490459
20
7.72404641660026
30
0
41
1
10
4.1217086744856
20
7.9374589116031
30
0
41
1
10
4.39735058093959
20
8.09409289308098
30
0
41
1
10
4.56757142878809
20
8.16701711921061
30
0
41
1
10
4.62485621354327
20
8.1894920051208
30
0
0
SPLINE
5
249
100
AcDbEntity
8
1
62
256
6
ByLayer
370
-1
48
1
60
0
100
AcDbSpline
70
4
71
3
72
10
73
6
40
0
40
0
40
0
40
0
40
0.0186599778932469
40
0.519020063560176
40
1
40
1
40
1
40
1
41
1
10
8.17671107134535
20
8.0798818551705
30
0
41
1
10
8.18189048230616
20
8.07768735441556
30
0
41
1
10
8.32564961265442
20
8.01609008505702
30
0
41
1
10
8.57813163134438
20
7.84583197218239
30
0
41
1
10
8.81143531708796
20
7.66496579824408
30
0
41
1
10
8.92081932902695
20
7.56968154471372
30
0
0
SPLINE
5
24A
100
AcDbEntity
8
1
62
256
6
ByLayer
370
-1
48
1
60
0
100
AcDbSpline
70
4
71
3
72
8
73
4
40
0
40
0
40
0
40
0
40
1
40
1
40
1
40
1
41
1
10
13.1659356381881
20
-5.42050655910668
30
0
41
1
10
13.3208063741074
20
-5.34365786485043
30
0
41
1
10
13.4716574818532
20
-5.26778678047717
30
0
41
1
10
13.6190355614538
20
-5.19301345672685
30
0
0
SPLINE
5
24B
100
AcDbEntity
8
1
62
256
6
ByLayer
370
-1
48
1
60
0
100
AcDbSpline
70
4
71
2
72
6
73
3
40
0
40
0
40
0
40
1
40
1
40
1
41
0.97349728915729
10
16.4509799256672
20
-1.40124614951448
30
0
41
1.01271682324434
10
16.372488969252
20
-1.42899369396754
30
0
41
1.08358774580744
10
16.2892978034499
20
-1.42899369396754
30
0
0
SPLINE
5
24C
100
AcDbEntity
8
1
62
256
6
ByLayer
370
-1
48
1
60
0
100
AcDbSpline
70
4
71
3
72
14
73
10
40
0
40
0
40
0
40
0
40
0.447435525515968
40
0.447435525515968
40
0.682968574430844
40
0.682968574430844
40
0.918614987174067
40
0.918614987174067
40
1
40
1
40
1
40
1
41
1
10
4.95851383761547
20
8.19595673863518
30
0
41
1
10
4.9485061647795
20
8.19449673814583
30
0
41
1
10
4.94031307356804
20
8.19239352091131
30
0
41
1
10
4.93099882606245
20
8.18809845123857
30
0
41
1
10
4.92836098912468
20
8.18641207243306
30
0
41
1
10
4.92440488764601
20
8.18256770859321
30
0
41
1
10
4.92308181871292
20
8.1804059212661
30
0
41
1
10
4.92235170004838
20
8.17710217791446
30
0
41
1
10
4.92225698483674
20
8.1762184496385
30
0
41
1
10
4.92226277765508
20
8.17529530907865
30
0
0
SPLINE
5
24D
100
AcDbEntity
8
1
62
256
6
ByLayer
370
-1
48
1
60
0
100
AcDbSpline
70
4
71
3
72
20
73
16
40
0
40
0
40
0
40
0
40
0.0608157493569688
40
0.0608157493569688
40
0.214920488750427
40
0.214920488750427
40
0.368561615652574
40
0.368561615652574
40
0.521997789163805
40
0.521997789163805
40
0.675335255653066
40
0.675335255653066
40
0.983339895799564
40
0.983339895799564
40
1
40
1
40
1
40
1
41
1
10
7.48253347747414
20
8.17313079885864
30
0
41
1
10
7.48255759776987
20
8.17505045713989
30
0
41
1
10
7.48232120249736
20
8.17686247864256
30
0
41
1
10
7.48068611767567
20
8.18293009209006
30
0
41
1
10
7.47806017496421
20
8.18669981852284
30
0
41
1
10
7.47078748219528
20
8.19332492855506
30
0
41
1
10
7.46612147962438
20
8.19620228047091
30
0
41
1
10
7.45527182842213
20
8.20128706306835
30
0
41
1
10
7.44906848543505
20
8.20350313315038
30
0
41
1
10
7.43544496887651
20
8.2074109429615
30
0
41
1
10
7.42800806338445
20
8.20910686330683
30
0
41
1
10
7.40411824997744
20
8.2135436996914
30
0
41
1
10
7.38604705193316
20
8.21565041938234
30
0
41
1
10
7.36528151006803
20
8.21708123277801
30
0
41
1
10
7.36420824548668
20
8.21715259565278
30
0
41
1
10
7.36313000521002
20
8.21722171409124
30
0
0
SPLINE
5
24E
100
AcDbEntity
8
1
62
256
6
ByLayer
370
-1
48
1
60
0
100
AcDbSpline
70
4
71
3
72
10
73
6
40
0
40
0
40
0
40
0
40
0.870856746087429
40
0.870856746087429
40
1
40
1
40
1
40
1
41
1
10
5.75204900169919
20
8.14222105454337
30
0
41
1
10
5.75658742707091
20
8.13443869491798
30
0
41
1
10
5.75887614106773
20
8.12661826748473
30
0
41
1
10
5.75946295027737
20
8.11812095513386
30
0
41
1
10
5.75950094410163
20
8.11703439470827
30
0
41
1
10
5.75950293558853
20
8.11595432447828
30
0
0
SPLINE
5
24F
100
AcDbEntity
8
1
62
256
6
ByLayer
370
-1
48
1
60
0
100
AcDbSpline
70
4
71
3
72
10
73
6
40
0
40
0
40
0
40
0
40
0.680481829738582
40
0.680481829738582
40
1
40
1
40
1
40
1
41
1
10
7.00381003144906
20
8.13569180365349
30
0
41
1
10
6.99604115683982
20
8.12801543745513
30
0
41
1
10
6.98626687558894
20
8.12043184826331
30
0
41
1
10
6.97053127190483
20
8.11003756583207
30
0
41
1
10
6.96527807163017
20
8.10680754298454
30
0
41
1
10
6.95983673997227
20
8.10366723694392
30
0
0
SPLINE
5
250
100
AcDbEntity
8
1
62
256
6
ByLayer
370
-1
48
1
60
0
100
AcDbSpline
70
4
71
3
72
12
73
8
40
0
40
0
40
0
40
0
40
0.190335113103996
40
0.190335113103996
40
0.838836721110536
40
0.838836721110536
40
1
40
1
40
1
40
1
41
1
10
6.4240320906687
20
8.09542790324744
30
0
41
1
10
6.4204804440154
20
8.09833290367072
30
0
41
1
10
6.41714472441592
20
8.10133048228241
30
0
41
1
10
6.40369054725844
20
8.11480602200544
30
0
41
1
10
6.39597706025043
20
8.1264995690326
30
0
41
1
10
6.39300783413211
20
8.14167350605587
30
0
41
1
10
6.39274733132262
20
8.14477886372555
30
0
41
1
10
6.3928709594787
20
8.14788809753657
30
0
0
SPLINE
5
251
100
AcDbEntity
8
1
62
256
6
ByLayer
370
-1
48
1
60
0
100
AcDbSpline
70
4
71
1
72
5
73
3
40
0
40
0
40
0.732656031434791
40
1
40
1
41
1.08358774580744
10
10.9917226460746
20
-4.51201535242956
30
0
41
1.08358774580744
10
11.3652880142901
20
-4.40429815836166
30
0
41
1.08358774580744
10
11.5016008865962
20
-4.36499248024091
30
0
0
SPLINE
5
252
100
AcDbEntity
8
1
62
256
6
ByLayer
370
-1
48
1
60
0
100
AcDbSpline
70
4
71
3
72
12
73
8
40
0
40
0
40
0
40
0
40
0.40464407390137
40
0.40464407390137
40
0.809285947755723
40
0.809285947755723
40
1
40
1
40
1
40
1
41
1
10
16.7942772047728
20
-1.26463546054646
30
0
41
1
10
16.8493809622348
20
-1.26463546054646
30
0
41
1
10
16.9052235989994
20
-1.25497512641013
30
0
41
1
10
17.0091374571119
20
-1.21793503283527
30
0
41
1
10
17.0586416144032
20
-1.19004471262468
30
0
41
1
10
17.1220653194825
20
-1.13843847329952
30
0
41
1
10
17.1412764124504
20
-1.1200530823107
30
0
41
1
10
17.1588614819892
20
-1.1002897861006
30
0
0
SPLINE
5
253
100
AcDbEntity
8
1
62
256
6
ByLayer
370
-1
48
1
60
0
100
AcDbSpline
70
4
71
3
72
8
73
4
40
0
40
0
40
0
40
0
40
1
40
1
40
1
40
1
41
1
10
17.2683248841296
20
-0.770198104198784
30
0
41
1
10
17.26829674399
20
-0.77052522389954
30
0
41
1
10
17.2682684299938
20
-0.770852699454281
30
0
41
1
10
17.2682399403871
20
-0.771180525465695
30
0
0
SPLINE
5
254
100
AcDbEntity
8
1
62
256
6
ByLayer
370
-1
48
1
60
0
100
AcDbSpline
70
4
71
3
72
10
73
6
40
0
40
0
40
0
40
0
40
0.638091248905415
40
0.638091248905415
40
1
40
1
40
1
40
1
41
1
10
17.2153062502828
20
-0.996762111854309
30
0
41
1
10
17.2034063534286
20
-1.02481379669754
30
0
41
1
10
17.1902857907516
20
-1.04960208494148
30
0
41
1
10
17.1712946922368
20
-1.08137842221976
30
0
41
1
10
17.1646388544277
20
-1.09162715438069
30
0
41
1
10
17.1588614819872
20
-1.10028978610248
30
0
0
SPLINE
5
255
100
AcDbEntity
8
1
62
256
6
ByLayer
370
-1
48
1
60
0
100
AcDbSpline
70
4
71
3
72
10
73
6
40
0
40
0
40
0
40
0
40
0.722254617258795
40
0.722254617258795
40
1
40
1
40
1
40
1
41
1
10
17.2153062502828
20
-0.996762111854309
30
0
41
1
10
17.2401691189831
20
-0.94685671839116
30
0
41
1
10
17.2568787184586
20
-0.89188532716804
30
0
41
1
10
17.2668445475644
20
-0.814802782217583
30
0
41
1
10
17.2682464175811
20
-0.792969830495366
30
0
41
1
10
17.2682399403872
20
-0.771180525466775
30
0
0
SPLINE
5
256
100
AcDbEntity
8
1
62
256
6
ByLayer
370
-1
48
1
60
0
100
AcDbSpline
70
4
71
3
72
30
73
26
40
0
40
0
40
0
40
0
40
0.0511772287528987
40
0.0511772287528987
40
0.135075241067809
40
0.135075241067809
40
0.271834780652478
40
0.271834780652478
40
0.469061266910939
40
0.469061266910939
40
0.500636061959752
40
0.500636061959752
40
0.599800502489153
40
0.599800502489153
40
0.697557955314473
40
0.697557955314473
40
0.781333785463065
40
0.781333785463065
40
0.847844869822066
40
0.847844869822066
40
0.899113486931131
40
0.899113486931131
40
0.939077913069151
40
0.939077913069151
40
1
40
1
40
1
40
1
41
1
10
14.384602336214
20
2.22162798183203
30
0
41
1
10
14.3730382240797
20
2.23067825446995
30
0
41
1
10
14.3595897192968
20
2.23777455293722
30
0
41
1
10
14.3224812362796
20
2.25170112220709
30
0
41
1
10
14.2971487024655
20
2.25591362733906
30
0
41
1
10
14.23070908159
20
2.2593385729397
30
0
41
1
10
14.1881849681285
20
2.25403527850435
30
0
41
1
10
14.088207446613
20
2.23093023682472
30
0
41
1
10
14.0302452082109
20
2.20810797240321
30
0
41
1
10
13.9686059652708
20
2.17511148283995
30
0
41
1
10
13.9601117342255
20
2.17034650153056
30
0
41
1
10
13.9255163071993
20
2.15003214782462
30
0
41
1
10
13.9003728864788
20
2.13308482654708
30
0
41
1
10
13.8536190536896
20
2.09685262564312
30
0
41
1
10
13.8318034419047
20
2.07748601375022
30
0
41
1
10
13.795056755013
20
2.039297913566
30
0
41
1
10
13.7794732151396
20
2.02067941483267
30
0
41
1
10
13.7551137070467
20
1.98571007985132
30
0
41
1
10
13.745530843944
20
1.96958580601986
30
0
41
1
10
13.7316413491537
20
1.94009764873167
30
0
41
1
10
13.7265965596463
20
1.92687047016824
30
0
41
1
10
13.720126998103
20
1.9028951909178
30
0
41
1
10
13.7181370171924
20
1.89218100306795
30
0
41
1
10
13.7159572332788
20
1.86516287503309
30
0
41
1
10
13.7172455175897
20
1.84842968354357
30
0
41
1
10
13.7221747539653
20
1.83265205734958
30
0
0
SPLINE
5
257
100
AcDbEntity
8
1
62
256
6
ByLayer
370
-1
48
1
60
0
100
AcDbSpline
70
4
71
3
72
30
73
26
40
0
40
0
40
0
40
0
40
0.0515194889309744
40
0.0515194889309744
40
0.0928771460763126
40
0.0928771460763126
40
0.148185150442176
40
0.148185150442176
40
0.203338923043244
40
0.203338923043244
40
0.287955708682636
40
0.287955708682636
40
0.372427214532556
40
0.372427214532556
40
0.435367147735121
40
0.435367147735121
40
0.498971020782824
40
0.498971020782824
40
0.701334348038879
40
0.701334348038879
40
0.838887327921216
40
0.838887327921216
40
0.925006664596971
40
0.925006664596971
40
1
40
1
40
1
40
1
41
1
10
12.9553774689541
20
1.83265205734958
30
0
41
1
10
12.9567142292246
20
1.84603721624504
30
0
41
1
10
12.9554379299503
20
1.86010923947126
30
0
41
1
10
12.9498158369538
20
1.88509159242975
30
0
41
1
10
12.9461001864148
20
1.89624428344249
30
0
41
1
10
12.935434865282
20
1.92178936818129
30
0
41
1
10
12.927771633095
20
1.93614508195773
30
0
41
1
10
12.9104595396789
20
1.96391683988614
30
0
41
1
10
12.9007550191906
20
1.97742894144912
30
0
41
1
10
12.8743796313139
20
2.01052456065827
30
0
41
1
10
12.8566379697599
20
2.02966518199199
30
0
41
1
10
12.8190732870449
20
2.06589290355498
30
0
41
1
10
12.7991220406896
20
2.08310021327353
30
0
41
1
10
12.7630379316978
20
2.11137566379492
30
0
41
1
10
12.7471673311302
20
2.12293344792735
30
0
41
1
10
12.7146502500556
20
2.14500395007522
30
0
41
1
10
12.6979539854315
20
2.15553350245219
30
0
41
1
10
12.6278744769035
20
2.19654027397163
30
0
41
1
10
12.5716039843238
20
2.22204647734773
30
0
41
1
10
12.4783788383172
20
2.24973199435524
30
0
41
1
10
12.4401021058519
20
2.25702870764607
30
0
41
1
10
12.3808139485325
20
2.2580139704252
30
0
41
1
10
12.3582646382559
20
2.2557264438089
30
0
41
1
10
12.3200294111701
20
2.24374931382801
30
0
41
1
10
12.3033218935216
20
2.2347653479132
30
0
41
1
10
12.2906277067343
20
2.22162798183197
30
0
0
SPLINE
5
258
100
AcDbEntity
8
1
62
256
6
ByLayer
370
-1
48
1
60
0
100
AcDbSpline
70
4
71
3
72
24
73
20
40
0
40
0
40
0
40
0
40
0.0974021566269762
40
0.0974021566269762
40
0.180354031075299
40
0.180354031075299
40
0.307542616517145
40
0.307542616517145
40
0.412109117009504
40
0.412109117009504
40
0.516348967690734
40
0.516348967690734
40
0.620446917153289
40
0.620446917153289
40
0.724476829459858
40
0.724476829459858
40
0.933310901386031
40
0.933310901386031
40
1
40
1
40
1
40
1
41
1
10
13.7283590492017
20
1.81285735665534
30
0
41
1
10
13.7313772583004
20
1.79914445375934
30
0
41
1
10
13.7312561271958
20
1.78468136332342
30
0
41
1
10
13.725219536954
20
1.75943779023478
30
0
41
1
10
13.7201490986698
20
1.74813068024224
30
0
41
1
10
13.7034683692419
20
1.7219764469809
30
0
41
1
10
13.6896540317337
20
1.70793844910824
30
0
41
1
10
13.6616404562901
20
1.68594814519904
30
0
41
1
10
13.6477204143724
20
1.67716829383716
30
0
41
1
10
13.6186968722147
20
1.66167842871712
30
0
41
1
10
13.6035023995423
20
1.65491464206417
30
0
41
1
10
13.5723945233043
20
1.6430554740023
30
0
41
1
10
13.5564259236392
20
1.63793910233616
30
0
41
1
10
13.524033014443
20
1.62912487156194
30
0
41
1
10
13.5075718953579
20
1.62541747989766
30
0
41
1
10
13.4576863148264
20
1.61617624066872
30
0
41
1
10
13.4236824410974
20
1.61250103747892
30
0
41
1
10
13.378645532167
20
1.6106052646862
30
0
41
1
10
13.3677084706452
20
1.61037636139568
30
0
41
1
10
13.3567613421929
20
1.61037636139568
30
0
0
SPLINE
5
259
100
AcDbEntity
8
1
62
256
6
ByLayer
370
-1
48
1
60
0
100
AcDbSpline
70
4
71
3
72
8
73
4
40
0
40
0
40
0
40
0
40
1
40
1
40
1
40
1
41
1
10
12.9534006402228
20
1.81285735665534
30
0
41
1
10
12.9540595645675
20
1.81945555261419
30
0
41
1
10
12.954718507226
20
1.82605378566913
30
0
41
1
10
12.9553774689541
20
1.83265205734961
30
0
0
SPLINE
5
25A
100
AcDbEntity
8
1
62
256
6
ByLayer
370
-1
48
1
60
0
100
AcDbSpline
70
4
71
3
72
22
73
18
40
0
40
0
40
0
40
0
40
0.142057608739139
40
0.142057608739139
40
0.351004812992756
40
0.351004812992756
40
0.487763342941883
40
0.487763342941883
40
0.591529353509388
40
0.591529353509388
40
0.758694969227074
40
0.758694969227074
40
0.858776631808875
40
0.858776631808875
40
0.960359919517373
40
0.960359919517373
40
1
40
1
40
1
40
1
41
1
10
13.3567613421929
20
1.61037636139568
30
0
41
1
10
13.3334683453429
20
1.61037636139568
30
0
41
1
10
13.310092175683
20
1.61140950460072
30
0
41
1
10
13.2525204751374
20
1.61658957681033
30
0
41
1
10
13.2182282360164
20
1.62196932500589
30
0
41
1
10
13.1624849908137
20
1.63531125268733
30
0
41
1
10
13.1405917535202
20
1.64177042489976
30
0
41
1
10
13.1029999317134
20
1.65559293425483
30
0
41
1
10
13.0870199584148
20
1.66238708113164
30
0
41
1
10
13.0468767843163
20
1.68256288926804
30
0
41
1
10
13.0230139549544
20
1.69770582411303
30
0
41
1
10
12.9908133085234
20
1.72705419367443
30
0
41
1
10
12.9799122467208
20
1.73946714947172
30
0
41
1
10
12.9631175333846
20
1.76624440051626
30
0
41
1
10
12.9571523524863
20
1.78106230840055
30
0
41
1
10
12.9537698382391
20
1.80138153551616
30
0
41
1
10
12.9533305977193
20
1.80716935997526
30
0
41
1
10
12.9534006402228
20
1.81285735665534
30
0
0
SPLINE
5
25B
100
AcDbEntity
8
1
62
256
6
ByLayer
370
-1
48
1
60
0
100
AcDbSpline
70
4
71
3
72
22
73
18
40
0
40
0
40
0
40
0
40
0.0973712659846704
40
0.0973712659846704
40
0.180296832630716
40
0.180296832630716
40
0.307445080803012
40
0.307445080803012
40
0.41197841851485
40
0.41197841851485
40
0.516185210011028
40
0.516185210011028
40
0.620250145291846
40
0.620250145291846
40
0.829289859625976
40
0.829289859625976
40
1
40
1
40
1
40
1
41
1
10
14.7847888436076
20
3.68040345389323
30
0
41
1
10
14.7987662947051
20
3.68606419014642
30
0
41
1
10
14.8117976840877
20
3.69485199478657
30
0
41
1
10
14.8315354471682
20
3.71517206748933
30
0
41
1
10
14.8391552394908
20
3.72629862111393
30
0
41
1
10
14.8542362857332
20
3.75629253939891
30
0
41
1
10
14.8598346048796
20
3.77657204313814
30
0
41
1
10
14.8653560280082
20
3.81386457660835
30
0
41
1
10
14.8661661738365
20
3.83112460483184
30
0
41
1
10
14.8653313907358
20
3.86546654797937
30
0
41
1
10
14.8636883785482
20
3.88265889856828
30
0
41
1
10
14.8585512540941
20
3.91671056754771
30
0
41
1
10
14.8550478865235
20
3.93363010936281
30
0
41
1
10
14.8422839109771
20
3.98385717787937
30
0
41
1
10
14.8307555015143
20
4.01674532681724
30
0
41
1
10
14.8058193071368
20
4.07457619864272
30
0
41
1
10
14.7930766303959
20
4.09998936642725
30
0
41
1
10
14.7790051972606
20
4.12460492151104
30
0
0
SPLINE
5
25C
100
AcDbEntity
8
1
62
256
6
ByLayer
370
-1
48
1
60
0
100
AcDbSpline
70
4
71
3
72
8
73
4
40
0
40
0
40
0
40
0
40
1
40
1
40
1
40
1
41
1
10
13.7135053675913
20
4.73697697752613
30
0
41
1
10
13.715527001381
20
4.74371014364652
30
0
41
1
10
13.7175486391664
20
4.75044327342474
30
0
41
1
10
13.7195702807884
20
4.75717636829955
30
0
0
SPLINE
5
25D
100
AcDbEntity
8
1
62
256
6
ByLayer
370
-1
48
1
60
0
100
AcDbSpline
70
4
71
3
72
24
73
20
40
0
40
0
40
0
40
0
40
0.0380198325518897
40
0.0380198325518897
40
0.246834654675032
40
0.246834654675032
40
0.40472650566345
40
0.40472650566345
40
0.526150637963006
40
0.526150637963006
40
0.621531995503793
40
0.621531995503793
40
0.776890538332191
40
0.776890538332191
40
0.873684213898041
40
0.873684213898041
40
0.971746172255007
40
0.971746172255007
40
1
40
1
40
1
40
1
41
1
10
14.7790051972606
20
4.12460492151104
30
0
41
1
10
14.7758677494216
20
4.13009334755543
30
0
41
1
10
14.7726624233861
20
4.13554438010891
30
0
41
1
10
14.7514500021884
20
4.17062509521605
30
0
41
1
10
14.7314695054505
20
4.19919903107996
30
0
41
1
10
14.692911836992
20
4.24644590942808
30
0
41
1
10
14.6751060412992
20
4.2659194172071
30
0
41
1
10
14.6414164826901
20
4.29799705877278
30
0
41
1
10
14.6259822849558
20
4.31120005666554
30
0
41
1
10
14.5969902589097
20
4.33275676558247
30
0
41
1
10
14.5836905503502
20
4.34157761339048
30
0
41
1
10
14.5475570372532
20
4.36207003043575
30
0
41
1
10
14.5234194843323
20
4.37241993627651
30
0
41
1
10
14.4830521513874
20
4.3812061365573
30
0
41
1
10
14.4669454535024
20
4.38264344429285
30
0
41
1
10
14.4357495949872
20
4.37998672428427
30
0
41
1
10
14.420254093575
20
4.37569016476579
30
0
41
1
10
14.4027676754891
20
4.36659279674166
30
0
41
1
10
14.3989373071655
20
4.3642937521708
30
0
41
1
10
14.3952757064604
20
4.36178977688374
30
0
0
SPLINE
5
25E
100
AcDbEntity
8
1
62
256
6
ByLayer
370
-1
48
1
60
0
100
AcDbSpline
70
4
71
3
72
34
73
30
40
0
40
0
40
0
40
0
40
0.0514465755209441
40
0.0514465755209441
40
0.135786144735415
40
0.135786144735415
40
0.203131635218844
40
0.203131635218844
40
0.270315608875065
40
0.270315608875065
40
0.337431278535899
40
0.337431278535899
40
0.404515897625486
40
0.404515897625486
40
0.499929883690894
40
0.499929883690894
40
0.59921077174813
40
0.59921077174813
40
0.697083019894216
40
0.697083019894216
40
0.780957226922745
40
0.780957226922745
40
0.847546414393254
40
0.847546414393254
40
0.898875235580354
40
0.898875235580354
40
0.980803570703545
40
0.980803570703545
40
1
40
1
40
1
40
1
41
1
10
14.3782551298111
20
4.34800105304373
30
0
41
1
10
14.3667458644857
20
4.33867713548781
30
0
41
1
10
14.353340540134
20
4.33130758865747
30
0
41
1
10
14.3163172215538
20
4.31670328084485
30
0
41
1
10
14.2910110035098
20
4.31209975871704
30
0
41
1
10
14.2453560491287
20
4.30912201988897
30
0
41
1
10
14.2246636265606
20
4.30967597299355
30
0
41
1
10
14.1835500236821
20
4.31356328307081
30
0
41
1
10
14.1629927864335
20
4.31690882176676
30
0
41
1
10
14.1223762948586
20
4.32580163743327
30
0
41
1
10
14.1022277171053
20
4.3313693465935
30
0
41
1
10
14.06260815432
20
4.34435387376382
30
0
41
1
10
14.0430686283398
20
4.35179382555069
30
0
41
1
10
13.9968012570923
20
4.37175718025202
30
0
41
1
10
13.9703641936823
20
4.38516335533998
30
0
41
1
10
13.9187543138696
20
4.41536269026798
30
0
41
1
10
13.8935095468324
20
4.43236732597182
30
0
41
1
10
13.8465387346218
20
4.46882524559064
30
0
41
1
10
13.8246070045649
20
4.48835933285864
30
0
41
1
10
13.7876311120711
20
4.5269572372741
30
0
41
1
10
13.7719357353715
20
4.5458051135991
30
0
41
1
10
13.7473660265061
20
4.58125498888401
30
0
41
1
10
13.7376861905508
20
4.5976175209729
30
0
41
1
10
13.723619264687
20
4.62757042052866
30
0
41
1
10
13.7184948586895
20
4.64101550530134
30
0
41
1
10
13.7089143012478
20
4.67634221142254
30
0
41
1
10
13.7064513019333
20
4.69925084698474
30
0
41
1
10
13.7107818264443
20
4.7265854914763
30
0
41
1
10
13.7119590857869
20
4.7318269981823
30
0
41
1
10
13.7135053675912
20
4.7369769775261
30
0
0
SPLINE
5
25F
100
AcDbEntity
8
1
62
256
6
ByLayer
370
-1
48
1
60
0
100
AcDbSpline
70
4
71
3
72
34
73
30
40
0
40
0
40
0
40
0
40
0.0514465755209398
40
0.0514465755209398
40
0.135786144735412
40
0.135786144735412
40
0.203131635218867
40
0.203131635218867
40
0.270315608875091
40
0.270315608875091
40
0.337431278535919
40
0.337431278535919
40
0.404515897625501
40
0.404515897625501
40
0.49992988369088
40
0.49992988369088
40
0.599210771748155
40
0.599210771748155
40
0.697083019894239
40
0.697083019894239
40
0.78095722692276
40
0.78095722692276
40
0.847546414393264
40
0.847546414393264
40
0.898875235580368
40
0.898875235580368
40
0.980803570703553
40
0.980803570703553
40
1
40
1
40
1
40
1
41
1
10
12.9467080825801
20
4.73697697752616
30
0
41
1
10
12.9481255688604
20
4.72331817371267
30
0
41
1
10
12.946934094981
20
4.70897290212341
30
0
41
1
10
12.9389674853917
20
4.6719207698132
30
0
41
1
10
12.9291481663425
20
4.64899557056938
30
0
41
1
10
12.9071319764205
20
4.60997009201373
30
0
41
1
10
12.8956164650917
20
4.59311651677888
30
0
41
1
10
12.870506403804
20
4.56082303594954
30
0
41
1
10
12.8568291965304
20
4.54527612086633
30
0
41
1
10
12.8279972397999
20
4.51551067060473
30
0
41
1
10
12.8127783148855
20
4.50122714641944
30
0
41
1
10
12.7812532030335
20
4.47396894440362
30
0
41
1
10
12.764891912129
20
4.46094743920938
30
0
41
1
10
12.7243200044056
20
4.43105123889205
30
0
41
1
10
12.6995783847625
20
4.41476652043312
30
0
41
1
10
12.6481487944904
20
4.38456718550515
30
0
41
1
10
12.6212576218457
20
4.37067725599061
30
0
41
1
10
12.5674661031971
20
4.34675627756582
30
0
41
1
10
12.5403917747169
20
4.3365888871891
30
0
41
1
10
12.4902919216688
20
4.32175985739264
30
0
41
1
10
12.4670882940823
20
4.31647139313876
30
0
41
1
10
12.4260539947792
20
4.31067174098919
30
0
41
1
10
12.4079886868047
20
4.30938604734934
30
0
41
1
10
12.3768203026873
20
4.31012433877649
30
0
41
1
10
12.3634489952323
20
4.31146297303553
30
0
41
1
10
12.3303217217653
20
4.31829048728568
30
0
41
1
10
12.3107755346572
20
4.32591448018334
30
0
41
1
10
12.2911784458546
20
4.34124776459231
30
0
41
1
10
12.2875984238636
20
4.34448551951152
30
0
41
1
10
12.2842805003313
20
4.3480010530437
30
0
0
SPLINE
5
260
100
AcDbEntity
8
1
62
256
6
ByLayer
370
-1
48
1
60
0
100
AcDbSpline
70
4
71
3
72
8
73
4
40
0
40
0
40
0
40
0
40
1
40
1
40
1
40
1
41
1
10
11.8858216258547
20
3.68040345389323
30
0
41
1
10
11.8915124948014
20
3.67819912715689
30
0
41
1
10
11.8972034092383
20
3.67599478997604
30
0
41
1
10
11.9028943710416
20
3.67379044192026
30
0
0
SPLINE
5
261
100
AcDbEntity
8
1
62
256
6
ByLayer
370
-1
48
1
60
0
100
AcDbSpline
70
4
71
3
72
34
73
30
40
0
40
0
40
0
40
0
40
0.0514465755209393
40
0.0514465755209393
40
0.13578614473541
40
0.13578614473541
40
0.203131635218866
40
0.203131635218866
40
0.270315608875097
40
0.270315608875097
40
0.337431278535936
40
0.337431278535936
40
0.404515897625524
40
0.404515897625524
40
0.499929883690891
40
0.499929883690891
40
0.599210771748154
40
0.599210771748154
40
0.697083019894233
40
0.697083019894233
40
0.780957226922758
40
0.780957226922758
40
0.84754641439327
40
0.84754641439327
40
0.89887523558037
40
0.89887523558037
40
0.980803570703545
40
0.980803570703545
40
1
40
1
40
1
40
1
41
1
10
11.9028943710416
20
3.67379044192026
30
0
41
1
10
11.9144389741885
20
3.66931873320371
30
0
41
1
10
11.9252726791552
20
3.6622063842633
30
0
41
1
10
11.9509062100758
20
3.63941969049432
30
0
41
1
10
11.9644181279814
20
3.62090250488038
30
0
41
1
10
11.9849080859325
20
3.58454305663366
30
0
41
1
10
11.9928056076174
20
3.5670088782056
30
0
41
1
10
12.0065176149165
20
3.53060124237888
30
0
41
1
10
12.0123776732623
20
3.51160781896397
30
0
41
1
10
12.0223826468766
20
3.47277338965637
30
0
41
1
10
12.0265487591525
20
3.45284657145115
30
0
41
1
10
12.0333767714798
20
3.41247847422429
30
0
41
1
10
12.0360499278071
20
3.39196701818849
30
0
41
1
10
12.0408411220471
20
3.34201794720923
30
0
41
1
10
12.0422691768884
20
3.31230058413942
30
0
41
1
10
12.042449466429
20
3.25190191428345
30
0
41
1
10
12.041092549282
20
3.22103600627821
30
0
41
1
10
12.0354119216586
20
3.16076996759202
30
0
41
1
10
12.0311152217493
20
3.13115222763406
30
0
41
1
10
12.0200611344114
20
3.07793019553773
30
0
41
1
10
12.0137114429063
20
3.05390854375551
30
0
41
1
10
11.9996740053091
20
3.01289928647287
30
0
41
1
10
11.9924919478672
20
2.99537018987283
30
0
41
1
10
11.9777378484226
20
2.96638795287799
30
0
41
1
10
11.9705915657287
20
2.954390455469
30
0
41
1
10
11.9500626123198
20
2.92618999974252
30
0
41
1
10
11.9350575036782
20
2.91111107152048
30
0
41
1
10
11.9137965964497
20
2.89937369558638
30
0
41
1
10
11.9095596246229
20
2.89742145058651
30
0
41
1
10
11.9052165510128
20
2.89583859295547
30
0
0
SPLINE
5
262
100
AcDbEntity
8
1
62
256
6
ByLayer
370
-1
48
1
60
0
100
AcDbSpline
70
4
71
3
72
24
73
20
40
0
40
0
40
0
40
0
40
0.0380198325520082
40
0.0380198325520082
40
0.246834654675143
40
0.246834654675143
40
0.404726505663526
40
0.404726505663526
40
0.52615063796303
40
0.52615063796303
40
0.621531995503828
40
0.621531995503828
40
0.776890538332217
40
0.776890538332217
40
0.873684213898085
40
0.873684213898085
40
0.971746172255091
40
0.971746172255091
40
1
40
1
40
1
40
1
41
1
10
11.9195075833305
20
4.12460492151104
30
0
41
1
10
11.9164029013061
20
4.11911649546661
30
0
41
1
10
11.9133580432163
20
4.11358983698943
30
0
41
1
10
11.894015539722
20
4.07752747513425
30
0
41
1
10
11.8794337957605
20
4.04586306414183
30
0
41
1
10
11.8576817538008
20
3.98884407465621
30
0
41
1
10
11.8495339843623
20
3.96372665628357
30
0
41
1
10
11.8379321692894
20
3.9186904693436
30
0
41
1
10
11.8338113510262
20
3.89883686971194
30
0
41
1
10
11.8286335277336
20
3.86325105815951
30
0
41
1
10
11.8271019790122
20
3.84748873933336
30
0
41
1
10
11.8256511591278
20
3.80650791393924
30
0
41
1
10
11.8272923190162
20
3.7809028128172
30
0
41
1
10
11.836552890233
20
3.74266757387326
30
0
41
1
10
11.841827620977
20
3.72852541071353
30
0
41
1
10
11.8561503185735
20
3.70408661727635
30
0
41
1
10
11.865509829771
20
3.69356359247567
30
0
41
1
10
11.8792546374679
20
3.68400510928589
30
0
41
1
10
11.8824948911189
20
3.68207831718053
30
0
41
1
10
11.8858216258547
20
3.68040345389323
30
0
0
SPLINE
5
263
100
AcDbEntity
8
1
62
256
6
ByLayer
370
-1
48
1
60
0
100
AcDbSpline
70
4
71
3
72
8
73
4
40
0
40
0
40
0
40
0
40
1
40
1
40
1
40
1
41
1
10
12.2776952145508
20
2.20824394807116
30
0
41
1
10
12.2820060067188
20
2.21270526675158
30
0
41
1
10
12.2863168369237
20
2.21716661098733
30
0
41
1
10
12.2906277067343
20
2.22162798183197
30
0
0
SPLINE
5
264
100
AcDbEntity
8
1
62
256
6
ByLayer
370
-1
48
1
60
0
100
AcDbSpline
70
4
71
3
72
34
73
30
40
0
40
0
40
0
40
0
40
0.0514465755209331
40
0.0514465755209331
40
0.135786144735424
40
0.135786144735424
40
0.203131635218882
40
0.203131635218882
40
0.270315608875114
40
0.270315608875114
40
0.337431278535954
40
0.337431278535954
40
0.404515897625548
40
0.404515897625548
40
0.499929883690872
40
0.499929883690872
40
0.599210771748152
40
0.599210771748152
40
0.697083019894233
40
0.697083019894233
40
0.780957226922748
40
0.780957226922748
40
0.847546414393262
40
0.847546414393262
40
0.898875235580358
40
0.898875235580358
40
0.98080357070356
40
0.98080357070356
40
1
40
1
40
1
40
1
41
1
10
14.7659884655037
20
2.89583859295547
30
0
41
1
10
14.7516795654393
20
2.900036656754
30
0
41
1
10
14.7380855694611
20
2.90687575733145
30
0
41
1
10
14.7056056824
20
2.92898471255768
30
0
41
1
10
14.6881438023159
20
2.94711088117572
30
0
41
1
10
14.6613562313487
20
2.98284691238413
30
0
41
1
10
14.6508999305552
20
3.00012779063491
30
0
41
1
10
14.6326048546725
20
3.03608173662144
30
0
41
1
10
14.6247048530684
20
3.05487322076488
30
0
41
1
10
14.611140756994
20
3.09335532331352
30
0
41
1
10
14.6054475635919
20
3.11313097179931
30
0
41
1
10
14.5960866740528
20
3.15324833294474
30
0
41
1
10
14.5924033602286
20
3.1736597908712
30
0
41
1
10
14.5858036274204
20
3.22342982992919
30
0
41
1
10
14.5838407947281
20
3.25309425395315
30
0
41
1
10
14.5836605051875
20
3.31349292380909
30
0
41
1
10
14.5855963992553
20
3.34441614624066
30
0
41
1
10
14.593557184508
20
3.40490790364166
30
0
41
1
10
14.5995456814452
20
3.43469311897317
30
0
41
1
10
14.6147395152159
20
3.4883249553007
30
0
41
1
10
14.6234063254847
20
3.51257598467623
30
0
41
1
10
14.6422980687629
20
3.55406578226248
30
0
41
1
10
14.6518869553594
20
3.57183313711997
30
0
41
1
10
14.671335772422
20
3.60128011638233
30
0
41
1
10
14.680683292643
20
3.61349552000061
30
0
41
1
10
14.7072477712846
20
3.64229344801629
30
0
41
1
10
14.7264090382304
20
3.65778380512325
30
0
41
1
10
14.753003357629
20
3.67004914935433
30
0
41
1
10
14.7582809484695
20
3.67210440792806
30
0
41
1
10
14.7636662855326
20
3.67379044192023
30
0
0
SPLINE
5
265
100
AcDbEntity
8
1
62
256
6
ByLayer
370
-1
48
1
60
0
100
AcDbSpline
70
4
71
3
72
8
73
4
40
0
40
0
40
0
40
0
40
1
40
1
40
1
40
1
41
1
10
11.9052165510127
20
2.89583859295547
30
0
41
1
10
11.8995383464727
20
2.89376913933967
30
0
41
1
10
11.8938601892274
20
2.89169969888206
30
0
41
1
10
11.8881820774036
20
2.88963027106169
30
0
0
SPLINE
5
266
100
AcDbEntity
8
1
62
256
6
ByLayer
370
-1
48
1
60
0
100
AcDbSpline
70
4
71
3
72
22
73
18
40
0
40
0
40
0
40
0
40
0.0973712659846728
40
0.0973712659846728
40
0.180296832630696
40
0.180296832630696
40
0.307445080802999
40
0.307445080802999
40
0.41197841851485
40
0.41197841851485
40
0.516185210011051
40
0.516185210011051
40
0.620250145291882
40
0.620250145291882
40
0.829289859626041
40
0.829289859626041
40
1
40
1
40
1
40
1
41
1
10
12.2712668976863
20
4.36178977688377
30
0
41
1
10
12.261608304273
20
4.37025276236551
30
0
41
1
10
12.2497419636447
20
4.37633589840254
30
0
41
1
10
12.2260765813212
20
4.38193086879238
30
0
41
1
10
12.2142765578628
20
4.38239601205601
30
0
41
1
10
12.1844794975807
20
4.37918654650471
30
0
41
1
10
12.1660303981998
20
4.37325626836994
30
0
41
1
10
12.1339279539747
20
4.35841873800931
30
0
41
1
10
12.1197362323403
20
4.35011414364268
30
0
41
1
10
12.0924633985605
20
4.3315617149515
30
0
41
1
10
12.0792924011746
20
4.32125820587791
30
0
41
1
10
12.0539694821858
20
4.29927924884677
30
0
41
1
10
12.0417726044573
20
4.28756489755651
30
0
41
1
10
12.0065484687962
20
4.25080572836285
30
0
41
1
10
11.9848051272465
20
4.22407394012603
30
0
41
1
10
11.9485820584777
20
4.17312095208263
30
0
41
1
10
11.9334320620005
20
4.14922047659479
30
0
41
1
10
11.9195075833305
20
4.12460492151104
30
0
0
SPLINE
5
267
100
AcDbEntity
8
1
62
256
6
ByLayer
370
-1
48
1
60
0
100
AcDbSpline
70
4
71
3
72
24
73
20
40
0
40
0
40
0
40
0
40
0.0380198325518767
40
0.0380198325518767
40
0.246834654674998
40
0.246834654674998
40
0.40472650566341
40
0.40472650566341
40
0.526150637962946
40
0.526150637962946
40
0.62153199550376
40
0.62153199550376
40
0.77689053833217
40
0.77689053833217
40
0.873684213898047
40
0.873684213898047
40
0.971746172255044
40
0.971746172255044
40
1
40
1
40
1
40
1
41
1
10
11.9245108845954
20
2.44845254810079
30
0
41
1
10
11.9276483324343
20
2.4429641220564
30
0
41
1
10
11.9308458578453
20
2.43751231729888
30
0
41
1
10
11.9519568911285
20
2.40242156553921
30
0
41
1
10
11.9716213357817
20
2.37381634286012
30
0
41
1
10
12.0091325766871
20
2.32646587593578
30
0
41
1
10
12.0263253521115
20
2.30693168369123
30
0
41
1
10
12.0585370752067
20
2.27470774735687
30
0
41
1
10
12.073194699015
20
2.26142787439804
30
0
41
1
10
12.1004703444247
20
2.23970125651238
30
0
41
1
10
12.1128978709805
20
2.23079406914678
30
0
41
1
10
12.14634424711
20
2.21003564544699
30
0
41
1
10
12.168386772286
20
2.19947834737863
30
0
41
1
10
12.2043001081346
20
2.19025123437879
30
0
41
1
10
12.2183969778519
20
2.18861496854265
30
0
41
1
10
12.2450268044529
20
2.19081968521513
30
0
41
1
10
12.2578836195758
20
2.19485503433734
30
0
41
1
10
12.27183600313
20
2.20360255912158
30
0
41
1
10
12.2748521970634
20
2.20582100645891
30
0
41
1
10
12.2776952145508
20
2.20824394807113
30
0
0
SPLINE
5
268
100
AcDbEntity
8
1
62
256
6
ByLayer
370
-1
48
1
60
0
100
AcDbSpline
70
4
71
3
72
22
73
18
40
0
40
0
40
0
40
0
40
0.0973712659846549
40
0.0973712659846549
40
0.180296832630681
40
0.180296832630681
40
0.30744508080298
40
0.30744508080298
40
0.411978418514818
40
0.411978418514818
40
0.516185210011
40
0.516185210011
40
0.620250145291817
40
0.620250145291817
40
0.829289859625953
40
0.829289859625953
40
1
40
1
40
1
40
1
41
1
10
11.8881820774036
20
2.88963027106166
30
0
41
1
10
11.8769712901477
20
2.88424341403441
30
0
41
1
10
11.8666865725542
20
2.87572750955511
30
0
41
1
10
11.8514708313598
20
2.85585508352167
30
0
41
1
10
11.845767592514
20
2.84491825449419
30
0
41
1
10
11.8349307660128
20
2.81534448252407
30
0
41
1
10
11.8314284133372
20
2.79527246393931
30
0
41
1
10
11.8290365119172
20
2.75828972993602
30
0
41
1
10
11.8294088282695
20
2.74114675670919
30
0
41
1
10
11.8322616030139
20
2.70700457978589
30
0
41
1
10
11.8347467985098
20
2.68989559910591
30
0
41
1
10
11.8413220365391
20
2.65598629271744
30
0
41
1
10
11.8454235556522
20
2.63912596347419
30
0
41
1
10
11.859705029822
20
2.5890491160803
30
0
41
1
10
11.8718835264133
20
2.55622532095254
30
0
41
1
10
11.8975421329283
20
2.49846596257734
30
0
41
1
10
11.91043945146
20
2.47306810318457
30
0
41
1
10
11.9245108845954
20
2.44845254810079
30
0
0
SPLINE
5
269
100
AcDbEntity
8
1
62
256
6
ByLayer
370
-1
48
1
60
0
100
AcDbSpline
70
4
71
3
72
24
73
20
40
0
40
0
40
0
40
0
40
0.0380198325518987
40
0.0380198325518987
40
0.246834654675027
40
0.246834654675027
40
0.404726505663424
40
0.404726505663424
40
0.526150637962957
40
0.526150637962957
40
0.621531995503766
40
0.621531995503766
40
0.77689053833219
40
0.77689053833219
40
0.873684213898064
40
0.873684213898064
40
0.971746172255069
40
0.971746172255069
40
1
40
1
40
1
40
1
41
1
10
13.3467547396631
20
4.96268110821612
30
0
41
1
10
13.3405126097998
20
4.96268110821612
30
0
41
1
10
13.3342663259868
20
4.96260586839446
30
0
41
1
10
13.293762095252
20
4.96162923997269
30
0
41
1
10
13.2593578805949
20
4.95855440825176
30
0
41
1
10
13.1995713839532
20
4.94883409140238
30
0
41
1
10
13.1739243289562
20
4.94322052304156
30
0
41
1
10
13.1293718730311
20
4.93033512505159
30
0
41
1
10
13.1102051439967
20
4.92372296084571
30
0
41
1
10
13.0768934849761
20
4.90977881269458
30
0
41
1
10
13.062498318697
20
4.90288051145521
30
0
41
1
10
13.0262575541995
20
4.88252510643363
30
0
41
1
10
13.0048086750394
20
4.86737360726616
30
0
41
1
10
12.9759289118594
20
4.83814502496253
30
0
41
1
10
12.9661018588023
20
4.82553964858863
30
0
41
1
10
12.9515117138407
20
4.79867013681093
30
0
41
1
10
12.9466950667706
20
4.78398115768988
30
0
41
1
10
12.9447204736474
20
4.76550022809593
30
0
41
1
10
12.9445374461699
20
4.76131469003647
30
0
41
1
10
12.9446118718095
20
4.75717636829955
30
0
0
SPLINE
5
26A
100
AcDbEntity
8
1
62
256
6
ByLayer
370
-1
48
1
60
0
100
AcDbSpline
70
4
71
3
72
22
73
18
40
0
40
0
40
0
40
0
40
0.0973712659846765
40
0.0973712659846765
40
0.180296832630703
40
0.180296832630703
40
0.307445080803001
40
0.307445080803001
40
0.411978418514835
40
0.411978418514835
40
0.516185210011027
40
0.516185210011027
40
0.620250145291849
40
0.620250145291849
40
0.829289859625961
40
0.829289859625961
40
1
40
1
40
1
40
1
41
1
10
13.7195702807883
20
4.75717636829955
30
0
41
1
10
13.7225058065516
20
4.77116315042153
30
0
41
1
10
13.7222975194114
20
4.78589814101829
30
0
41
1
10
13.7161088892253
20
4.81158936077622
30
0
41
1
10
13.7109703813512
20
4.82308619536587
30
0
41
1
10
13.6941322574409
20
4.84966057494216
30
0
41
1
10
13.680233493971
20
4.86390605796936
30
0
41
1
10
13.6520877120202
20
4.88620616134548
30
0
41
1
10
13.6381149051238
20
4.89510306770401
30
0
41
1
10
13.6089982924215
20
4.91079269904824
30
0
41
1
10
13.5937631911938
20
4.91763985560908
30
0
41
1
10
13.5625840909633
20
4.92964138626192
30
0
41
1
10
13.546584769893
20
4.9348169705008
30
0
41
1
10
13.4978379093738
20
4.94820975926237
30
0
41
1
10
13.464241114797
20
4.9543339430584
30
0
41
1
10
13.4027206455819
20
4.9611760701153
30
0
41
1
10
13.3747506514685
20
4.96268110821612
30
0
41
1
10
13.3467547396631
20
4.96268110821612
30
0
0
SPLINE
5
26B
100
AcDbEntity
8
1
62
256
6
ByLayer
370
-1
48
1
60
0
100
AcDbSpline
70
4
71
3
72
24
73
20
40
0
40
0
40
0
40
0
40
0.0380198325520504
40
0.0380198325520504
40
0.246834654675198
40
0.246834654675198
40
0.404726505663574
40
0.404726505663574
40
0.526150637963086
40
0.526150637963086
40
0.621531995503872
40
0.621531995503872
40
0.776890538332252
40
0.776890538332252
40
0.873684213898135
40
0.873684213898135
40
0.971746172255144
40
0.971746172255144
40
1
40
1
40
1
40
1
41
1
10
14.7840084985255
20
2.44845254810079
30
0
41
1
10
14.7871131805499
20
2.45394097414521
30
0
41
1
10
14.7901502380151
20
2.45946686041836
30
0
41
1
10
14.8093913535948
20
2.49551918562105
30
0
41
1
10
14.8236570454717
20
2.52715230979828
30
0
41
1
10
14.8443626598783
20
2.5840677107077
30
0
41
1
10
14.8518974090485
20
2.60912444461476
30
0
41
1
10
14.8620213886074
20
2.65401433678608
30
0
41
1
10
14.8653656329446
20
2.67379106135164
30
0
41
1
10
14.8688270756008
20
2.70920696393534
30
0
41
1
10
14.8694864423185
20
2.72488294320391
30
0
41
1
10
14.8682501252354
20
2.7655977619435
30
0
41
1
10
14.8645139376021
20
2.79099547083794
30
0
41
1
10
14.850799369289
20
2.82878979706283
30
0
41
1
10
14.8435148103773
20
2.842733002122
30
0
41
1
10
14.8246260808666
20
2.86671979222305
30
0
41
1
10
14.8126278833798
20
2.87698160662748
30
0
41
1
10
14.7953490411511
20
2.88619024657734
30
0
41
1
10
14.7912946131099
20
2.88803644144917
30
0
41
1
10
14.7871492951564
20
2.88963027106166
30
0
0
SPLINE
5
26C
100
AcDbEntity
8
1
62
256
6
ByLayer
370
-1
48
1
60
0
100
AcDbSpline
70
4
71
3
72
8
73
4
40
0
40
0
40
0
40
0
40
1
40
1
40
1
40
1
41
1
10
13.7221747539653
20
1.83265205734958
30
0
41
1
10
13.7242361819889
20
1.82605378566913
30
0
41
1
10
13.7262976137844
20
1.81945555261419
30
0
41
1
10
13.7283590492016
20
1.81285735665534
30
0
0
SPLINE
5
26D
100
AcDbEntity
8
1
62
256
6
ByLayer
370
-1
48
1
60
0
100
AcDbSpline
70
4
71
3
72
8
73
4
40
0
40
0
40
0
40
0
40
1
40
1
40
1
40
1
41
1
10
12.9446118718095
20
4.75717636829955
30
0
41
1
10
12.9453105899495
20
4.75044327342474
30
0
41
1
10
12.9460093266181
20
4.74371014364655
30
0
41
1
10
12.9467080825801
20
4.73697697752616
30
0
0
SPLINE
5
26E
100
AcDbEntity
8
1
62
256
6
ByLayer
370
-1
48
1
60
0
100
AcDbSpline
70
4
71
3
72
8
73
4
40
0
40
0
40
0
40
0
40
1
40
1
40
1
40
1
41
1
10
12.2842805003313
20
4.34800105304376
30
0
41
1
10
12.2799425935503
20
4.35259731832835
30
0
41
1
10
12.2756047265269
20
4.35719355928734
30
0
41
1
10
12.2712668976863
20
4.36178977688377
30
0
0
SPLINE
5
26F
100
AcDbEntity
8
1
62
256
6
ByLayer
370
-1
48
1
60
0
100
AcDbSpline
70
4
71
3
72
8
73
4
40
0
40
0
40
0
40
0
40
1
40
1
40
1
40
1
41
1
10
14.3952757064604
20
4.36178977688374
30
0
41
1
10
14.389602197015
20
4.35719355928731
30
0
41
1
10
14.3839286716833
20
4.35259731832832
30
0
41
1
10
14.3782551298111
20
4.34800105304373
30
0
0
SPLINE
5
270
100
AcDbEntity
8
1
62
256
6
ByLayer
370
-1
48
1
60
0
100
AcDbSpline
70
4
71
3
72
22
73
18
40
0
40
0
40
0
40
0
40
0.0973712659846961
40
0.0973712659846961
40
0.180296832630714
40
0.180296832630714
40
0.307445080803034
40
0.307445080803034
40
0.411978418514876
40
0.411978418514876
40
0.516185210011082
40
0.516185210011082
40
0.620250145291911
40
0.620250145291911
40
0.829289859626093
40
0.829289859626093
40
1
40
1
40
1
40
1
41
1
10
14.4017040233249
20
2.20824394807113
30
0
41
1
10
14.4141292805799
20
2.20005484181533
30
0
41
1
10
14.4287422929973
20
2.19424360593914
30
0
41
1
10
14.4569296972068
20
2.18909628221863
30
0
41
1
10
14.470646274142
20
2.18882086355211
30
0
41
1
10
14.5046875541654
20
2.19245047541827
30
0
41
1
10
14.5252326200169
20
2.19858823870754
30
0
41
1
10
14.5604645859508
20
2.21373556853504
30
0
41
1
10
14.5758387697658
20
2.22215721789834
30
0
41
1
10
14.6051295951892
20
2.24090941281375
30
0
41
1
10
14.6191427758833
20
2.25129629179631
30
0
41
1
10
14.6459038084474
20
2.27341761141841
30
0
41
1
10
14.6586988377184
20
2.28519117528052
30
0
41
1
10
14.6954404720029
20
2.32210056559686
30
0
41
1
10
14.717833900681
20
2.34889670764378
30
0
41
1
10
14.7547793815875
20
2.39992120913746
30
0
41
1
10
14.7700840198555
20
2.42383699301706
30
0
41
1
10
14.7840084985255
20
2.44845254810079
30
0
0
SPLINE
5
271
100
AcDbEntity
8
1
62
256
6
ByLayer
370
-1
48
1
60
0
100
AcDbSpline
70
4
71
3
72
8
73
4
40
0
40
0
40
0
40
0
40
1
40
1
40
1
40
1
41
1
10
14.7636662855327
20
3.67379044192023
30
0
41
1
10
14.7707071621343
20
3.67599478997602
30
0
41
1
10
14.7777480145064
20
3.67819912715683
30
0
41
1
10
14.7847888436076
20
3.68040345389321
30
0
0
SPLINE
5
272
100
AcDbEntity
8
1
62
256
6
ByLayer
370
-1
48
1
60
0
100
AcDbSpline
70
4
71
3
72
8
73
4
40
0
40
0
40
0
40
0
40
1
40
1
40
1
40
1
41
1
10
14.7871492951564
20
2.88963027106163
30
0
41
1
10
14.7800957089325
20
2.89169969888204
30
0
41
1
10
14.7730420993687
20
2.89376913933961
30
0
41
1
10
14.7659884655037
20
2.89583859295544
30
0
0
SPLINE
5
273
100
AcDbEntity
8
1
62
256
6
ByLayer
370
-1
48
1
60
0
100
AcDbSpline
70
4
71
3
72
8
73
4
40
0
40
0
40
0
40
0
40
1
40
1
40
1
40
1
41
1
10
14.384602336214
20
2.22162798183197
30
0
41
1
10
14.3903029150568
20
2.21716661098733
30
0
41
1
10
14.396003477207
20
2.21270526675156
30
0
41
1
10
14.4017040233248
20
2.2082439480711
30
0
0
SPLINE
5
274
100
AcDbEntity
8
1
62
256
6
ByLayer
370
-1
48
1
60
0
100
AcDbSpline
70
4
71
3
72
24
73
20
40
0
40
0
40
0
40
0
40
0.104000448201648
40
0.104000448201648
40
0.192499055460802
40
0.192499055460802
40
0.328500518746421
40
0.328500518746421
40
0.438682575665034
40
0.438682575665034
40
0.548533158171441
40
0.548533158171441
40
0.658237202769458
40
0.658237202769458
40
0.767870673660552
40
0.767870673660552
40
0.988088331633866
40
0.988088331633866
40
1
40
1
40
1
40
1
41
1
10
5.23654578059362
20
8.13253391718519
30
0
41
1
10
5.22521245310196
20
8.13998599649815
30
0
41
1
10
5.21229212767187
20
8.1472294420783
30
0
41
1
10
5.18806151613006
20
8.15887559194246
30
0
41
1
10
5.1765260664348
20
8.16369256684015
30
0
41
1
10
5.14834777588291
20
8.17412933367928
30
0
41
1
10
5.13177741739958
20
8.17903258296801
30
0
41
1
10
5.10413142984325
20
8.18595453934003
30
0
41
1
10
5.09237995174684
20
8.1884013246497
30
0
41
1
10
5.07034952775871
20
8.19232808291002
30
0
41
1
10
5.05999660198015
20
8.19382144316896
30
0
41
1
10
5.04056395346507
20
8.19611419296487
30
0
41
1
10
5.03144834359045
20
8.19691709759414
30
0
41
1
10
5.01436086888194
20
8.19799057364159
30
0
41
1
10
5.00636850780177
20
8.19826188968477
30
0
41
1
10
4.98395821977837
20
8.19842210096178
30
0
41
1
10
4.97106171185843
20
8.19766618022211
30
0
41
1
10
4.9596678089043
20
8.19612205201577
30
0
41
1
10
4.95908776522504
20
8.1960404678502
30
0
41
1
10
4.95851383761547
20
8.19595673863518
30
0
0
SPLINE
5
275
100
AcDbEntity
8
1
62
256
6
ByLayer
370
-1
48
1
60
0
100
AcDbSpline
70
4
71
3
72
8
73
4
40
0
40
0
40
0
40
0
40
1
40
1
40
1
40
1
41
1
10
5.74460968552157
20
8.15497814755801
30
0
41
1
10
5.74708943834383
20
8.15072569473176
30
0
41
1
10
5.74956921009144
20
8.14647332895731
30
0
41
1
10
5.75204900169919
20
8.14222105454337
30
0
0
SPLINE
5
276
100
AcDbEntity
8
1
62
256
6
ByLayer
370
-1
48
1
60
0
100
AcDbSpline
70
4
71
3
72
8
73
4
40
0
40
0
40
0
40
0
40
1
40
1
40
1
40
1
41
1
10
7.01654465025453
20
8.14827515388868
30
0
41
1
10
7.01229981006682
20
8.14408061487453
30
0
41
1
10
7.00805493766211
20
8.13988616335266
30
0
41
1
10
7.00381003144906
20
8.13569180365346
30
0
0
SPLINE
5
277
100
AcDbEntity
8
1
62
256
6
ByLayer
370
-1
48
1
60
0
100
AcDbSpline
70
4
71
3
72
10
73
6
40
0
40
0
40
0
40
0
40
0.388885978132966
40
0.388885978132966
40
1
40
1
40
1
40
1
41
1
10
10.2678834544905
20
1.49041553624301
30
0
41
1
10
10.2508789060922
20
1.48043172316656
30
0
41
1
10
10.2336288563505
20
1.47041197694813
30
0
41
1
10
10.1892185459104
20
1.44486554821214
30
0
41
1
10
10.1617731698382
20
1.4293120632845
30
0
41
1
10
10.1347267031781
20
1.4142516737484
30
0
0
SPLINE
5
278
100
AcDbEntity
8
1
62
256
6
ByLayer
370
-1
48
1
60
0
100
AcDbSpline
70
4
71
3
72
14
73
10
40
0
40
0
40
0
40
0
40
0.314392366702069
40
0.314392366702069
40
0.63220071615526
40
0.63220071615526
40
0.912513196202097
40
0.912513196202097
40
1
40
1
40
1
40
1
41
1
10
19.8903021890258
20
6.98119969422595
30
0
41
1
10
19.8960056899392
20
6.99082158477097
30
0
41
1
10
19.9004736062937
20
7.00138115764742
30
0
41
1
10
19.9053500715416
20
7.02328984497225
30
0
41
1
10
19.9057203532638
20
7.03494889786131
30
0
41
1
10
19.9023140486349
20
7.05592601888881
30
0
41
1
10
19.899019096071
20
7.06559879802177
30
0
41
1
10
19.8931651063022
20
7.07736416144832
30
0
41
1
10
19.8916445366103
20
7.08012729335749
30
0
41
1
10
19.8900240203081
20
7.08282732277598
30
0
0
SPLINE
5
279
100
AcDbEntity
8
1
62
256
6
ByLayer
370
-1
48
1
60
0
100
AcDbSpline
70
4
71
3
72
8
73
4
40
0
40
0
40
0
40
0
40
1
40
1
40
1
40
1
41
1
10
6.39287095947876
20
8.14788809753657
30
0
41
1
10
6.39304096851814
20
8.15216380518967
30
0
41
1
10
6.39321097627013
20
8.15643960401624
30
0
41
1
10
6.39338098279532
20
8.16071548971644
30
0
0
SPLINE
5
27A
100
AcDbEntity
8
1
62
256
6
ByLayer
370
-1
48
1
60
0
100
AcDbSpline
70
4
71
3
72
22
73
18
40
0
40
0
40
0
40
0
40
0.208266363442726
40
0.208266363442726
40
0.317899168105421
40
0.317899168105421
40
0.427584739861769
40
0.427584739861769
40
0.537377253732883
40
0.537377253732883
40
0.647402228730844
40
0.647402228730844
40
0.81158368050224
40
0.81158368050224
40
0.906636022131449
40
0.906636022131449
40
1
40
1
40
1
40
1
41
1
10
7.36313000521002
20
8.21722171409124
30
0
41
1
10
7.34432854706921
20
8.21842694399749
30
0
41
1
10
7.32396982001316
20
8.21896699688878
30
0
41
1
10
7.29081518133799
20
8.21860667525345
30
0
41
1
10
7.27896220593993
20
8.21826344826951
30
0
41
1
10
7.25449553810759
20
8.21705488245149
30
0
41
1
10
7.24185449306066
20
8.21618872311061
30
0
41
1
10
7.21581847172629
20
8.21379355170725
30
0
41
1
10
7.20238048421314
20
8.21226137847484
30
0
41
1
10
7.17479419350391
20
8.20830649567333
30
0
41
1
10
7.16056748300554
20
8.20587292207617
30
0
41
1
10
7.12475222785403
20
8.19830992321207
30
0
41
1
10
7.10225060526693
20
8.19230078257308
30
0
41
1
10
7.0684463354221
20
8.17954966187321
30
0
41
1
10
7.05614950494206
20
8.17403149929291
30
0
41
1
10
7.03431633122591
20
8.1619092812098
30
0
41
1
10
7.0244890111986
20
8.15516565881973
30
0
41
1
10
7.01654465025521
20
8.14827515389095
30
0
0
SPLINE
5
27B
100
AcDbEntity
8
1
62
256
6
ByLayer
370
-1
48
1
60
0
100
AcDbSpline
70
4
71
3
72
22
73
18
40
0
40
0
40
0
40
0
40
0.208266363442604
40
0.208266363442604
40
0.317899168105308
40
0.317899168105308
40
0.42758473986167
40
0.42758473986167
40
0.537377253732798
40
0.537377253732798
40
0.647402228730778
40
0.647402228730778
40
0.811583680502195
40
0.811583680502195
40
0.906636022131416
40
0.906636022131416
40
1
40
1
40
1
40
1
41
1
10
6.0384898829154
20
8.24366575894297
30
0
41
1
10
6.00968075193859
20
8.24341098835987
30
0
41
1
10
5.98112926733123
20
8.24245005418237
30
0
41
1
10
5.93866147399822
20
8.2397671667207
30
0
41
1
10
5.9241711475436
20
8.23861453811492
30
0
41
1
10
5.89574960745074
20
8.23578025004454
30
0
41
1
10
5.88178623790086
20
8.23409594102733
30
0
41
1
10
5.85466623298871
20
8.23006525355245
30
0
41
1
10
5.8414645729234
20
8.22771300530979
30
0
41
1
10
5.81629179604437
20
8.22213294071631
30
0
41
1
10
5.80425099067153
20
8.21888969733129
30
0
41
1
10
5.77696836561614
20
8.20938001004481
30
0
41
1
10
5.76250693329078
20
8.20222885818822
30
0
41
1
10
5.74751767633546
20
8.18796583228306
30
0
41
1
10
5.74364381321539
20
8.18194544039133
30
0
41
1
10
5.74070222940802
20
8.16905057617566
30
0
41
1
10
5.74155112105834
20
8.16202490338276
30
0
41
1
10
5.74460968552134
20
8.15497814756029
30
0
0
SPLINE
5
27C
100
AcDbEntity
8
1
62
256
6
ByLayer
370
-1
48
1
60
0
100
AcDbSpline
70
4
71
3
72
24
73
20
40
0
40
0
40
0
40
0
40
0.104000448201676
40
0.104000448201676
40
0.192499055460817
40
0.192499055460817
40
0.328500518746428
40
0.328500518746428
40
0.438682575665044
40
0.438682575665044
40
0.548533158171441
40
0.548533158171441
40
0.658237202769456
40
0.658237202769456
40
0.767870673660538
40
0.767870673660538
40
0.988088331633854
40
0.988088331633854
40
1
40
1
40
1
40
1
41
1
10
6.39338098279532
20
8.16071548971641
30
0
41
1
10
6.39243134491599
20
8.16854016559955
30
0
41
1
10
6.38852395306128
20
8.17629685711097
30
0
41
1
10
6.37662454884637
20
8.18904872987724
30
0
41
1
10
6.36923375302936
20
8.19444616232002
30
0
41
1
10
6.34776230978176
20
8.20640789230674
30
0
41
1
10
6.3319407915092
20
8.21230798394765
30
0
41
1
10
6.30167557833772
20
8.22101425599834
30
0
41
1
10
6.28729651544455
20
8.22426693351568
30
0
41
1
10
6.25799060593096
20
8.22977809687049
30
0
41
1
10
6.24297051759695
20
8.232055128577
30
0
41
1
10
6.21268625197581
20
8.23588435996024
30
0
41
1
10
6.19736648997446
20
8.23744290145834
30
0
41
1
10
6.16665415302762
20
8.23999534158116
30
0
41
1
10
6.15122434858867
20
8.24099177104682
30
0
41
1
10
6.10492296815238
20
8.24328031413208
30
0
41
1
10
6.07395484860353
20
8.24388462555697
30
0
41
1
10
6.04179536018347
20
8.24369261472651
30
0
41
1
10
6.04014205080162
20
8.24368036971953
30
0
41
1
10
6.0384898829154
20
8.24366575894297
30
0
0
SPLINE
5
27D
100
AcDbEntity
8
1
62
256
6
ByLayer
370
-1
48
1
60
0
100
AcDbSpline
70
4
71
3
72
8
73
4
40
0
40
0
40
0
40
0
40
1
40
1
40
1
40
1
41
1
10
5.25395178135923
20
8.12021711241533
30
0
41
1
10
5.24814973545722
20
8.1243226229281
30
0
41
1
10
5.2423477359296
20
8.12842822597264
30
0
41
1
10
5.23654578059359
20
8.13253391718519
30
0
0
SPLINE
5
27E
100
AcDbEntity
8
1
62
256
6
ByLayer
370
-1
48
1
60
0
100
AcDbSpline
70
4
71
3
72
22
73
18
40
0
40
0
40
0
40
0
40
0.153101873520343
40
0.153101873520343
40
0.442621285364901
40
0.442621285364901
40
0.707385074439684
40
0.707385074439684
40
0.843532608240163
40
0.843532608240163
40
0.926352665771248
40
0.926352665771248
40
0.963706736955257
40
0.963706736955257
40
0.977863955360651
40
0.977863955360651
40
1
40
1
40
1
40
1
41
1
10
10.1347267031781
20
1.41425167374828
30
0
41
1
10
10.1557227906993
20
1.41611035408349
30
0
41
1
10
10.1767388453426
20
1.41775847629097
30
0
41
1
10
10.2375293157903
20
1.42174273247949
30
0
41
1
10
10.2773802831825
20
1.42344317239679
30
0
41
1
10
10.3536223905561
20
1.42336257472047
30
0
41
1
10
10.3901812456936
20
1.42206055591401
30
0
41
1
10
10.4447846328209
20
1.41448951573906
30
0
41
1
10
10.4633513768663
20
1.41096286801775
30
0
41
1
10
10.4918689716978
20
1.40131966033786
30
0
41
1
10
10.5025618591949
20
1.39670866667626
30
0
41
1
10
10.5160004749794
20
1.38702491584556
30
0
41
1
10
10.5199332394481
20
1.38350677747764
30
0
41
1
10
10.5243841067522
20
1.37789273229649
30
0
41
1
10
10.5255163272248
20
1.37625321841617
30
0
41
1
10
10.5280724970356
20
1.37187589070334
30
0
41
1
10
10.5293198479324
20
1.36899783253654
30
0
41
1
10
10.5301671066076
20
1.3660266765925
30
0
0
SPLINE
5
27F
100
AcDbEntity
8
1
62
256
6
ByLayer
370
-1
48
1
60
0
100
AcDbSpline
70
4
71
3
72
8
73
4
40
0
40
0
40
0
40
0
40
1
40
1
40
1
40
1
41
1
10
10.2678834544904
20
1.49041553624301
30
0
41
1
10
10.1496892759294
20
1.49939962607996
30
0
41
1
10
10.0305870070034
20
1.49483796449377
30
0
41
1
10
9.91241842579811
20
1.48616750964084
30
0
0
SPLINE
5
280
100
AcDbEntity
8
1
62
256
6
ByLayer
370
-1
48
1
60
0
100
AcDbSpline
70
4
71
3
72
22
73
18
40
0
40
0
40
0
40
0
40
0.0236324717629802
40
0.0236324717629802
40
0.0629814022064247
40
0.0629814022064247
40
0.0762359204463608
40
0.0762359204463608
40
0.134099172814613
40
0.134099172814613
40
0.288877504287514
40
0.288877504287514
40
0.442933094377607
40
0.442933094377607
40
0.668543354429515
40
0.668543354429515
40
1
40
1
40
1
40
1
41
1
10
16.7635366270908
20
2.23506835107432
30
0
41
1
10
16.7669755605673
20
2.23869439267702
30
0
41
1
10
16.77125808378
20
2.24158050984798
30
0
41
1
10
16.7832752403489
20
2.24691032183287
30
0
41
1
10
16.7916657370633
20
2.24813827770825
30
0
41
1
10
16.8025939851617
20
2.24836924346298
30
0
41
1
10
16.8053790817238
20
2.24830466698802
30
0
41
1
10
16.8202094563328
20
2.24744396364272
30
0
41
1
10
16.8321661066979
20
2.24502054555359
30
0
41
1
10
16.8749704861442
20
2.23361306884664
30
0
41
1
10
16.9048036683774
20
2.22048304240215
30
0
41
1
10
16.9627355096467
20
2.19215176648694
30
0
41
1
10
16.990965687032
20
2.17650766853649
30
0
41
1
10
17.0594434262898
20
2.13620209740336
30
0
41
1
10
17.0992339266684
20
2.1106420251549
30
0
41
1
10
17.1960981951491
20
2.04553242318366
30
0
41
1
10
17.2525623686436
20
2.00496415638995
30
0
41
1
10
17.308294124004
20
1.96342564915983
30
0
0
SPLINE
5
281
100
AcDbEntity
8
1
62
256
6
ByLayer
370
-1
48
1
60
0
100
AcDbSpline
70
4
71
3
72
18
73
14
40
0
40
0
40
0
40
0
40
0.0414544517087832
40
0.0414544517087832
40
0.132910922468115
40
0.132910922468115
40
0.263177731540046
40
0.263177731540046
40
0.458562667326527
40
0.458562667326527
40
0.817425847463271
40
0.817425847463271
40
1
40
1
40
1
40
1
41
1
10
16.3169023999367
20
1.80135202996001
30
0
41
1
10
16.3137693595577
20
1.79804852472077
30
0
41
1
10
16.3109140719804
20
1.79445102796183
30
0
41
1
10
16.3028689162255
20
1.78235121257848
30
0
41
1
10
16.2988500390635
20
1.77292445434278
30
0
41
1
10
16.2923841961669
20
1.7495528199959
30
0
41
1
10
16.2910956755304
20
1.73505206330646
30
0
41
1
10
16.2914460065271
20
1.69936576014143
30
0
41
1
10
16.294780309018
20
1.67794416587563
30
0
41
1
10
16.3081564946781
20
1.61870936611641
30
0
41
1
10
16.3215874234391
20
1.58145164677771
30
0
41
1
10
16.3444395391486
20
1.52673994692893
30
0
41
1
10
16.3526854231625
20
1.5084816527301
30
0
41
1
10
16.3613052150183
20
1.49041553623357
30
0
0
SPLINE
5
282
100
AcDbEntity
8
1
62
256
6
ByLayer
370
-1
48
1
60
0
100
AcDbSpline
70
4
71
3
72
18
73
14
40
0
40
0
40
0
40
0
40
0.0414544517087729
40
0.0414544517087729
40
0.13291092246811
40
0.13291092246811
40
0.263177731540043
40
0.263177731540043
40
0.458562667326537
40
0.458562667326537
40
0.81742584746328
40
0.81742584746328
40
1
40
1
40
1
40
1
41
1
10
13.0570146350792
20
6.65445290427922
30
0
41
1
10
13.0614065229659
20
6.65334189909194
30
0
41
1
10
13.0659096351837
20
6.65262140349256
30
0
41
1
10
13.0802724887238
20
6.65156827806675
30
0
41
1
10
13.0903324457987
20
6.65272526751437
30
0
41
1
10
13.1135164901091
20
6.65866957561769
30
0
41
1
10
13.1265327223741
20
6.66475208971715
30
0
41
1
10
13.1567964545689
20
6.68281739276333
30
0
41
1
10
13.1733934929256
20
6.69640840678628
30
0
41
1
10
13.2171993701553
20
6.73764460559826
30
0
41
1
10
13.2422317106496
20
6.76799329070678
30
0
41
1
10
13.2774186985731
20
6.81531078333242
30
0
41
1
10
13.2888498904154
20
6.83164639627023
30
0
41
1
10
13.2999293045122
20
6.8482151510687
30
0
0
SPLINE
5
283
100
AcDbEntity
8
1
62
256
6
ByLayer
370
-1
48
1
60
0
100
AcDbSpline
70
4
71
3
72
8
73
4
40
0
40
0
40
0
40
0
40
1
40
1
40
1
40
1
41
1
10
13.2954528919263
20
6.99943685710028
30
0
41
1
10
13.2982825513147
20
6.95096843238346
30
0
41
1
10
13.2997893600298
20
6.89934320043514
30
0
41
1
10
13.2999293044932
20
6.84821515108351
30
0
0
SPLINE
5
284
100
AcDbEntity
8
1
62
256
6
ByLayer
370
-1
48
1
60
0
100
AcDbSpline
70
4
71
3
72
22
73
18
40
0
40
0
40
0
40
0
40
0.023632471762983
40
0.023632471762983
40
0.0629814022064227
40
0.0629814022064227
40
0.0762359204463633
40
0.0762359204463633
40
0.134099172814613
40
0.134099172814613
40
0.288877504287519
40
0.288877504287519
40
0.442933094377607
40
0.442933094377607
40
0.668543354429516
40
0.668543354429516
40
1
40
1
40
1
40
1
41
1
10
10.702348636015
20
0.762222679576439
30
0
41
1
10
10.703730390577
20
0.757377160255913
30
0
41
1
10
10.7040452719054
20
0.752150216579793
30
0
41
1
10
10.7025398982617
20
0.738854632658104
30
0
41
1
10
10.6993375909042
20
0.730806731512502
30
0
41
1
10
10.6939860747682
20
0.721002575683315
30
0
41
1
10
10.6925157217631
20
0.718565106902901
30
0
41
1
10
10.6842402966992
20
0.705841847578654
30
0
41
1
10
10.6760761918734
20
0.696440759170287
30
0
41
1
10
10.6444918534199
20
0.66413831059765
30
0
41
1
10
10.6180094566225
20
0.644190121661552
30
0
41
1
10
10.5641376544384
20
0.606857046289548
30
0
41
1
10
10.5362993684369
20
0.58957493495501
30
0
41
1
10
10.4667366826927
20
0.54882096269418
30
0
41
1
10
10.4244685729319
20
0.526199119667439
30
0
41
1
10
10.3190791779257
20
0.472557932513553
30
0
41
1
10
10.2553873974646
20
0.442582933513592
30
0
41
1
10
10.1912285328262
20
0.413736574178415
30
0
0
SPLINE
5
285
100
AcDbEntity
8
1
62
256
6
ByLayer
370
-1
48
1
60
0
100
AcDbSpline
70
4
71
3
72
20
73
16
40
0
40
0
40
0
40
0
40
0.314859192648759
40
0.314859192648759
40
0.531558880441063
40
0.531558880441063
40
0.682135903694824
40
0.682135903694824
40
0.839619845966512
40
0.839619845966512
40
0.903112673776001
40
0.903112673776001
40
0.967902128209793
40
0.967902128209793
40
1
40
1
40
1
40
1
41
1
10
12.3209526385387
20
7.45437813063225
30
0
41
1
10
12.3184946634973
20
7.38195761302146
30
0
41
1
10
12.3178321312188
20
7.3094044725195
30
0
41
1
10
12.3219665040325
20
7.18711683988258
30
0
41
1
10
12.3251070190866
20
7.13724539615052
30
0
41
1
10
12.3348010232363
20
7.05325889608861
30
0
41
1
10
12.3400113592521
20
7.01889944056154
30
0
41
1
10
12.3551576076937
20
6.94976266087241
30
0
41
1
10
12.3651260413441
20
6.91449302734199
30
0
41
1
10
12.3870583427861
20
6.86881055237623
30
0
41
1
10
12.3944171832499
20
6.85601079023749
30
0
41
1
10
12.4122920465455
20
6.83278153429299
30
0
41
1
10
12.4232114289389
20
6.8220868423054
30
0
41
1
10
12.4422764909285
20
6.81108199941312
30
0
41
1
10
12.4491913825142
20
6.80821247281577
30
0
41
1
10
12.4563048837759
20
6.80641298771815
30
0
0
SPLINE
5
286
100
AcDbEntity
8
1
62
256
6
ByLayer
370
-1
48
1
60
0
100
AcDbSpline
70
4
71
3
72
10
73
6
40
0
40
0
40
0
40
0
40
0.736240194588515
40
0.736240194588515
40
1
40
1
40
1
40
1
41
1
10
9.06052519181196
20
7.3202304175787
30
0
41
1
10
9.03739272095078
20
7.31639526907935
30
0
41
1
10
9.01169159142378
20
7.31644707225414
30
0
41
1
10
8.97658194559031
20
7.32575096825056
30
0
41
1
10
8.96714076472182
20
7.32916387243293
30
0
41
1
10
8.95795194695543
20
7.33364602104703
30
0
0
SPLINE
5
287
100
AcDbEntity
8
1
62
256
6
ByLayer
370
-1
48
1
60
0
100
AcDbSpline
70
4
71
3
72
14
73
10
40
0
40
0
40
0
40
0
40
0.233926408286278
40
0.233926408286278
40
0.467719442169547
40
0.467719442169547
40
0.701444004412141
40
0.701444004412141
40
1
40
1
40
1
40
1
41
1
10
9.07513352874602
20
1.14927368529669
30
0
41
1
10
9.07986073982087
20
1.13776966782174
30
0
41
1
10
9.08523503065183
20
1.12548465238947
30
0
41
1
10
9.0970172814601
20
1.09991739601173
30
0
41
1
10
9.10346571567595
20
1.08654628958482
30
0
41
1
10
9.11718886734155
20
1.05919850227843
30
0
41
1
10
9.12450901676525
20
1.04513071199173
30
0
41
1
10
9.14185947181662
20
1.01286774886711
30
0
41
1
10
9.15217162175284
20
0.994435946346584
30
0
41
1
10
9.16275045124723
20
0.97620886341619
30
0
0
SPLINE
5
288
100
AcDbEntity
8
1
62
256
6
ByLayer
370
-1
48
1
60
0
100
AcDbSpline
70
4
71
3
72
8
73
4
40
0
40
0
40
0
40
0
40
1
40
1
40
1
40
1
41
1
10
9.91334164175098
20
1.38822678881283
30
0
41
1
10
9.98691708068725
20
1.39863084448646
30
0
41
1
10
10.0607171844079
20
1.40769997515176
30
0
41
1
10
10.1347267032004
20
1.41425167375027
30
0
0
SPLINE
5
289
100
AcDbEntity
8
1
62
256
6
ByLayer
370
-1
48
1
60
0
100
AcDbSpline
70
4
71
3
72
10
73
6
40
0
40
0
40
0
40
0
40
0.736240194588497
40
0.736240194588497
40
1
40
1
40
1
40
1
41
1
10
18.7742427804473
20
4.9099469883642
30
0
41
1
10
18.7761856660103
20
4.92771067342886
30
0
41
1
10
18.7828502767515
20
4.94587168749842
30
0
41
1
10
18.8009073526917
20
4.96681245349589
30
0
41
1
10
18.8066416913032
20
4.97205849018502
30
0
41
1
10
18.8133055561053
20
4.97664774259877
30
0
0
SPLINE
5
28A
100
AcDbEntity
8
1
62
256
6
ByLayer
370
-1
48
1
60
0
100
AcDbSpline
70
4
71
3
72
14
73
10
40
0
40
0
40
0
40
0
40
0.249103078948816
40
0.249103078948816
40
0.49816092594417
40
0.49816092594417
40
0.745586162481393
40
0.745586162481393
40
1
40
1
40
1
40
1
41
1
10
17.6088532415244
20
1.36779654241121
30
0
41
1
10
17.6178273286635
20
1.38343029208625
30
0
41
1
10
17.6270673304537
20
1.39908522522293
30
0
41
1
10
17.6456833875002
20
1.42978248303478
30
0
41
1
10
17.6551239478228
20
1.44493143694911
30
0
41
1
10
17.6738239949627
20
1.47412541456873
30
0
41
1
10
17.6831469845217
20
1.48827498241184
30
0
41
1
10
17.7016850585771
20
1.51559035719922
30
0
41
1
10
17.7109552075875
20
1.52881367397922
30
0
41
1
10
17.719900630043
20
1.54112859163766
30
0
0
SPLINE
5
28B
100
AcDbEntity
8
1
62
256
6
ByLayer
370
-1
48
1
60
0
100
AcDbSpline
70
4
71
3
72
8
73
4
40
0
40
0
40
0
40
0
40
1
40
1
40
1
40
1
41
1
10
13.2999293044932
20
6.84821515108339
30
0
41
1
10
13.3664051945027
20
6.94762679071212
30
0
41
1
10
13.4217786747369
20
7.05464236867394
30
0
41
1
10
13.4731828353645
20
7.16290126267648
30
0
0
SPLINE
5
28C
100
AcDbEntity
8
1
62
256
6
ByLayer
370
-1
48
1
60
0
100
AcDbSpline
70
4
71
3
72
8
73
4
40
0
40
0
40
0
40
0
40
1
40
1
40
1
40
1
41
1
10
13.38027361562
20
7.20492469838345
30
0
41
1
10
13.3535901704781
20
7.13575739424246
30
0
41
1
10
13.3256519560859
20
7.06706013935636
30
0
41
1
10
13.2954528919263
20
6.99943685710028
30
0
0
SPLINE
5
28D
100
AcDbEntity
8
1
62
256
6
ByLayer
370
-1
48
1
60
0
100
AcDbSpline
70
4
71
3
72
8
73
4
40
0
40
0
40
0
40
0
40
1
40
1
40
1
40
1
41
1
10
16.6166846596892
20
1.23418656745187
30
0
41
1
10
16.5720165005225
20
1.29315167975696
30
0
41
1
10
16.528369337438
20
1.35298084102138
30
0
41
1
10
16.486753912021
20
1.41425167376693
30
0
0
SPLINE
5
28E
100
AcDbEntity
8
1
62
256
6
ByLayer
370
-1
48
1
60
0
100
AcDbSpline
70
4
71
3
72
22
73
18
40
0
40
0
40
0
40
0
40
0.0236324717629815
40
0.0236324717629815
40
0.0629814022064228
40
0.0629814022064228
40
0.0762359204463672
40
0.0762359204463672
40
0.134099172814615
40
0.134099172814615
40
0.288877504287522
40
0.288877504287522
40
0.442933094377613
40
0.442933094377613
40
0.668543354429521
40
0.668543354429521
40
1
40
1
40
1
40
1
41
1
10
12.4620457106667
20
6.83164744550649
30
0
41
1
10
12.4572250226283
20
6.83286692322432
30
0
41
1
10
12.4525938887089
20
6.8352046880172
30
0
41
1
10
12.4419301255027
20
6.84315666426866
30
0
41
1
10
12.4365841894058
20
6.84996229041553
30
0
41
1
10
12.4307736062161
20
6.8595142531444
30
0
41
1
10
12.4293967042068
20
6.86201065609905
30
0
41
1
10
12.4225000346638
20
6.87556359986579
30
0
41
1
10
12.4183960621866
20
6.88735983724828
30
0
41
1
10
12.4060040361232
20
6.93096337808672
30
0
41
1
10
12.401728130715
20
6.96395761767806
30
0
41
1
10
12.3958107080975
20
7.02945336894294
30
0
41
1
10
12.3944745194922
20
7.0622938616649
30
0
41
1
10
12.3932173468658
20
7.14314080419973
30
0
41
1
10
12.3942873057108
20
7.19119494300443
30
0
41
1
10
12.3993203194879
20
7.30962874305479
30
0
41
1
10
12.4044531936566
20
7.37998186395359
30
0
41
1
10
12.41077726023
20
7.45017583130991
30
0
0
SPLINE
5
28F
100
AcDbEntity
8
1
62
256
6
ByLayer
370
-1
48
1
60
0
100
AcDbSpline
70
4
71
3
72
14
73
10
40
0
40
0
40
0
40
0
40
0.233926408286265
40
0.233926408286265
40
0.467719442169562
40
0.467719442169562
40
0.701444004412148
40
0.701444004412148
40
1
40
1
40
1
40
1
41
1
10
13.5562175611151
20
8.03530241523939
30
0
41
1
10
13.5415602231738
20
8.03514310826316
30
0
41
1
10
13.5261858716944
20
8.03500113211723
30
0
41
1
10
13.4946984931923
20
8.03475721019018
30
0
41
1
10
13.478475616319
20
8.03465437534993
30
0
41
1
10
13.4457505918302
20
8.03449015115993
30
0
41
1
10
13.4291391759535
20
8.03442818994296
30
0
41
1
10
13.391522221206
20
8.03433462887722
30
0
41
1
10
13.3703725784916
20
8.03431568337456
30
0
41
1
10
13.3497828454365
20
8.03432984600988
30
0
0
SPLINE
5
290
100
AcDbEntity
8
1
62
256
6
ByLayer
370
-1
48
1
60
0
100
AcDbSpline
70
4
71
3
72
18
73
14
40
0
40
0
40
0
40
0
40
0.0414544517087686
40
0.0414544517087686
40
0.132910922468119
40
0.132910922468119
40
0.263177731540037
40
0.263177731540037
40
0.458562667326525
40
0.458562667326525
40
0.817425847463277
40
0.817425847463277
40
1
40
1
40
1
40
1
41
1
10
10.555200939008
20
1.37324128933008
30
0
41
1
10
10.5539420915002
20
1.37765579975664
30
0
41
1
10
10.5522942668598
20
1.38197379211496
30
0
41
1
10
10.5459765690746
20
1.39512673292416
30
0
41
1
10
10.5399354891618
20
1.40339650171219
30
0
41
1
10
10.523217287748
20
1.42082382795576
30
0
41
1
10
10.5114895761194
20
1.42924207054574
30
0
41
1
10
10.4808755129279
20
1.44686307066459
30
0
41
1
10
10.4609441720803
20
1.45469365090742
30
0
41
1
10
10.4037621091905
20
1.47269225185468
30
0
41
1
10
10.3652988399352
20
1.47960128608483
30
0
41
1
10
10.3072597363023
20
1.48699549330797
30
0
41
1
10
10.2875826604461
20
1.48891817456902
30
0
41
1
10
10.2678834544934
20
1.49041553626708
30
0
0
SPLINE
5
291
100
AcDbEntity
8
1
62
256
6
ByLayer
370
-1
48
1
60
0
100
AcDbSpline
70
4
71
3
72
14
73
10
40
0
40
0
40
0
40
0
40
0.314392366702086
40
0.314392366702086
40
0.632200716155307
40
0.632200716155307
40
0.912513196202093
40
0.912513196202093
40
1
40
1
40
1
40
1
41
1
10
6.73257395588792
20
7.27114667561219
30
0
41
1
10
6.72177411048912
20
7.27124542504529
30
0
41
1
10
6.71073647498977
20
7.26981880385912
30
0
41
1
10
6.68983394160395
20
7.26309431423604
30
0
41
1
10
6.67972211545612
20
7.25760941371072
30
0
41
1
10
6.66338086539264
20
7.24425131019734
30
0
41
1
10
6.65662989097316
20
7.2366142785713
30
0
41
1
10
6.6492580406468
20
7.22574311429645
30
0
41
1
10
6.64759301871911
20
7.22306510654849
30
0
41
1
10
6.64602726701006
20
7.2203328613372
30
0
0
SPLINE
5
292
100
AcDbEntity
8
1
62
256
6
ByLayer
370
-1
48
1
60
0
100
AcDbSpline
70
4
71
3
72
22
73
18
40
0
40
0
40
0
40
0
40
0.153101873520338
40
0.153101873520338
40
0.442621285364909
40
0.442621285364909
40
0.707385074439689
40
0.707385074439689
40
0.843532608240172
40
0.843532608240172
40
0.926352665771253
40
0.926352665771253
40
0.963706736955258
40
0.963706736955258
40
0.977863955360662
40
0.977863955360662
40
1
40
1
40
1
40
1
41
1
10
16.4867539120336
20
1.41425167374848
30
0
41
1
10
16.4749478480495
20
1.43163386711774
30
0
41
1
10
16.463310533213
20
1.44913877586134
30
0
41
1
10
16.4303126666358
20
1.50016453548949
30
0
41
1
10
16.4094537402272
20
1.53407002489226
30
0
41
1
10
16.3723746248845
20
1.60060375047439
30
0
41
1
10
16.3556663158406
20
1.63313887011193
30
0
41
1
10
16.3354851679201
20
1.68454402642521
30
0
41
1
10
16.3294309793092
20
1.70249913771227
30
0
41
1
10
16.3237186884117
20
1.73218902677237
30
0
41
1
10
16.3224213629589
20
1.7438187244864
30
0
41
1
10
16.3240911330321
20
1.76037762218831
30
0
41
1
10
16.325160459117
20
1.76556538105839
30
0
41
1
10
16.3277560509705
20
1.77225217135455
30
0
41
1
10
16.3285957333923
20
1.7740587912765
30
0
41
1
10
16.3310650361875
20
1.77847520073101
30
0
41
1
10
16.3328997338756
20
1.78100103597785
30
0
41
1
10
16.3350084051994
20
1.78322443750588
30
0
0
SPLINE
5
293
100
AcDbEntity
8
1
62
256
6
ByLayer
370
-1
48
1
60
0
100
AcDbSpline
70
4
71
3
72
14
73
10
40
0
40
0
40
0
40
0
40
0.233926408286285
40
0.233926408286285
40
0.467719442169546
40
0.467719442169546
40
0.701444004412121
40
0.701444004412121
40
1
40
1
40
1
40
1
41
1
10
17.200112275023
20
0.635605734501382
30
0
41
1
10
17.2047773820496
20
0.6467911380239
30
0
41
1
10
17.2100851985622
20
0.658792201164346
30
0
41
1
10
17.2217288225113
20
0.683871613687955
30
0
41
1
10
17.2281046225794
20
0.697037050434375
30
0
41
1
10
17.2416789639853
20
0.724056389360783
30
0
41
1
10
17.2489224416698
20
0.738000257213542
30
0
41
1
10
17.2660967926154
20
0.77007609820663
30
0
41
1
10
17.2763081455361
20
0.788470009721863
30
0
41
1
10
17.2867871174629
20
0.806725417922934
30
0
0
SPLINE
5
294
100
AcDbEntity
8
1
62
256
6
ByLayer
370
-1
48
1
60
0
100
AcDbSpline
70
4
71
3
72
20
73
16
40
0
40
0
40
0
40
0
40
0.314859192648765
40
0.314859192648765
40
0.531558880441055
40
0.531558880441055
40
0.682135903694817
40
0.682135903694817
40
0.839619845966513
40
0.839619845966513
40
0.903112673776002
40
0.903112673776002
40
0.9679021282098
40
0.9679021282098
40
1
40
1
40
1
40
1
41
1
10
17.3654829892311
20
2.04666589827698
30
0
41
1
10
17.3049327309989
20
2.08521168995253
30
0
41
1
10
17.2433759476603
20
2.12224542249586
30
0
41
1
10
17.1370096764753
20
2.18004829344167
30
0
41
1
10
17.0929075800974
20
2.20234266127909
30
0
41
1
10
17.016445014408
20
2.23601433615474
30
0
41
1
10
16.9845444211844
20
2.24869543327682
30
0
41
1
10
16.9180353855381
20
2.27011248151916
30
0
41
1
10
16.882990830203
20
2.27906717703095
30
0
41
1
10
16.8331111778334
20
2.28273381181415
30
0
41
1
10
16.8185315133887
20
2.28269404612266
30
0
41
1
10
16.7898229857061
20
2.27864764131411
30
0
41
1
10
16.775267204425
20
2.27441957515157
30
0
41
1
10
16.7563936346938
20
2.26318503017086
30
0
41
1
10
16.7505051791122
20
2.25854660122477
30
0
41
1
10
16.7454306218229
20
2.25319594353653
30
0
0
SPLINE
5
295
100
AcDbEntity
8
1
62
256
6
ByLayer
370
-1
48
1
60
0
100
AcDbSpline
70
4
71
3
72
14
73
10
40
0
40
0
40
0
40
0
40
0.249103078948818
40
0.249103078948818
40
0.498160925944202
40
0.498160925944202
40
0.745586162481404
40
0.745586162481404
40
1
40
1
40
1
40
1
41
1
10
12.7169673777718
20
8.03476512774395
30
0
41
1
10
12.6993345355525
20
8.03477725648372
30
0
41
1
10
12.6819729123914
20
8.0348136830408
30
0
41
1
10
12.6485077966479
20
8.0349327283792
30
0
41
1
10
12.632287875304
20
8.03501574543887
30
0
41
1
10
12.6016194917675
20
8.03522423210603
30
0
41
1
10
12.5870571788131
20
8.03535011699188
30
0
41
1
10
12.5595733481827
20
8.03564483336237
30
0
41
1
10
12.5466126136757
20
8.03581581965031
30
0
41
1
10
12.5349052081718
20
8.03600492431937
30
0
0
SPLINE
5
296
100
AcDbEntity
8
1
62
256
6
ByLayer
370
-1
48
1
60
0
100
AcDbSpline
70
4
71
3
72
8
73
4
40
0
40
0
40
0
40
0
40
1
40
1
40
1
40
1
41
1
10
16.3613052150404
20
1.49041553624292
30
0
41
1
10
16.4130235035918
20
1.38201980677724
30
0
41
1
10
16.4767522922836
20
1.27956589040161
30
0
41
1
10
16.5435167128613
20
1.179977451252
30
0
0
SPLINE
5
297
100
AcDbEntity
8
1
62
256
6
ByLayer
370
-1
48
1
60
0
100
AcDbSpline
70
4
71
3
72
10
73
6
40
0
40
0
40
0
40
0
40
0.638746828356588
40
0.638746828356588
40
1
40
1
40
1
40
1
41
1
10
10.1347267031899
20
1.41425167373805
30
0
41
1
10
10.0125323316458
20
1.34620970516207
30
0
41
1
10
9.88952460076146
20
1.27705254600753
30
0
41
1
10
9.69701753901131
20
1.16809281053639
30
0
41
1
10
9.62736343655504
20
1.12851324931194
30
0
41
1
10
9.55777671703575
20
1.08882141239539
30
0
0
SPLINE
5
298
100
AcDbEntity
8
1
62
256
6
ByLayer
370
-1
48
1
60
0
100
AcDbSpline
70
4
71
3
72
10
73
6
40
0
40
0
40
0
40
0
40
0.388885978132957
40
0.388885978132957
40
1
40
1
40
1
40
1
41
1
10
16.3613052150403
20
1.49041553624301
30
0
41
1
10
16.3783644175621
20
1.48043172316656
30
0
41
1
10
16.3952332013558
20
1.47041197694813
30
0
41
1
10
16.4376552303556
20
1.44486554821211
30
0
41
1
10
16.4629270799275
20
1.42931206328447
30
0
41
1
10
16.4867539120335
20
1.41425167374837
30
0
0
SPLINE
5
299
100
AcDbEntity
8
1
62
256
6
ByLayer
370
-1
48
1
60
0
100
AcDbSpline
70
4
71
3
72
10
73
6
40
0
40
0
40
0
40
0
40
0.638746828356585
40
0.638746828356585
40
1
40
1
40
1
40
1
41
1
10
16.4867539120354
20
1.4142516737644
30
0
41
1
10
16.594402160943
20
1.34620970518844
30
0
41
1
10
16.7054398367824
20
1.27705254600753
30
0
41
1
10
16.8821551129304
20
1.16809281053639
30
0
41
1
10
16.9467211829328
20
1.12851324931191
30
0
41
1
10
17.0118324508743
20
1.08882141239539
30
0
0
SPLINE
5
29A
100
AcDbEntity
8
1
62
256
6
ByLayer
370
-1
48
1
60
0
100
AcDbSpline
70
4
71
3
72
20
73
16
40
0
40
0
40
0
40
0
40
0.314859192648761
40
0.314859192648761
40
0.531558880441061
40
0.531558880441061
40
0.682135903694822
40
0.682135903694822
40
0.839619845966509
40
0.839619845966509
40
0.903112673776001
40
0.903112673776001
40
0.967902128209798
40
0.967902128209798
40
1
40
1
40
1
40
1
41
1
10
10.2426823462541
20
0.328002194660115
30
0
41
1
10
10.3056905795278
20
0.361876920595364
30
0
41
1
10
10.3679098951449
20
0.397396328553953
30
0
41
1
10
10.4701417935161
20
0.4618810902451
30
0
41
1
10
10.5111033748399
20
0.489458166139741
30
0
41
1
10
10.5778719363796
20
0.539772991326004
30
0
41
1
10
10.6045621935874
20
0.561451349730987
30
0
41
1
10
10.6559249807922
20
0.609171081177777
30
0
41
1
10
10.6810011024768
20
0.635486019196406
30
0
41
1
10
10.7089484534044
20
0.677501859378964
30
0
41
1
10
10.7161692773853
20
0.69034138720923
30
0
41
1
10
10.7270029417723
20
0.71761704796225
30
0
41
1
10
10.73063934066
20
0.732539806112385
30
0
41
1
10
10.7304478484016
20
0.754779193985343
30
0
41
1
10
10.7294214123975
20
0.762287149528788
30
0
41
1
10
10.7273824684251
20
0.769437292314677
30
0
0
SPLINE
5
29B
100
AcDbEntity
8
1
62
256
6
ByLayer
370
-1
48
1
60
0
100
AcDbSpline
70
4
71
3
72
12
73
8
40
0
40
0
40
0
40
0
40
0.197891272102657
40
0.197891272102657
40
0.598376100017384
40
0.598376100017384
40
1
40
1
40
1
40
1
41
1
10
13.295452891935
20
6.99943685711852
30
0
41
1
10
13.2930266206922
20
7.04099576189569
30
0
41
1
10
13.2907280767019
20
7.08280724170399
30
0
41
1
10
13.2841133946002
20
7.20979975215823
30
0
41
1
10
13.2801344652682
20
7.29559998374981
30
0
41
1
10
13.2729324792145
20
7.4684251122705
30
0
41
1
10
13.2697107601069
20
7.55552157445365
30
0
41
1
10
13.2668649176585
20
7.64299384771272
30
0
0
SPLINE
5
29C
100
AcDbEntity
8
1
62
256
6
ByLayer
370
-1
48
1
60
0
100
AcDbSpline
70
4
71
3
72
22
73
18
40
0
40
0
40
0
40
0
40
0.153101873520345
40
0.153101873520345
40
0.442621285364902
40
0.442621285364902
40
0.707385074439683
40
0.707385074439683
40
0.843532608240165
40
0.843532608240165
40
0.926352665771249
40
0.926352665771249
40
0.963706736955258
40
0.963706736955258
40
0.977863955360655
40
0.977863955360655
40
1
40
1
40
1
40
1
41
1
10
13.2954528919353
20
6.99943685712066
30
0
41
1
10
13.2868855859389
20
6.98025250927068
30
0
41
1
10
13.2781280040175
20
6.96115586259972
30
0
41
1
10
13.2521245145787
20
6.90630824982364
30
0
41
1
10
13.2342963481258
20
6.87080796872778
30
0
41
1
10
13.1973298178688
20
6.80455421994736
30
0
41
1
10
13.1785208505872
20
6.77341566620785
30
0
41
1
10
13.1456063752191
20
6.72971841411106
30
0
41
1
10
13.1335983744533
20
6.71533575041752
30
0
41
1
10
13.111533020745
20
6.69535623643833
30
0
41
1
10
13.1024066563918
20
6.68836196823125
30
0
41
1
10
13.0876046911259
20
6.68151463603468
30
0
41
1
10
13.0826866623494
20
6.67985264606077
30
0
41
1
10
13.0757219772871
20
6.67878732381456
30
0
41
1
10
13.0737691459088
20
6.67862194894906
30
0
41
1
10
13.0687811999913
20
6.67858627361238
30
0
41
1
10
13.0657113919648
20
6.67893960764286
30
0
41
1
10
13.0627554619659
20
6.67968736205887
30
0
0
SPLINE
5
29D
100
AcDbEntity
8
1
62
256
6
ByLayer
370
-1
48
1
60
0
100
AcDbSpline
70
4
71
3
72
14
73
10
40
0
40
0
40
0
40
0
40
0.314392366702065
40
0.314392366702065
40
0.63220071615529
40
0.63220071615529
40
0.912513196202122
40
0.912513196202122
40
1
40
1
40
1
40
1
41
1
10
13.0957854753742
20
-4.44240387219583
30
0
41
1
10
13.1014000807494
20
-4.45207746814881
30
0
41
1
10
13.1083765349302
20
-4.4611734993351
30
0
41
1
10
13.124849100875
20
-4.47631716715225
30
0
41
1
10
13.1346270235576
20
-4.48248801735744
30
0
41
1
10
13.1540716730801
20
-4.49013453044128
30
0
41
1
10
13.163821967986
20
-4.49219711331847
30
0
41
1
10
13.1765212304493
20
-4.49313911142983
30
0
41
1
10
13.1795699713852
20
-4.49323665791951
30
0
41
1
10
13.1826103329699
20
-4.49321768647087
30
0
0
SPLINE
5
29E
100
AcDbEntity
8
1
62
256
6
ByLayer
370
-1
48
1
60
0
100
AcDbSpline
70
4
71
3
72
14
73
10
40
0
40
0
40
0
40
0
40
0.249103078948828
40
0.249103078948828
40
0.498160925944178
40
0.498160925944178
40
0.745586162481385
40
0.745586162481385
40
1
40
1
40
1
40
1
41
1
10
9.48788564925579
20
0.416008302395994
30
0
41
1
10
9.49694525342065
20
0.400398810200557
30
0
41
1
10
9.50627075518776
20
0.384816730177988
30
0
41
1
10
9.52505420573308
20
0.354357563042981
30
0
41
1
10
9.53457724111485
20
0.339374643247965
30
0
41
1
10
9.55343596276015
20
0.31059763896269
30
0
41
1
10
9.56283572179547
20
0.296699840891279
30
0
41
1
10
9.58152171432562
20
0.269973898844853
30
0
41
1
10
9.59086331536315
20
0.257092554640764
30
0
41
1
10
9.59987511783561
20
0.245155846320415
30
0
0
SPLINE
5
29F
100
AcDbEntity
8
1
62
256
6
ByLayer
370
-1
48
1
60
0
100
AcDbSpline
70
4
71
3
72
10
73
6
40
0
40
0
40
0
40
0
40
0.736240194588487
40
0.736240194588487
40
1
40
1
40
1
40
1
41
1
10
11.8848358543468
20
-2.42014938153486
30
0
41
1
10
11.8927248065543
20
-2.43528525465575
30
0
41
1
10
11.898731255719
20
-2.4546808486347
30
0
41
1
10
11.9002589568049
20
-2.48633474742988
30
0
41
1
10
11.9000056858951
20
-2.49535315911436
30
0
41
1
10
11.8988727195565
20
-2.50475659995283
30
0
0
LINE
5
49
100
AcDbEntity
8
1
62
256
6
ByLayer
370
-1
48
1
60
0
100
AcDbLine
10
6.71691
20
7.396338
30
0
11
6.028181
21
7.33382
31
0
39
0
210
0
220
0
230
1
0
LINE
5
4B
100
AcDbEntity
8
1
62
256
6
ByLayer
370
-1
48
1
60
0
100
AcDbLine
10
10.392831
20
8.037463
30
0
11
9.637556
21
7.968905
31
0
39
0
210
0
220
0
230
1
0
LINE
5
4C
100
AcDbEntity
8
1
62
256
6
ByLayer
370
-1
48
1
60
0
100
AcDbLine
10
8.461811
20
7.591334
30
0
11
7.795335
21
7.530836
31
0
39
0
210
0
220
0
230
1
0
LINE
5
4D
100
AcDbEntity
8
1
62
256
6
ByLayer
370
-1
48
1
60
0
100
AcDbLine
10
12.513971
20
-4.680272
30
0
11
13.202155
21
-4.617804
31
0
39
0
210
0
220
0
230
1
0
LINE
5
4E
100
AcDbEntity
8
1
62
256
6
ByLayer
370
-1
48
1
60
0
100
AcDbLine
10
11.949191
20
-3.519088
30
0
11
12.615313
21
-3.458622
31
0
39
0
210
0
220
0
230
1
0
LINE
5
4F
100
AcDbEntity
8
1
62
256
6
ByLayer
370
-1
48
1
60
0
100
AcDbLine
10
5.759494
20
8.100017
30
0
11
5.759503
21
8.116182
31
0
39
0
210
0
220
0
230
1
0
LINE
5
50
100
AcDbEntity
8
1
62
256
6
ByLayer
370
-1
48
1
60
0
100
AcDbLine
10
13.072657
20
5.997219
30
0
11
12.857606
21
5.975931
31
0
39
0
210
0
220
0
230
1
0
LINE
5
51
100
AcDbEntity
8
1
62
256
6
ByLayer
370
-1
48
1
60
0
100
AcDbLine
10
13.394491
20
0.55244
30
0
11
13.609543
21
0.573728
31
0
39
0
210
0
220
0
230
1
0
LINE
5
52
100
AcDbEntity
8
1
62
256
6
ByLayer
370
-1
48
1
60
0
100
AcDbLine
10
12.374525
20
2.256523
30
0
11
12.127372
21
2.232057
31
0
39
0
210
0
220
0
230
1
0
LINE
5
53
100
AcDbEntity
8
1
62
256
6
ByLayer
370
-1
48
1
60
0
100
AcDbLine
10
12.18593
20
4.287333
30
0
11
12.428589
21
4.311354
31
0
39
0
210
0
220
0
230
1
0
LINE
5
54
100
AcDbEntity
8
1
62
256
6
ByLayer
370
-1
48
1
60
0
100
AcDbLine
10
14.213687
20
2.255641
30
0
11
13.970675
21
2.231585
31
0
39
0
210
0
220
0
230
1
0
LINE
5
55
100
AcDbEntity
8
1
62
256
6
ByLayer
370
-1
48
1
60
0
100
AcDbLine
10
14.029233
20
4.286861
30
0
11
14.276285
21
4.311317
31
0
39
0
210
0
220
0
230
1
0
LINE
5
56
100
AcDbEntity
8
80
62
256
6
ByLayer
370
-1
48
1
60
0
100
AcDbLine
10
0
20
0
30
0
11
-5
21
0
31
0
39
0
210
0
220
0
230
1
0
LINE
5
57
100
AcDbEntity
8
81
62
256
6
ByLayer
370
-1
48
1
60
0
100
AcDbLine
10
21.351763
20
8.0375
30
0
11
26.351763
21
8.0375
31
0
39
0
210
0
220
0
230
1
0
LINE
5
58
100
AcDbEntity
8
1
62
256
6
ByLayer
370
-1
48
1
60
0
100
AcDbLine
10
6.634545
20
4.896324
30
0
11
5.16793
21
7.461916
31
0
39
0
210
0
220
0
230
1
0
LINE
5
59
100
AcDbEntity
8
1
62
256
6
ByLayer
370
-1
48
1
60
0
100
AcDbLine
10
10.099465
20
-1.164958
30
0
11
11.220364
21
-3.125779
31
0
39
0
210
0
220
0
230
1
0
LINE
5
5A
100
AcDbEntity
8
1
62
256
6
ByLayer
370
-1
48
1
60
0
100
AcDbLine
10
5.048849
20
7.475341
30
0
11
11.218607
21
-3.317592
31
0
39
0
210
0
220
0
230
1
0
LINE
5
5B
100
AcDbEntity
8
1
62
256
6
ByLayer
370
-1
48
1
60
0
100
AcDbLine
10
16.593814
20
-1.354729
30
0
11
16.594337
21
-1.529858
31
0
39
0
210
0
220
0
230
1
0
LINE
5
5C
100
AcDbEntity
8
1
62
256
6
ByLayer
370
-1
48
1
60
0
100
AcDbLine
10
0.5
20
-8.4625
30
0
11
0.979506
21
-10.25204
31
0
39
0
210
0
220
0
230
1
0
LINE
5
5D
100
AcDbEntity
8
1
62
256
6
ByLayer
370
-1
48
1
60
0
100
AcDbLine
10
1.274753
20
7.475341
30
0
11
0.5
21
7.42408
31
0
39
0
210
0
220
0
230
1
0
LINE
5
5E
100
AcDbEntity
8
1
62
256
6
ByLayer
370
-1
48
1
60
0
100
AcDbLine
10
5.16793
20
7.461916
30
0
11
5.048849
21
7.475341
31
0
39
0
210
0
220
0
230
1
0
LINE
5
5F
100
AcDbEntity
8
1
62
256
6
ByLayer
370
-1
48
1
60
0
100
AcDbLine
10
15.991444
20
-1.554719
30
0
11
16.323201
21
-1.554719
31
0
39
0
210
0
220
0
230
1
0
LINE
5
60
100
AcDbEntity
8
1
62
256
6
ByLayer
370
-1
48
1
60
0
100
AcDbLine
10
14.294196
20
-10.25204
30
0
11
1.353925
21
-10.25204
31
0
39
0
210
0
220
0
230
1
0
LINE
5
61
100
AcDbEntity
8
1
62
256
6
ByLayer
370
-1
48
1
60
0
100
AcDbLine
10
0
20
-7.9625
30
0
11
0.5
21
-8.4625
31
0
39
0
210
0
220
0
230
1
0
LINE
5
62
100
AcDbEntity
8
1
62
256
6
ByLayer
370
-1
48
1
60
0
100
AcDbLine
10
17.83871
20
-1.52987
30
0
11
17.8586
21
-8.193301
31
0
39
0
210
0
220
0
230
1
0
LINE
5
63
100
AcDbEntity
8
1
62
256
6
ByLayer
370
-1
48
1
60
0
100
AcDbLine
10
0.5
20
7.42408
30
0
11
0.5
21
-8.4625
31
0
39
0
210
0
220
0
230
1
0
LINE
5
64
100
AcDbEntity
8
1
62
256
6
ByLayer
370
-1
48
1
60
0
100
AcDbLine
10
0
20
7.414123
30
0
11
0.5
21
7.42408
31
0
39
0
210
0
220
0
230
1
0
LINE
5
65
100
AcDbEntity
8
1
62
256
6
ByLayer
370
-1
48
1
60
0
100
AcDbLine
10
11.218607
20
-3.317592
30
0
11
11.191587
21
-3.347106
31
0
39
0
210
0
220
0
230
1
0
LINE
5
66
100
AcDbEntity
8
1
62
256
6
ByLayer
370
-1
48
1
60
0
100
AcDbLine
10
17.83871
20
-1.52987
30
0
11
16.378921
21
-1.52987
31
0
39
0
210
0
220
0
230
1
0
LINE
5
67
100
AcDbEntity
8
1
62
256
6
ByLayer
370
-1
48
1
60
0
100
AcDbLine
10
15.879404
20
-1.752732
30
0
11
16.378921
21
-1.52987
31
0
39
0
210
0
220
0
230
1
0
LINE
5
68
100
AcDbEntity
8
1
62
256
6
ByLayer
370
-1
48
1
60
0
100
AcDbLine
10
13.50753
20
-5.691173
30
0
11
14.558225
21
-3.833766
31
0
39
0
210
0
220
0
230
1
0
LINE
5
69
100
AcDbEntity
8
1
62
256
6
ByLayer
370
-1
48
1
60
0
100
AcDbLine
10
11.218607
20
-3.317592
30
0
11
11.220364
21
-3.125779
31
0
39
0
210
0
220
0
230
1
0
LINE
5
6A
100
AcDbEntity
8
1
62
256
6
ByLayer
370
-1
48
1
60
0
100
AcDbLine
10
0
20
-7.9625
30
0
11
0
21
7.414123
31
0
39
0
210
0
220
0
230
1
0
LINE
5
6B
100
AcDbEntity
8
1
62
256
6
ByLayer
370
-1
48
1
60
0
100
AcDbLine
10
1.353925
20
-10.25204
30
0
11
1.274753
21
7.475341
31
0
39
0
210
0
220
0
230
1
0
LINE
5
6C
100
AcDbEntity
8
1
62
256
6
ByLayer
370
-1
48
1
60
0
100
AcDbLine
10
5.048849
20
7.475341
30
0
11
1.274753
21
7.475341
31
0
39
0
210
0
220
0
230
1
0
LINE
5
6D
100
AcDbEntity
8
1
62
256
6
ByLayer
370
-1
48
1
60
0
100
AcDbLine
10
16.378921
20
-1.52987
30
0
11
14.45123
21
-4.937624
31
0
39
0
210
0
220
0
230
1
0
LINE
5
6E
100
AcDbEntity
8
1
62
256
6
ByLayer
370
-1
48
1
60
0
100
AcDbLine
10
11.569875
20
-3.397968
30
0
11
11.56495
21
-3.397945
31
0
39
0
210
0
220
0
230
1
0
LINE
5
6F
100
AcDbEntity
8
1
62
256
6
ByLayer
370
-1
48
1
60
0
100
AcDbLine
10
1.353925
20
-10.25204
30
0
11
0.979506
21
-10.25204
31
0
39
0
210
0
220
0
230
1
0
LINE
5
70
100
AcDbEntity
8
1
62
256
6
ByLayer
370
-1
48
1
60
0
100
AcDbLine
10
7.039236
20
4.284169
30
0
11
9.748908
21
-0.455936
31
0
39
0
210
0
220
0
230
1
0
LINE
5
71
100
AcDbEntity
8
1
62
256
6
ByLayer
370
-1
48
1
60
0
100
AcDbLine
10
17.8586
20
-8.193301
30
0
11
14.294196
21
-10.25204
31
0
39
0
210
0
220
0
230
1
0
LINE
5
72
100
AcDbEntity
8
1
62
256
6
ByLayer
370
-1
48
1
60
0
100
AcDbLine
10
10.388808
20
-1.671126
30
0
11
10.704537
21
-1.642467
31
0
39
0
210
0
220
0
230
1
0
LINE
5
73
100
AcDbEntity
8
1
62
256
6
ByLayer
370
-1
48
1
60
0
100
AcDbLine
10
6.490893
20
5.523507
30
0
11
6.286612
21
5.504963
31
0
39
0
210
0
220
0
230
1
0
LINE
5
74
100
AcDbEntity
8
1
62
256
6
ByLayer
370
-1
48
1
60
0
100
AcDbLine
10
5.825032
20
6.312442
30
0
11
5.828128
21
7.123539
31
0
39
0
210
0
220
0
230
1
0
LINE
5
75
100
AcDbEntity
8
1
62
256
6
ByLayer
370
-1
48
1
60
0
100
AcDbLine
10
6.230239
20
5.603585
30
0
11
6.467329
21
5.625106
31
0
39
0
210
0
220
0
230
1
0
LINE
5
76
100
AcDbEntity
8
1
62
256
6
ByLayer
370
-1
48
1
60
0
100
AcDbLine
10
9.110435
20
7.336363
30
0
11
8.98205
21
7.324709
31
0
39
0
210
0
220
0
230
1
0
LINE
5
77
100
AcDbEntity
8
1
62
256
6
ByLayer
370
-1
48
1
60
0
100
AcDbLine
10
8.730539
20
7.457858
30
0
11
9.556681
21
7.942907
31
0
39
0
210
0
220
0
230
1
0
LINE
5
78
100
AcDbEntity
8
1
62
256
6
ByLayer
370
-1
48
1
60
0
100
AcDbLine
10
10.77683
20
-1.715663
30
0
11
10.432153
21
-1.74695
31
0
39
0
210
0
220
0
230
1
0
LINE
5
79
100
AcDbEntity
8
1
62
256
6
ByLayer
370
-1
48
1
60
0
100
AcDbLine
10
11.165611
20
-2.453774
30
0
11
10.670592
21
-2.164067
31
0
39
0
210
0
220
0
230
1
0
LINE
5
7A
100
AcDbEntity
8
1
62
256
6
ByLayer
370
-1
48
1
60
0
100
AcDbLine
10
7.651442
20
6.954738
30
0
11
7.545527
21
6.945124
31
0
39
0
210
0
220
0
230
1
0
LINE
5
7B
100
AcDbEntity
8
1
62
256
6
ByLayer
370
-1
48
1
60
0
100
AcDbLine
10
7.700654
20
6.983632
30
0
11
7.506795
21
6.966035
31
0
39
0
210
0
220
0
230
1
0
LINE
5
7C
100
AcDbEntity
8
1
62
256
6
ByLayer
370
-1
48
1
60
0
100
AcDbLine
10
7.169655
20
7.177449
30
0
11
7.161589
21
7.172295
31
0
39
0
210
0
220
0
230
1
0
LINE
5
7D
100
AcDbEntity
8
1
62
256
6
ByLayer
370
-1
48
1
60
0
100
AcDbLine
10
7.77166
20
7.137521
30
0
11
7.29258
21
7.094034
31
0
39
0
210
0
220
0
230
1
0
LINE
5
7E
100
AcDbEntity
8
1
62
256
6
ByLayer
370
-1
48
1
60
0
100
AcDbLine
10
7.765494
20
7.084091
30
0
11
7.369392
21
7.048136
31
0
39
0
210
0
220
0
230
1
0
LINE
5
7F
100
AcDbEntity
8
1
62
256
6
ByLayer
370
-1
48
1
60
0
100
AcDbLine
10
12.818386
20
-3.431061
30
0
11
12.660491
21
-3.445394
31
0
39
0
210
0
220
0
230
1
0
LINE
5
80
100
AcDbEntity
8
1
62
256
6
ByLayer
370
-1
48
1
60
0
100
AcDbLine
10
12.205593
20
-3.520062
30
0
11
12.169724
21
-3.499069
31
0
39
0
210
0
220
0
230
1
0
LINE
5
81
100
AcDbEntity
8
1
62
256
6
ByLayer
370
-1
48
1
60
0
100
AcDbLine
10
5.236539
20
8.119739
30
0
11
5.236546
21
8.132534
31
0
39
0
210
0
220
0
230
1
0
LINE
5
82
100
AcDbEntity
8
1
62
256
6
ByLayer
370
-1
48
1
60
0
100
AcDbLine
10
7.016521
20
8.104904
30
0
11
7.016545
21
8.148275
31
0
39
0
210
0
220
0
230
1
0
LINE
5
83
100
AcDbEntity
8
1
62
256
6
ByLayer
370
-1
48
1
60
0
100
AcDbLine
10
5.253951
20
8.118721
30
0
11
5.253952
21
8.120217
31
0
39
0
210
0
220
0
230
1
0
LINE
5
84
100
AcDbEntity
8
1
62
256
6
ByLayer
370
-1
48
1
60
0
100
AcDbLine
10
7.003793
20
8.104512
30
0
11
7.00381
21
8.135692
31
0
39
0
210
0
220
0
230
1
0
LINE
5
85
100
AcDbEntity
8
1
62
256
6
ByLayer
370
-1
48
1
60
0
100
AcDbLine
10
6.392841
20
8.094505
30
0
11
6.392871
21
8.147888
31
0
39
0
210
0
220
0
230
1
0
LINE
5
86
100
AcDbEntity
8
1
62
256
6
ByLayer
370
-1
48
1
60
0
100
AcDbLine
10
12.179868
20
2.19856
30
0
11
12.277695
21
2.208244
31
0
39
0
210
0
220
0
230
1
0
LINE
5
87
100
AcDbEntity
8
1
62
256
6
ByLayer
370
-1
48
1
60
0
100
AcDbLine
10
12.1158
20
4.3464
30
0
11
12.271267
21
4.36179
31
0
39
0
210
0
220
0
230
1
0
LINE
5
88
100
AcDbEntity
8
1
62
256
6
ByLayer
370
-1
48
1
60
0
100
AcDbLine
10
12.15776
20
2.208475
30
0
11
12.290628
21
2.221628
31
0
39
0
210
0
220
0
230
1
0
LINE
5
89
100
AcDbEntity
8
1
62
256
6
ByLayer
370
-1
48
1
60
0
100
AcDbLine
10
12.090595
20
4.328828
30
0
11
12.284281
21
4.348001
31
0
39
0
210
0
220
0
230
1
0
LINE
5
8A
100
AcDbEntity
8
1
62
256
6
ByLayer
370
-1
48
1
60
0
100
AcDbLine
10
11.065212
20
-3.600185
30
0
11
11.501601
21
-4.364992
31
0
39
0
210
0
220
0
230
1
0
LINE
5
8B
100
AcDbEntity
8
1
62
256
6
ByLayer
370
-1
48
1
60
0
100
AcDbLine
10
17.355783
20
-0.23617
30
0
11
16.737548
21
-0.23617
31
0
39
0
210
0
220
0
230
1
0
LINE
5
8C
100
AcDbEntity
8
1
62
256
6
ByLayer
370
-1
48
1
60
0
100
AcDbLine
10
17.355136
20
0.061282
30
0
11
16.905966
21
0.061282
31
0
39
0
210
0
220
0
230
1
0
LINE
5
8D
100
AcDbEntity
8
1
62
256
6
ByLayer
370
-1
48
1
60
0
100
AcDbLine
10
17.342102
20
-0.421492
30
0
11
16.632739
21
-0.421492
31
0
39
0
210
0
220
0
230
1
0
LINE
5
8E
100
AcDbEntity
8
1
62
256
6
ByLayer
370
-1
48
1
60
0
100
AcDbLine
10
17.285376
20
-0.665146
30
0
11
16.49478
21
-0.665146
31
0
39
0
210
0
220
0
230
1
0
LINE
5
8F
100
AcDbEntity
8
1
62
256
6
ByLayer
370
-1
48
1
60
0
100
AcDbLine
10
17.26824
20
-0.771181
30
0
11
16.43487
21
-0.771181
31
0
39
0
210
0
220
0
230
1
0
LINE
5
90
100
AcDbEntity
8
1
62
256
6
ByLayer
370
-1
48
1
60
0
100
AcDbLine
10
17.158861
20
-1.10029
30
0
11
16.248582
21
-1.10029
31
0
39
0
210
0
220
0
230
1
0
LINE
5
91
100
AcDbEntity
8
1
62
256
6
ByLayer
370
-1
48
1
60
0
100
AcDbLine
10
17.215306
20
-0.996762
30
0
11
16.30719
21
-0.996762
31
0
39
0
210
0
220
0
230
1
0
LINE
5
92
100
AcDbEntity
8
1
62
256
6
ByLayer
370
-1
48
1
60
0
100
AcDbLine
10
16.155609
20
-1.264635
30
0
11
16.794277
21
-1.264635
31
0
39
0
210
0
220
0
230
1
0
LINE
5
93
100
AcDbEntity
8
1
62
256
6
ByLayer
370
-1
48
1
60
0
100
AcDbLine
10
11.501601
20
-4.364992
30
0
11
12.276739
21
-4.364992
31
0
39
0
210
0
220
0
230
1
0
LINE
5
94
100
AcDbEntity
8
1
62
256
6
ByLayer
370
-1
48
1
60
0
100
AcDbLine
10
17.340652
20
0.24457
30
0
11
17.009684
21
0.24457
31
0
39
0
210
0
220
0
230
1
0
LINE
5
95
100
AcDbEntity
8
1
62
256
6
ByLayer
370
-1
48
1
60
0
100
AcDbLine
10
12.286875
20
-4.528536
30
0
11
10.976293
21
-4.528536
31
0
39
0
210
0
220
0
230
1
0
LINE
5
96
100
AcDbEntity
8
1
62
256
6
ByLayer
370
-1
48
1
60
0
100
AcDbLine
10
17.282884
20
0.47996
30
0
11
17.135156
21
0.47996
31
0
39
0
210
0
220
0
230
1
0
LINE
5
97
100
AcDbEntity
8
1
62
256
6
ByLayer
370
-1
48
1
60
0
100
AcDbLine
10
17.265292
20
0.583488
30
0
11
17.178367
21
0.583488
31
0
39
0
210
0
220
0
230
1
0
LINE
5
98
100
AcDbEntity
8
1
62
256
6
ByLayer
370
-1
48
1
60
0
100
AcDbLine
10
16.289298
20
-1.428994
30
0
11
16.062599
21
-1.428994
31
0
39
0
210
0
220
0
230
1
0
LINE
5
99
100
AcDbEntity
8
1
62
256
6
ByLayer
370
-1
48
1
60
0
100
AcDbLine
10
17.265292
20
0.583488
30
0
11
17.264892
21
0.76727
31
0
39
0
210
0
220
0
230
1
0
LINE
5
9A
100
AcDbEntity
8
1
62
256
6
ByLayer
370
-1
48
1
60
0
100
AcDbLine
10
16.289298
20
-1.428994
30
0
11
16.794277
21
-1.264635
31
0
39
0
210
0
220
0
230
1
0
LINE
5
9B
100
AcDbEntity
8
1
62
256
6
ByLayer
370
-1
48
1
60
0
100
AcDbLine
10
17.355136
20
0.061282
30
0
11
17.355783
21
-0.23617
31
0
39
0
210
0
220
0
230
1
0
LINE
5
9C
100
AcDbEntity
8
1
62
256
6
ByLayer
370
-1
48
1
60
0
100
AcDbLine
10
14.507527
20
3.648435
30
0
11
14.763666
21
3.67379
31
0
39
0
210
0
220
0
230
1
0
LINE
5
9D
100
AcDbEntity
8
1
62
256
6
ByLayer
370
-1
48
1
60
0
100
AcDbLine
10
13.461387
20
4.731618
30
0
11
13.457367
21
4.711621
31
0
39
0
210
0
220
0
230
1
0
LINE
5
9E
100
AcDbEntity
8
1
62
256
6
ByLayer
370
-1
48
1
60
0
100
AcDbLine
10
14.528966
20
2.864072
30
0
11
14.787149
21
2.88963
31
0
39
0
210
0
220
0
230
1
0
LINE
5
9F
100
AcDbEntity
8
1
62
256
6
ByLayer
370
-1
48
1
60
0
100
AcDbLine
10
14.50985
20
2.870483
30
0
11
14.765988
21
2.895839
31
0
39
0
210
0
220
0
230
1
0
LINE
5
A0
100
AcDbEntity
8
1
62
256
6
ByLayer
370
-1
48
1
60
0
100
AcDbLine
10
14.526606
20
3.654845
30
0
11
14.784789
21
3.680403
31
0
39
0
210
0
220
0
230
1
0
LINE
5
A1
100
AcDbEntity
8
1
62
256
6
ByLayer
370
-1
48
1
60
0
100
AcDbLine
10
14.526606
20
3.654845
30
0
11
14.507527
21
3.648435
31
0
39
0
210
0
220
0
230
1
0
LINE
5
A2
100
AcDbEntity
8
1
62
256
6
ByLayer
370
-1
48
1
60
0
100
AcDbLine
10
13.461387
20
4.731618
30
0
11
13.71957
21
4.757176
31
0
39
0
210
0
220
0
230
1
0
LINE
5
A3
100
AcDbEntity
8
1
62
256
6
ByLayer
370
-1
48
1
60
0
100
AcDbLine
10
14.50985
20
2.870483
30
0
11
14.528966
21
2.864072
31
0
39
0
210
0
220
0
230
1
0
LINE
5
A4
100
AcDbEntity
8
1
62
256
6
ByLayer
370
-1
48
1
60
0
100
AcDbLine
10
13.457367
20
4.711621
30
0
11
13.713505
21
4.736977
31
0
39
0
210
0
220
0
230
1
0
LINE
5
A5
100
AcDbEntity
8
1
62
256
6
ByLayer
370
-1
48
1
60
0
100
AcDbLine
10
13.466036
20
1.807296
30
0
11
13.722175
21
1.832652
31
0
39
0
210
0
220
0
230
1
0
LINE
5
A6
100
AcDbEntity
8
1
62
256
6
ByLayer
370
-1
48
1
60
0
100
AcDbLine
10
13.470176
20
1.787299
30
0
11
13.728359
21
1.812857
31
0
39
0
210
0
220
0
230
1
0
LINE
5
A7
100
AcDbEntity
8
1
62
256
6
ByLayer
370
-1
48
1
60
0
100
AcDbLine
10
13.466036
20
1.807296
30
0
11
13.470176
21
1.787299
31
0
39
0
210
0
220
0
230
1
0
LINE
5
A8
100
AcDbEntity
8
1
62
256
6
ByLayer
370
-1
48
1
60
0
100
AcDbLine
10
7.836501
20
7.23798
30
0
11
8.409613
21
7.574469
31
0
39
0
210
0
220
0
230
1
0
LINE
5
A9
100
AcDbEntity
8
1
62
256
6
ByLayer
370
-1
48
1
60
0
100
AcDbLine
10
9.075134
20
1.149274
30
0
11
9.913342
21
1.388227
31
0
39
0
210
0
220
0
230
1
0
LINE
5
AA
100
AcDbEntity
8
1
62
256
6
ByLayer
370
-1
48
1
60
0
100
AcDbLine
10
6.575578
20
5.99955
30
0
11
6.608101
21
7.077903
31
0
39
0
210
0
220
0
230
1
0
LINE
5
AB
100
AcDbEntity
8
1
62
256
6
ByLayer
370
-1
48
1
60
0
100
AcDbLine
10
19.782828
20
7.184459
30
0
11
19.687697
21
7.128655
31
0
39
0
210
0
220
0
230
1
0
LINE
5
AC
100
AcDbEntity
8
1
62
256
6
ByLayer
370
-1
48
1
60
0
100
AcDbLine
10
12.277697
20
-4.469991
30
0
11
12.269909
21
-3.631766
31
0
39
0
210
0
220
0
230
1
0
LINE
5
AD
100
AcDbEntity
8
1
62
256
6
ByLayer
370
-1
48
1
60
0
100
AcDbLine
10
6.939264
20
5.745705
30
0
11
7.346945
21
5.742316
31
0
39
0
210
0
220
0
230
1
0
LINE
5
AE
100
AcDbEntity
8
1
62
256
6
ByLayer
370
-1
48
1
60
0
100
AcDbLine
10
19.130581
20
6.308907
30
0
11
19.130739
21
6.251119
31
0
39
0
210
0
220
0
230
1
0
LINE
5
AF
100
AcDbEntity
8
1
62
256
6
ByLayer
370
-1
48
1
60
0
100
AcDbLine
10
17.696772
20
7.304364
30
0
11
17.250686
21
8.025964
31
0
39
0
210
0
220
0
230
1
0
LINE
5
B0
100
AcDbEntity
8
1
62
256
6
ByLayer
370
-1
48
1
60
0
100
AcDbLine
10
17.85366
20
1.735896
30
0
11
18.814217
21
3.433256
31
0
39
0
210
0
220
0
230
1
0
LINE
5
B1
100
AcDbEntity
8
1
62
256
6
ByLayer
370
-1
48
1
60
0
100
AcDbLine
10
19.286748
20
6.008643
30
0
11
19.28859
21
5.335665
31
0
39
0
210
0
220
0
230
1
0
LINE
5
B2
100
AcDbEntity
8
1
62
256
6
ByLayer
370
-1
48
1
60
0
100
AcDbLine
10
13.349783
20
8.03433
30
0
11
12.716967
21
8.034765
31
0
39
0
210
0
220
0
230
1
0
LINE
5
B3
100
AcDbEntity
8
1
62
256
6
ByLayer
370
-1
48
1
60
0
100
AcDbLine
10
16.958356
20
8.028432
30
0
11
16.674644
21
8.0371
31
0
39
0
210
0
220
0
230
1
0
LINE
5
B4
100
AcDbEntity
8
1
62
256
6
ByLayer
370
-1
48
1
60
0
100
AcDbLine
10
11.859755
20
-2.390765
30
0
11
11.165611
21
-2.453774
31
0
39
0
210
0
220
0
230
1
0
LINE
5
B5
100
AcDbEntity
8
1
62
256
6
ByLayer
370
-1
48
1
60
0
100
AcDbLine
10
7.169655
20
7.177449
30
0
11
7.742766
21
7.513937
31
0
39
0
210
0
220
0
230
1
0
LINE
5
B6
100
AcDbEntity
8
1
62
256
6
ByLayer
370
-1
48
1
60
0
100
AcDbLine
10
14.387206
20
-2.464924
30
0
11
11.884836
21
-2.420149
31
0
39
0
210
0
220
0
230
1
0
LINE
5
B7
100
AcDbEntity
8
1
62
256
6
ByLayer
370
-1
48
1
60
0
100
AcDbLine
10
16.537614
20
8.038257
30
0
11
13.888825
21
8.038257
31
0
39
0
210
0
220
0
230
1
0
LINE
5
B8
100
AcDbEntity
8
1
62
256
6
ByLayer
370
-1
48
1
60
0
100
AcDbLine
10
9.00435
20
1.321531
30
0
11
9.913342
21
1.388227
31
0
39
0
210
0
220
0
230
1
0
LINE
5
B9
100
AcDbEntity
8
1
62
256
6
ByLayer
370
-1
48
1
60
0
100
AcDbLine
10
11.890498
20
-2.746486
30
0
11
14.343835
21
-2.790384
31
0
39
0
210
0
220
0
230
1
0
LINE
5
BA
100
AcDbEntity
8
1
62
256
6
ByLayer
370
-1
48
1
60
0
100
AcDbLine
10
17.752339
20
7.304441
30
0
11
17.750364
21
8.026041
31
0
39
0
210
0
220
0
230
1
0
LINE
5
BB
100
AcDbEntity
8
1
62
256
6
ByLayer
370
-1
48
1
60
0
100
AcDbLine
10
8.740858
20
7.451679
30
0
11
7.42919
21
5.27834
31
0
39
0
210
0
220
0
230
1
0
LINE
5
BC
100
AcDbEntity
8
1
62
256
6
ByLayer
370
-1
48
1
60
0
100
AcDbLine
10
17.608853
20
1.367797
30
0
11
16.763537
21
2.235068
31
0
39
0
210
0
220
0
230
1
0
LINE
5
BD
100
AcDbEntity
8
1
62
256
6
ByLayer
370
-1
48
1
60
0
100
AcDbLine
10
13.258577
20
-3.242533
30
0
11
13.284189
21
-3.958114
31
0
39
0
210
0
220
0
230
1
0
LINE
5
BE
100
AcDbEntity
8
1
62
256
6
ByLayer
370
-1
48
1
60
0
100
AcDbLine
10
11.899344
20
-2.993643
30
0
11
11.890498
21
-2.746486
31
0
39
0
210
0
220
0
230
1
0
LINE
5
BF
100
AcDbEntity
8
1
62
256
6
ByLayer
370
-1
48
1
60
0
100
AcDbLine
10
12.867756
20
-3.459955
30
0
11
12.818386
21
-3.431061
31
0
39
0
210
0
220
0
230
1
0
LINE
5
C0
100
AcDbEntity
8
1
62
256
6
ByLayer
370
-1
48
1
60
0
100
AcDbLine
10
9.734688
20
0.054893
30
0
11
10.704537
21
-1.642467
31
0
39
0
210
0
220
0
230
1
0
LINE
5
C1
100
AcDbEntity
8
1
62
256
6
ByLayer
370
-1
48
1
60
0
100
AcDbLine
10
7.25217
20
4.200368
30
0
11
7.538169
21
3.875616
31
0
39
0
210
0
220
0
230
1
0
LINE
5
C2
100
AcDbEntity
8
1
62
256
6
ByLayer
370
-1
48
1
60
0
100
AcDbLine
10
12.456305
20
6.806413
30
0
11
13.057015
21
6.654453
31
0
39
0
210
0
220
0
230
1
0
LINE
5
C3
100
AcDbEntity
8
1
62
256
6
ByLayer
370
-1
48
1
60
0
100
AcDbLine
10
7.722642
20
5.103454
30
0
11
9.060525
21
7.32023
31
0
39
0
210
0
220
0
230
1
0
LINE
5
C4
100
AcDbEntity
8
1
62
256
6
ByLayer
370
-1
48
1
60
0
100
AcDbLine
10
11.234465
20
-3.053996
30
0
11
11.229926
21
-2.565479
31
0
39
0
210
0
220
0
230
1
0
LINE
5
C5
100
AcDbEntity
8
1
62
256
6
ByLayer
370
-1
48
1
60
0
100
AcDbLine
10
19.783665
20
6.878983
30
0
11
18.842655
21
6.332317
31
0
39
0
210
0
220
0
230
1
0
LINE
5
C6
100
AcDbEntity
8
1
62
256
6
ByLayer
370
-1
48
1
60
0
100
AcDbLine
10
19.328229
20
7.126656
30
0
11
18.698799
21
7.48772
31
0
39
0
210
0
220
0
230
1
0
LINE
5
C7
100
AcDbEntity
8
1
62
256
6
ByLayer
370
-1
48
1
60
0
100
AcDbLine
10
14.343835
20
-2.790384
30
0
11
14.960329
21
-3.151184
31
0
39
0
210
0
220
0
230
1
0
LINE
5
C8
100
AcDbEntity
8
1
62
256
6
ByLayer
370
-1
48
1
60
0
100
AcDbLine
10
13.318062
20
-4.453298
30
0
11
13.305298
21
-4.350555
31
0
39
0
210
0
220
0
230
1
0
LINE
5
C9
100
AcDbEntity
8
1
62
256
6
ByLayer
370
-1
48
1
60
0
100
AcDbLine
10
11.899344
20
-2.993643
30
0
11
11.234465
21
-3.053996
31
0
39
0
210
0
220
0
230
1
0
LINE
5
CA
100
AcDbEntity
8
1
62
256
6
ByLayer
370
-1
48
1
60
0
100
AcDbLine
10
9.424687
20
7.496854
30
0
11
7.538169
21
3.875616
31
0
39
0
210
0
220
0
230
1
0
LINE
5
CB
100
AcDbEntity
8
1
62
256
6
ByLayer
370
-1
48
1
60
0
100
AcDbLine
10
13.065941
20
-4.579274
30
0
11
12.376644
21
-4.641844
31
0
39
0
210
0
220
0
230
1
0
LINE
5
CC
100
AcDbEntity
8
1
62
256
6
ByLayer
370
-1
48
1
60
0
100
AcDbLine
10
17.85366
20
1.735896
30
0
11
17.365483
21
2.046666
31
0
39
0
210
0
220
0
230
1
0
LINE
5
CD
100
AcDbEntity
8
1
62
256
6
ByLayer
370
-1
48
1
60
0
100
AcDbLine
10
17.308294
20
1.963426
30
0
11
17.799509
21
1.650723
31
0
39
0
210
0
220
0
230
1
0
LINE
5
CE
100
AcDbEntity
8
1
62
256
6
ByLayer
370
-1
48
1
60
0
100
AcDbLine
10
13.556218
20
8.035302
30
0
11
13.380274
21
7.204925
31
0
39
0
210
0
220
0
230
1
0
LINE
5
CF
100
AcDbEntity
8
1
62
256
6
ByLayer
370
-1
48
1
60
0
100
AcDbLine
10
19.272063
20
7.028459
30
0
11
18.64462
21
6.663955
31
0
39
0
210
0
220
0
230
1
0
LINE
5
D0
100
AcDbEntity
8
1
62
256
6
ByLayer
370
-1
48
1
60
0
100
AcDbLine
10
17.250686
20
8.025964
30
0
11
17.694797
21
8.025964
31
0
39
0
210
0
220
0
230
1
0
LINE
5
D1
100
AcDbEntity
8
1
62
256
6
ByLayer
370
-1
48
1
60
0
100
AcDbLine
10
13.087182
20
-4.591705
30
0
11
13.065941
21
-4.579274
31
0
39
0
210
0
220
0
230
1
0
LINE
5
D2
100
AcDbEntity
8
1
62
256
6
ByLayer
370
-1
48
1
60
0
100
AcDbLine
10
7.568698
20
5.872513
30
0
11
7.778915
21
6.238686
31
0
39
0
210
0
220
0
230
1
0
LINE
5
D3
100
AcDbEntity
8
1
62
256
6
ByLayer
370
-1
48
1
60
0
100
AcDbLine
10
8.409613
20
7.574469
30
0
11
7.742766
21
7.513937
31
0
39
0
210
0
220
0
230
1
0
LINE
5
D4
100
AcDbEntity
8
1
62
256
6
ByLayer
370
-1
48
1
60
0
100
AcDbLine
10
7.626166
20
3.745077
30
0
11
9.644683
21
7.619692
31
0
39
0
210
0
220
0
230
1
0
LINE
5
D5
100
AcDbEntity
8
1
62
256
6
ByLayer
370
-1
48
1
60
0
100
AcDbLine
10
11.873734
20
-3.502189
30
0
11
11.298781
21
-3.165701
31
0
39
0
210
0
220
0
230
1
0
LINE
5
D6
100
AcDbEntity
8
1
62
256
6
ByLayer
370
-1
48
1
60
0
100
AcDbLine
10
17.130259
20
0.468119
30
0
11
17.200112
21
0.635606
31
0
39
0
210
0
220
0
230
1
0
LINE
5
D7
100
AcDbEntity
8
1
62
256
6
ByLayer
370
-1
48
1
60
0
100
AcDbLine
10
19.687697
20
7.128655
30
0
11
19.328229
21
7.126656
31
0
39
0
210
0
220
0
230
1
0
LINE
5
D8
100
AcDbEntity
8
1
62
256
6
ByLayer
370
-1
48
1
60
0
100
AcDbLine
10
19.928736
20
6.847172
30
0
11
19.195517
21
6.42122
31
0
39
0
210
0
220
0
230
1
0
LINE
5
D9
100
AcDbEntity
8
1
62
256
6
ByLayer
370
-1
48
1
60
0
100
AcDbLine
10
10.727382
20
0.769437
30
0
11
10.555201
21
1.373241
31
0
39
0
210
0
220
0
230
1
0
LINE
5
DA
100
AcDbEntity
8
1
62
256
6
ByLayer
370
-1
48
1
60
0
100
AcDbLine
10
15.765338
20
-1.954288
30
0
11
17.083358
21
0.374729
31
0
39
0
210
0
220
0
230
1
0
LINE
5
DB
100
AcDbEntity
8
1
62
256
6
ByLayer
370
-1
48
1
60
0
100
AcDbLine
10
9.599875
20
0.245156
30
0
11
9.680074
21
0.138928
31
0
39
0
210
0
220
0
230
1
0
LINE
5
DC
100
AcDbEntity
8
1
62
256
6
ByLayer
370
-1
48
1
60
0
100
AcDbLine
10
9.912418
20
1.486168
30
0
11
8.956935
21
1.41606
31
0
39
0
210
0
220
0
230
1
0
LINE
5
DD
100
AcDbEntity
8
1
62
256
6
ByLayer
370
-1
48
1
60
0
100
AcDbLine
10
6.608101
20
7.077903
30
0
11
6.689588
21
7.028568
31
0
39
0
210
0
220
0
230
1
0
LINE
5
DE
100
AcDbEntity
8
1
62
256
6
ByLayer
370
-1
48
1
60
0
100
AcDbLine
10
13.473183
20
7.162901
30
0
11
13.888825
21
8.038257
31
0
39
0
210
0
220
0
230
1
0
LINE
5
DF
100
AcDbEntity
8
1
62
256
6
ByLayer
370
-1
48
1
60
0
100
AcDbLine
10
13.775691
20
8.037688
30
0
11
13.380274
21
7.204925
31
0
39
0
210
0
220
0
230
1
0
LINE
5
E0
100
AcDbEntity
8
1
62
256
6
ByLayer
370
-1
48
1
60
0
100
AcDbLine
10
17.694797
20
8.025964
30
0
11
17.696772
21
7.304364
31
0
39
0
210
0
220
0
230
1
0
LINE
5
E1
100
AcDbEntity
8
1
62
256
6
ByLayer
370
-1
48
1
60
0
100
AcDbLine
10
17.011832
20
1.088821
30
0
11
16.335008
21
1.783224
31
0
39
0
210
0
220
0
230
1
0
LINE
5
E2
100
AcDbEntity
8
1
62
256
6
ByLayer
370
-1
48
1
60
0
100
AcDbLine
10
9.557777
20
1.088821
30
0
11
10.530167
21
1.366027
31
0
39
0
210
0
220
0
230
1
0
LINE
5
E3
100
AcDbEntity
8
1
62
256
6
ByLayer
370
-1
48
1
60
0
100
AcDbLine
10
12.963968
20
-4.407696
30
0
11
12.934038
21
-3.571481
31
0
39
0
210
0
220
0
230
1
0
LINE
5
E4
100
AcDbEntity
8
1
62
256
6
ByLayer
370
-1
48
1
60
0
100
AcDbLine
10
6.467329
20
5.625106
30
0
11
6.514399
21
7.185833
31
0
39
0
210
0
220
0
230
1
0
LINE
5
E5
100
AcDbEntity
8
1
62
256
6
ByLayer
370
-1
48
1
60
0
100
AcDbLine
10
7.25217
20
4.200368
30
0
11
7.722642
21
5.103454
31
0
39
0
210
0
220
0
230
1
0
LINE
5
E6
100
AcDbEntity
8
1
62
256
6
ByLayer
370
-1
48
1
60
0
100
AcDbLine
10
17.286787
20
0.806725
30
0
11
17.011832
21
1.088821
31
0
39
0
210
0
220
0
230
1
0
LINE
5
E7
100
AcDbEntity
8
1
62
256
6
ByLayer
370
-1
48
1
60
0
100
AcDbLine
10
12.534905
20
8.036005
30
0
11
12.410777
21
7.450176
31
0
39
0
210
0
220
0
230
1
0
LINE
5
E8
100
AcDbEntity
8
1
62
256
6
ByLayer
370
-1
48
1
60
0
100
AcDbLine
10
13.087182
20
-4.591705
30
0
11
12.397884
21
-4.654275
31
0
39
0
210
0
220
0
230
1
0
LINE
5
E9
100
AcDbEntity
8
1
62
256
6
ByLayer
370
-1
48
1
60
0
100
AcDbLine
10
7.327008
20
6.010723
30
0
11
6.919327
21
6.014112
31
0
39
0
210
0
220
0
230
1
0
LINE
5
EA
100
AcDbEntity
8
1
62
256
6
ByLayer
370
-1
48
1
60
0
100
AcDbLine
10
12.54058
20
-3.441658
30
0
11
11.873734
21
-3.502189
31
0
39
0
210
0
220
0
230
1
0
LINE
5
EB
100
AcDbEntity
8
1
62
256
6
ByLayer
370
-1
48
1
60
0
100
AcDbLine
10
6.615432
20
7.357961
30
0
11
6.636604
21
7.370392
31
0
39
0
210
0
220
0
230
1
0
LINE
5
EC
100
AcDbEntity
8
1
62
256
6
ByLayer
370
-1
48
1
60
0
100
AcDbLine
10
6.941012
20
6.733133
30
0
11
7.537225
21
6.376896
31
0
39
0
210
0
220
0
230
1
0
LINE
5
ED
100
AcDbEntity
8
1
62
256
6
ByLayer
370
-1
48
1
60
0
100
AcDbLine
10
13.018669
20
-3.227366
30
0
11
13.258577
21
-3.242533
31
0
39
0
210
0
220
0
230
1
0
LINE
5
EE
100
AcDbEntity
8
1
62
256
6
ByLayer
370
-1
48
1
60
0
100
AcDbLine
10
6.837099
20
6.729861
30
0
11
6.815413
21
6.01084
31
0
39
0
210
0
220
0
230
1
0
LINE
5
EF
100
AcDbEntity
8
1
62
256
6
ByLayer
370
-1
48
1
60
0
100
AcDbLine
10
18.698799
20
7.48772
30
0
11
18.838841
21
7.725966
31
0
39
0
210
0
220
0
230
1
0
LINE
5
F0
100
AcDbEntity
8
1
62
256
6
ByLayer
370
-1
48
1
60
0
100
AcDbLine
10
18.209256
20
6.897216
30
0
11
18.42624
21
6.535023
31
0
39
0
210
0
220
0
230
1
0
LINE
5
F1
100
AcDbEntity
8
1
62
256
6
ByLayer
370
-1
48
1
60
0
100
AcDbLine
10
7.599772
20
6.471358
30
0
11
7.003559
21
6.827595
31
0
39
0
210
0
220
0
230
1
0
LINE
5
F2
100
AcDbEntity
8
1
62
256
6
ByLayer
370
-1
48
1
60
0
100
AcDbLine
10
19.006939
20
5.097455
30
0
11
17.752339
21
7.304441
31
0
39
0
210
0
220
0
230
1
0
LINE
5
F3
100
AcDbEntity
8
1
62
256
6
ByLayer
370
-1
48
1
60
0
100
AcDbLine
10
17.719901
20
1.541129
30
0
11
17.308294
21
1.963426
31
0
39
0
210
0
220
0
230
1
0
LINE
5
F4
100
AcDbEntity
8
1
62
256
6
ByLayer
370
-1
48
1
60
0
100
AcDbLine
10
18.775534
20
4.866801
30
0
11
18.824773
21
4.558995
31
0
39
0
210
0
220
0
230
1
0
LINE
5
F5
100
AcDbEntity
8
1
62
256
6
ByLayer
370
-1
48
1
60
0
100
AcDbLine
10
19.328764
20
6.931189
30
0
11
19.688232
21
6.933189
31
0
39
0
210
0
220
0
230
1
0
LINE
5
F6
100
AcDbEntity
8
1
62
256
6
ByLayer
370
-1
48
1
60
0
100
AcDbLine
10
15.207701
20
-2.712648
30
0
11
14.986715
21
-3.103144
31
0
39
0
210
0
220
0
230
1
0
LINE
5
F7
100
AcDbEntity
8
1
62
256
6
ByLayer
370
-1
48
1
60
0
100
AcDbLine
10
17.200112
20
0.635606
30
0
11
16.616685
21
1.234187
31
0
39
0
210
0
220
0
230
1
0
LINE
5
F8
100
AcDbEntity
8
1
62
256
6
ByLayer
370
-1
48
1
60
0
100
AcDbLine
10
6.868246
20
7.230641
30
0
11
7.762417
21
6.696375
31
0
39
0
210
0
220
0
230
1
0
LINE
5
F9
100
AcDbEntity
8
1
62
256
6
ByLayer
370
-1
48
1
60
0
100
AcDbLine
10
12.716967
20
8.034765
30
0
11
12.462046
21
6.831647
31
0
39
0
210
0
220
0
230
1
0
LINE
5
FA
100
AcDbEntity
8
1
62
256
6
ByLayer
370
-1
48
1
60
0
100
AcDbLine
10
20.02857
20
7.044823
30
0
11
20.028638
21
7.019961
31
0
39
0
210
0
220
0
230
1
0
LINE
5
FB
100
AcDbEntity
8
1
62
256
6
ByLayer
370
-1
48
1
60
0
100
AcDbLine
10
13.982395
20
-3.609515
30
0
11
13.388123
21
-3.962312
31
0
39
0
210
0
220
0
230
1
0
LINE
5
FC
100
AcDbEntity
8
1
62
256
6
ByLayer
370
-1
48
1
60
0
100
AcDbLine
10
19.223654
20
5.223352
30
0
11
19.006939
21
5.097455
31
0
39
0
210
0
220
0
230
1
0
LINE
5
FD
100
AcDbEntity
8
1
62
256
6
ByLayer
370
-1
48
1
60
0
100
AcDbLine
10
13.305298
20
-4.350555
30
0
11
13.451184
21
-4.055847
31
0
39
0
210
0
220
0
230
1
0
LINE
5
FE
100
AcDbEntity
8
1
62
256
6
ByLayer
370
-1
48
1
60
0
100
AcDbLine
10
6.514399
20
7.185833
30
0
11
5.828128
21
7.123539
31
0
39
0
210
0
220
0
230
1
0
LINE
5
FF
100
AcDbEntity
8
1
62
256
6
ByLayer
370
-1
48
1
60
0
100
AcDbLine
10
11.965627
20
-3.105169
30
0
11
11.298781
21
-3.165701
31
0
39
0
210
0
220
0
230
1
0
LINE
5
100
100
AcDbEntity
8
1
62
256
6
ByLayer
370
-1
48
1
60
0
100
AcDbLine
10
17.286787
20
0.806725
30
0
11
17.608853
21
1.367797
31
0
39
0
210
0
220
0
230
1
0
LINE
5
101
100
AcDbEntity
8
1
62
256
6
ByLayer
370
-1
48
1
60
0
100
AcDbLine
10
18.561467
20
8.000799
30
0
11
19.927724
21
7.217063
31
0
39
0
210
0
220
0
230
1
0
LINE
5
102
100
AcDbEntity
8
1
62
256
6
ByLayer
370
-1
48
1
60
0
100
AcDbLine
10
18.64462
20
6.663955
30
0
11
18.427635
21
7.026148
31
0
39
0
210
0
220
0
230
1
0
LINE
5
103
100
AcDbEntity
8
1
62
256
6
ByLayer
370
-1
48
1
60
0
100
AcDbLine
10
11.898873
20
-2.504757
30
0
11
11.229926
21
-2.565479
31
0
39
0
210
0
220
0
230
1
0
LINE
5
104
100
AcDbEntity
8
1
62
256
6
ByLayer
370
-1
48
1
60
0
100
AcDbLine
10
6.615432
20
7.357961
30
0
11
5.926134
21
7.295391
31
0
39
0
210
0
220
0
230
1
0
LINE
5
105
100
AcDbEntity
8
1
62
256
6
ByLayer
370
-1
48
1
60
0
100
AcDbLine
10
13.451184
20
-4.055847
30
0
11
14.045457
21
-3.70305
31
0
39
0
210
0
220
0
230
1
0
LINE
5
106
100
AcDbEntity
8
1
62
256
6
ByLayer
370
-1
48
1
60
0
100
AcDbLine
10
17.719901
20
1.541129
30
0
11
17.799509
21
1.650723
31
0
39
0
210
0
220
0
230
1
0
LINE
5
107
100
AcDbEntity
8
1
62
256
6
ByLayer
370
-1
48
1
60
0
100
AcDbLine
10
13.775691
20
8.037688
30
0
11
13.556218
21
8.035302
31
0
39
0
210
0
220
0
230
1
0
LINE
5
108
100
AcDbEntity
8
1
62
256
6
ByLayer
370
-1
48
1
60
0
100
AcDbLine
10
15.393889
20
-2.429229
30
0
11
15.678063
21
-2.087141
31
0
39
0
210
0
220
0
230
1
0
LINE
5
109
100
AcDbEntity
8
1
62
256
6
ByLayer
370
-1
48
1
60
0
100
AcDbLine
10
19.186541
20
6.145335
30
0
11
19.230946
21
6.114427
31
0
39
0
210
0
220
0
230
1
0
LINE
5
10A
100
AcDbEntity
8
1
62
256
6
ByLayer
370
-1
48
1
60
0
100
AcDbLine
10
18.458681
20
8.027979
30
0
11
17.750364
21
8.026041
31
0
39
0
210
0
220
0
230
1
0
LINE
5
10B
100
AcDbEntity
8
1
62
256
6
ByLayer
370
-1
48
1
60
0
100
AcDbLine
10
14.045457
20
-3.70305
30
0
11
14.209323
21
-3.92419
31
0
39
0
210
0
220
0
230
1
0
LINE
5
10C
100
AcDbEntity
8
1
62
256
6
ByLayer
370
-1
48
1
60
0
100
AcDbLine
10
19.688232
20
6.933189
30
0
11
19.783665
21
6.878983
31
0
39
0
210
0
220
0
230
1
0
LINE
5
10D
100
AcDbEntity
8
1
62
256
6
ByLayer
370
-1
48
1
60
0
100
AcDbLine
10
16.958356
20
8.028432
30
0
11
17.494568
21
7.161042
31
0
39
0
210
0
220
0
230
1
0
LINE
5
10E
100
AcDbEntity
8
1
62
256
6
ByLayer
370
-1
48
1
60
0
100
AcDbLine
10
13.349783
20
8.03433
30
0
11
13.266865
21
7.642994
31
0
39
0
210
0
220
0
230
1
0
LINE
5
10F
100
AcDbEntity
8
1
62
256
6
ByLayer
370
-1
48
1
60
0
100
AcDbLine
10
9.644683
20
7.619692
30
0
11
10.311957
21
8.011466
31
0
39
0
210
0
220
0
230
1
0
LINE
5
110
100
AcDbEntity
8
1
62
256
6
ByLayer
370
-1
48
1
60
0
100
AcDbLine
10
12.702764
20
-3.42528
30
0
11
12.656202
21
-3.447439
31
0
39
0
210
0
220
0
230
1
0
LINE
5
111
100
AcDbEntity
8
1
62
256
6
ByLayer
370
-1
48
1
60
0
100
AcDbLine
10
14.639857
20
-3.753274
30
0
11
14.960329
21
-3.151184
31
0
39
0
210
0
220
0
230
1
0
LINE
5
112
100
AcDbEntity
8
1
62
256
6
ByLayer
370
-1
48
1
60
0
100
AcDbLine
10
9.00435
20
1.321531
30
0
11
9.075134
21
1.149274
31
0
39
0
210
0
220
0
230
1
0
LINE
5
113
100
AcDbEntity
8
1
62
256
6
ByLayer
370
-1
48
1
60
0
100
AcDbLine
10
9.599875
20
0.245156
30
0
11
10.191229
21
0.413737
31
0
39
0
210
0
220
0
230
1
0
LINE
5
114
100
AcDbEntity
8
1
62
256
6
ByLayer
370
-1
48
1
60
0
100
AcDbLine
10
8.53493
20
7.57472
30
0
11
8.740858
21
7.451679
31
0
39
0
210
0
220
0
230
1
0
LINE
5
115
100
AcDbEntity
8
1
62
256
6
ByLayer
370
-1
48
1
60
0
100
AcDbLine
10
12.34077
20
8.038257
30
0
11
12.320953
21
7.454378
31
0
39
0
210
0
220
0
230
1
0
LINE
5
116
100
AcDbEntity
8
1
62
256
6
ByLayer
370
-1
48
1
60
0
100
AcDbLine
10
12.410777
20
7.450176
30
0
11
12.430718
21
8.037688
31
0
39
0
210
0
220
0
230
1
0
LINE
5
117
100
AcDbEntity
8
1
62
256
6
ByLayer
370
-1
48
1
60
0
100
AcDbLine
10
9.16275
20
0.976209
30
0
11
9.557777
21
1.088821
31
0
39
0
210
0
220
0
230
1
0
LINE
5
118
100
AcDbEntity
8
1
62
256
6
ByLayer
370
-1
48
1
60
0
100
AcDbLine
10
6.84132
20
4.869346
30
0
11
7.455839
21
5.230146
31
0
39
0
210
0
220
0
230
1
0
LINE
5
119
100
AcDbEntity
8
1
62
256
6
ByLayer
370
-1
48
1
60
0
100
AcDbLine
10
9.16275
20
0.976209
30
0
11
9.487886
21
0.416008
31
0
39
0
210
0
220
0
230
1
0
LINE
5
11A
100
AcDbEntity
8
1
62
256
6
ByLayer
370
-1
48
1
60
0
100
AcDbLine
10
11.859755
20
-2.390765
30
0
11
11.641416
21
-2.230274
31
0
39
0
210
0
220
0
230
1
0
LINE
5
11B
100
AcDbEntity
8
1
62
256
6
ByLayer
370
-1
48
1
60
0
100
AcDbLine
10
12.867756
20
-3.459955
30
0
11
12.205593
21
-3.520062
31
0
39
0
210
0
220
0
230
1
0
LINE
5
11C
100
AcDbEntity
8
1
62
256
6
ByLayer
370
-1
48
1
60
0
100
AcDbLine
10
11.446249
20
-2.107437
30
0
11
10.77683
21
-1.715663
31
0
39
0
210
0
220
0
230
1
0
LINE
5
11D
100
AcDbEntity
8
1
62
256
6
ByLayer
370
-1
48
1
60
0
100
AcDbLine
10
7.651442
20
6.954738
30
0
11
7.700654
21
6.983632
31
0
39
0
210
0
220
0
230
1
0
LINE
5
11E
100
AcDbEntity
8
1
62
256
6
ByLayer
370
-1
48
1
60
0
100
AcDbLine
10
12.34077
20
8.038257
30
0
11
10.410364
21
8.038257
31
0
39
0
210
0
220
0
230
1
0
LINE
5
11F
100
AcDbEntity
8
1
62
256
6
ByLayer
370
-1
48
1
60
0
100
AcDbLine
10
18.838841
20
7.725966
30
0
11
19.782828
21
7.184459
31
0
39
0
210
0
220
0
230
1
0
LINE
5
120
100
AcDbEntity
8
1
62
256
6
ByLayer
370
-1
48
1
60
0
100
AcDbLine
10
9.487886
20
0.416008
30
0
11
10.702349
21
0.762223
31
0
39
0
210
0
220
0
230
1
0
LINE
5
121
100
AcDbEntity
8
1
62
256
6
ByLayer
370
-1
48
1
60
0
100
AcDbLine
10
6.919327
20
6.014112
30
0
11
6.941012
21
6.733133
31
0
39
0
210
0
220
0
230
1
0
LINE
5
122
100
AcDbEntity
8
1
62
256
6
ByLayer
370
-1
48
1
60
0
100
AcDbLine
10
7.455839
20
5.230146
30
0
11
7.064444
21
4.47885
31
0
39
0
210
0
220
0
230
1
0
LINE
5
123
100
AcDbEntity
8
1
62
256
6
ByLayer
370
-1
48
1
60
0
100
AcDbLine
10
16.537614
20
8.038257
30
0
11
18.838186
21
4.316791
31
0
39
0
210
0
220
0
230
1
0
LINE
5
124
100
AcDbEntity
8
1
62
256
6
ByLayer
370
-1
48
1
60
0
100
AcDbLine
10
7.42919
20
5.27834
30
0
11
6.814671
21
4.91754
31
0
39
0
210
0
220
0
230
1
0
LINE
5
125
100
AcDbEntity
8
1
62
256
6
ByLayer
370
-1
48
1
60
0
100
AcDbLine
10
18.824773
20
4.558995
30
0
11
16.674644
21
8.0371
31
0
39
0
210
0
220
0
230
1
0
LINE
5
126
100
AcDbEntity
8
1
62
256
6
ByLayer
370
-1
48
1
60
0
100
AcDbLine
10
18.70132
20
6.566685
30
0
11
19.328764
21
6.931189
31
0
39
0
210
0
220
0
230
1
0
LINE
5
127
100
AcDbEntity
8
1
62
256
6
ByLayer
370
-1
48
1
60
0
100
AcDbLine
10
9.110435
20
7.336363
30
0
11
9.424687
21
7.496854
31
0
39
0
210
0
220
0
230
1
0
LINE
5
128
100
AcDbEntity
8
1
62
256
6
ByLayer
370
-1
48
1
60
0
100
AcDbLine
10
6.490893
20
5.523507
30
0
11
6.814671
21
4.91754
31
0
39
0
210
0
220
0
230
1
0
LINE
5
129
100
AcDbEntity
8
1
62
256
6
ByLayer
370
-1
48
1
60
0
100
AcDbLine
10
12.54058
20
-3.441658
30
0
11
11.965627
21
-3.105169
31
0
39
0
210
0
220
0
230
1
0
LINE
5
12A
100
AcDbEntity
8
1
62
256
6
ByLayer
370
-1
48
1
60
0
100
AcDbLine
10
14.209323
20
-3.92419
30
0
11
13.318062
21
-4.453298
31
0
39
0
210
0
220
0
230
1
0
LINE
5
12B
100
AcDbEntity
8
1
62
256
6
ByLayer
370
-1
48
1
60
0
100
AcDbLine
10
7.064444
20
4.47885
30
0
11
6.84132
21
4.869346
31
0
39
0
210
0
220
0
230
1
0
LINE
5
12C
100
AcDbEntity
8
1
62
256
6
ByLayer
370
-1
48
1
60
0
100
AcDbLine
10
14.986715
20
-3.103144
30
0
11
14.370221
21
-2.742344
31
0
39
0
210
0
220
0
230
1
0
LINE
5
12D
100
AcDbEntity
8
1
62
256
6
ByLayer
370
-1
48
1
60
0
100
AcDbLine
10
13.388123
20
-3.962312
30
0
11
13.362511
21
-3.246731
31
0
39
0
210
0
220
0
230
1
0
LINE
5
12E
100
AcDbEntity
8
1
62
256
6
ByLayer
370
-1
48
1
60
0
100
AcDbLine
10
12.934038
20
-3.571481
30
0
11
12.269909
21
-3.631766
31
0
39
0
210
0
220
0
230
1
0
LINE
5
12F
100
AcDbEntity
8
1
62
256
6
ByLayer
370
-1
48
1
60
0
100
AcDbLine
10
13.266865
20
7.642994
30
0
11
13.062755
21
6.679687
31
0
39
0
210
0
220
0
230
1
0
LINE
5
130
100
AcDbEntity
8
1
62
256
6
ByLayer
370
-1
48
1
60
0
100
AcDbLine
10
7.762417
20
6.696375
30
0
11
7.599772
21
6.471358
31
0
39
0
210
0
220
0
230
1
0
LINE
5
131
100
AcDbEntity
8
1
62
256
6
ByLayer
370
-1
48
1
60
0
100
AcDbLine
10
18.842655
20
6.332317
30
0
11
18.70132
21
6.566685
31
0
39
0
210
0
220
0
230
1
0
LINE
5
132
100
AcDbEntity
8
1
62
256
6
ByLayer
370
-1
48
1
60
0
100
AcDbLine
10
12.963968
20
-4.407696
30
0
11
12.277697
21
-4.469991
31
0
39
0
210
0
220
0
230
1
0
LINE
5
133
100
AcDbEntity
8
1
62
256
6
ByLayer
370
-1
48
1
60
0
100
AcDbLine
10
10.191229
20
0.413737
30
0
11
9.680074
21
0.138928
31
0
39
0
210
0
220
0
230
1
0
LINE
5
134
100
AcDbEntity
8
1
62
256
6
ByLayer
370
-1
48
1
60
0
100
AcDbLine
10
7.765494
20
7.084091
30
0
11
7.77166
21
7.137521
31
0
39
0
210
0
220
0
230
1
0
LINE
5
135
100
AcDbEntity
8
1
62
256
6
ByLayer
370
-1
48
1
60
0
100
AcDbLine
10
13.057081
20
-4.30056
30
0
11
13.018669
21
-3.227366
31
0
39
0
210
0
220
0
230
1
0
LINE
5
136
100
AcDbEntity
8
1
62
256
6
ByLayer
370
-1
48
1
60
0
100
AcDbLine
10
6.856048
20
7.126301
30
0
11
6.868246
21
7.230641
31
0
39
0
210
0
220
0
230
1
0
LINE
5
137
100
AcDbEntity
8
1
62
256
6
ByLayer
370
-1
48
1
60
0
100
AcDbLine
10
13.788638
20
-2.97359
30
0
11
13.380972
21
-2.975797
31
0
39
0
210
0
220
0
230
1
0
LINE
5
138
100
AcDbEntity
8
1
62
256
6
ByLayer
370
-1
48
1
60
0
100
AcDbLine
10
10.530167
20
1.366027
30
0
11
10.702349
21
0.762223
31
0
39
0
210
0
220
0
230
1
0
LINE
5
139
100
AcDbEntity
8
1
62
256
6
ByLayer
370
-1
48
1
60
0
100
AcDbLine
10
9.734688
20
0.054893
30
0
11
10.242682
21
0.328002
31
0
39
0
210
0
220
0
230
1
0
LINE
5
13A
100
AcDbEntity
8
1
62
256
6
ByLayer
370
-1
48
1
60
0
100
AcDbLine
10
14.223321
20
-3.468777
30
0
11
14.011103
21
-3.103786
31
0
39
0
210
0
220
0
230
1
0
LINE
5
13B
100
AcDbEntity
8
1
62
256
6
ByLayer
370
-1
48
1
60
0
100
AcDbLine
10
13.284189
20
-3.958114
30
0
11
13.138302
21
-4.252822
31
0
39
0
210
0
220
0
230
1
0
LINE
5
13C
100
AcDbEntity
8
1
62
256
6
ByLayer
370
-1
48
1
60
0
100
AcDbLine
10
12.397884
20
-4.654275
30
0
11
12.376644
21
-4.641844
31
0
39
0
210
0
220
0
230
1
0
LINE
5
13D
100
AcDbEntity
8
1
62
256
6
ByLayer
370
-1
48
1
60
0
100
AcDbLine
10
18.427635
20
7.026148
30
0
11
18.642634
21
7.389524
31
0
39
0
210
0
220
0
230
1
0
LINE
5
13E
100
AcDbEntity
8
1
62
256
6
ByLayer
370
-1
48
1
60
0
100
AcDbLine
10
7.003559
20
6.827595
30
0
11
6.856048
21
7.126301
31
0
39
0
210
0
220
0
230
1
0
LINE
5
13F
100
AcDbEntity
8
1
62
256
6
ByLayer
370
-1
48
1
60
0
100
AcDbLine
10
13.770176
20
-3.244524
30
0
11
13.982395
21
-3.609515
31
0
39
0
210
0
220
0
230
1
0
LINE
5
140
100
AcDbEntity
8
1
62
256
6
ByLayer
370
-1
48
1
60
0
100
AcDbLine
10
13.138302
20
-4.252822
30
0
11
13.057081
21
-4.30056
31
0
39
0
210
0
220
0
230
1
0
LINE
5
141
100
AcDbEntity
8
1
62
256
6
ByLayer
370
-1
48
1
60
0
100
AcDbLine
10
6.689588
20
7.028568
30
0
11
6.837099
21
6.729861
31
0
39
0
210
0
220
0
230
1
0
LINE
5
142
100
AcDbEntity
8
1
62
256
6
ByLayer
370
-1
48
1
60
0
100
AcDbLine
10
18.838186
20
4.316791
30
0
11
18.840331
21
3.533243
31
0
39
0
210
0
220
0
230
1
0
LINE
5
143
100
AcDbEntity
8
1
62
256
6
ByLayer
370
-1
48
1
60
0
100
AcDbLine
10
6.8294
20
7.370779
30
0
11
7.526124
21
6.954487
31
0
39
0
210
0
220
0
230
1
0
LINE
5
144
100
AcDbEntity
8
1
62
256
6
ByLayer
370
-1
48
1
60
0
100
AcDbLine
10
5.926134
20
7.295391
30
0
11
5.947307
21
7.307822
31
0
39
0
210
0
220
0
230
1
0
LINE
5
145
100
AcDbEntity
8
1
62
256
6
ByLayer
370
-1
48
1
60
0
100
AcDbLine
10
6.636604
20
7.370392
30
0
11
5.947307
21
7.307822
31
0
39
0
210
0
220
0
230
1
0
LINE
5
146
100
AcDbEntity
8
1
62
256
6
ByLayer
370
-1
48
1
60
0
100
AcDbLine
10
7.836501
20
7.23798
30
0
11
7.169655
21
7.177449
31
0
39
0
210
0
220
0
230
1
0
LINE
5
147
100
AcDbEntity
8
1
62
256
6
ByLayer
370
-1
48
1
60
0
100
AcDbLine
10
13.362511
20
-3.246731
30
0
11
13.770176
21
-3.244524
31
0
39
0
210
0
220
0
230
1
0
LINE
5
148
100
AcDbEntity
8
1
62
256
6
ByLayer
370
-1
48
1
60
0
100
AcDbLine
10
18.423542
20
7.520984
30
0
11
18.208543
21
7.157609
31
0
39
0
210
0
220
0
230
1
0
LINE
5
149
100
AcDbEntity
8
1
62
256
6
ByLayer
370
-1
48
1
60
0
100
AcDbLine
10
16.335008
20
1.783224
30
0
11
16.763537
21
2.235068
31
0
39
0
210
0
220
0
230
1
0
LINE
5
14A
100
AcDbEntity
8
1
62
256
6
ByLayer
370
-1
48
1
60
0
100
AcDbLine
10
16.745431
20
2.253196
30
0
11
16.316902
21
1.801352
31
0
39
0
210
0
220
0
230
1
0
LINE
5
14B
100
AcDbEntity
8
1
62
256
6
ByLayer
370
-1
48
1
60
0
100
AcDbLine
10
17.494568
20
7.161042
30
0
11
18.774243
21
4.909947
31
0
39
0
210
0
220
0
230
1
0
LINE
5
14C
100
AcDbEntity
8
1
62
256
6
ByLayer
370
-1
48
1
60
0
100
AcDbLine
10
12.534905
20
8.036005
30
0
11
12.430718
21
8.037688
31
0
39
0
210
0
220
0
230
1
0
LINE
5
14D
100
AcDbEntity
8
1
62
256
6
ByLayer
370
-1
48
1
60
0
100
AcDbLine
10
16.543517
20
1.179977
30
0
11
17.083358
21
0.374729
31
0
39
0
210
0
220
0
230
1
0
LINE
5
14E
100
AcDbEntity
8
1
62
256
6
ByLayer
370
-1
48
1
60
0
100
AcDbLine
10
17.130259
20
0.468119
30
0
11
16.616685
21
1.234187
31
0
39
0
210
0
220
0
230
1
0
LINE
5
14F
100
AcDbEntity
8
1
62
256
6
ByLayer
370
-1
48
1
60
0
100
AcDbLine
10
14.370221
20
-2.742344
30
0
11
15.207701
21
-2.712648
31
0
39
0
210
0
220
0
230
1
0
LINE
5
150
100
AcDbEntity
8
1
62
256
6
ByLayer
370
-1
48
1
60
0
100
AcDbLine
10
14.569926
20
-3.82685
30
0
11
13.279982
21
-4.592641
31
0
39
0
210
0
220
0
230
1
0
LINE
5
151
100
AcDbEntity
8
1
62
256
6
ByLayer
370
-1
48
1
60
0
100
AcDbLine
10
7.537225
20
6.376896
30
0
11
7.327008
21
6.010723
31
0
39
0
210
0
220
0
230
1
0
LINE
5
152
100
AcDbEntity
8
1
62
256
6
ByLayer
370
-1
48
1
60
0
100
AcDbLine
10
15.765338
20
-1.954288
30
0
11
11.446249
21
-2.107437
31
0
39
0
210
0
220
0
230
1
0
LINE
5
153
100
AcDbEntity
8
1
62
256
6
ByLayer
370
-1
48
1
60
0
100
AcDbLine
10
13.062755
20
6.679687
30
0
11
12.462046
21
6.831647
31
0
39
0
210
0
220
0
230
1
0
LINE
5
154
100
AcDbEntity
8
1
62
256
6
ByLayer
370
-1
48
1
60
0
100
AcDbLine
10
10.311957
20
8.011466
30
0
11
9.556681
21
7.942907
31
0
39
0
210
0
220
0
230
1
0
LINE
5
155
100
AcDbEntity
8
1
62
256
6
ByLayer
370
-1
48
1
60
0
100
AcDbLine
10
15.393889
20
-2.429229
30
0
11
14.387206
21
-2.464924
31
0
39
0
210
0
220
0
230
1
0
LINE
5
156
100
AcDbEntity
8
1
62
256
6
ByLayer
370
-1
48
1
60
0
100
AcDbLine
10
18.642634
20
7.389524
30
0
11
19.272063
21
7.028459
31
0
39
0
210
0
220
0
230
1
0
LINE
5
157
100
AcDbEntity
8
1
62
256
6
ByLayer
370
-1
48
1
60
0
100
AcDbLine
10
7.626166
20
3.745077
30
0
11
8.956935
21
1.41606
31
0
39
0
210
0
220
0
230
1
0
LINE
5
158
100
AcDbEntity
8
1
62
256
6
ByLayer
370
-1
48
1
60
0
100
AcDbLine
10
11.641416
20
-2.230274
30
0
11
15.678063
21
-2.087141
31
0
39
0
210
0
220
0
230
1
0
LINE
5
159
100
AcDbEntity
8
1
62
256
6
ByLayer
370
-1
48
1
60
0
100
AcDbLine
10
6.815413
20
6.01084
30
0
11
6.575578
21
5.99955
31
0
39
0
210
0
220
0
230
1
0
LINE
5
15A
100
AcDbEntity
8
SK1
62
256
6
ByLayer
370
-1
48
1
60
0
100
AcDbLine
10
-2.329602
20
7.962651
30
0
11
-48.648237
21
7.962651
31
0
39
0
210
0
220
0
230
1
0
LINE
5
15C
100
AcDbEntity
8
SK1
62
256
6
ByLayer
370
-1
48
1
60
0
100
AcDbLine
10
-2.329602
20
7.40717
30
0
11
-2.329602
21
7.962651
31
0
39
0
210
0
220
0
230
1
0
LINE
5
15D
100
AcDbEntity
8
SK1
62
256
6
ByLayer
370
-1
48
1
60
0
100
AcDbLine
10
-48.648237
20
-4.9625
30
0
11
-45.621942
21
-7.9625
31
0
39
0
210
0
220
0
230
1
0
LINE
5
15E
100
AcDbEntity
8
SK1
62
256
6
ByLayer
370
-1
48
1
60
0
100
AcDbLine
10
0
20
7.414123
30
0
11
-2.329602
21
7.40717
31
0
39
0
210
0
220
0
230
1
0
LINE
5
15F
100
AcDbEntity
8
SK1
62
256
6
ByLayer
370
-1
48
1
60
0
100
AcDbLine
10
0
20
7.414123
30
0
11
0
21
-7.9625
31
0
39
0
210
0
220
0
230
1
0
LINE
5
160
100
AcDbEntity
8
SK1
62
256
6
ByLayer
370
-1
48
1
60
0
100
AcDbLine
10
-45.621942
20
-7.9625
30
0
11
0
21
-7.9625
31
0
39
0
210
0
220
0
230
1
0
LINE
5
161
100
AcDbEntity
8
SK1
62
256
6
ByLayer
370
-1
48
1
60
0
100
AcDbLine
10
-48.648237
20
7.962651
30
0
11
-48.648237
21
-4.9625
31
0
39
0
210
0
220
0
230
1
0
LINE
5
162
100
AcDbEntity
8
2
62
256
6
ByLayer
370
-1
48
1
60
0
100
AcDbLine
10
0
20
17.7875
30
0
11
21.351763
21
17.7875
31
0
39
0
210
0
220
0
230
1
0
LINE
5
163
100
AcDbEntity
8
2
62
256
6
ByLayer
370
-1
48
1
60
0
100
AcDbLine
10
21.351763
20
15.7125
30
0
11
21.351763
21
20.7875
31
0
39
0
210
0
220
0
230
1
0
LINE
5
164
100
AcDbEntity
8
2
62
256
6
ByLayer
370
-1
48
1
60
0
100
AcDbLine
10
0
20
9.4625
30
0
11
0
21
20.7875
31
0
39
0
210
0
220
0
230
1
0
LINE
5
165
100
AcDbEntity
8
2
62
256
6
ByLayer
370
-1
48
1
60
0
100
AcDbLine
10
21.351763
20
17.7875
30
0
11
18.351764
21
17.392543
31
0
39
0
210
0
220
0
230
1
0
LINE
5
166
100
AcDbEntity
8
2
62
256
6
ByLayer
370
-1
48
1
60
0
100
AcDbLine
10
21.351763
20
17.7875
30
0
11
18.351761
21
18.182457
31
0
39
0
210
0
220
0
230
1
0
LINE
5
167
100
AcDbEntity
8
2
62
256
6
ByLayer
370
-1
48
1
60
0
100
AcDbLine
10
18.351764
20
17.392543
30
0
11
18.351761
21
18.182457
31
0
39
0
210
0
220
0
230
1
0
LINE
5
168
100
AcDbEntity
8
2
62
256
6
ByLayer
370
-1
48
1
60
0
100
AcDbLine
10
0
20
17.7875
30
0
11
2.999999
21
18.182457
31
0
39
0
210
0
220
0
230
1
0
LINE
5
169
100
AcDbEntity
8
2
62
256
6
ByLayer
370
-1
48
1
60
0
100
AcDbLine
10
0
20
17.7875
30
0
11
3.000001
21
17.392543
31
0
39
0
210
0
220
0
230
1
0
LINE
5
16A
100
AcDbEntity
8
2
62
256
6
ByLayer
370
-1
48
1
60
0
100
AcDbLine
10
2.999999
20
18.182457
30
0
11
3.000001
21
17.392543
31
0
39
0
210
0
220
0
230
1
0
LINE
5
16B
100
AcDbEntity
8
SK2
62
256
6
ByLayer
370
-1
48
1
60
0
100
AcDbLine
10
21.351763
20
27.7875
30
0
11
-48.648237
21
27.7875
31
0
39
0
210
0
220
0
230
1
0
LINE
5
16D
100
AcDbEntity
8
SK2
62
256
6
ByLayer
370
-1
48
1
60
0
100
AcDbLine
10
-48.648237
20
9.4625
30
0
11
-48.648237
21
30.7875
31
0
39
0
210
0
220
0
230
1
0
LINE
5
16E
100
AcDbEntity
8
SK2
62
256
6
ByLayer
370
-1
48
1
60
0
100
AcDbLine
10
21.351763
20
15.7125
30
0
11
21.351763
21
30.7875
31
0
39
0
210
0
220
0
230
1
0
LINE
5
16F
100
AcDbEntity
8
SK2
62
256
6
ByLayer
370
-1
48
1
60
0
100
AcDbLine
10
-48.648237
20
27.7875
30
0
11
-45.648239
21
28.182457
31
0
39
0
210
0
220
0
230
1
0
LINE
5
170
100
AcDbEntity
8
SK2
62
256
6
ByLayer
370
-1
48
1
60
0
100
AcDbLine
10
-48.648237
20
27.7875
30
0
11
-45.648236
21
27.392543
31
0
39
0
210
0
220
0
230
1
0
LINE
5
171
100
AcDbEntity
8
SK2
62
256
6
ByLayer
370
-1
48
1
60
0
100
AcDbLine
10
-45.648239
20
28.182457
30
0
11
-45.648236
21
27.392543
31
0
39
0
210
0
220
0
230
1
0
LINE
5
172
100
AcDbEntity
8
SK2
62
256
6
ByLayer
370
-1
48
1
60
0
100
AcDbLine
10
21.351763
20
27.7875
30
0
11
18.351764
21
27.392543
31
0
39
0
210
0
220
0
230
1
0
LINE
5
173
100
AcDbEntity
8
SK2
62
256
6
ByLayer
370
-1
48
1
60
0
100
AcDbLine
10
21.351763
20
27.7875
30
0
11
18.351761
21
28.182457
31
0
39
0
210
0
220
0
230
1
0
LINE
5
174
100
AcDbEntity
8
SK2
62
256
6
ByLayer
370
-1
48
1
60
0
100
AcDbLine
10
18.351764
20
27.392543
30
0
11
18.351761
21
28.182457
31
0
39
0
210
0
220
0
230
1
0
LINE
5
175
100
AcDbEntity
8
2
62
256
6
ByLayer
370
-1
48
1
60
0
100
AcDbLine
10
35.601763
20
8.0375
30
0
11
35.601763
21
-7.9625
31
0
39
0
210
0
220
0
230
1
0
LINE
5
176
100
AcDbEntity
8
2
62
256
6
ByLayer
370
-1
48
1
60
0
100
AcDbLine
10
1.5
20
-7.9625
30
0
11
38.601763
21
-7.9625
31
0
39
0
210
0
220
0
230
1
0
LINE
5
177
100
AcDbEntity
8
2
62
256
6
ByLayer
370
-1
48
1
60
0
100
AcDbLine
10
29.026763
20
8.0375
30
0
11
38.601763
21
8.0375
31
0
39
0
210
0
220
0
230
1
0
LINE
5
178
100
AcDbEntity
8
2
62
256
6
ByLayer
370
-1
48
1
60
0
100
AcDbLine
10
35.601763
20
-7.9625
30
0
11
35.206805
21
-4.962501
31
0
39
0
210
0
220
0
230
1
0
LINE
5
179
100
AcDbEntity
8
2
62
256
6
ByLayer
370
-1
48
1
60
0
100
AcDbLine
10
35.601763
20
-7.9625
30
0
11
35.99672
21
-4.962499
31
0
39
0
210
0
220
0
230
1
0
LINE
5
17A
100
AcDbEntity
8
2
62
256
6
ByLayer
370
-1
48
1
60
0
100
AcDbLine
10
35.206805
20
-4.962501
30
0
11
35.99672
21
-4.962499
31
0
39
0
210
0
220
0
230
1
0
LINE
5
17B
100
AcDbEntity
8
2
62
256
6
ByLayer
370
-1
48
1
60
0
100
AcDbLine
10
35.601763
20
8.0375
30
0
11
35.99672
21
5.037501
31
0
39
0
210
0
220
0
230
1
0
LINE
5
17C
100
AcDbEntity
8
2
62
256
6
ByLayer
370
-1
48
1
60
0
100
AcDbLine
10
35.601763
20
8.0375
30
0
11
35.206805
21
5.037499
31
0
39
0
210
0
220
0
230
1
0
LINE
5
17D
100
AcDbEntity
8
2
62
256
6
ByLayer
370
-1
48
1
60
0
100
AcDbLine
10
35.99672
20
5.037501
30
0
11
35.206805
21
5.037499
31
0
39
0
210
0
220
0
230
1
0
MTEXT
5
2A0
100
AcDbEntity
8
SK6
62
256
6
ByLayer
370
-1
48
1
60
0
100
AcDbMText
10
-31.057158
20
-3.408443
30
0
210
0
220
0
230
1
1
\W00.716;\fsimplex.shx,bigfont.shx;QS-266RFA-1616-16 
40
3.5
41
0
44
1.084337
50
0
71
7
72
5
7
DEFAULT
0
MTEXT
5
2C6
100
AcDbEntity
8
2
62
256
6
ByLayer
370
-1
48
1
60
0
100
AcDbMText
10
9.734434
20
18.9125
30
0
210
0
220
0
230
1
1
\W00.614;\fsimplex.shx,bigfont.shx;21 
40
4.5
41
0
44
1.084337
50
0
71
7
72
5
7
DEFAULT
0
MTEXT
5
2C7
100
AcDbEntity
8
SK2
62
256
6
ByLayer
370
-1
48
1
60
0
100
AcDbMText
10
-15.152185
20
28.9125
30
0
210
0
220
0
230
1
1
\W00.656;\fsimplex.shx,bigfont.shx;70 
40
4.5
41
0
44
1.084337
50
0
71
7
72
5
7
DEFAULT
0
MTEXT
5
2C8
100
AcDbEntity
8
2
62
256
6
ByLayer
370
-1
48
1
60
0
100
AcDbMText
10
34.476763
20
-0.903947
30
0
210
0
220
0
230
1
1
\W00.514;\fsimplex.shx,bigfont.shx;16 
40
4.5
41
0
44
1.084337
50
89.9999999999999
71
7
72
5
7
DEFAULT
0
DIMENSION
5
2D6
100
AcDbEntity
8
SK2
62
256
6
ByLayer
370
-3
48
1
60
0
100
AcDbDimension
2
DimnDraft3D1
10
-58.398237
20
-7.9625
30
0
11
-58.398237
21
-2.066447
31
0
70
32
71
5
72
1
41
1
210
0
220
0
230
1
3
Standard
100
AcDbAlignedDimension
13
-50.148237
23
7.9625
33
0
14
-50.148237
24
-7.9625
34
0
50
90
100
AcDbRotatedDimension
1001
ACAD
1000
DSTYLE
1002
{
1070
    74
1070
     0
1070
   279
1070
     0
1070
   172
1070
     1
1070
   173
1070
     1
1070
   340
1005
2A1
1070
   271
1070
     3
1070
   272
1070
     3
1070
    77
1070
     1
1070
    73
1070
     0
1070
   171
1070
     4
1070
   274
1070
     4
1070
   177
1070
     2
1070
   176
1070
     2
1070
   178
1070
     7
1070
    78
1070
     8
1070
    41
1041
3.0
1070
   147
1041
2.25
1070
    42
1041
1.5
1070
    44
1041
3.0
1070
   140
1041
4.5
1070
   343
1005
2D7
1070
   344
1005
2D7
1002
}
0
ENDSEC
0
SECTION
2
OBJECTS
0
DICTIONARY
5
30d
330
0
100
AcDbDictionary
280
0
281
1
3
ACAD_GROUP
350
30e
3
ACAD_MLINESTYLE
350
30f
0
DICTIONARY
5
30e
330
0
100
AcDbDictionary
280
0
281
1
0
DICTIONARY
5
30f
330
0
100
AcDbDictionary
280
0
281
1
3
Standard
350
18
0
MLINESTYLE
5
18
330
30f
100
AcDbMlineStyle
2
Standard
70
0
3

62
256
51
90
52
90
71
2
49
-0.5
62
256
6
ByLayer
49
0.5
62
256
6
ByLayer
0
RASTERVARIABLES
5
2fc
330

100
AcDbRasterVariables
90
0
70
1
71
1
72
1
0
ENDSEC
0
EOF
