0
SECTION
2
HEADER
9
$ACADVER
1
AC1015
9
$DWGCODEPAGE
3
ANSI_1252
9
$HANDSEED
5
2dc
9
$ANGBASE
50
0
9
$ANGDIR
70
0
9
$ATTMODE
70
1
9
$AUNITS
70
0
9
$AUPREC
70
0
9
$CECOLOR
62
256
9
$CELTSCALE
40
1
9
$CELTYPE
6
ByLayer
9
$CELWEIGHT
370
18
9
$CLAYER
8
0
9
$CMLJUST
70
0
9
$CMLSCALE
40
1
9
$CMLSTYLE
2
Standard
9
$DIMSTYLE
2
Standard
9
$TEXTSIZE
40
0.2
9
$TEXTSTYLE
7
Standard
9
$LUNITS
70
2
9
$LUPREC
70
4
9
$EXTNAMES
290
1
9
$INSUNITS
70
4
9
$LTSCALE
40
1
9
$LWDISPLAY
290
1
9
$PDMODE
70
0
9
$PDSIZE
40
0
9
$PLINEGEN
70
0
0
ENDSEC
0
SECTION
2
CLASSES
0
CLASS
1
RASTERVARIABLES
2
AcDbRasterVariables
3
ISM
90
0
280
0
281
0
0
ENDSEC
0
SECTION
2
TABLES
0
TABLE
2
VPORT
5
2d2
100
AcDbSymbolTable
0
VPORT
5
1
100
AcDbSymbolTableRecord
100
AcDbViewportTableRecord
2
*Active
70
0
10
0
20
0
11
1
21
1
12
-1
22
1
13
0
23
0
14
0.5
24
0.5
15
10
25
10
16
0
26
0
36
1
17
0
27
0
37
0
0
ENDTAB
0
TABLE
2
LTYPE
5
2d3
100
AcDbSymbolTable
0
LTYPE
5
14
100
AcDbSymbolTableRecord
100
AcDbLinetypeTableRecord
70
0
2
ByBlock
3

72
65
73
0
40
0
0
LTYPE
5
15
100
AcDbSymbolTableRecord
100
AcDbLinetypeTableRecord
70
0
2
ByLayer
3

72
65
73
0
40
0
0
LTYPE
5
16
100
AcDbSymbolTableRecord
100
AcDbLinetypeTableRecord
70
0
2
CONTINUOUS
3
Solid line
72
65
73
0
40
0
0
LTYPE
5
6A
100
AcDbSymbolTableRecord
100
AcDbLinetypeTableRecord
70
0
2
CENTER
3
____ _ ____ _ ____ _ ____
72
65
73
4
40
47.5
49
22
74
0
49
-8.5
74
0
49
8.5
74
0
49
-8.5
74
0
0
LTYPE
5
6B
100
AcDbSymbolTableRecord
100
AcDbLinetypeTableRecord
70
0
2
DASHED
3
__ __ __ __ __ __ __ __ __
72
65
73
2
40
25.72
49
12.86
74
0
49
-12.86
74
0
0
ENDTAB
0
TABLE
2
LAYER
5
2d4
100
AcDbSymbolTable
0
LAYER
5
10
100
AcDbSymbolTableRecord
100
AcDbLayerTableRecord
2
0
70
0
62
7
6
CONTINUOUS
290
1
370
-3
390
0
0
LAYER
5
6D
100
AcDbSymbolTableRecord
100
AcDbLayerTableRecord
2
81
70
0
62
-3
6
CONTINUOUS
290
1
370
-3
390
0
0
LAYER
5
6F
100
AcDbSymbolTableRecord
100
AcDbLayerTableRecord
2
80
70
0
62
-6
6
CONTINUOUS
290
1
370
-3
390
0
0
LAYER
5
73
100
AcDbSymbolTableRecord
100
AcDbLayerTableRecord
2
1
70
0
62
4
6
CONTINUOUS
290
1
370
-3
390
0
0
LAYER
5
21A
100
AcDbSymbolTableRecord
100
AcDbLayerTableRecord
2
2
70
0
62
7
6
CONTINUOUS
290
1
370
-3
390
0
0
LAYER
5
2bf
100
AcDbSymbolTableRecord
100
AcDbLayerTableRecord
2
SK1
70
0
62
4
6
CONTINUOUS
290
1
370
-3
390
0
0
LAYER
5
2c0
100
AcDbSymbolTableRecord
100
AcDbLayerTableRecord
2
SK2
70
0
62
7
6
CONTINUOUS
290
1
370
-3
390
0
0
LAYER
5
2c1
100
AcDbSymbolTableRecord
100
AcDbLayerTableRecord
2
SK6
70
0
62
5
6
CONTINUOUS
290
1
370
-3
390
0
0
ENDTAB
0
TABLE
2
STYLE
5
2d5
100
AcDbSymbolTable
0
STYLE
5
11
100
AcDbSymbolTableRecord
100
AcDbTextStyleTableRecord
2
Standard
3
txt
70
0
71
0
40
0
41
1
42
0
50
0
0
STYLE
5
214
100
AcDbSymbolTableRecord
100
AcDbTextStyleTableRecord
2
iso_b_vert
3
simplex.shx
70
0
71
0
40
0
41
1
42
0
50
0
0
STYLE
5
215
100
AcDbSymbolTableRecord
100
AcDbTextStyleTableRecord
2
DWGDirectTextStyle
3
simplex
70
0
71
0
40
0
41
1
42
0
50
0
0
ENDTAB
0
TABLE
2
DIMSTYLE
5
2d6
100
AcDbSymbolTable
100
AcDbDimStyleTable
0
DIMSTYLE
105
27
100
AcDbSymbolTableRecord
100
AcDbDimStyleTableRecord
2
Standard
70
0
3
<>
41
0.18
42
0.0625
44
0.18
140
0.18
147
0.09
73
0
74
0
77
1
271
2
275
0
278
52
280
0
340
11
0
ENDTAB
0
TABLE
2
VIEW
5
2d7
100
AcDbSymbolTable
0
ENDTAB
0
TABLE
2
UCS
5
2d8
100
AcDbSymbolTable
0
ENDTAB
0
TABLE
2
APPID
5
2d9
100
AcDbSymbolTable
0
APPID
5
12
100
AcDbSymbolTableRecord
100
AcDbRegAppTableRecord
2
ACAD
70
0
0
ENDTAB
0
TABLE
2
BLOCK_RECORD
5
2da
100
AcDbSymbolTable
0
BLOCK_RECORD
5
1F
100
AcDbSymbolTableRecord
100
AcDbBlockTableRecord
2
*Model_Space
340
0
70
0
0
BLOCK_RECORD
5
1B
100
AcDbSymbolTableRecord
100
AcDbBlockTableRecord
2
*Paper_Space
340
0
70
0
0
BLOCK_RECORD
5
23
100
AcDbSymbolTableRecord
100
AcDbBlockTableRecord
2
*Paper_Space0
340
0
70
0
0
BLOCK_RECORD
5
218
100
AcDbSymbolTableRecord
100
AcDbBlockTableRecord
2
DimnDraft3D1
340
0
70
0
0
BLOCK_RECORD
5
227
100
AcDbSymbolTableRecord
100
AcDbBlockTableRecord
2
_CLOSED
340
0
70
0
0
BLOCK_RECORD
5
22E
100
AcDbSymbolTableRecord
100
AcDbBlockTableRecord
2
DimnDraft3D2
340
0
70
0
0
BLOCK_RECORD
5
23C
100
AcDbSymbolTableRecord
100
AcDbBlockTableRecord
2
DimnDraft3D3
340
0
70
0
0
BLOCK_RECORD
5
24A
100
AcDbSymbolTableRecord
100
AcDbBlockTableRecord
2
DimnDraft3D4
340
0
70
0
0
BLOCK_RECORD
5
258
100
AcDbSymbolTableRecord
100
AcDbBlockTableRecord
2
DimnDraft3D5
340
0
70
0
0
ENDTAB
0
ENDSEC
0
SECTION
2
BLOCKS
0
BLOCK
5
20
100
AcDbEntity
8
0
100
AcDbBlockBegin
2
*Model_Space
70
0
10
0
20
0
30
0
3
*Model_Space
0
ENDBLK
5
21
100
AcDbEntity
8
0
100
AcDbBlockEnd
0
BLOCK
5
1C
100
AcDbEntity
8
0
100
AcDbBlockBegin
2
*Paper_Space
70
0
10
0
20
0
30
0
3
*Paper_Space
0
ENDBLK
5
1D
100
AcDbEntity
8
0
100
AcDbBlockEnd
0
BLOCK
5
24
100
AcDbEntity
8
0
100
AcDbBlockBegin
2
*Paper_Space0
70
0
10
0
20
0
30
0
3
*Paper_Space0
0
ENDBLK
5
25
100
AcDbEntity
8
0
100
AcDbBlockEnd
0
BLOCK
5
224
100
AcDbEntity
8
0
100
AcDbBlockBegin
2
DimnDraft3D1
70
0
10
0
20
0
30
0
3
DimnDraft3D1
0
MTEXT
5
219
100
AcDbEntity
8
2
62
256
6
ByLayer
370
18
48
1
60
0
100
AcDbMText
10
57.825
20
-0.715789
30
0
210
0
220
0
230
1
1
\W0.6740;26
40
3.5
41
0
44
1.084337
50
90
71
7
72
5
7
iso_b_vert
0
LINE
5
21B
100
AcDbEntity
8
2
62
256
6
ByLayer
370
13
48
1
60
0
100
AcDbLine
10
9.6
20
-12.5
30
0
11
60.7
21
-12.5
31
0
39
0
210
0
220
0
230
1
0
LINE
5
21C
100
AcDbEntity
8
2
62
256
6
ByLayer
370
13
48
1
60
0
100
AcDbLine
10
35.6
20
13.5
30
0
11
60.7
21
13.5
31
0
39
0
210
0
220
0
230
1
0
LINE
5
21D
100
AcDbEntity
8
2
62
256
6
ByLayer
370
13
48
1
60
0
100
AcDbLine
10
58.7
20
-12.5
30
0
11
58.7
21
13.5
31
0
39
0
210
0
220
0
230
1
0
LINE
5
21E
100
AcDbEntity
8
2
62
256
6
ByLayer
370
13
48
1
60
0
100
AcDbLine
10
58.7
20
-12.5
30
0
11
58.282003
21
-9.325002
31
0
39
0
210
0
220
0
230
1
0
LINE
5
21F
100
AcDbEntity
8
2
62
256
6
ByLayer
370
13
48
1
60
0
100
AcDbLine
10
58.7
20
-12.5
30
0
11
59.117997
21
-9.324998
31
0
39
0
210
0
220
0
230
1
0
LINE
5
220
100
AcDbEntity
8
2
62
256
6
ByLayer
370
13
48
1
60
0
100
AcDbLine
10
58.282003
20
-9.325002
30
0
11
59.117997
21
-9.324998
31
0
39
0
210
0
220
0
230
1
0
LINE
5
221
100
AcDbEntity
8
2
62
256
6
ByLayer
370
13
48
1
60
0
100
AcDbLine
10
58.7
20
13.5
30
0
11
59.117997
21
10.325002
31
0
39
0
210
0
220
0
230
1
0
LINE
5
222
100
AcDbEntity
8
2
62
256
6
ByLayer
370
13
48
1
60
0
100
AcDbLine
10
58.7
20
13.5
30
0
11
58.282003
21
10.324998
31
0
39
0
210
0
220
0
230
1
0
LINE
5
223
100
AcDbEntity
8
2
62
256
6
ByLayer
370
13
48
1
60
0
100
AcDbLine
10
59.117997
20
10.325002
30
0
11
58.282003
21
10.324998
31
0
39
0
210
0
220
0
230
1
0
ENDBLK
5
225
100
AcDbEntity
8
0
100
AcDbBlockEnd
0
BLOCK
5
228
100
AcDbEntity
8
0
100
AcDbBlockBegin
2
_CLOSED
70
0
10
0
20
0
30
0
3
_CLOSED
0
LINE
5
22A
100
AcDbEntity
8
0
62
256
6
ByLayer
370
-2
48
1
60
0
100
AcDbLine
10
-1
20
0.166667
30
0
11
0
21
0
31
0
39
0
210
0
220
0
230
1
0
LINE
5
22B
100
AcDbEntity
8
0
62
256
6
ByLayer
370
-2
48
1
60
0
100
AcDbLine
10
0
20
0
30
0
11
-1
21
-0.166667
31
0
39
0
210
0
220
0
230
1
0
LINE
5
22C
100
AcDbEntity
8
0
62
256
6
ByLayer
370
-2
48
1
60
0
100
AcDbLine
10
-1
20
0.166667
30
0
11
-1
21
-0.166667
31
0
39
0
210
0
220
0
230
1
0
LINE
5
22D
100
AcDbEntity
8
0
62
256
6
ByLayer
370
-2
48
1
60
0
100
AcDbLine
10
0
20
0
30
0
11
-1
21
0
31
0
39
0
210
0
220
0
230
1
0
ENDBLK
5
229
100
AcDbEntity
8
0
100
AcDbBlockEnd
0
BLOCK
5
239
100
AcDbEntity
8
0
100
AcDbBlockBegin
2
DimnDraft3D2
70
0
10
0
20
0
30
0
3
DimnDraft3D2
0
MTEXT
5
22F
100
AcDbEntity
8
SK2
62
256
6
ByLayer
370
18
48
1
60
0
100
AcDbMText
10
-43.486184
20
36.983569
30
0
210
0
220
0
230
1
1
\W0.6217;150
40
3.5
41
0
44
1.084337
50
0
71
7
72
5
7
iso_b_vert
0
LINE
5
230
100
AcDbEntity
8
SK2
62
256
6
ByLayer
370
13
48
1
60
0
100
AcDbLine
10
-116.4
20
-10.5
30
0
11
-116.4
21
38.108569
31
0
39
0
210
0
220
0
230
1
0
LINE
5
231
100
AcDbEntity
8
SK2
62
256
6
ByLayer
370
13
48
1
60
0
100
AcDbLine
10
33.6
20
15.5
30
0
11
33.6
21
38.108569
31
0
39
0
210
0
220
0
230
1
0
LINE
5
232
100
AcDbEntity
8
SK2
62
256
6
ByLayer
370
13
48
1
60
0
100
AcDbLine
10
-116.4
20
36.108569
30
0
11
33.6
21
36.108569
31
0
39
0
210
0
220
0
230
1
0
LINE
5
233
100
AcDbEntity
8
SK2
62
256
6
ByLayer
370
13
48
1
60
0
100
AcDbLine
10
-116.4
20
36.108569
30
0
11
-113.225002
21
36.526566
31
0
39
0
210
0
220
0
230
1
0
LINE
5
234
100
AcDbEntity
8
SK2
62
256
6
ByLayer
370
13
48
1
60
0
100
AcDbLine
10
-116.4
20
36.108569
30
0
11
-113.224998
21
35.690573
31
0
39
0
210
0
220
0
230
1
0
LINE
5
235
100
AcDbEntity
8
SK2
62
256
6
ByLayer
370
13
48
1
60
0
100
AcDbLine
10
-113.225002
20
36.526566
30
0
11
-113.224998
21
35.690573
31
0
39
0
210
0
220
0
230
1
0
LINE
5
236
100
AcDbEntity
8
SK2
62
256
6
ByLayer
370
13
48
1
60
0
100
AcDbLine
10
33.6
20
36.108569
30
0
11
30.425002
21
35.690573
31
0
39
0
210
0
220
0
230
1
0
LINE
5
237
100
AcDbEntity
8
SK2
62
256
6
ByLayer
370
13
48
1
60
0
100
AcDbLine
10
33.6
20
36.108569
30
0
11
30.424998
21
36.526566
31
0
39
0
210
0
220
0
230
1
0
LINE
5
238
100
AcDbEntity
8
SK2
62
256
6
ByLayer
370
13
48
1
60
0
100
AcDbLine
10
30.425002
20
35.690573
30
0
11
30.424998
21
36.526566
31
0
39
0
210
0
220
0
230
1
0
ENDBLK
5
23A
100
AcDbEntity
8
0
100
AcDbBlockEnd
0
BLOCK
5
247
100
AcDbEntity
8
0
100
AcDbBlockBegin
2
DimnDraft3D3
70
0
10
0
20
0
30
0
3
DimnDraft3D3
0
MTEXT
5
23D
100
AcDbEntity
8
2
62
256
6
ByLayer
370
18
48
1
60
0
100
AcDbMText
10
13.567105
20
30.983569
30
0
210
0
220
0
230
1
1
\W0.7346;33.6
40
3.5
41
0
44
1.084337
50
0
71
7
72
5
7
iso_b_vert
0
LINE
5
23E
100
AcDbEntity
8
2
62
256
6
ByLayer
370
13
48
1
60
0
100
AcDbLine
10
0
20
14.5
30
0
11
0
21
32.108569
31
0
39
0
210
0
220
0
230
1
0
LINE
5
23F
100
AcDbEntity
8
2
62
256
6
ByLayer
370
13
48
1
60
0
100
AcDbLine
10
33.6
20
15.5
30
0
11
33.6
21
32.108569
31
0
39
0
210
0
220
0
230
1
0
LINE
5
240
100
AcDbEntity
8
2
62
256
6
ByLayer
370
13
48
1
60
0
100
AcDbLine
10
0
20
30.108569
30
0
11
33.6
21
30.108569
31
0
39
0
210
0
220
0
230
1
0
LINE
5
241
100
AcDbEntity
8
2
62
256
6
ByLayer
370
13
48
1
60
0
100
AcDbLine
10
0
20
30.108569
30
0
11
3.174998
21
30.526566
31
0
39
0
210
0
220
0
230
1
0
LINE
5
242
100
AcDbEntity
8
2
62
256
6
ByLayer
370
13
48
1
60
0
100
AcDbLine
10
0
20
30.108569
30
0
11
3.175002
21
29.690573
31
0
39
0
210
0
220
0
230
1
0
LINE
5
243
100
AcDbEntity
8
2
62
256
6
ByLayer
370
13
48
1
60
0
100
AcDbLine
10
3.174998
20
30.526566
30
0
11
3.175002
21
29.690573
31
0
39
0
210
0
220
0
230
1
0
LINE
5
244
100
AcDbEntity
8
2
62
256
6
ByLayer
370
13
48
1
60
0
100
AcDbLine
10
33.6
20
30.108569
30
0
11
30.425002
21
29.690573
31
0
39
0
210
0
220
0
230
1
0
LINE
5
245
100
AcDbEntity
8
2
62
256
6
ByLayer
370
13
48
1
60
0
100
AcDbLine
10
33.6
20
30.108569
30
0
11
30.424998
21
30.526566
31
0
39
0
210
0
220
0
230
1
0
LINE
5
246
100
AcDbEntity
8
2
62
256
6
ByLayer
370
13
48
1
60
0
100
AcDbLine
10
30.425002
20
29.690573
30
0
11
30.424998
21
30.526566
31
0
39
0
210
0
220
0
230
1
0
ENDBLK
5
248
100
AcDbEntity
8
0
100
AcDbBlockEnd
0
BLOCK
5
255
100
AcDbEntity
8
0
100
AcDbBlockBegin
2
DimnDraft3D4
70
0
10
0
20
0
30
0
3
DimnDraft3D4
0
MTEXT
5
24B
100
AcDbEntity
8
2
62
256
6
ByLayer
370
18
48
1
60
0
100
AcDbMText
10
19.384211
20
-24.743324
30
0
210
0
220
0
230
1
1
\W0.6740;26
40
3.5
41
0
44
1.084337
50
0
71
7
72
5
7
iso_b_vert
0
LINE
5
24C
100
AcDbEntity
8
2
62
256
6
ByLayer
370
13
48
1
60
0
100
AcDbLine
10
33.6
20
11.5
30
0
11
33.6
21
-27.618324
31
0
39
0
210
0
220
0
230
1
0
LINE
5
24D
100
AcDbEntity
8
2
62
256
6
ByLayer
370
13
48
1
60
0
100
AcDbLine
10
7.6
20
-14.5
30
0
11
7.6
21
-27.618324
31
0
39
0
210
0
220
0
230
1
0
LINE
5
24E
100
AcDbEntity
8
2
62
256
6
ByLayer
370
13
48
1
60
0
100
AcDbLine
10
33.6
20
-25.618324
30
0
11
7.6
21
-25.618324
31
0
39
0
210
0
220
0
230
1
0
LINE
5
24F
100
AcDbEntity
8
2
62
256
6
ByLayer
370
13
48
1
60
0
100
AcDbLine
10
33.6
20
-25.618324
30
0
11
30.425002
21
-26.036321
31
0
39
0
210
0
220
0
230
1
0
LINE
5
250
100
AcDbEntity
8
2
62
256
6
ByLayer
370
13
48
1
60
0
100
AcDbLine
10
33.6
20
-25.618324
30
0
11
30.424998
21
-25.200328
31
0
39
0
210
0
220
0
230
1
0
LINE
5
251
100
AcDbEntity
8
2
62
256
6
ByLayer
370
13
48
1
60
0
100
AcDbLine
10
30.425002
20
-26.036321
30
0
11
30.424998
21
-25.200328
31
0
39
0
210
0
220
0
230
1
0
LINE
5
252
100
AcDbEntity
8
2
62
256
6
ByLayer
370
13
48
1
60
0
100
AcDbLine
10
7.6
20
-25.618324
30
0
11
10.774998
21
-25.200328
31
0
39
0
210
0
220
0
230
1
0
LINE
5
253
100
AcDbEntity
8
2
62
256
6
ByLayer
370
13
48
1
60
0
100
AcDbLine
10
7.6
20
-25.618324
30
0
11
10.775002
21
-26.036321
31
0
39
0
210
0
220
0
230
1
0
LINE
5
254
100
AcDbEntity
8
2
62
256
6
ByLayer
370
13
48
1
60
0
100
AcDbLine
10
10.774998
20
-25.200328
30
0
11
10.775002
21
-26.036321
31
0
39
0
210
0
220
0
230
1
0
ENDBLK
5
256
100
AcDbEntity
8
0
100
AcDbBlockEnd
0
BLOCK
5
263
100
AcDbEntity
8
0
100
AcDbBlockBegin
2
DimnDraft3D5
70
0
10
0
20
0
30
0
3
DimnDraft3D5
0
MTEXT
5
259
100
AcDbEntity
8
2
62
256
6
ByLayer
370
18
48
1
60
0
100
AcDbMText
10
50.825
20
-0.445789
30
0
210
0
220
0
230
1
1
\W0.5404;3
40
3.5
41
0
44
1.084337
50
90
71
7
72
5
7
iso_b_vert
0
LINE
5
25A
100
AcDbEntity
8
2
62
256
6
ByLayer
370
13
48
1
60
0
100
AcDbLine
10
35.6
20
13.5
30
0
11
53.7
21
13.5
31
0
39
0
210
0
220
0
230
1
0
LINE
5
25B
100
AcDbEntity
8
2
62
256
6
ByLayer
370
13
48
1
60
0
100
AcDbLine
10
35.6
20
10.5
30
0
11
53.7
21
10.5
31
0
39
0
210
0
220
0
230
1
0
LINE
5
25C
100
AcDbEntity
8
2
62
256
6
ByLayer
370
13
48
1
60
0
100
AcDbLine
10
51.7
20
-1.320789
30
0
11
51.7
21
22.25
31
0
39
0
210
0
220
0
230
1
0
LINE
5
25D
100
AcDbEntity
8
2
62
256
6
ByLayer
370
13
48
1
60
0
100
AcDbLine
10
51.7
20
13.5
30
0
11
51.282003
21
16.674998
31
0
39
0
210
0
220
0
230
1
0
LINE
5
25E
100
AcDbEntity
8
2
62
256
6
ByLayer
370
13
48
1
60
0
100
AcDbLine
10
51.7
20
13.5
30
0
11
52.117997
21
16.675002
31
0
39
0
210
0
220
0
230
1
0
LINE
5
25F
100
AcDbEntity
8
2
62
256
6
ByLayer
370
13
48
1
60
0
100
AcDbLine
10
51.282003
20
16.674998
30
0
11
52.117997
21
16.675002
31
0
39
0
210
0
220
0
230
1
0
LINE
5
260
100
AcDbEntity
8
2
62
256
6
ByLayer
370
13
48
1
60
0
100
AcDbLine
10
51.7
20
10.5
30
0
11
52.117997
21
7.325002
31
0
39
0
210
0
220
0
230
1
0
LINE
5
261
100
AcDbEntity
8
2
62
256
6
ByLayer
370
13
48
1
60
0
100
AcDbLine
10
51.7
20
10.5
30
0
11
51.282003
21
7.324998
31
0
39
0
210
0
220
0
230
1
0
LINE
5
262
100
AcDbEntity
8
2
62
256
6
ByLayer
370
13
48
1
60
0
100
AcDbLine
10
52.117997
20
7.325002
30
0
11
51.282003
21
7.324998
31
0
39
0
210
0
220
0
230
1
0
ENDBLK
5
264
100
AcDbEntity
8
0
100
AcDbBlockEnd
0
ENDSEC
0
SECTION
2
ENTITIES
0
ARC
5
128
100
AcDbEntity
8
SK1
62
256
6
ByLayer
370
18
48
1
60
0
100
AcDbCircle
39
0
10
1.227723
20
13.975
30
0
40
1.59999999999956
210
0
220
0
230
-1
100
AcDbArc
50
225.184432
51
270
0
ARC
5
129
100
AcDbEntity
8
1
62
256
6
ByLayer
370
18
48
1
60
0
100
AcDbCircle
39
0
10
7.6
20
9.225
30
0
40
1.6
210
0
220
0
230
1
100
AcDbArc
50
90
51
180
0
ARC
5
12A
100
AcDbEntity
8
1
62
256
6
ByLayer
370
18
48
1
60
0
100
AcDbCircle
39
0
10
23.8
20
13.05
30
0
40
0.2
210
0
220
0
230
1
100
AcDbArc
50
120
51
141.318614
0
ARC
5
12B
100
AcDbEntity
8
1
62
256
6
ByLayer
370
18
48
1
60
0
100
AcDbCircle
39
0
10
23.8
20
10.95
30
0
40
0.2
210
0
220
0
230
1
100
AcDbArc
50
218.681386
51
240
0
ARC
5
12C
100
AcDbEntity
8
1
62
256
6
ByLayer
370
18
48
1
60
0
100
AcDbCircle
39
0
10
7.6
20
9.225
30
0
40
1.6
210
0
220
0
230
1
100
AcDbArc
50
90
51
180
0
ARC
5
12D
100
AcDbEntity
8
1
62
256
6
ByLayer
370
18
48
1
60
0
100
AcDbCircle
39
0
10
1.227723
20
13.975
30
0
40
1.60000000000021
210
0
220
0
230
-1
100
AcDbArc
50
210
51
270
0
ELLIPSE
5
12E
100
AcDbEntity
8
SK1
62
256
6
ByLayer
370
18
48
1
60
0
100
AcDbEllipse
10
-1.227723
20
-12.506981
30
0
11
1.59999999999538
21
1.61702248812711E-15
31
0
210
0
220
0
230
-1
40
0.004363
41
-1.5707963267949
42
-0.788617102646992
0
ELLIPSE
5
12F
100
AcDbEntity
8
1
62
256
6
ByLayer
370
18
48
1
60
0
100
AcDbEllipse
10
-1.227723
20
13.975
30
0
11
1.13137084966759
21
1.1313708496676
31
0
210
0
220
0
230
-1
40
1
41
1.30899693894148
42
1.57401526604824
0
ELLIPSE
5
130
100
AcDbEntity
8
1
62
256
6
ByLayer
370
18
48
1
60
0
100
AcDbEllipse
10
-1.227723
20
-12.506981
30
0
11
1.60000000001293
21
1.61702248814485E-15
31
0
210
0
220
0
230
-1
40
0.004363
41
-0.788617102646404
42
-0.26179938779939
0
ELLIPSE
5
131
100
AcDbEntity
8
1
62
256
6
ByLayer
370
13
48
1
60
0
100
AcDbEllipse
10
25.908132
20
10.730414
30
0
11
0.979582052945681
21
0.301726209301437
31
0
210
0
220
0
230
-1
40
0.270086
41
-2.24185105469666
42
-2.05273074537331
0
ELLIPSE
5
132
100
AcDbEntity
8
1
62
256
6
ByLayer
370
13
48
1
60
0
100
AcDbEllipse
10
25.908132
20
13.269586
30
0
11
0.998914191431596
21
-0.226032306454363
31
0
210
0
220
0
230
-1
40
0.206112
41
1.9950690946795
42
2.2454854156043
0
ELLIPSE
5
133
100
AcDbEntity
8
1
62
256
6
ByLayer
370
13
48
1
60
0
100
AcDbEllipse
10
25.908132
20
10.730414
30
0
11
0.998914191177309
21
0.226032306433497
31
0
210
0
220
0
230
-1
40
0.206112
41
-2.24548541557005
42
-1.99506909459148
0
ELLIPSE
5
134
100
AcDbEntity
8
1
62
256
6
ByLayer
370
13
48
1
60
0
100
AcDbEllipse
10
32.97413
20
12
30
0
11
-7.38495814331257
21
9.04366666501288E-16
31
0
210
0
220
0
230
1
40
0.121869
41
1.16456723893879
42
1.18682389135614
0
ELLIPSE
5
135
100
AcDbEntity
8
1
62
256
6
ByLayer
370
13
48
1
60
0
100
AcDbEllipse
10
32.058781
20
13.181166
30
0
11
0.0322705528359684
21
-0.237820544570188
31
0
210
0
220
0
230
1
40
0.009402
41
-1.50161815253495
42
-0.684082575262889
0
ELLIPSE
5
136
100
AcDbEntity
8
1
62
256
6
ByLayer
370
13
48
1
60
0
100
AcDbEllipse
10
30.828622
20
13.059701
30
0
11
-0.0129780832447759
21
-0.239648845929397
31
0
210
0
220
0
230
1
40
0.707925
41
0.878821726712041
42
1.55967335367816
0
ELLIPSE
5
137
100
AcDbEntity
8
1
62
256
6
ByLayer
370
13
48
1
60
0
100
AcDbEllipse
10
32.97413
20
12
30
0
11
-7.38495814331257
21
9.04366666501288E-16
31
0
210
0
220
0
230
1
40
0.121869
41
-1.18682389135615
42
-1.16456723893881
0
ELLIPSE
5
138
100
AcDbEntity
8
1
62
256
6
ByLayer
370
13
48
1
60
0
100
AcDbEllipse
10
32.058781
20
10.818834
30
0
11
0.0322705528359686
21
0.237820544570188
31
0
210
0
220
0
230
1
40
0.009402
41
0.684082575262889
42
1.50161815253497
0
ELLIPSE
5
139
100
AcDbEntity
8
1
62
256
6
ByLayer
370
13
48
1
60
0
100
AcDbEllipse
10
30.828622
20
10.940299
30
0
11
-0.0129780832447762
21
0.239648845929397
31
0
210
0
220
0
230
1
40
0.707925
41
-1.55967335367818
42
-0.878821726712041
0
ELLIPSE
5
13A
100
AcDbEntity
8
1
62
256
6
ByLayer
370
13
48
1
60
0
100
AcDbEllipse
10
32.974131
20
12
30
0
11
7.34839775273538
21
2.10666300247365E-08
31
0
210
0
220
0
230
-1
40
0.08165
41
1.95476878058904
42
2.00162050798702
0
ELLIPSE
5
13B
100
AcDbEntity
8
1
62
256
6
ByLayer
370
13
48
1
60
0
100
AcDbEllipse
10
30.586644
20
12
30
0
11
1.6315068058663
21
1.09401406931129E-09
31
0
210
0
220
0
230
-1
40
0.367758
41
-2.17407423318011
42
-2.00162049071995
0
ELLIPSE
5
13C
100
AcDbEntity
8
1
62
256
6
ByLayer
370
13
48
1
60
0
100
AcDbEllipse
10
32.97413
20
12
30
0
11
7.34839693906823
21
2.05586164375595E-08
31
0
210
0
220
0
230
-1
40
0.08165
41
-2.00162047612904
42
-1.9547687442228
0
ELLIPSE
5
13D
100
AcDbEntity
8
1
62
256
6
ByLayer
370
13
48
1
60
0
100
AcDbEllipse
10
30.586644
20
12
30
0
11
1.63150681539135
21
1.7118181848683E-09
31
0
210
0
220
0
230
-1
40
0.367758
41
2.0016204937752
42
2.17407423542274
0
ELLIPSE
5
13E
100
AcDbEntity
8
1
62
256
6
ByLayer
370
13
48
1
60
0
100
AcDbEllipse
10
30.723829
20
13.061383
30
0
11
0.1082392992065
21
0.214206101937563
31
0
210
0
220
0
230
1
40
0.678671
41
-1.84879976311954
42
-1.29279293091364
0
ELLIPSE
5
13F
100
AcDbEntity
8
1
62
256
6
ByLayer
370
13
48
1
60
0
100
AcDbEllipse
10
30.723829
20
10.938617
30
0
11
0.1082392992065
21
-0.214206101937563
31
0
210
0
220
0
230
1
40
0.678671
41
1.29279293091364
42
1.84879976311954
0
ELLIPSE
5
140
100
AcDbEntity
8
1
62
256
6
ByLayer
370
13
48
1
60
0
100
AcDbEllipse
10
30.459452
20
11.178164
30
0
11
0.219354463278089
21
0.119931728245622
31
0
210
0
220
0
230
1
40
0.441633
41
0.600579851753507
42
1.30662817391564
0
ELLIPSE
5
141
100
AcDbEntity
8
1
62
256
6
ByLayer
370
13
48
1
60
0
100
AcDbEllipse
10
30.459452
20
12.821836
30
0
11
-0.219354463278086
21
0.119931728245626
31
0
210
0
220
0
230
1
40
0.441633
41
1.83496447967436
42
2.54101280183643
0
ELLIPSE
5
142
100
AcDbEntity
8
1
62
256
6
ByLayer
370
13
48
1
60
0
100
AcDbEllipse
10
29.895115
20
11.273103
30
0
11
-0.0433548151255266
21
-0.195244359727577
31
0
210
0
220
0
230
1
40
0.334809
41
-2.68611088405451
42
-1.49658713340602
0
ELLIPSE
5
143
100
AcDbEntity
8
1
62
256
6
ByLayer
370
13
48
1
60
0
100
AcDbEllipse
10
29.895115
20
12.726897
30
0
11
-0.0433548151255279
21
0.195244359727577
31
0
210
0
220
0
230
1
40
0.334809
41
1.496587133406
42
2.68611088405451
0
ELLIPSE
5
144
100
AcDbEntity
8
1
62
256
6
ByLayer
370
13
48
1
60
0
100
AcDbEllipse
10
30.51824
20
12
30
0
11
1.65588066716855
21
-4.83672849986227E-09
31
0
210
0
220
0
230
-1
40
0.483127
41
2.00162048773265
42
2.17407423080664
0
ELLIPSE
5
145
100
AcDbEntity
8
1
62
256
6
ByLayer
370
13
48
1
60
0
100
AcDbEllipse
10
30.51824
20
12
30
0
11
1.65588067547563
21
1.21585411052233E-09
31
0
210
0
220
0
230
-1
40
0.483127
41
-2.1740742332345
42
-2.00162049085697
0
ELLIPSE
5
146
100
AcDbEntity
8
1
62
256
6
ByLayer
370
13
48
1
60
0
100
AcDbEllipse
10
30.725564
20
10.938978
30
0
11
0.00742724597932589
21
0.239885047506431
31
0
210
0
220
0
230
1
40
0.70617
41
-1.49951821957461
42
-0.846393084122579
0
ELLIPSE
5
147
100
AcDbEntity
8
1
62
256
6
ByLayer
370
13
48
1
60
0
100
AcDbEllipse
10
30.725564
20
13.061022
30
0
11
0.00742724597932567
21
-0.239885047506431
31
0
210
0
220
0
230
1
40
0.70617
41
0.846393084122713
42
1.49951821957464
0
ELLIPSE
5
148
100
AcDbEntity
8
1
62
256
6
ByLayer
370
13
48
1
60
0
100
AcDbEllipse
10
29.647188
20
11.341216
30
0
11
-0.0631638165780187
21
-0.189763885592856
31
0
210
0
220
0
230
1
40
0.326425
41
-2.5033944629965
42
-1.46256868006911
0
ELLIPSE
5
149
100
AcDbEntity
8
1
62
256
6
ByLayer
370
13
48
1
60
0
100
AcDbEllipse
10
29.647188
20
12.658784
30
0
11
-0.0631638165785347
21
0.189763885592684
31
0
210
0
220
0
230
1
40
0.326425
41
1.46256868006822
42
2.50339446299246
0
ELLIPSE
5
14A
100
AcDbEntity
8
1
62
256
6
ByLayer
370
13
48
1
60
0
100
AcDbEllipse
10
30.450683
20
12.834465
30
0
11
-0.195064510201764
21
-0.227925068519779
31
0
210
0
220
0
230
1
40
0.863833
41
0.830178756051677
42
1.49289835248477
0
ELLIPSE
5
14B
100
AcDbEntity
8
1
62
256
6
ByLayer
370
13
48
1
60
0
100
AcDbEllipse
10
30.450683
20
11.165535
30
0
11
0.195064510201759
21
-0.227925068519783
31
0
210
0
220
0
230
1
40
0.863833
41
1.64869430110506
42
2.31141389753822
0
ELLIPSE
5
14C
100
AcDbEntity
8
1
62
256
6
ByLayer
370
13
48
1
60
0
100
AcDbEllipse
10
29.550966
20
11.302033
30
0
11
0.182866340278506
21
-0.0809932194269721
31
0
210
0
220
0
230
1
40
0.14582
41
-2.77286095187703
42
-1.88885149068662
0
ELLIPSE
5
14D
100
AcDbEntity
8
1
62
256
6
ByLayer
370
13
48
1
60
0
100
AcDbEllipse
10
29.550966
20
12.697967
30
0
11
0.182866340278443
21
0.0809932194271139
31
0
210
0
220
0
230
1
40
0.14582
41
1.8888514906865
42
2.77286095187526
0
ELLIPSE
5
14E
100
AcDbEntity
8
1
62
256
6
ByLayer
370
13
48
1
60
0
100
AcDbEllipse
10
30.502412
20
12.706933
30
0
11
-0.299757884748935
21
0.0120503332254432
31
0
210
0
220
0
230
1
40
0.786325
41
1.67791435062295
42
2.25220990045423
0
ELLIPSE
5
14F
100
AcDbEntity
8
1
62
256
6
ByLayer
370
13
48
1
60
0
100
AcDbEllipse
10
30.502412
20
11.293067
30
0
11
0.299757884748933
21
0.0120503332254948
31
0
210
0
220
0
230
1
40
0.786325
41
0.889382753135427
42
1.46367830296665
0
ELLIPSE
5
150
100
AcDbEntity
8
1
62
256
6
ByLayer
370
13
48
1
60
0
100
AcDbEllipse
10
29.292326
20
13.125902
30
0
11
0.0570319130279923
21
-0.138734858259803
31
0
210
0
220
0
230
1
40
0.776494
41
-1.87977830526731
42
-1.56980601158803
0
ELLIPSE
5
151
100
AcDbEntity
8
1
62
256
6
ByLayer
370
13
48
1
60
0
100
AcDbEllipse
10
29.292326
20
10.874098
30
0
11
-0.0570319130268966
21
-0.138734858260253
31
0
210
0
220
0
230
1
40
0.776494
41
-1.57178664200835
42
-1.2618143483286
0
ELLIPSE
5
152
100
AcDbEntity
8
1
62
256
6
ByLayer
370
13
48
1
60
0
100
AcDbEllipse
10
29.68147
20
11.520757
30
0
11
-0.105329348464612
21
0.280901634655301
31
0
210
0
220
0
230
1
40
0.319781
41
-1.0901232760812
42
-0.203695114400111
0
ELLIPSE
5
153
100
AcDbEntity
8
1
62
256
6
ByLayer
370
13
48
1
60
0
100
AcDbEllipse
10
29.68147
20
12.479243
30
0
11
-0.105329348464631
21
-0.280901634655294
31
0
210
0
220
0
230
1
40
0.319781
41
0.203695114400132
42
1.09012327608124
0
ELLIPSE
5
154
100
AcDbEntity
8
1
62
256
6
ByLayer
370
13
48
1
60
0
100
AcDbEllipse
10
30.609329
20
11.711428
30
0
11
-0.263738087060282
21
0.142976296755033
31
0
210
0
220
0
230
1
40
0.337339
41
-2.12742665195277
42
-1.51944467242792
0
ELLIPSE
5
155
100
AcDbEntity
8
1
62
256
6
ByLayer
370
13
48
1
60
0
100
AcDbEllipse
10
30.609329
20
12.288572
30
0
11
-0.26373808706239
21
-0.142976296751144
31
0
210
0
220
0
230
1
40
0.337339
41
1.51944467242556
42
2.12742665190397
0
ELLIPSE
5
156
100
AcDbEntity
8
1
62
256
6
ByLayer
370
13
48
1
60
0
100
AcDbEllipse
10
29.289927
20
13.125438
30
0
11
4.24912383924225E-17
21
0.15
31
0
210
0
220
0
230
1
40
0.795546
41
1.5707963267949
42
1.90677220780379
0
ELLIPSE
5
157
100
AcDbEntity
8
1
62
256
6
ByLayer
370
13
48
1
60
0
100
AcDbEllipse
10
29.289927
20
10.874562
30
0
11
4.24912383924225E-17
21
0.15
31
0
210
0
220
0
230
1
40
0.795546
41
1.23482044578595
42
1.5707963267949
0
ELLIPSE
5
158
100
AcDbEntity
8
1
62
256
6
ByLayer
370
13
48
1
60
0
100
AcDbEllipse
10
29.033293
20
10.874562
30
0
11
-2.75536429610035E-17
21
-0.15
31
0
210
0
220
0
230
1
40
0.34202
41
-1.75278811305913
42
-1.5707963267949
0
ELLIPSE
5
159
100
AcDbEntity
8
1
62
256
6
ByLayer
370
13
48
1
60
0
100
AcDbEllipse
10
29.033293
20
13.125438
30
0
11
4.24912383924225E-17
21
0.15
31
0
210
0
220
0
230
1
40
0.34202
41
1.5707963267949
42
1.75278811305915
0
ELLIPSE
5
15A
100
AcDbEntity
8
1
62
256
6
ByLayer
370
13
48
1
60
0
100
AcDbEllipse
10
29.539982
20
12.433451
30
0
11
-0.0205626710087509
21
-0.198940133107892
31
0
210
0
220
0
230
1
40
0.702979
41
-1.10867675839078
42
-0.337059544638675
0
ELLIPSE
5
15B
100
AcDbEntity
8
1
62
256
6
ByLayer
370
13
48
1
60
0
100
AcDbEllipse
10
29.539982
20
11.566549
30
0
11
-0.0205626710087514
21
0.198940133107892
31
0
210
0
220
0
230
1
40
0.702979
41
0.337059544638674
42
1.10867675839074
0
ELLIPSE
5
15C
100
AcDbEntity
8
1
62
256
6
ByLayer
370
13
48
1
60
0
100
AcDbEllipse
10
32.747654
20
13.191357
30
0
11
-0.00560126668057245
21
-0.239934628204378
31
0
210
0
220
0
230
1
40
0.172043
41
-1.49800588930577
42
-0.732097455141587
0
ELLIPSE
5
15D
100
AcDbEntity
8
1
62
256
6
ByLayer
370
13
48
1
60
0
100
AcDbEllipse
10
32.747654
20
10.808643
30
0
11
-0.00560126668057228
21
0.239934628204378
31
0
210
0
220
0
230
1
40
0.172043
41
0.732097455140588
42
1.49800588930571
0
ELLIPSE
5
15E
100
AcDbEntity
8
1
62
256
6
ByLayer
370
13
48
1
60
0
100
AcDbEllipse
10
29.672352
20
12.482663
30
0
11
0.1054031629799
21
0.280873945452106
31
0
210
0
220
0
230
1
40
0.321796
41
-2.93702761420039
42
-2.05551827773616
0
ELLIPSE
5
15F
100
AcDbEntity
8
1
62
256
6
ByLayer
370
13
48
1
60
0
100
AcDbEllipse
10
29.672352
20
11.517337
30
0
11
-0.105403162979924
21
0.280873945452097
31
0
210
0
220
0
230
1
40
0.321796
41
-1.08607437585371
42
-0.204565039389234
0
ELLIPSE
5
160
100
AcDbEntity
8
1
62
256
6
ByLayer
370
13
48
1
60
0
100
AcDbEllipse
10
29.531197
20
11.566064
30
0
11
5.665498452323E-17
21
0.2
31
0
210
0
220
0
230
1
40
0.803713
41
0.416381924289452
42
1.23482044578604
0
ELLIPSE
5
161
100
AcDbEntity
8
1
62
256
6
ByLayer
370
13
48
1
60
0
100
AcDbEllipse
10
29.531197
20
12.433936
30
0
11
5.665498452323E-17
21
0.2
31
0
210
0
220
0
230
1
40
0.803713
41
1.90677220780377
42
2.72521072930034
0
ELLIPSE
5
162
100
AcDbEntity
8
1
62
256
6
ByLayer
370
13
48
1
60
0
100
AcDbEllipse
10
29.133999
20
11.566064
30
0
11
-3.67381906146713E-17
21
-0.2
31
0
210
0
220
0
230
1
40
0.34202
41
-2.72521072930076
42
-1.90677220780389
0
ELLIPSE
5
163
100
AcDbEntity
8
1
62
256
6
ByLayer
370
13
48
1
60
0
100
AcDbEllipse
10
29.133999
20
12.433936
30
0
11
5.665498452323E-17
21
0.2
31
0
210
0
220
0
230
1
40
0.34202
41
1.90677220780389
42
2.72521072930073
0
ELLIPSE
5
164
100
AcDbEntity
8
1
62
256
6
ByLayer
370
13
48
1
60
0
100
AcDbEllipse
10
33.513527
20
11.22831
30
0
11
-0.0833341889559589
21
0.0552757899179428
31
0
210
0
220
0
230
1
40
0.125151
41
-1.63388084261208
42
-1.0088898439738
0
ELLIPSE
5
165
100
AcDbEntity
8
1
62
256
6
ByLayer
370
13
48
1
60
0
100
AcDbEllipse
10
33.352853
20
11.078833
30
0
11
-0.0533981556875965
21
0.0845496124719871
31
0
210
0
220
0
230
1
40
0.139768
41
-1.57717485146094
42
-0.74002396527402
0
ELLIPSE
5
166
100
AcDbEntity
8
1
62
256
6
ByLayer
370
13
48
1
60
0
100
AcDbEllipse
10
33.513527
20
12.77169
30
0
11
-0.0833341889559589
21
-0.0552757899179427
31
0
210
0
220
0
230
1
40
0.125151
41
1.00888984397399
42
1.63388084261194
0
ELLIPSE
5
167
100
AcDbEntity
8
1
62
256
6
ByLayer
370
13
48
1
60
0
100
AcDbEllipse
10
33.352853
20
12.921167
30
0
11
-0.0533981556875966
21
-0.0845496124719871
31
0
210
0
220
0
230
1
40
0.139768
41
0.74002396527402
42
1.57717485146108
0
ELLIPSE
5
168
100
AcDbEntity
8
1
62
256
6
ByLayer
370
13
48
1
60
0
100
AcDbEllipse
10
32.858678
20
11.410924
30
0
11
0.0148293336171642
21
0.399725019062444
31
0
210
0
220
0
230
1
40
0.406503
41
-2.33595515067481
42
-1.55571667185632
0
ELLIPSE
5
169
100
AcDbEntity
8
1
62
256
6
ByLayer
370
13
48
1
60
0
100
AcDbEllipse
10
33.123358
20
13.08063
30
0
11
-0.0777628762498878
21
-0.0628723713354653
31
0
210
0
220
0
230
1
40
0.13045
41
1.15581636427892
42
1.62182792903091
0
ELLIPSE
5
16A
100
AcDbEntity
8
1
62
256
6
ByLayer
370
13
48
1
60
0
100
AcDbEllipse
10
33.220403
20
13.003257
30
0
11
-0.0518341759381039
21
-0.0855173561612945
31
0
210
0
220
0
230
1
40
0.13986
41
0.736311954700989
42
1.57460332353055
0
ELLIPSE
5
16B
100
AcDbEntity
8
1
62
256
6
ByLayer
370
13
48
1
60
0
100
AcDbEllipse
10
33.220403
20
10.996743
30
0
11
-0.0518341759381039
21
0.0855173561612945
31
0
210
0
220
0
230
1
40
0.13986
41
-1.57460332353055
42
-0.736311954700279
0
ELLIPSE
5
16C
100
AcDbEntity
8
1
62
256
6
ByLayer
370
13
48
1
60
0
100
AcDbEllipse
10
32.858678
20
12.589076
30
0
11
0.014829333617164
21
-0.399725019062444
31
0
210
0
220
0
230
1
40
0.406503
41
1.5557166718563
42
2.33595515067479
0
ELLIPSE
5
16D
100
AcDbEntity
8
1
62
256
6
ByLayer
370
13
48
1
60
0
100
AcDbEllipse
10
33.123358
20
10.91937
30
0
11
-0.0777628762498878
21
0.0628723713354654
31
0
210
0
220
0
230
1
40
0.13045
41
-1.62182792903084
42
-1.15581636427968
0
ELLIPSE
5
16E
100
AcDbEntity
8
1
62
256
6
ByLayer
370
13
48
1
60
0
100
AcDbEllipse
10
32.358781
20
13.195151
30
0
11
-0.0082466205512047
21
-0.239858277425409
31
0
210
0
220
0
230
1
40
0.002403
41
0.709373157630815
42
1.50102444918572
0
ELLIPSE
5
16F
100
AcDbEntity
8
1
62
256
6
ByLayer
370
13
48
1
60
0
100
AcDbEllipse
10
32.358781
20
10.804849
30
0
11
-0.00824662055120453
21
0.239858277425409
31
0
210
0
220
0
230
1
40
0.002403
41
-1.50102444918911
42
-0.709373157670905
0
ELLIPSE
5
170
100
AcDbEntity
8
1
62
256
6
ByLayer
370
13
48
1
60
0
100
AcDbEllipse
10
29.382996
20
14.080141
30
0
11
5.665498452323E-16
21
2
31
0
210
0
220
0
230
1
40
0.34202
41
2.72521072930059
42
2.79252680319092
0
ELLIPSE
5
171
100
AcDbEntity
8
1
62
256
6
ByLayer
370
13
48
1
60
0
100
AcDbEllipse
10
29.382996
20
9.919859
30
0
11
-3.67381906146713E-16
21
-2
31
0
210
0
220
0
230
1
40
0.34202
41
-2.79252680319092
42
-2.72521072930059
0
ELLIPSE
5
172
100
AcDbEntity
8
1
62
256
6
ByLayer
370
13
48
1
60
0
100
AcDbEllipse
10
33.535862
20
12.73707
30
0
11
-0.0846493904271157
21
-0.0532398412874957
31
0
210
0
220
0
230
1
40
0.065231
41
1.0457795488987
42
1.67414184501556
0
ELLIPSE
5
173
100
AcDbEntity
8
1
62
256
6
ByLayer
370
13
48
1
60
0
100
AcDbEllipse
10
33.535862
20
11.26293
30
0
11
-0.0846493904271157
21
0.0532398412874958
31
0
210
0
220
0
230
1
40
0.065231
41
-1.67414184501549
42
-1.04577954889757
0
ELLIPSE
5
174
100
AcDbEntity
8
1
62
256
6
ByLayer
370
13
48
1
60
0
100
AcDbEllipse
10
29.127689
20
12
30
0
11
5.94877337493915E-17
21
0.21
31
0
210
0
220
0
230
1
40
0.34202
41
-2.7925268031909
42
-0.349065850398889
0
ELLIPSE
5
175
100
AcDbEntity
8
1
62
256
6
ByLayer
370
13
48
1
60
0
100
AcDbEllipse
10
25.908132
20
13.269586
30
0
11
0.979582052945681
21
-0.301726209301437
31
0
210
0
220
0
230
-1
40
0.270086
41
2.05273074537331
42
2.24185105469666
0
ELLIPSE
5
176
100
AcDbEntity
8
1
62
256
6
ByLayer
370
18
48
1
60
0
100
AcDbEllipse
10
-1.227723
20
-12.506981
30
0
11
1.59999999999936
21
1.61702248813113E-15
31
0
210
0
220
0
230
-1
40
0.004363
41
-1.5707963267949
42
-0.261799387798497
0
ELLIPSE
5
177
100
AcDbEntity
8
1
62
256
6
ByLayer
370
18
48
1
60
0
100
AcDbEllipse
10
33.106337
20
10.526697
30
0
11
0.239997046496416
21
-0.0169489931022219
31
0
210
0
220
0
230
-1
40
0.070266
41
1.44395567221248
42
1.73995037536821
0
ELLIPSE
5
178
100
AcDbEntity
8
1
62
256
6
ByLayer
370
18
48
1
60
0
100
AcDbEllipse
10
33.648748
20
11.26293
30
0
11
1.1330996904646E-16
21
0.4
31
0
210
0
220
0
230
1
40
0.121869
41
1.5707963267949
42
1.64009079051253
0
ELLIPSE
5
179
100
AcDbEntity
8
1
62
256
6
ByLayer
370
18
48
1
60
0
100
AcDbEllipse
10
33.648748
20
12.73707
30
0
11
1.1330996904646E-16
21
0.4
31
0
210
0
220
0
230
1
40
0.121869
41
1.50150186307726
42
1.5707963267949
0
ELLIPSE
5
17A
100
AcDbEntity
8
1
62
256
6
ByLayer
370
18
48
1
60
0
100
AcDbEllipse
10
30.142652
20
13.45
30
0
11
0.201946432116473
21
0
31
0
210
0
220
0
230
1
40
0.990362
41
-1.5707963267949
42
-1.04299365512072
0
ELLIPSE
5
17B
100
AcDbEntity
8
1
62
256
6
ByLayer
370
18
48
1
60
0
100
AcDbEllipse
10
30.736306
20
10.658691
30
0
11
0.251841921993148
21
-0.0177818623389453
31
0
210
0
220
0
230
-1
40
0.06924
41
0.774400198843421
42
1.56101782173592
0
ELLIPSE
5
17C
100
AcDbEntity
8
1
62
256
6
ByLayer
370
18
48
1
60
0
100
AcDbEllipse
10
30.153398
20
10.55
30
0
11
-0.201490790302156
21
2.46746902040712E-17
31
0
210
0
220
0
230
1
40
0.992601
41
-2.09761674342106
42
-1.5707963267949
0
ELLIPSE
5
17D
100
AcDbEntity
8
1
62
256
6
ByLayer
370
18
48
1
60
0
100
AcDbEllipse
10
30.736306
20
13.341309
30
0
11
0.251841922015637
21
0.0177818623415829
31
0
210
0
220
0
230
-1
40
0.06924
41
-1.56101782167337
42
-0.774400198844316
0
ELLIPSE
5
17E
100
AcDbEntity
8
1
62
256
6
ByLayer
370
18
48
1
60
0
100
AcDbEllipse
10
33.106337
20
13.473303
30
0
11
0.239997044274038
21
0.0169489929483746
31
0
210
0
220
0
230
-1
40
0.070266
41
-1.73995037676403
42
-1.44395567084748
0
ELLIPSE
5
17F
100
AcDbEntity
8
1
62
256
6
ByLayer
370
18
48
1
60
0
100
AcDbEllipse
10
30.39757
20
13.134169
30
0
11
0.058624730201206
21
-0.191752852286547
31
0
210
-1.59644179966719E-15
220
4.38574520942052E-19
230
1
40
0.997435
41
2.91526219766618
42
-2.91526219766618
0
ELLIPSE
5
180
100
AcDbEntity
8
1
62
256
6
ByLayer
370
18
48
1
60
0
100
AcDbEllipse
10
30.409275
20
10.865013
30
0
11
0.00297293931671267
21
0.200467814146891
31
0
210
-1.59612295829283E-15
220
-1.26268957575375E-19
230
1
40
0.997557
41
2.63386280411414
42
3.08674247812914
0
POINT
5
6C
100
AcDbEntity
8
81
62
256
6
ByLayer
370
18
48
1
60
0
100
AcDbPoint
10
33.6
20
13.5
30
0
39
0
210
0
220
0
230
1
50
360
0
POINT
5
6E
100
AcDbEntity
8
80
62
256
6
ByLayer
370
18
48
1
60
0
100
AcDbPoint
10
0
20
0
30
0
39
0
210
0
220
0
230
1
50
360
0
SPLINE
5
181
100
AcDbEntity
8
1
62
256
6
ByLayer
370
13
48
1
60
0
100
AcDbSpline
70
4
71
3
72
10
73
6
40
0
40
0
40
0
40
0
40
0.664993946719532
40
0.664993946719532
40
1
40
1
40
1
40
1
41
1
10
30.6317952361579
20
11.3512636890429
30
0
41
1
10
30.6544008183664
20
11.3720902707621
30
0
41
1
10
30.6719726297129
20
11.3979346022264
30
0
41
1
10
30.6836688596484
20
11.4462106524571
30
0
41
1
10
30.6849134160383
20
11.4643910844476
30
0
41
1
10
30.6838678419132
20
11.4837267156531
30
0
0
SPLINE
5
182
100
AcDbEntity
8
1
62
256
6
ByLayer
370
13
48
1
60
0
100
AcDbSpline
70
4
71
3
72
12
73
8
40
0
40
0
40
0
40
0
40
0.274450233641753
40
0.274450233641753
40
0.728710906931613
40
0.728710906931613
40
1
40
1
40
1
40
1
41
1
10
31.7146869282979
20
11.1806157801649
30
0
41
1
10
31.6122143236957
20
11.2110950655739
30
0
41
1
10
31.509497462749
20
11.2414423862556
30
0
41
1
10
31.2439453836002
20
11.3195775859781
30
0
41
1
10
31.0820473482734
20
11.3668707717637
30
0
41
1
10
30.846079380226
20
11.4359480682252
30
0
41
1
10
30.7617198878048
20
11.4605159047956
30
0
41
1
10
30.6838678419132
20
11.4837267156531
30
0
0
SPLINE
5
183
100
AcDbEntity
8
1
62
256
6
ByLayer
370
13
48
1
60
0
100
AcDbSpline
70
4
71
3
72
16
73
12
40
0
40
0
40
0
40
0
40
0.0442199247554627
40
0.0442199247554627
40
0.048439955548864
40
0.048439955548864
40
0.216895358525141
40
0.216895358525141
40
0.889245809546153
40
0.889245809546153
40
1
40
1
40
1
40
1
41
1
10
32.4219297662851
20
11.1087044877512
30
0
41
1
10
32.411330078545
20
11.108334754722
30
0
41
1
10
32.4007291289449
20
11.1080034322955
30
0
41
1
10
32.3891179461187
20
11.1075966424935
30
0
41
1
10
32.3881063966876
20
11.1075610752904
30
0
41
1
10
32.3467182945273
20
11.1061009165887
30
0
41
1
10
32.3063476610927
20
11.1042047230043
30
0
41
1
10
32.1067119730517
20
11.0974612869649
30
0
41
1
10
31.9453726295507
20
11.1184074745949
30
0
41
1
10
31.7656324617666
20
11.1658881276012
30
0
41
1
10
31.7400997197492
20
11.1730570406686
30
0
41
1
10
31.7146869282978
20
11.1806157801649
30
0
0
SPLINE
5
184
100
AcDbEntity
8
1
62
256
6
ByLayer
370
13
48
1
60
0
100
AcDbSpline
70
4
71
3
72
12
73
8
40
0
40
0
40
0
40
0
40
0.609383607480292
40
0.609383607480292
40
0.614539779329414
40
0.614539779329414
40
1
40
1
40
1
40
1
41
1
10
32.9656057053218
20
11.1297062644868
30
0
41
1
10
32.8600213620048
20
11.1253532523368
30
0
41
1
10
32.7496097970341
20
11.1210237993586
30
0
41
1
10
32.6373081383666
20
11.116752287228
30
0
41
1
10
32.6363601843112
20
11.1167162320912
30
0
41
1
10
32.5647049543389
20
11.113990933076
30
0
41
1
10
32.4932165299022
20
11.1111910771394
30
0
41
1
10
32.4219297662851
20
11.1087044877512
30
0
0
SPLINE
5
185
100
AcDbEntity
8
1
62
256
6
ByLayer
370
13
48
1
60
0
100
AcDbSpline
70
4
71
3
72
12
73
8
40
0
40
0
40
0
40
0
40
0.178891096392299
40
0.178891096392299
40
0.986291642516443
40
0.986291642516443
40
1
40
1
40
1
40
1
41
1
10
33.3213895076228
20
11.1463012229624
30
0
41
1
10
33.3003115269679
20
11.1454648819153
30
0
41
1
10
33.2792221384665
20
11.1446218615653
30
0
41
1
10
33.1629014296375
20
11.1399331694938
30
0
41
1
10
33.0679540502601
20
11.1342895071999
30
0
41
1
10
32.9689156735316
20
11.1298457310656
30
0
41
1
10
32.9672607449414
20
11.12977449816
30
0
41
1
10
32.9656057053218
20
11.1297062644868
30
0
0
SPLINE
5
186
100
AcDbEntity
8
1
62
256
6
ByLayer
370
13
48
1
60
0
100
AcDbSpline
70
4
71
3
72
8
73
4
40
0
40
0
40
0
40
0
40
1
40
1
40
1
40
1
41
1
10
33.1900286630424
20
11.0649760336645
30
0
41
1
10
33.2340900206689
20
11.0916390015714
30
0
41
1
10
33.2778395366007
20
11.1188158201189
30
0
41
1
10
33.3213895076228
20
11.1463012229624
30
0
0
SPLINE
5
187
100
AcDbEntity
8
1
62
256
6
ByLayer
370
13
48
1
60
0
100
AcDbSpline
70
4
71
3
72
8
73
4
40
0
40
0
40
0
40
0
40
1
40
1
40
1
40
1
41
1
10
32.7158957172693
20
10.9864557878381
30
0
41
1
10
32.8755545267195
20
10.9869722000561
30
0
41
1
10
33.0354150796997
20
11.0211649492281
30
0
41
1
10
33.1900286630424
20
11.0649760336645
30
0
0
SPLINE
5
188
100
AcDbEntity
8
1
62
256
6
ByLayer
370
13
48
1
60
0
100
AcDbSpline
70
4
71
3
72
8
73
4
40
0
40
0
40
0
40
0
40
1
40
1
40
1
40
1
41
1
10
32.3528986418118
20
10.9868594681309
30
0
41
1
10
32.4744062234274
20
10.9909096236938
30
0
41
1
10
32.5966210532665
20
10.9860699970741
30
0
41
1
10
32.7158957172706
20
10.9864557878362
30
0
0
SPLINE
5
189
100
AcDbEntity
8
1
62
256
6
ByLayer
370
13
48
1
60
0
100
AcDbSpline
70
4
71
3
72
8
73
4
40
0
40
0
40
0
40
0
40
1
40
1
40
1
40
1
41
1
10
32.0823771357601
20
11.0033367230782
30
0
41
1
10
32.1716495580755
20
10.9896351417456
30
0
41
1
10
32.2625883571385
20
10.9838491975204
30
0
41
1
10
32.3528986418103
20
10.9868594681305
30
0
0
SPLINE
5
18A
100
AcDbEntity
8
1
62
256
6
ByLayer
370
13
48
1
60
0
100
AcDbSpline
70
4
71
3
72
14
73
10
40
0
40
0
40
0
40
0
40
0.102691686735347
40
0.102691686735347
40
0.53816841361549
40
0.53816841361549
40
0.926474667639871
40
0.926474667639871
40
1
40
1
40
1
40
1
41
1
10
30.9509720530678
20
11.1002838115505
30
0
41
1
10
30.980893999408
20
11.1035266946692
30
0
41
1
10
31.0122711139628
20
11.1057316613353
30
0
41
1
10
31.1807977171794
20
11.1124143882119
30
0
41
1
10
31.342161843352
20
11.10209976083
30
0
41
1
10
31.6640413220707
20
11.0675339453461
30
0
41
1
10
31.8272620626366
20
11.0440549552907
30
0
41
1
10
32.0201021624027
20
11.0129580119954
30
0
41
1
10
32.0512578164011
20
11.0081129336275
30
0
41
1
10
32.0823771357601
20
11.0033367230784
30
0
0
SPLINE
5
18B
100
AcDbEntity
8
1
62
256
6
ByLayer
370
13
48
1
60
0
100
AcDbSpline
70
4
71
3
72
8
73
4
40
0
40
0
40
0
40
0
40
1
40
1
40
1
40
1
41
1
10
30.8573483090604
20
11.0940192745328
30
0
41
1
10
30.8886707932501
20
11.0946856226939
30
0
41
1
10
30.9198681643653
20
11.0969128317869
30
0
41
1
10
30.9509720530678
20
11.1002838115505
30
0
0
SPLINE
5
18C
100
AcDbEntity
8
1
62
256
6
ByLayer
370
13
48
1
60
0
100
AcDbSpline
70
4
71
3
72
10
73
6
40
0
40
0
40
0
40
0
40
0.436659189793396
40
0.436659189793396
40
1
40
1
40
1
40
1
41
1
10
30.6305156049705
20
11.3062711708627
30
0
41
1
10
30.6626760675876
20
11.2744867779832
30
0
41
1
10
30.6951835994714
20
11.2430486867056
30
0
41
1
10
30.7705662077346
20
11.1720330395359
30
0
41
1
10
30.8138220700954
20
11.132825465143
30
0
41
1
10
30.8573483090634
20
11.094019274532
30
0
0
SPLINE
5
18D
100
AcDbEntity
8
1
62
256
6
ByLayer
370
13
48
1
60
0
100
AcDbSpline
70
4
71
3
72
10
73
6
40
0
40
0
40
0
40
0
40
0.73561768390405
40
0.73561768390405
40
1
40
1
40
1
40
1
41
1
10
30.6305156049705
20
11.3062711708627
30
0
41
1
10
30.6246851208416
20
11.3120334759776
30
0
41
1
10
30.6191348692196
20
11.3183460122241
30
0
41
1
10
30.61316259116
20
11.3271229889294
30
0
41
1
10
30.6117118978094
20
11.3295047536141
30
0
41
1
10
30.610489557918
20
11.3318540541083
30
0
0
SPLINE
5
18E
100
AcDbEntity
8
1
62
256
6
ByLayer
370
13
48
1
60
0
100
AcDbSpline
70
4
71
3
72
8
73
4
40
0
40
0
40
0
40
0
40
1
40
1
40
1
40
1
41
1
10
30.610489557921
20
11.3318540541117
30
0
41
1
10
30.617660329603
20
11.3383166474571
30
0
41
1
10
30.6247646325939
20
11.3447863756824
30
0
41
1
10
30.6317952361579
20
11.3512636890429
30
0
0
SPLINE
5
18F
100
AcDbEntity
8
1
62
256
6
ByLayer
370
13
48
1
60
0
100
AcDbSpline
70
4
71
3
72
12
73
8
40
0
40
0
40
0
40
0
40
0.233793069268613
40
0.233793069268613
40
0.849542984529965
40
0.849542984529965
40
1
40
1
40
1
40
1
41
1
10
30.6104895579289
20
12.6681459458966
30
0
41
1
10
30.6115678802706
20
12.6702184489942
30
0
41
1
10
30.6128235703367
20
12.6723158151393
30
0
41
1
10
30.6177801949081
20
12.6797891721238
30
0
41
1
10
30.6222297367628
20
12.6851294447461
30
0
41
1
10
30.6281198492317
20
12.69132558331
30
0
41
1
10
30.6293089587677
20
12.6925362929035
30
0
41
1
10
30.6305156049705
20
12.6937288291375
30
0
0
SPLINE
5
190
100
AcDbEntity
8
1
62
256
6
ByLayer
370
13
48
1
60
0
100
AcDbSpline
70
4
71
3
72
10
73
6
40
0
40
0
40
0
40
0
40
0.436659189793399
40
0.436659189793399
40
1
40
1
40
1
40
1
41
1
10
30.6305156049705
20
12.6937288291375
30
0
41
1
10
30.6626760675876
20
12.725513222017
30
0
41
1
10
30.6951835994714
20
12.7569513132947
30
0
41
1
10
30.7705662077346
20
12.8279669604644
30
0
41
1
10
30.8138220700954
20
12.8671745348572
30
0
41
1
10
30.8573483090634
20
12.9059807254683
30
0
0
SPLINE
5
191
100
AcDbEntity
8
1
62
256
6
ByLayer
370
13
48
1
60
0
100
AcDbSpline
70
4
71
3
72
8
73
4
40
0
40
0
40
0
40
0
40
1
40
1
40
1
40
1
41
1
10
30.8573483090604
20
12.9059807254675
30
0
41
1
10
30.8886707932501
20
12.9053143773064
30
0
41
1
10
30.9198681643653
20
12.9030871682134
30
0
41
1
10
30.9509720530678
20
12.8997161884498
30
0
0
SPLINE
5
192
100
AcDbEntity
8
1
62
256
6
ByLayer
370
13
48
1
60
0
100
AcDbSpline
70
4
71
3
72
14
73
10
40
0
40
0
40
0
40
0
40
0.102691686735347
40
0.102691686735347
40
0.53816841361549
40
0.53816841361549
40
0.926474667639871
40
0.926474667639871
40
1
40
1
40
1
40
1
41
1
10
30.9509720530678
20
12.8997161884498
30
0
41
1
10
30.980893999408
20
12.8964733053311
30
0
41
1
10
31.0122711139628
20
12.894268338665
30
0
41
1
10
31.1807977171794
20
12.8875856117884
30
0
41
1
10
31.342161843352
20
12.8979002391703
30
0
41
1
10
31.6640413220707
20
12.9324660546542
30
0
41
1
10
31.8272620626366
20
12.9559450447096
30
0
41
1
10
32.0201021624027
20
12.9870419880049
30
0
41
1
10
32.0512578164011
20
12.9918870663728
30
0
41
1
10
32.0823771357601
20
12.996663276922
30
0
0
SPLINE
5
193
100
AcDbEntity
8
1
62
256
6
ByLayer
370
13
48
1
60
0
100
AcDbSpline
70
4
71
3
72
8
73
4
40
0
40
0
40
0
40
0
40
1
40
1
40
1
40
1
41
1
10
32.0823771357601
20
12.9966632769221
30
0
41
1
10
32.1716495580755
20
13.0103648582547
30
0
41
1
10
32.2625883571385
20
13.0161508024799
30
0
41
1
10
32.3528986418103
20
13.0131405318698
30
0
0
SPLINE
5
194
100
AcDbEntity
8
1
62
256
6
ByLayer
370
13
48
1
60
0
100
AcDbSpline
70
4
71
3
72
8
73
4
40
0
40
0
40
0
40
0
40
1
40
1
40
1
40
1
41
1
10
32.3528986418118
20
13.0131405318693
30
0
41
1
10
32.4744062234274
20
13.0090903763065
30
0
41
1
10
32.5966210532665
20
13.0139300029262
30
0
41
1
10
32.7158957172706
20
13.013544212164
30
0
0
SPLINE
5
195
100
AcDbEntity
8
1
62
256
6
ByLayer
370
13
48
1
60
0
100
AcDbSpline
70
4
71
3
72
8
73
4
40
0
40
0
40
0
40
0
40
1
40
1
40
1
40
1
41
1
10
32.7158957172693
20
13.0135442121622
30
0
41
1
10
32.8755545267195
20
13.0130277999442
30
0
41
1
10
33.0354150796997
20
12.9788350507722
30
0
41
1
10
33.1900286630424
20
12.9350239663358
30
0
0
SPLINE
5
196
100
AcDbEntity
8
1
62
256
6
ByLayer
370
13
48
1
60
0
100
AcDbSpline
70
4
71
3
72
8
73
4
40
0
40
0
40
0
40
0
40
1
40
1
40
1
40
1
41
1
10
33.1900286630424
20
12.9350239663358
30
0
41
1
10
33.2340900206689
20
12.908360998429
30
0
41
1
10
33.2778395366007
20
12.8811841798814
30
0
41
1
10
33.3213895076228
20
12.8536987770379
30
0
0
SPLINE
5
197
100
AcDbEntity
8
1
62
256
6
ByLayer
370
13
48
1
60
0
100
AcDbSpline
70
4
71
3
72
12
73
8
40
0
40
0
40
0
40
0
40
0.178891096392299
40
0.178891096392299
40
0.986291642516443
40
0.986291642516443
40
1
40
1
40
1
40
1
41
1
10
33.3213895076228
20
12.8536987770379
30
0
41
1
10
33.3003115269679
20
12.854535118085
30
0
41
1
10
33.2792221384665
20
12.855378138435
30
0
41
1
10
33.1629014296375
20
12.8600668305065
30
0
41
1
10
33.0679540502601
20
12.8657104928004
30
0
41
1
10
32.9689156735316
20
12.8701542689347
30
0
41
1
10
32.9672607449414
20
12.8702255018403
30
0
41
1
10
32.9656057053218
20
12.8702937355135
30
0
0
SPLINE
5
198
100
AcDbEntity
8
1
62
256
6
ByLayer
370
13
48
1
60
0
100
AcDbSpline
70
4
71
3
72
12
73
8
40
0
40
0
40
0
40
0
40
0.609383607480292
40
0.609383607480292
40
0.614539779329414
40
0.614539779329414
40
1
40
1
40
1
40
1
41
1
10
32.9656057053218
20
12.8702937355135
30
0
41
1
10
32.8600213620048
20
12.8746467476635
30
0
41
1
10
32.7496097970341
20
12.8789762006417
30
0
41
1
10
32.6373081383666
20
12.8832477127723
30
0
41
1
10
32.6363601843112
20
12.8832837679091
30
0
41
1
10
32.5647049543389
20
12.8860090669243
30
0
41
1
10
32.4932165299022
20
12.8888089228609
30
0
41
1
10
32.4219297662851
20
12.8912955122491
30
0
0
SPLINE
5
199
100
AcDbEntity
8
1
62
256
6
ByLayer
370
13
48
1
60
0
100
AcDbSpline
70
4
71
3
72
16
73
12
40
0
40
0
40
0
40
0
40
0.0442199247554627
40
0.0442199247554627
40
0.048439955548864
40
0.048439955548864
40
0.216895358525141
40
0.216895358525141
40
0.889245809546153
40
0.889245809546153
40
1
40
1
40
1
40
1
41
1
10
32.4219297662851
20
12.8912955122491
30
0
41
1
10
32.411330078545
20
12.8916652452783
30
0
41
1
10
32.4007291289449
20
12.8919965677048
30
0
41
1
10
32.3891179461187
20
12.8924033575068
30
0
41
1
10
32.3881063966876
20
12.8924389247099
30
0
41
1
10
32.3467182945273
20
12.8938990834116
30
0
41
1
10
32.3063476610927
20
12.895795276996
30
0
41
1
10
32.1067119730517
20
12.9025387130353
30
0
41
1
10
31.9453726295507
20
12.8815925254054
30
0
41
1
10
31.7656324617666
20
12.8341118723991
30
0
41
1
10
31.7400997197492
20
12.8269429593317
30
0
41
1
10
31.7146869282978
20
12.8193842198355
30
0
0
SPLINE
5
19A
100
AcDbEntity
8
1
62
256
6
ByLayer
370
13
48
1
60
0
100
AcDbSpline
70
4
71
3
72
12
73
8
40
0
40
0
40
0
40
0
40
0.274450233641753
40
0.274450233641753
40
0.728710906931611
40
0.728710906931611
40
1
40
1
40
1
40
1
41
1
10
31.7146869282979
20
12.8193842198354
30
0
41
1
10
31.6122143236957
20
12.7889049344264
30
0
41
1
10
31.509497462749
20
12.7585576137447
30
0
41
1
10
31.2439453836002
20
12.6804224140222
30
0
41
1
10
31.0820473482734
20
12.6331292282366
30
0
41
1
10
30.846079380226
20
12.564051931775
30
0
41
1
10
30.7617198878048
20
12.5394840952046
30
0
41
1
10
30.6838678419132
20
12.5162732843472
30
0
0
SPLINE
5
19B
100
AcDbEntity
8
1
62
256
6
ByLayer
370
13
48
1
60
0
100
AcDbSpline
70
4
71
3
72
10
73
6
40
0
40
0
40
0
40
0
40
0.659159716151023
40
0.659159716151023
40
1
40
1
40
1
40
1
41
1
10
30.6838678419132
20
12.5162732843472
30
0
41
1
10
30.6859020371366
20
12.5538913237541
30
0
41
1
10
30.6777349617728
20
12.5862591638258
30
0
41
1
10
30.6536893544428
20
12.6257793063448
30
0
41
1
10
30.6434984870353
20
12.6379540754667
30
0
41
1
10
30.6317952361579
20
12.6487363109574
30
0
0
SPLINE
5
19C
100
AcDbEntity
8
1
62
256
6
ByLayer
370
13
48
1
60
0
100
AcDbSpline
70
4
71
3
72
8
73
4
40
0
40
0
40
0
40
0
40
1
40
1
40
1
40
1
41
1
10
30.6317952361579
20
12.6487363109574
30
0
41
1
10
30.6247646325939
20
12.6552136243179
30
0
41
1
10
30.617660329603
20
12.6616833525432
30
0
41
1
10
30.610489557921
20
12.6681459458886
30
0
0
SPLINE
5
19D
100
AcDbEntity
8
1
62
256
6
ByLayer
370
13
48
1
60
0
100
AcDbSpline
70
4
71
3
72
8
73
4
40
0
40
0
40
0
40
0
40
1
40
1
40
1
40
1
41
1
10
30.7169741247547
20
10.9351553007841
30
0
41
1
10
30.6355486668608
20
11.0045506803842
30
0
41
1
10
30.5571073551694
20
11.0774794580058
30
0
41
1
10
30.4804455603128
20
11.1521038046523
30
0
0
SPLINE
5
19E
100
AcDbEntity
8
1
62
256
6
ByLayer
370
13
48
1
60
0
100
AcDbSpline
70
4
71
3
72
8
73
4
40
0
40
0
40
0
40
0
40
1
40
1
40
1
40
1
41
1
10
30.7169741247547
20
13.0648446992162
30
0
41
1
10
30.6355486668608
20
12.9954493196161
30
0
41
1
10
30.5571073551694
20
12.9225205419945
30
0
41
1
10
30.4804455603128
20
12.8478961953479
30
0
0
SPLINE
5
19F
100
AcDbEntity
8
1
62
256
6
ByLayer
370
13
48
1
60
0
100
AcDbSpline
70
4
71
3
72
12
73
8
40
0
40
0
40
0
40
0
40
0.46817896742225
40
0.46817896742225
40
0.899165978787896
40
0.899165978787896
40
1
40
1
40
1
40
1
41
1
10
32.0587805434612
20
13.1644241853513
30
0
41
1
10
31.8775060355049
20
13.1359004882467
30
0
41
1
10
31.6936117660434
20
13.1011182702041
30
0
41
1
10
31.3658158689767
20
13.0574653627293
30
0
41
1
10
31.2153724323278
20
13.0433983198629
30
0
41
1
10
31.0560286247614
20
13.0446525221279
30
0
41
1
10
31.0264524991724
20
13.0457520960095
30
0
41
1
10
30.9981203716814
20
13.0478480284315
30
0
0
SPLINE
5
1A0
100
AcDbEntity
8
1
62
256
6
ByLayer
370
13
48
1
60
0
100
AcDbSpline
70
4
71
3
72
12
73
8
40
0
40
0
40
0
40
0
40
0.46817896742225
40
0.46817896742225
40
0.899165978787896
40
0.899165978787896
40
1
40
1
40
1
40
1
41
1
10
32.0587805434612
20
10.835575814649
30
0
41
1
10
31.8775060355049
20
10.8640995117535
30
0
41
1
10
31.6936117660434
20
10.8988817297962
30
0
41
1
10
31.3658158689767
20
10.9425346372711
30
0
41
1
10
31.2153724323278
20
10.9566016801374
30
0
41
1
10
31.0560286247614
20
10.9553474778723
30
0
41
1
10
31.0264524991724
20
10.9542479039908
30
0
41
1
10
30.9981203716814
20
10.9521519715688
30
0
0
SPLINE
5
1A1
100
AcDbEntity
8
1
62
256
6
ByLayer
370
13
48
1
60
0
100
AcDbSpline
70
4
71
3
72
10
73
6
40
0
40
0
40
0
40
0
40
0.132191617121101
40
0.132191617121101
40
1
40
1
40
1
40
1
41
1
10
30.8573483090604
20
11.0940192745328
30
0
41
1
10
30.8564468305522
20
11.0930540593423
30
0
41
1
10
30.85552642843
20
11.0920633630372
30
0
41
1
10
30.8484541077129
20
11.0844123395129
30
0
41
1
10
30.8414978788605
20
11.0766708062934
30
0
41
1
10
30.8339180002563
20
11.068041391005
30
0
0
SPLINE
5
1A2
100
AcDbEntity
8
1
62
256
6
ByLayer
370
13
48
1
60
0
100
AcDbSpline
70
4
71
3
72
14
73
10
40
0
40
0
40
0
40
0
40
0.447953066725052
40
0.447953066725052
40
0.912809598186729
40
0.912809598186729
40
0.983423615312508
40
0.983423615312508
40
1
40
1
40
1
40
1
41
1
10
30.8339180002563
20
11.0680413910044
30
0
41
1
10
30.8203040290403
20
11.0525423813542
30
0
41
1
10
30.80401541129
20
11.0340092486583
30
0
41
1
10
30.7683740707567
20
10.993494920298
30
0
41
1
10
30.7483538761323
20
10.9707568272157
30
0
41
1
10
30.7253006224606
20
10.9446003070775
30
0
41
1
10
30.7222095971504
20
10.9410937049566
30
0
41
1
10
30.7184037038144
20
10.9367767596907
30
0
41
1
10
30.71768889993
20
10.9359660277506
30
0
41
1
10
30.7169741247485
20
10.9351553007852
30
0
0
SPLINE
5
1A3
100
AcDbEntity
8
1
62
256
6
ByLayer
370
13
48
1
60
0
100
AcDbSpline
70
4
71
3
72
14
73
10
40
0
40
0
40
0
40
0
40
0.447953066725053
40
0.447953066725053
40
0.912809598186729
40
0.912809598186729
40
0.983423615312508
40
0.983423615312508
40
1
40
1
40
1
40
1
41
1
10
30.8339180002563
20
12.9319586089959
30
0
41
1
10
30.8203040290403
20
12.9474576186461
30
0
41
1
10
30.80401541129
20
12.965990751342
30
0
41
1
10
30.7683740707567
20
13.0065050797023
30
0
41
1
10
30.7483538761323
20
13.0292431727846
30
0
41
1
10
30.7253006224606
20
13.0553996929228
30
0
41
1
10
30.7222095971504
20
13.0589062950436
30
0
41
1
10
30.7184037038144
20
13.0632232403096
30
0
41
1
10
30.71768889993
20
13.0640339722497
30
0
41
1
10
30.7169741247485
20
13.0648446992151
30
0
0
SPLINE
5
1A4
100
AcDbEntity
8
1
62
256
6
ByLayer
370
13
48
1
60
0
100
AcDbSpline
70
4
71
3
72
10
73
6
40
0
40
0
40
0
40
0
40
0.132191617121101
40
0.132191617121101
40
1
40
1
40
1
40
1
41
1
10
30.8573483090604
20
12.9059807254675
30
0
41
1
10
30.8564468305522
20
12.906945940658
30
0
41
1
10
30.85552642843
20
12.9079366369631
30
0
41
1
10
30.8484541077129
20
12.9155876604874
30
0
41
1
10
30.8414978788605
20
12.9233291937069
30
0
41
1
10
30.8339180002563
20
12.9319586089953
30
0
0
SPLINE
5
1A5
100
AcDbEntity
8
1
62
256
6
ByLayer
370
13
48
1
60
0
100
AcDbSpline
70
4
71
3
72
12
73
8
40
0
40
0
40
0
40
0
40
0.559278359968975
40
0.559278359968975
40
0.982064699130975
40
0.982064699130975
40
1
40
1
40
1
40
1
41
1
10
30.4655988415542
20
11.3029923765778
30
0
41
1
10
30.4639058993618
20
11.3351919378456
30
0
41
1
10
30.4615176185073
20
11.3643669124821
30
0
41
1
10
30.4565061637905
20
11.4053649538649
30
0
41
1
10
30.4540306406305
20
11.4201075402843
30
0
41
1
10
30.4512781291034
20
11.4314807870884
30
0
41
1
10
30.4511665651817
20
11.4319338947937
30
0
41
1
10
30.4510546870628
20
11.4323804861463
30
0
0
SPLINE
5
1A6
100
AcDbEntity
8
1
62
256
6
ByLayer
370
13
48
1
60
0
100
AcDbSpline
70
4
71
3
72
10
73
6
40
0
40
0
40
0
40
0
40
0.709641074204652
40
0.709641074204652
40
1
40
1
40
1
40
1
41
1
10
30.4804455603128
20
11.1521038046523
30
0
41
1
10
30.4753414889782
20
11.1889680114081
30
0
41
1
10
30.4711861437204
20
11.2266058234466
30
0
41
1
10
30.4672412502849
20
11.275607097515
30
0
41
1
10
30.4663022439904
20
11.2896137450133
30
0
41
1
10
30.4655988415525
20
11.3029923765779
30
0
0
SPLINE
5
1A7
100
AcDbEntity
8
1
62
256
6
ByLayer
370
13
48
1
60
0
100
AcDbSpline
70
4
71
3
72
12
73
8
40
0
40
0
40
0
40
0
40
0.135507654329451
40
0.135507654329451
40
0.742115377580087
40
0.742115377580087
40
1
40
1
40
1
40
1
41
1
10
30.4804455603128
20
12.847896195348
30
0
41
1
10
30.4794577311546
20
12.8407615892773
30
0
41
1
10
30.4785068164279
20
12.833617327018
30
0
41
1
10
30.4735694178171
20
12.7949649545597
30
0
41
1
10
30.4702919601627
20
12.7632943509396
30
0
41
1
10
30.4670296012878
20
12.7212005106125
30
0
41
1
10
30.4662219824782
20
12.7088596904497
30
0
41
1
10
30.4655988415537
20
12.6970076234225
30
0
0
SPLINE
5
1A8
100
AcDbEntity
8
1
62
256
6
ByLayer
370
13
48
1
60
0
100
AcDbSpline
70
4
71
3
72
14
73
10
40
0
40
0
40
0
40
0
40
0.0177509856471946
40
0.0177509856471946
40
0.340726860481444
40
0.340726860481444
40
0.792711195890233
40
0.792711195890233
40
1
40
1
40
1
40
1
41
1
10
30.4510546870628
20
12.5676195138539
30
0
41
1
10
30.4511665651504
20
12.5680661052064
30
0
41
1
10
30.4512781289784
20
12.5685192129111
30
0
41
1
10
30.4534062656342
20
12.5773125699557
30
0
41
1
10
30.455323964045
20
12.5878473759762
30
0
41
1
10
30.4595178404373
20
12.6174589617603
30
0
41
1
10
30.4616827821098
20
12.6386293781373
30
0
41
1
10
30.4642384176627
20
12.673346877728
30
0
41
1
10
30.4649648606851
20
12.6849493819013
30
0
41
1
10
30.4655988415542
20
12.6970076234225
30
0
0
SPLINE
5
1A9
100
AcDbEntity
8
1
62
256
6
ByLayer
370
13
48
1
60
0
100
AcDbSpline
70
4
71
3
72
18
73
14
40
0
40
0
40
0
40
0
40
0.10212592206704
40
0.10212592206704
40
0.219798180864097
40
0.219798180864097
40
0.395678331134856
40
0.395678331134856
40
0.733655817510089
40
0.733655817510089
40
0.802063348489368
40
0.802063348489368
40
1
40
1
40
1
40
1
41
1
10
30.0559779585025
20
11.173244322549
30
0
41
1
10
30.0564416368177
20
11.1865239527803
30
0
41
1
10
30.05608929913
20
11.1998830474288
30
0
41
1
10
30.0536446728814
20
11.2281153692781
30
0
41
1
10
30.0512850832915
20
11.2430478935574
30
0
41
1
10
30.0431564052165
20
11.2787984413756
30
0
41
1
10
30.0362096466949
20
11.2992266547456
30
0
41
1
10
30.0118798067114
20
11.3534664406784
30
0
41
1
10
29.9902866995539
20
11.3838481801351
30
0
41
1
10
29.9616240935597
20
11.4128060666674
30
0
41
1
10
29.956622989345
20
11.4175054135443
30
0
41
1
10
29.9368310070575
20
11.4348358845034
30
0
41
1
10
29.9212866355731
20
11.4457808537068
30
0
41
1
10
29.9052940680712
20
11.4548268776212
30
0
0
SPLINE
5
1AA
100
AcDbEntity
8
1
62
256
6
ByLayer
370
13
48
1
60
0
100
AcDbSpline
70
4
71
3
72
14
73
10
40
0
40
0
40
0
40
0
40
0.447954004797037
40
0.447954004797037
40
0.912810038934036
40
0.912810038934036
40
0.983423779130199
40
0.983423779130199
40
1
40
1
40
1
40
1
41
1
10
30.8933275812136
20
13.0495304559494
30
0
41
1
10
30.8727755286919
20
13.0513153960277
30
0
41
1
10
30.8481939779357
20
13.0534502100755
30
0
41
1
10
30.7944355442363
20
13.0581186183365
30
0
41
1
10
30.7642532997473
20
13.0607395039347
30
0
41
1
10
30.7295181484127
20
13.0637555302522
30
0
41
1
10
30.7248611889835
20
13.0641598862852
30
0
41
1
10
30.7191276857054
20
13.0646577116982
30
0
41
1
10
30.7180508939063
20
13.0647512063293
30
0
41
1
10
30.7169741247543
20
13.0648446992163
30
0
0
SPLINE
5
1AB
100
AcDbEntity
8
1
62
256
6
ByLayer
370
13
48
1
60
0
100
AcDbSpline
70
4
71
3
72
14
73
10
40
0
40
0
40
0
40
0
40
0.447954004797037
40
0.447954004797037
40
0.912810038934036
40
0.912810038934036
40
0.983423779130199
40
0.983423779130199
40
1
40
1
40
1
40
1
41
1
10
30.8933275812136
20
10.9504695440509
30
0
41
1
10
30.8727755286919
20
10.9486846039726
30
0
41
1
10
30.8481939779357
20
10.9465497899248
30
0
41
1
10
30.7944355442363
20
10.9418813816638
30
0
41
1
10
30.7642532997473
20
10.9392604960656
30
0
41
1
10
30.7295181484127
20
10.9362444697482
30
0
41
1
10
30.7248611889835
20
10.9358401137151
30
0
41
1
10
30.7191276857054
20
10.9353422883021
30
0
41
1
10
30.7180508939063
20
10.935248793671
30
0
41
1
10
30.7169741247543
20
10.935155300784
30
0
0
SPLINE
5
1AC
100
AcDbEntity
8
1
62
256
6
ByLayer
370
13
48
1
60
0
100
AcDbSpline
70
4
71
3
72
12
73
8
40
0
40
0
40
0
40
0
40
0.356479833160399
40
0.356479833160399
40
0.824168720346733
40
0.824168720346733
40
1
40
1
40
1
40
1
41
1
10
30.464378753796
20
12.5563103127402
30
0
41
1
10
30.4767763033464
20
12.5497973135486
30
0
41
1
10
30.4880463981536
20
12.5422012362095
30
0
41
1
10
30.5095864832785
20
12.5216848911679
30
0
41
1
10
30.5185295226103
20
12.5075051064432
30
0
41
1
10
30.5240732667399
20
12.484799559925
30
0
41
1
10
30.5249217874922
20
12.4781840176503
30
0
41
1
10
30.5250392603486
20
12.4712889523048
30
0
0
SPLINE
5
1AD
100
AcDbEntity
8
1
62
256
6
ByLayer
370
13
48
1
60
0
100
AcDbSpline
70
4
71
3
72
12
73
8
40
0
40
0
40
0
40
0
40
0.443558069836982
40
0.443558069836982
40
0.507222026557664
40
0.507222026557664
40
1
40
1
40
1
40
1
41
1
10
30.5250392603487
20
12.4712889523048
30
0
41
1
10
30.525625933741
20
12.4368541773397
30
0
41
1
10
30.5334575781989
20
12.3959258149455
30
0
41
1
10
30.5513800260717
20
12.3473840694134
30
0
41
1
10
30.5538277204396
20
12.341159344948
30
0
41
1
10
30.576282853545
20
12.2873965381697
30
0
41
1
10
30.606340828125
20
12.2374991266034
30
0
41
1
10
30.6439598709927
20
12.192381484215
30
0
0
SPLINE
5
1AE
100
AcDbEntity
8
1
62
256
6
ByLayer
370
13
48
1
60
0
100
AcDbSpline
70
4
71
3
72
18
73
14
40
0
40
0
40
0
40
0
40
0.262962488711577
40
0.262962488711577
40
0.43136352889061
40
0.43136352889061
40
0.488169625072958
40
0.488169625072958
40
0.652801403480982
40
0.652801403480982
40
0.712254155913291
40
0.712254155913291
40
1
40
1
40
1
40
1
41
1
10
30.6439598709926
20
12.192381484215
30
0
41
1
10
30.6671201854563
20
12.164604626914
30
0
41
1
10
30.6885389915201
20
12.1338433449176
30
0
41
1
10
30.713950371308
20
12.0779105161367
30
0
41
1
10
30.7214580237961
20
12.0542075721609
30
0
41
1
10
30.7259784141927
20
12.0217121666595
30
0
41
1
10
30.7266641796623
20
12.0133436996628
30
0
41
1
10
30.7274106952604
20
11.9810784942356
30
0
41
1
10
30.72374714007
20
11.9567706575811
30
0
41
1
10
30.7143596854291
20
11.9258342117684
30
0
41
1
10
30.7114227244077
20
11.9176956184358
30
0
41
1
10
30.6925277493289
20
11.8718861575126
30
0
41
1
10
30.6692256559174
20
11.8379205267351
30
0
41
1
10
30.6439598709998
20
11.8076185157939
30
0
0
SPLINE
5
1AF
100
AcDbEntity
8
1
62
256
6
ByLayer
370
13
48
1
60
0
100
AcDbSpline
70
4
71
3
72
12
73
8
40
0
40
0
40
0
40
0
40
0.0695374380305743
40
0.0695374380305743
40
0.564718845075643
40
0.564718845075643
40
1
40
1
40
1
40
1
41
1
10
30.6439598709998
20
11.8076185157939
30
0
41
1
10
30.6385610813285
20
11.8011435859939
30
0
41
1
10
30.6333230650435
20
11.7945890364699
30
0
41
1
10
30.5927993674551
20
11.7416736918415
30
0
41
1
10
30.5653523725794
20
11.6912111459126
30
0
41
1
10
30.5331669750442
20
11.6025882328153
30
0
41
1
10
30.5256153955241
20
11.562527282378
30
0
41
1
10
30.5250392603487
20
11.5287110476955
30
0
0
SPLINE
5
1B0
100
AcDbEntity
8
1
62
256
6
ByLayer
370
13
48
1
60
0
100
AcDbSpline
70
4
71
3
72
10
73
6
40
0
40
0
40
0
40
0
40
0.323499890762715
40
0.323499890762715
40
1
40
1
40
1
40
1
41
1
10
30.5250392603487
20
11.5287110476955
30
0
41
1
10
30.5248229895013
20
11.5160170376033
30
0
41
1
10
30.5221009308091
20
11.5042534733333
30
0
41
1
10
30.5072698303882
20
11.4723139254818
30
0
41
1
10
30.4876680100064
20
11.4559245975749
30
0
41
1
10
30.464378753796
20
11.4436896872601
30
0
0
SPLINE
5
1B1
100
AcDbEntity
8
1
62
256
6
ByLayer
370
13
48
1
60
0
100
AcDbSpline
70
4
71
3
72
12
73
8
40
0
40
0
40
0
40
0
40
0.833271550695841
40
0.833271550695841
40
0.924873187913958
40
0.924873187913958
40
1
40
1
40
1
40
1
41
1
10
29.6610166945645
20
11.5059117968519
30
0
41
1
10
29.6544754484441
20
11.5404291002038
30
0
41
1
10
29.6449923927373
20
11.5831033206701
30
0
41
1
10
29.640181068922
20
11.6364330658112
30
0
41
1
10
29.6397613475273
20
11.6418526944415
30
0
41
1
10
29.6391308505303
20
11.6518368338207
30
0
41
1
10
29.6388959908553
20
11.6563811081073
30
0
41
1
10
29.6387159227922
20
11.6609670367571
30
0
0
SPLINE
5
1B2
100
AcDbEntity
8
1
62
256
6
ByLayer
370
13
48
1
60
0
100
AcDbSpline
70
4
71
3
72
8
73
4
40
0
40
0
40
0
40
0
40
1
40
1
40
1
40
1
41
1
10
29.6387159227922
20
11.6609670367571
30
0
41
1
10
29.6599873122029
20
11.6671057584705
30
0
41
1
10
29.6815114137464
20
11.6728477880507
30
0
41
1
10
29.7032105368037
20
11.6782243746424
30
0
0
SPLINE
5
1B3
100
AcDbEntity
8
1
62
256
6
ByLayer
370
13
48
1
60
0
100
AcDbSpline
70
4
71
3
72
8
73
4
40
0
40
0
40
0
40
0
40
1
40
1
40
1
40
1
41
1
10
29.7032105368033
20
11.6782243746441
30
0
41
1
10
29.7062783445422
20
11.6789845129184
30
0
41
1
10
29.7093468504694
20
11.6797445572485
30
0
41
1
10
29.7124160421627
20
11.6805045089329
30
0
0
SPLINE
5
1B4
100
AcDbEntity
8
1
62
256
6
ByLayer
370
13
48
1
60
0
100
AcDbSpline
70
4
71
3
72
26
73
22
40
0
40
0
40
0
40
0
40
0.0783346115779722
40
0.0783346115779722
40
0.229067417424992
40
0.229067417424992
40
0.361148737487712
40
0.361148737487712
40
0.451044286208709
40
0.451044286208709
40
0.480076288213215
40
0.480076288213215
40
0.580804987892491
40
0.580804987892491
40
0.598553408472289
40
0.598553408472289
40
0.721865021031447
40
0.721865021031447
40
0.852573440596253
40
0.852573440596253
40
1
40
1
40
1
40
1
41
1
10
29.7124160421627
20
11.6805045089329
30
0
41
1
10
29.7363716105935
20
11.6864360623841
30
0
41
1
10
29.7598327503349
20
11.6938413293572
30
0
41
1
10
29.8253859658396
20
11.7200991703922
30
0
41
1
10
29.8659116446279
20
11.7436989501764
30
0
41
1
10
29.9301656555827
20
11.8006515673919
30
0
41
1
10
29.9562012292316
20
11.8333707503136
30
0
41
1
10
29.9871009177855
20
11.8957730532856
30
0
41
1
10
29.9963228169934
20
11.9237818841852
30
0
41
1
10
30.0026526489823
20
11.9618523884058
30
0
41
1
10
30.0037565534503
20
11.9713529332157
30
0
41
1
10
30.006535622122
20
12.0133512575902
30
0
41
1
10
30.0029896944569
20
12.0469005497513
30
0
41
1
10
29.9928135335291
20
12.0834393763357
30
0
41
1
10
29.9911033398723
20
12.0889415381172
30
0
41
1
10
29.9765578244499
20
12.1313208818074
30
0
41
1
10
29.9563208175635
20
12.1654000053894
30
0
41
1
10
29.9056247831178
20
12.2243019219485
30
0
41
1
10
29.8738519252939
20
12.249585285851
30
0
41
1
10
29.8004676930902
20
12.2920558754542
30
0
41
1
10
29.7571805456305
20
12.3084115109147
30
0
41
1
10
29.7124160421627
20
12.3194954910674
30
0
0
SPLINE
5
1B5
100
AcDbEntity
8
1
62
256
6
ByLayer
370
13
48
1
60
0
100
AcDbSpline
70
4
71
3
72
8
73
4
40
0
40
0
40
0
40
0
40
1
40
1
40
1
40
1
41
1
10
29.7124160421627
20
12.3194954910674
30
0
41
1
10
29.7093468504694
20
12.3202554427518
30
0
41
1
10
29.7062783445422
20
12.3210154870819
30
0
41
1
10
29.7032105368033
20
12.3217756253562
30
0
0
SPLINE
5
1B6
100
AcDbEntity
8
1
62
256
6
ByLayer
370
13
48
1
60
0
100
AcDbSpline
70
4
71
3
72
20
73
16
40
0
40
0
40
0
40
0
40
0.114266316237489
40
0.114266316237489
40
0.331231960429442
40
0.331231960429442
40
0.599155656755157
40
0.599155656755157
40
0.722874848940947
40
0.722874848940947
40
0.871512516236653
40
0.871512516236653
40
0.967654963824484
40
0.967654963824484
40
1
40
1
40
1
40
1
41
1
10
29.9052940680729
20
12.5451731223786
30
0
41
1
10
29.9145383163394
20
12.5504020320505
30
0
41
1
10
29.9236231348746
20
12.5562590824211
30
0
41
1
10
29.949228067081
20
12.5750317848486
30
0
41
1
10
29.9652767442519
20
12.5896836944639
30
0
41
1
10
29.9980286906964
20
12.627572881605
30
0
41
1
10
30.0143711478298
20
12.6524681722381
30
0
41
1
10
30.0331414661541
20
12.6937696378456
30
0
41
1
10
30.0383907764822
20
12.7077143366656
30
0
41
1
10
30.047858461063
20
12.7396537849837
30
0
41
1
10
30.0517121178798
20
12.758117685374
30
0
41
1
10
30.0553663096761
20
12.7891794188244
30
0
41
1
10
30.0561297476895
20
12.8016546428684
30
0
41
1
10
30.056190626378
20
12.8183324966694
30
0
41
1
10
30.0561249332386
20
12.8225463580114
30
0
41
1
10
30.0559779585028
20
12.8267556774513
30
0
0
SPLINE
5
1B7
100
AcDbEntity
8
1
62
256
6
ByLayer
370
13
48
1
60
0
100
AcDbSpline
70
4
71
3
72
8
73
4
40
0
40
0
40
0
40
0
40
1
40
1
40
1
40
1
41
1
10
29.7032105368033
20
12.3217756253562
30
0
41
1
10
29.681511413746
20
12.327152211948
30
0
41
1
10
29.6599873122031
20
12.3328942415315
30
0
41
1
10
29.6387159227924
20
12.339032963245
30
0
0
SPLINE
5
1B8
100
AcDbEntity
8
1
62
256
6
ByLayer
370
13
48
1
60
0
100
AcDbSpline
70
4
71
3
72
10
73
6
40
0
40
0
40
0
40
0
40
0.0748872813144652
40
0.0748872813144652
40
1
40
1
40
1
40
1
41
1
10
29.6387159227922
20
12.3390329632432
30
0
41
1
10
29.6388959908553
20
12.343618891893
30
0
41
1
10
29.6391308505303
20
12.3481631661796
30
0
41
1
10
29.6428644178648
20
12.4072855043128
30
0
41
1
10
29.6537561749332
20
12.4557753872121
30
0
41
1
10
29.6610166945642
20
12.494088203147
30
0
0
SPLINE
5
1B9
100
AcDbEntity
8
1
62
256
6
ByLayer
370
13
48
1
60
0
100
AcDbSpline
70
4
71
3
72
16
73
12
40
0
40
0
40
0
40
0
40
0.249954056036558
40
0.249954056036558
40
0.699484194384015
40
0.699484194384015
40
0.851133931227642
40
0.851133931227642
40
0.935108677236773
40
0.935108677236773
40
1
40
1
40
1
40
1
41
1
10
29.8267110292774
20
11.2731025034956
30
0
41
1
10
29.8427048966234
20
11.2695509993049
30
0
41
1
10
29.8585947536485
20
11.265368094731
30
0
41
1
10
29.9021970348682
20
11.2514325134005
30
0
41
1
10
29.9302297071817
20
11.2402285923955
30
0
41
1
10
29.9625570510524
20
11.216780680513
30
0
41
1
10
29.9704121947256
20
11.2099349375488
30
0
41
1
10
29.9801629147231
20
11.1971788507783
30
0
41
1
10
29.9831940821262
20
11.1920922468391
30
0
41
1
10
29.9866841498694
20
11.1823701932968
30
0
41
1
10
29.9875739298375
20
11.1777799550586
30
0
41
1
10
29.9875739298375
20
11.173244322549
30
0
0
SPLINE
5
1BA
100
AcDbEntity
8
1
62
256
6
ByLayer
370
13
48
1
60
0
100
AcDbSpline
70
4
71
3
72
20
73
16
40
0
40
0
40
0
40
0
40
0.0199906994069362
40
0.0199906994069362
40
0.0825919577440876
40
0.0825919577440876
40
0.195169299288357
40
0.195169299288357
40
0.306011529795777
40
0.306011529795777
40
0.591177675589546
40
0.591177675589546
40
0.85412822131223
40
0.85412822131223
40
1
40
1
40
1
40
1
41
1
10
29.9875739298376
20
12.8267556774513
30
0
41
1
10
29.9875739298376
20
12.8253441526499
30
0
41
1
10
29.9874914943693
20
12.8239301267547
30
0
41
1
10
29.9868329759385
20
12.8181971297721
30
0
41
1
10
29.9855574593884
20
12.8139281508098
30
0
41
1
10
29.9806296077618
20
12.8029621411125
30
0
41
1
10
29.9758782533064
20
12.7967136404375
30
0
41
1
10
29.9654630806491
20
12.7858548958315
30
0
41
1
10
29.9596763814819
20
12.7810825901768
30
0
41
1
10
29.9382455610534
20
12.7657169261785
30
0
41
1
10
29.9211325656859
20
12.7573387132873
30
0
41
1
10
29.8877211729543
20
12.7437524351855
30
0
41
1
10
29.8712362948112
20
12.7383806493531
30
0
41
1
10
29.8453568251732
20
12.7312641952956
30
0
41
1
10
29.8360536989462
20
12.7289720748271
30
0
41
1
10
29.8267110292773
20
12.7268974965047
30
0
0
SPLINE
5
1BB
100
AcDbEntity
8
1
62
256
6
ByLayer
370
13
48
1
60
0
100
AcDbSpline
70
4
71
3
72
14
73
10
40
0
40
0
40
0
40
0
40
0.0177534078899156
40
0.0177534078899156
40
0.340744812432132
40
0.340744812432132
40
0.785966596962005
40
0.785966596962005
40
1
40
1
40
1
40
1
41
1
10
30.4510546870628
20
12.5676195138539
30
0
41
1
10
30.4520935591131
20
12.5678806818584
30
0
41
1
10
30.4531321595046
20
12.568148343631
30
0
41
1
10
30.4729966272013
20
12.5733948442476
30
0
41
1
10
30.4917885884791
20
12.5805600597552
30
0
41
1
10
30.5347600859257
20
12.6021773103045
30
0
41
1
10
30.5587945413717
20
12.6186148980201
30
0
41
1
10
30.5910000960522
20
12.6473261862982
30
0
41
1
10
30.6010527060187
20
12.6574417207901
30
0
41
1
10
30.6104895579289
20
12.6681459458966
30
0
0
SPLINE
5
1BC
100
AcDbEntity
8
1
62
256
6
ByLayer
370
13
48
1
60
0
100
AcDbSpline
70
4
71
3
72
12
73
8
40
0
40
0
40
0
40
0
40
0.559301985460886
40
0.559301985460886
40
0.982067221682947
40
0.982067221682947
40
1
40
1
40
1
40
1
41
1
10
30.6104895579289
20
11.3318540541036
30
0
41
1
10
30.5860762799805
20
11.3595460455894
30
0
41
1
10
30.5571861880884
20
11.3834538917284
30
0
41
1
10
30.5034740589433
20
11.4147487114067
30
0
41
1
10
30.4788250511787
20
11.4250657825143
30
0
41
1
10
30.4531321595027
20
11.431851656368
30
0
41
1
10
30.4520935591125
20
11.4321193181415
30
0
41
1
10
30.4510546870628
20
11.4323804861463
30
0
0
SPLINE
5
1BD
100
AcDbEntity
8
1
62
256
6
ByLayer
370
13
48
1
60
0
100
AcDbSpline
70
4
71
3
72
8
73
4
40
0
40
0
40
0
40
0
40
1
40
1
40
1
40
1
41
1
10
29.2639115680548
20
10.8660827624788
30
0
41
1
10
29.3472851478713
20
11.0048655326217
30
0
41
1
10
29.4165691639539
20
11.1530340750565
30
0
41
1
10
29.4825621452742
20
11.3020329056188
30
0
0
SPLINE
5
1BE
100
AcDbEntity
8
1
62
256
6
ByLayer
370
13
48
1
60
0
100
AcDbSpline
70
4
71
3
72
16
73
12
40
0
40
0
40
0
40
0
40
0.0745951303882249
40
0.0745951303882249
40
0.27553513169183
40
0.27553513169183
40
0.501427420118119
40
0.501427420118119
40
0.725494997757322
40
0.725494997757322
40
1
40
1
40
1
40
1
41
1
10
29.4825621452742
20
11.3020329056188
30
0
41
1
10
29.4837736749442
20
11.3047682950559
30
0
41
1
10
29.4851163296951
20
11.3074427921251
30
0
41
1
10
29.4905147865575
20
11.3169232641778
30
0
41
1
10
29.495461783055
20
11.3232894575224
30
0
41
1
10
29.5076198241713
20
11.3344368670452
30
0
41
1
10
29.515234293716
20
11.3390758328059
30
0
41
1
10
29.5312051191359
20
11.3449689810757
30
0
41
1
10
29.5397662566658
20
11.3463599008623
30
0
41
1
10
29.5585207140202
20
11.3464357990778
30
0
41
1
10
29.5689309570328
20
11.3444954541416
30
0
41
1
10
29.5787842780358
20
11.3412157291369
30
0
0
SPLINE
5
1BF
100
AcDbEntity
8
1
62
256
6
ByLayer
370
13
48
1
60
0
100
AcDbSpline
70
4
71
3
72
10
73
6
40
0
40
0
40
0
40
0
40
0.140418403423082
40
0.140418403423082
40
1
40
1
40
1
40
1
41
1
10
30.8950622867785
20
10.950830550066
30
0
41
1
10
30.8949786281127
20
10.9508331402795
30
0
41
1
10
30.8948949964083
20
10.9508333443652
30
0
41
1
10
30.8943060068435
20
10.9508168280186
30
0
41
1
10
30.893796745917
20
10.9507066152636
30
0
41
1
10
30.8933275812036
20
10.9504695442554
30
0
0
SPLINE
5
1C0
100
AcDbEntity
8
1
62
256
6
ByLayer
370
13
48
1
60
0
100
AcDbSpline
70
4
71
3
72
16
73
12
40
0
40
0
40
0
40
0
40
0.108772443208259
40
0.108772443208259
40
0.369799377627614
40
0.369799377627614
40
0.571154122074464
40
0.571154122074464
40
0.786314444449857
40
0.786314444449857
40
1
40
1
40
1
40
1
41
1
10
29.5787842780346
20
12.6587842708626
30
0
41
1
10
29.574842530994
20
12.6574722415147
30
0
41
1
10
29.5708295616293
20
12.6563772864692
30
0
41
1
10
29.5571495011343
20
12.6535438589737
30
0
41
1
10
29.5470910912765
20
12.6529839150792
30
0
41
1
10
29.5298590002818
20
12.6554934049089
30
0
41
1
10
29.522392509228
20
12.6578140053035
30
0
41
1
10
29.5083165495633
20
12.6651350048513
30
0
41
1
10
29.501614556307
20
12.6704198216311
30
0
41
1
10
29.4905405846473
20
12.6828976860826
30
0
41
1
10
29.4859929686991
20
12.6902209876348
30
0
41
1
10
29.4825621452759
20
12.6979670943826
30
0
0
SPLINE
5
1C1
100
AcDbEntity
8
1
62
256
6
ByLayer
370
13
48
1
60
0
100
AcDbSpline
70
4
71
3
72
8
73
4
40
0
40
0
40
0
40
0
40
1
40
1
40
1
40
1
41
1
10
29.4825621452734
20
12.6979670943801
30
0
41
1
10
29.4165691639541
20
12.8469659249402
30
0
41
1
10
29.347285147872
20
12.9951344673728
30
0
41
1
10
29.263911568057
20
13.1339172375139
30
0
0
SPLINE
5
1C2
100
AcDbEntity
8
1
62
256
6
ByLayer
370
13
48
1
60
0
100
AcDbSpline
70
4
71
3
72
8
73
4
40
0
40
0
40
0
40
0
40
1
40
1
40
1
40
1
41
1
10
30.9981203716814
20
10.9521519715688
30
0
41
1
10
30.9638409048776
20
10.950295581349
30
0
41
1
10
30.9294607622627
20
10.9497655152028
30
0
41
1
10
30.8950622867787
20
10.950830550066
30
0
0
SPLINE
5
1C3
100
AcDbEntity
8
1
62
256
6
ByLayer
370
13
48
1
60
0
100
AcDbSpline
70
4
71
3
72
10
73
6
40
0
40
0
40
0
40
0
40
0.140418403423082
40
0.140418403423082
40
1
40
1
40
1
40
1
41
1
10
30.8950622867785
20
13.0491694499343
30
0
41
1
10
30.8949786281127
20
13.0491668597208
30
0
41
1
10
30.8948949964083
20
13.0491666556351
30
0
41
1
10
30.8943060068435
20
13.0491831719817
30
0
41
1
10
30.893796745917
20
13.0492933847367
30
0
41
1
10
30.8933275812036
20
13.0495304557449
30
0
0
SPLINE
5
1C4
100
AcDbEntity
8
1
62
256
6
ByLayer
370
13
48
1
60
0
100
AcDbSpline
70
4
71
3
72
8
73
4
40
0
40
0
40
0
40
0
40
1
40
1
40
1
40
1
41
1
10
30.9981203716814
20
13.0478480284315
30
0
41
1
10
30.9638409048776
20
13.0497044186513
30
0
41
1
10
30.9294607622627
20
13.0502344847974
30
0
41
1
10
30.8950622867787
20
13.0491694499343
30
0
0
SPLINE
5
1C5
100
AcDbEntity
8
1
62
256
6
ByLayer
370
13
48
1
60
0
100
AcDbSpline
70
4
71
3
72
8
73
4
40
0
40
0
40
0
40
0
40
1
40
1
40
1
40
1
41
1
10
30.464378753796
20
11.4436896872601
30
0
41
1
10
30.4599671112989
20
11.4399140828982
30
0
41
1
10
30.4555251065502
20
11.4361444422626
30
0
41
1
10
30.4510546870628
20
11.4323804861463
30
0
0
SPLINE
5
1C6
100
AcDbEntity
8
1
62
256
6
ByLayer
370
13
48
1
60
0
100
AcDbSpline
70
4
71
3
72
12
73
8
40
0
40
0
40
0
40
0
40
0.453713856043948
40
0.453713856043948
40
0.935255270278036
40
0.935255270278036
40
1
40
1
40
1
40
1
41
1
10
30.6838678419132
20
11.4837267156531
30
0
41
1
10
30.6902549278144
20
11.5100467551686
30
0
41
1
10
30.6997841086873
20
11.5423144614418
30
0
41
1
10
30.7293410835707
20
11.6145400013947
30
0
41
1
10
30.7503116579037
20
11.6558187317627
30
0
41
1
10
30.7817069341031
20
11.7007419109995
30
0
41
1
10
30.7855997151617
20
11.7061052814426
30
0
41
1
10
30.7896201413554
20
11.711427773688
30
0
0
SPLINE
5
1C7
100
AcDbEntity
8
1
62
256
6
ByLayer
370
13
48
1
60
0
100
AcDbSpline
70
4
71
3
72
8
73
4
40
0
40
0
40
0
40
0
40
1
40
1
40
1
40
1
41
1
10
30.4510546870628
20
12.5676195138539
30
0
41
1
10
30.4555251065502
20
12.5638555577377
30
0
41
1
10
30.4599671112989
20
12.5600859171021
30
0
41
1
10
30.464378753796
20
12.5563103127402
30
0
0
SPLINE
5
1C8
100
AcDbEntity
8
1
62
256
6
ByLayer
370
13
48
1
60
0
100
AcDbSpline
70
4
71
3
72
12
73
8
40
0
40
0
40
0
40
0
40
0.152393412067187
40
0.152393412067187
40
0.68049007519868
40
0.68049007519868
40
1
40
1
40
1
40
1
41
1
10
30.7896201413456
20
12.2885722263146
30
0
41
1
10
30.8346105972805
20
12.2975263045545
30
0
41
1
10
30.8812734171468
20
12.3070165700637
30
0
41
1
10
31.0939294786754
20
12.3510824448217
30
0
41
1
10
31.2774173301441
20
12.3911680904637
30
0
41
1
10
31.578376870561
20
12.4601006649955
30
0
41
1
10
31.6952214954585
20
12.4876055334767
30
0
41
1
10
31.8112677608007
20
12.5158410745109
30
0
0
SPLINE
5
1C9
100
AcDbEntity
8
1
62
256
6
ByLayer
370
13
48
1
60
0
100
AcDbSpline
70
4
71
3
72
12
73
8
40
0
40
0
40
0
40
0
40
0.473871515909109
40
0.473871515909109
40
0.928528687587425
40
0.928528687587425
40
1
40
1
40
1
40
1
41
1
10
30.7896201413499
20
12.2885722263196
30
0
41
1
10
30.7605769079864
20
12.3270214794386
30
0
41
1
10
30.738076503972
20
12.3679291362363
30
0
41
1
10
30.7054858788087
20
12.4414716164868
30
0
41
1
10
30.6944900899473
20
12.4751866513817
30
0
41
1
10
30.6859581625812
20
12.5077405523204
30
0
41
1
10
30.684884631021
20
12.5120832781516
30
0
41
1
10
30.6838678419132
20
12.5162732843472
30
0
0
SPLINE
5
1CA
100
AcDbEntity
8
1
62
256
6
ByLayer
370
13
48
1
60
0
100
AcDbSpline
70
4
71
3
72
12
73
8
40
0
40
0
40
0
40
0
40
0.152393412053729
40
0.152393412053729
40
0.680490075193607
40
0.680490075193607
40
1
40
1
40
1
40
1
41
1
10
30.7896201413596
20
11.7114277736829
30
0
41
1
10
30.8346105972902
20
11.7024736954438
30
0
41
1
10
30.8812734171517
20
11.6929834299356
30
0
41
1
10
31.0939294786754
20
11.6489175551786
30
0
41
1
10
31.2774173301441
20
11.6088319095366
30
0
41
1
10
31.578376870561
20
11.5398993350048
30
0
41
1
10
31.6952214954585
20
11.5123944665236
30
0
41
1
10
31.8112677608007
20
11.4841589254894
30
0
0
SPLINE
5
1CB
100
AcDbEntity
8
1
62
256
6
ByLayer
370
13
48
1
60
0
100
AcDbSpline
70
4
71
3
72
16
73
12
40
0
40
0
40
0
40
0
40
0.257384746008501
40
0.257384746008501
40
0.483485531381172
40
0.483485531381172
40
0.71945910330869
40
0.71945910330869
40
0.925748185145375
40
0.925748185145375
40
1
40
1
40
1
40
1
41
1
10
29.6610166945645
20
11.5059117968519
30
0
41
1
10
29.6316687367361
20
11.5084138467549
30
0
41
1
10
29.6016686457385
20
11.5069683264854
30
0
41
1
10
29.5476222628195
20
11.4969744188348
30
0
41
1
10
29.5228412392242
20
11.4892230637996
30
0
41
1
10
29.4759336807441
20
11.4678219851449
30
0
41
1
10
29.4535298246701
20
11.4537231001812
30
0
41
1
10
29.4168300974003
20
11.4226862580084
30
0
41
1
10
29.4015959942174
20
11.4060947908694
30
0
41
1
10
29.3843415664157
20
11.3815849727748
30
0
41
1
10
29.3800684610181
20
11.3748615219033
30
0
41
1
10
29.3761342837701
20
11.3679710346714
30
0
0
SPLINE
5
1CC
100
AcDbEntity
8
1
62
256
6
ByLayer
370
13
48
1
60
0
100
AcDbSpline
70
4
71
3
72
16
73
12
40
0
40
0
40
0
40
0
40
0.215940694014332
40
0.215940694014332
40
0.440749342864023
40
0.440749342864023
40
0.6480631149087
40
0.6480631149087
40
0.900502256755734
40
0.900502256755734
40
1
40
1
40
1
40
1
41
1
10
29.37613428377
20
12.6320289653275
30
0
41
1
10
29.3874887091377
20
12.6121423364116
30
0
41
1
10
29.4017703058923
20
12.5935638401864
30
0
41
1
10
29.4355311178213
20
12.5600806071033
30
0
41
1
10
29.4554935542141
20
12.5450642385113
30
0
41
1
10
29.4971485157202
20
12.5215249129442
30
0
41
1
10
29.5188925805651
20
12.5124103522791
30
0
41
1
10
29.5687388690062
20
12.4978535484767
30
0
41
1
10
29.5977360562636
20
12.4934778794566
30
0
41
1
10
29.6380565109323
20
12.4927292966026
30
0
41
1
10
29.6495709364866
20
12.4931123990364
30
0
41
1
10
29.6610166945642
20
12.494088203147
30
0
0
SPLINE
5
1CD
100
AcDbEntity
8
1
62
256
6
ByLayer
370
13
48
1
60
0
100
AcDbSpline
70
4
71
3
72
14
73
10
40
0
40
0
40
0
40
0
40
0.0140696667047013
40
0.0140696667047013
40
0.158297294424887
40
0.158297294424887
40
0.557403345933072
40
0.557403345933072
40
1
40
1
40
1
40
1
41
1
10
29.6387159227631
20
12.3390329632412
30
0
41
1
10
29.6375460584102
20
12.3388697931994
30
0
41
1
10
29.6363754680049
20
12.3387106629966
30
0
41
1
10
29.623017119125
20
12.3369343237185
30
0
41
1
10
29.610745606981
20
12.3357030729082
30
0
41
1
10
29.565092528665
20
12.3325609740112
30
0
41
1
10
29.5314247709742
20
12.3331854341252
30
0
41
1
10
29.4656728605842
20
12.3402964457493
30
0
41
1
10
29.4330791217041
20
12.3475289890552
30
0
41
1
10
29.4056329534175
20
12.3576935565737
30
0
0
SPLINE
5
1CE
100
AcDbEntity
8
1
62
256
6
ByLayer
370
13
48
1
60
0
100
AcDbSpline
70
4
71
3
72
8
73
4
40
0
40
0
40
0
40
0
40
1
40
1
40
1
40
1
41
1
10
29.4056329534174
20
12.3576935565951
30
0
41
1
10
29.396339183532
20
12.3611354633303
30
0
41
1
10
29.3875722949159
20
12.3645951739493
30
0
41
1
10
29.3794417210372
20
12.3679978802814
30
0
0
SPLINE
5
1CF
100
AcDbEntity
8
1
62
256
6
ByLayer
370
13
48
1
60
0
100
AcDbSpline
70
4
71
3
72
10
73
6
40
0
40
0
40
0
40
0
40
0.782589980152529
40
0.782589980152529
40
1
40
1
40
1
40
1
41
1
10
29.3761342837701
20
12.6320289653275
30
0
41
1
10
29.3750264075113
20
12.5721131959132
30
0
41
1
10
29.3733409185196
20
12.5027716116345
30
0
41
1
10
29.3768419616686
20
12.4097017149475
30
0
41
1
10
29.3779402791544
20
12.3889750972197
30
0
41
1
10
29.3794417210385
20
12.3679978802835
30
0
0
SPLINE
5
1D0
100
AcDbEntity
8
1
62
256
6
ByLayer
370
13
48
1
60
0
100
AcDbSpline
70
4
71
3
72
10
73
6
40
0
40
0
40
0
40
0
40
0.217410019846355
40
0.217410019846355
40
1
40
1
40
1
40
1
41
1
10
29.3794417210371
20
11.632002119718
30
0
41
1
10
29.377940279153
20
11.6110249027819
30
0
41
1
10
29.3768419616686
20
11.5902982850528
30
0
41
1
10
29.3733409185195
20
11.4972283883652
30
0
41
1
10
29.3750264075113
20
11.427886804086
30
0
41
1
10
29.3761342837701
20
11.3679710346713
30
0
0
SPLINE
5
1D1
100
AcDbEntity
8
1
62
256
6
ByLayer
370
13
48
1
60
0
100
AcDbSpline
70
4
71
3
72
8
73
4
40
0
40
0
40
0
40
0
40
1
40
1
40
1
40
1
41
1
10
29.3794417210371
20
11.632002119718
30
0
41
1
10
29.3875722949159
20
11.6354048260502
30
0
41
1
10
29.396339183532
20
11.6388645366699
30
0
41
1
10
29.4056329534174
20
11.6423064434051
30
0
0
SPLINE
5
1D2
100
AcDbEntity
8
1
62
256
6
ByLayer
370
13
48
1
60
0
100
AcDbSpline
70
4
71
3
72
14
73
10
40
0
40
0
40
0
40
0
40
0.362290872375782
40
0.362290872375782
40
0.75921727113372
40
0.75921727113372
40
0.985981513552925
40
0.985981513552925
40
1
40
1
40
1
40
1
41
1
10
29.4056329534175
20
11.6423064434267
30
0
41
1
10
29.4281812464504
20
11.6506571044211
30
0
41
1
10
29.4541207849952
20
11.6570263758704
30
0
41
1
10
29.5118571823038
20
11.6655169866086
30
0
41
1
10
29.5447419197083
20
11.6672933991345
30
0
41
1
10
29.5968158183065
20
11.6655643617065
30
0
41
1
10
29.6161285437685
20
11.6639816912565
30
0
41
1
10
29.6363754679909
20
11.6612893369913
30
0
41
1
10
29.6375460583942
20
11.6611302068003
30
0
41
1
10
29.6387159227443
20
11.6609670367629
30
0
0
SPLINE
5
1D3
100
AcDbEntity
8
1
62
256
6
ByLayer
370
13
48
1
60
0
100
AcDbSpline
70
4
71
3
72
12
73
8
40
0
40
0
40
0
40
0
40
0.027753964396557
40
0.027753964396557
40
0.667826589987148
40
0.667826589987148
40
1
40
1
40
1
40
1
41
1
10
29.2639115680571
20
13.1339172375139
30
0
41
1
10
29.2630224938299
20
13.1334053128851
30
0
41
1
10
29.2621362973345
20
13.1328934632915
30
0
41
1
10
29.241139438886
20
13.1207199071671
30
0
41
1
10
29.2223677783528
20
13.1088525752806
30
0
41
1
10
29.1985834198731
20
13.0922216916318
30
0
41
1
10
29.1911418620728
20
13.0866795266792
30
0
41
1
10
29.1846560826641
20
13.0814799390647
30
0
0
SPLINE
5
1D4
100
AcDbEntity
8
1
62
256
6
ByLayer
370
13
48
1
60
0
100
AcDbSpline
70
4
71
3
72
10
73
6
40
0
40
0
40
0
40
0
40
0.820434354426583
40
0.820434354426583
40
1
40
1
40
1
40
1
41
1
10
29.1772670677278
20
13.075984331346
30
0
41
1
10
29.2373176229178
20
12.9572675818096
30
0
41
1
10
29.2907218307756
20
12.8351837494845
30
0
41
1
10
29.3537878651402
20
12.6858122906328
30
0
41
1
10
29.3650067820629
20
12.6589382774984
30
0
41
1
10
29.3761342837705
20
12.6320289653278
30
0
0
SPLINE
5
1D5
100
AcDbEntity
8
1
62
256
6
ByLayer
370
13
48
1
60
0
100
AcDbSpline
70
4
71
3
72
8
73
4
40
0
40
0
40
0
40
0
40
1
40
1
40
1
40
1
41
1
10
29.1846560826641
20
13.0814799390647
30
0
41
1
10
29.1821308679729
20
13.0794554984846
30
0
41
1
10
29.1796628452491
20
13.0776198014661
30
0
41
1
10
29.1772670677278
20
13.075984331346
30
0
0
SPLINE
5
1D6
100
AcDbEntity
8
1
62
256
6
ByLayer
370
13
48
1
60
0
100
AcDbSpline
70
4
71
3
72
12
73
8
40
0
40
0
40
0
40
0
40
0.0278313206712517
40
0.0278313206712517
40
0.611473023609022
40
0.611473023609022
40
1
40
1
40
1
40
1
41
1
10
29.2639115680654
20
10.8660827624966
30
0
41
1
10
29.2630224938381
20
10.8665946871225
30
0
41
1
10
29.2621362973421
20
10.8671065367121
30
0
41
1
10
29.2428803330612
20
10.8782707573778
30
0
41
1
10
29.2256423082254
20
10.8890812470148
30
0
41
1
10
29.2010972420243
20
10.9059177097567
30
0
41
1
10
29.1922210960018
20
10.9124552617534
30
0
41
1
10
29.184656082664
20
10.9185200609357
30
0
0
SPLINE
5
1D7
100
AcDbEntity
8
1
62
256
6
ByLayer
370
13
48
1
60
0
100
AcDbSpline
70
4
71
3
72
8
73
4
40
0
40
0
40
0
40
0
40
1
40
1
40
1
40
1
41
1
10
29.184656082664
20
10.9185200609357
30
0
41
1
10
29.1821308679728
20
10.9205445015158
30
0
41
1
10
29.1796628452491
20
10.9223801985342
30
0
41
1
10
29.1772670677278
20
10.9240156686542
30
0
0
SPLINE
5
1D8
100
AcDbEntity
8
1
62
256
6
ByLayer
370
13
48
1
60
0
100
AcDbSpline
70
4
71
3
72
10
73
6
40
0
40
0
40
0
40
0
40
0.819881036339605
40
0.819881036339605
40
1
40
1
40
1
40
1
41
1
10
29.3761342837701
20
11.3679710346713
30
0
41
1
10
29.3253430321444
20
11.2451440352744
30
0
41
1
10
29.2729973133248
20
11.1228064698028
30
0
41
1
10
29.2032770273131
20
10.9763577903354
30
0
41
1
10
29.1904566776892
20
10.9500908251171
30
0
41
1
10
29.1772670677279
20
10.9240156686542
30
0
0
SPLINE
5
1D9
100
AcDbEntity
8
1
62
256
6
ByLayer
370
13
48
1
60
0
100
AcDbSpline
70
4
71
3
72
12
73
8
40
0
40
0
40
0
40
0
40
0.0277499781510944
40
0.0277499781510944
40
0.667808133384293
40
0.667808133384293
40
1
40
1
40
1
40
1
41
1
10
29.263911568057
20
13.1339172375139
30
0
41
1
10
29.2629034320477
20
13.1338388200701
30
0
41
1
10
29.2618982158727
20
13.1337604048594
30
0
41
1
10
29.2380665525594
20
13.1318956322485
30
0
41
1
10
29.21651808857
20
13.1300806513407
30
0
41
1
10
29.1888224267558
20
13.1275408471303
30
0
41
1
10
29.180073554872
20
13.1266951287326
30
0
41
1
10
29.1723583203581
20
13.1259022231319
30
0
0
SPLINE
5
1DA
100
AcDbEntity
8
1
62
256
6
ByLayer
370
13
48
1
60
0
100
AcDbSpline
70
4
71
3
72
12
73
8
40
0
40
0
40
0
40
0
40
0.0278272716373759
40
0.0278272716373759
40
0.611453167879501
40
0.611453167879501
40
1
40
1
40
1
40
1
41
1
10
29.2639115680571
20
10.8660827624864
30
0
41
1
10
29.2629034319401
20
10.8661611783508
30
0
41
1
10
29.2618982154425
20
10.8662395888239
30
0
41
1
10
29.2400426145075
20
10.8679497737469
30
0
41
1
10
29.2202762805606
20
10.8696033404848
30
0
41
1
10
29.1917749645617
20
10.872175216829
30
0
41
1
10
29.1813573467758
20
10.8731729341518
30
0
41
1
10
29.1723583203581
20
10.8740977768684
30
0
0
SPLINE
5
1DB
100
AcDbEntity
8
1
62
256
6
ByLayer
370
13
48
1
60
0
100
AcDbSpline
70
4
71
3
72
26
73
22
40
0
40
0
40
0
40
0
40
0.102035501666901
40
0.102035501666901
40
0.129284389714829
40
0.129284389714829
40
0.254161410871578
40
0.254161410871578
40
0.386333886983898
40
0.386333886983898
40
0.523125606178389
40
0.523125606178389
40
0.658908540792033
40
0.658908540792033
40
0.795133361230144
40
0.795133361230144
40
0.895568684120736
40
0.895568684120736
40
0.931575554525879
40
0.931575554525879
40
1
40
1
40
1
40
1
41
1
10
29.5964890019635
20
12.1973354503652
30
0
41
1
10
29.6131393767335
20
12.1920158765306
30
0
41
1
10
29.6291034127913
20
12.1843449067292
30
0
41
1
10
29.6463800184522
20
12.1721279626761
30
0
41
1
10
29.64992822141
20
12.1693689521748
30
0
41
1
10
29.6686371526018
20
12.1534299623417
30
0
41
1
10
29.6810099307051
20
12.137401709413
30
0
41
1
10
29.7005417637305
20
12.1011260790161
30
0
41
1
10
29.7077186636934
20
12.0801138895917
30
0
41
1
10
29.716817379671
20
12.0357350472805
30
0
41
1
10
29.7186673668159
20
12.0116744656626
30
0
41
1
10
29.7168386014334
20
11.9648707988775
30
0
41
1
10
29.7131780830523
20
11.9414781392256
30
0
41
1
10
29.7002714091329
20
11.8983407554104
30
0
41
1
10
29.6908281262292
20
11.8779715024794
30
0
41
1
10
29.668731185536
20
11.847496703375
30
0
41
1
10
29.6572851116734
20
11.8358032034335
30
0
41
1
10
29.6391386222023
20
11.8226853626636
30
0
41
1
10
29.6340445533438
20
11.8194433721893
30
0
41
1
10
29.6187059419968
20
11.8108943974577
30
0
41
1
10
29.6077600338148
20
11.8062654947762
30
0
41
1
10
29.5964890019635
20
11.8026645496351
30
0
0
SPLINE
5
1DC
100
AcDbEntity
8
1
62
256
6
ByLayer
370
13
48
1
60
0
100
AcDbSpline
70
4
71
3
72
14
73
10
40
0
40
0
40
0
40
0
40
0.27475847941734
40
0.27475847941734
40
0.512436463803127
40
0.512436463803127
40
0.749993769781322
40
0.749993769781322
40
1
40
1
40
1
40
1
41
1
10
30.7896201413547
20
11.7114277736886
30
0
41
1
10
30.8118015893238
20
11.7595648572766
30
0
41
1
10
30.8306589366166
20
11.8110895546408
30
0
41
1
10
30.853462576975
20
11.9108959818219
30
0
41
1
10
30.8590594822313
20
11.9594449099431
30
0
41
1
10
30.8578279543454
20
12.055474774046
30
0
41
1
10
30.8510126304754
20
12.1037525640154
30
0
41
1
10
30.8272786525577
20
12.1980754040383
30
0
41
1
10
30.8098376614737
20
12.2446971620129
30
0
41
1
10
30.7896201413507
20
12.2885722263202
30
0
0
SPLINE
5
1DD
100
AcDbEntity
8
1
62
256
6
ByLayer
370
13
48
1
60
0
100
AcDbSpline
70
4
71
3
72
8
73
4
40
0
40
0
40
0
40
0
40
1
40
1
40
1
40
1
41
1
10
29.1705951003268
20
10.8745620718648
30
0
41
1
10
29.1711929686634
20
10.8745620718648
30
0
41
1
10
29.1717967952489
20
10.8744118730187
30
0
41
1
10
29.1723583203562
20
10.874097776883
30
0
0
SPLINE
5
1DE
100
AcDbEntity
8
1
62
256
6
ByLayer
370
13
48
1
60
0
100
AcDbSpline
70
4
71
3
72
8
73
4
40
0
40
0
40
0
40
0
40
1
40
1
40
1
40
1
41
1
10
29.1723583203562
20
13.1259022231306
30
0
41
1
10
29.1717967952486
20
13.1255881269942
30
0
41
1
10
29.1711929686638
20
13.1254379281354
30
0
41
1
10
29.1705951003267
20
13.1254379281354
30
0
0
SPLINE
5
1DF
100
AcDbEntity
8
1
62
256
6
ByLayer
370
13
48
1
60
0
100
AcDbSpline
70
4
71
3
72
10
73
6
40
0
40
0
40
0
40
0
40
0.84896187346875
40
0.84896187346875
40
1
40
1
40
1
40
1
41
1
10
33.5256851850747
20
12.7647657471105
30
0
41
1
10
33.4912977154034
20
12.8166085502538
30
0
41
1
10
33.443874742716
20
12.8600641980189
30
0
41
1
10
33.3838155264512
20
12.9020697721385
30
0
41
1
10
33.3744787017948
20
12.908263707778
30
0
41
1
10
33.3650107000385
20
12.9142433192399
30
0
0
SPLINE
5
1E0
100
AcDbEntity
8
1
62
256
6
ByLayer
370
13
48
1
60
0
100
AcDbSpline
70
4
71
3
72
8
73
4
40
0
40
0
40
0
40
0
40
1
40
1
40
1
40
1
41
1
10
33.3650107000385
20
12.9142433192399
30
0
41
1
10
33.3210937227593
20
12.941979526675
30
0
41
1
10
33.2769798114244
20
12.9694091746338
30
0
41
1
10
33.2325607479569
20
12.9963326630826
30
0
0
SPLINE
5
1E1
100
AcDbEntity
8
1
62
256
6
ByLayer
370
13
48
1
60
0
100
AcDbSpline
70
4
71
3
72
10
73
6
40
0
40
0
40
0
40
0
40
0.657586553479613
40
0.657586553479613
40
1
40
1
40
1
40
1
41
1
10
33.2325607479569
20
12.9963326630826
30
0
41
1
10
33.2092305437702
20
13.0104736744838
30
0
41
1
10
33.1864384919003
20
13.0257970940436
30
0
41
1
10
33.1548281900598
20
13.0527058945893
30
0
41
1
10
33.1444660370968
20
13.0626353341108
30
0
41
1
10
33.135515563742
20
13.0737056108808
30
0
0
SPLINE
5
1E2
100
AcDbEntity
8
1
62
256
6
ByLayer
370
13
48
1
60
0
100
AcDbSpline
70
4
71
3
72
10
73
6
40
0
40
0
40
0
40
0
40
0.657586553479614
40
0.657586553479614
40
1
40
1
40
1
40
1
41
1
10
33.2325607479569
20
11.0036673369177
30
0
41
1
10
33.2092305437702
20
10.9895263255165
30
0
41
1
10
33.1864384919003
20
10.9742029059567
30
0
41
1
10
33.1548281900598
20
10.947294105411
30
0
41
1
10
33.1444660370968
20
10.9373646658895
30
0
41
1
10
33.135515563742
20
10.9262943891195
30
0
0
SPLINE
5
1E3
100
AcDbEntity
8
1
62
256
6
ByLayer
370
13
48
1
60
0
100
AcDbSpline
70
4
71
3
72
8
73
4
40
0
40
0
40
0
40
0
40
1
40
1
40
1
40
1
41
1
10
33.3650107000385
20
11.0857566807605
30
0
41
1
10
33.3210937227593
20
11.0580204733253
30
0
41
1
10
33.2769798114244
20
11.0305908253665
30
0
41
1
10
33.2325607479569
20
11.0036673369177
30
0
0
SPLINE
5
1E4
100
AcDbEntity
8
1
62
256
6
ByLayer
370
13
48
1
60
0
100
AcDbSpline
70
4
71
3
72
10
73
6
40
0
40
0
40
0
40
0
40
0.84896187346875
40
0.84896187346875
40
1
40
1
40
1
40
1
41
1
10
33.5256851850747
20
11.2352342528897
30
0
41
1
10
33.4912977154034
20
11.1833914497465
30
0
41
1
10
33.443874742716
20
11.1399358019814
30
0
41
1
10
33.3838155264512
20
11.0979302278619
30
0
41
1
10
33.3744787017948
20
11.0917362922223
30
0
41
1
10
33.3650107000385
20
11.0857566807604
30
0
0
SPLINE
5
1E5
100
AcDbEntity
8
1
62
256
6
ByLayer
370
13
48
1
60
0
100
AcDbSpline
70
4
71
3
72
14
73
10
40
0
40
0
40
0
40
0
40
0.0140322366304758
40
0.0140322366304758
40
0.158091565624719
40
0.158091565624719
40
0.557043656612004
40
0.557043656612004
40
1
40
1
40
1
40
1
41
1
10
29.6387159228241
20
12.3390329632514
30
0
41
1
10
29.6379360645915
20
12.3382722303592
30
0
41
1
10
29.6371559091054
20
12.3375149462293
30
0
41
1
10
29.628231668599
20
12.3289164348867
30
0
41
1
10
29.6199670064644
20
12.3214961540123
30
0
41
1
10
29.5889415558846
20
12.2956326020391
30
0
41
1
10
29.565536858211
20
12.2801946929805
30
0
41
1
10
29.5187541033904
20
12.2575108553182
30
0
41
1
10
29.4949133424734
20
12.2509900929663
30
0
41
1
10
29.4743263124384
20
12.2504858645477
30
0
0
SPLINE
5
1E6
100
AcDbEntity
8
1
62
256
6
ByLayer
370
13
48
1
60
0
100
AcDbSpline
70
4
71
3
72
14
73
10
40
0
40
0
40
0
40
0
40
0.362636115875106
40
0.362636115875106
40
0.759502173372961
40
0.759502173372961
40
0.986017775516147
40
0.986017775516147
40
1
40
1
40
1
40
1
41
1
10
29.4743263124384
20
11.7495141354526
30
0
41
1
10
29.4912406290798
20
11.7490998610712
30
0
41
1
10
29.5102969105352
20
11.7446666712414
30
0
41
1
10
29.5517568775429
20
11.7275878894303
30
0
41
1
10
29.5748386743135
20
11.7139874052553
30
0
41
1
10
29.6105592323137
20
11.6867736414942
30
0
41
1
10
29.623626747303
20
11.67552040968
30
0
41
1
10
29.6371559091053
20
11.662485053771
30
0
41
1
10
29.6379360645914
20
11.6617277696411
30
0
41
1
10
29.6387159228241
20
11.6609670367488
30
0
0
SPLINE
5
1E7
100
AcDbEntity
8
1
62
256
6
ByLayer
370
13
48
1
60
0
100
AcDbSpline
70
4
71
3
72
8
73
4
40
0
40
0
40
0
40
0
40
1
40
1
40
1
40
1
41
1
10
29.4743263124397
20
12.2504858645453
30
0
41
1
10
29.5107270135584
20
12.2324713206332
30
0
41
1
10
29.5486103280917
20
12.215880115889
30
0
41
1
10
29.5875073723822
20
12.2007556517984
30
0
0
SPLINE
5
1E8
100
AcDbEntity
8
1
62
256
6
ByLayer
370
13
48
1
60
0
100
AcDbSpline
70
4
71
3
72
10
73
6
40
0
40
0
40
0
40
0
40
0.638823417468865
40
0.638823417468865
40
1
40
1
40
1
40
1
41
1
10
33.1900286630424
20
12.9350239663358
30
0
41
1
10
33.166841990865
20
12.9547106579257
30
0
41
1
10
33.1449724664755
20
12.9765022876989
30
0
41
1
10
33.1161775948406
20
13.0150198729898
30
0
41
1
10
33.1068123576004
20
13.0299982956351
30
0
41
1
10
33.0995116901682
20
13.0459979598176
30
0
0
SPLINE
5
1E9
100
AcDbEntity
8
1
62
256
6
ByLayer
370
13
48
1
60
0
100
AcDbSpline
70
4
71
3
72
8
73
4
40
0
40
0
40
0
40
0
40
1
40
1
40
1
40
1
41
1
10
33.0647600217522
20
13.1263220355885
30
0
41
1
10
32.9478492133727
20
13.1570735908762
30
0
41
1
10
32.8265101800571
20
13.172057286803
30
0
41
1
10
32.7060768987951
20
13.1748687981326
30
0
0
SPLINE
5
1EA
100
AcDbEntity
8
1
62
256
6
ByLayer
370
13
48
1
60
0
100
AcDbSpline
70
4
71
3
72
8
73
4
40
0
40
0
40
0
40
0
40
1
40
1
40
1
40
1
41
1
10
29.5875073723822
20
11.7992443482018
30
0
41
1
10
29.5486103280917
20
11.7841198841113
30
0
41
1
10
29.5107270135584
20
11.7675286793671
30
0
41
1
10
29.4743263124397
20
11.749514135455
30
0
0
SPLINE
5
1EB
100
AcDbEntity
8
1
62
256
6
ByLayer
370
13
48
1
60
0
100
AcDbSpline
70
4
71
3
72
16
73
12
40
0
40
0
40
0
40
0
40
0.0355702320992689
40
0.0355702320992689
40
0.09050817101665
40
0.09050817101665
40
0.198049233530909
40
0.198049233530909
40
0.436780146594192
40
0.436780146594192
40
1
40
1
40
1
40
1
41
1
10
33.0647600217562
20
13.1263220355866
30
0
41
1
10
33.0651586810188
20
13.125355259624
30
0
41
1
10
33.0655584542085
20
13.1243889211322
30
0
41
1
10
33.0665771815565
20
13.1219268549544
30
0
41
1
10
33.0671970808021
20
13.1204315089407
30
0
41
1
10
33.0690334070427
20
13.1160112009546
30
0
41
1
10
33.0702528942053
20
13.1130877962551
30
0
41
1
10
33.0741930527674
20
13.103689838593
30
0
41
1
10
33.0769343827304
20
13.0972280597345
30
0
41
1
10
33.0861946238307
20
13.075659436056
30
0
41
1
10
33.0928248586495
20
13.0606523814511
30
0
41
1
10
33.0995116901682
20
13.0459979598176
30
0
0
SPLINE
5
1EC
100
AcDbEntity
8
1
62
256
6
ByLayer
370
13
48
1
60
0
100
AcDbSpline
70
4
71
3
72
10
73
6
40
0
40
0
40
0
40
0
40
0.638823417468865
40
0.638823417468865
40
1
40
1
40
1
40
1
41
1
10
33.1900286630424
20
11.0649760336645
30
0
41
1
10
33.166841990865
20
11.0452893420745
30
0
41
1
10
33.1449724664755
20
11.0234977123014
30
0
41
1
10
33.1161775948406
20
10.9849801270105
30
0
41
1
10
33.1068123576004
20
10.9700017043652
30
0
41
1
10
33.0995116901682
20
10.9540020401827
30
0
0
SPLINE
5
1ED
100
AcDbEntity
8
1
62
256
6
ByLayer
370
13
48
1
60
0
100
AcDbSpline
70
4
71
3
72
16
73
12
40
0
40
0
40
0
40
0
40
0.0355702320992689
40
0.0355702320992689
40
0.09050817101665
40
0.09050817101665
40
0.198049233530909
40
0.198049233530909
40
0.436780146594192
40
0.436780146594192
40
1
40
1
40
1
40
1
41
1
10
33.0647600217562
20
10.8736779644136
30
0
41
1
10
33.0651586810188
20
10.8746447403763
30
0
41
1
10
33.0655584542085
20
10.8756110788681
30
0
41
1
10
33.0665771815565
20
10.8780731450458
30
0
41
1
10
33.0671970808021
20
10.8795684910596
30
0
41
1
10
33.0690334070427
20
10.8839887990456
30
0
41
1
10
33.0702528942053
20
10.8869122037451
30
0
41
1
10
33.0741930527674
20
10.8963101614073
30
0
41
1
10
33.0769343827304
20
10.9027719402658
30
0
41
1
10
33.0861946238307
20
10.9243405639443
30
0
41
1
10
33.0928248586495
20
10.9393476185492
30
0
41
1
10
33.0995116901682
20
10.9540020401827
30
0
0
SPLINE
5
1EE
100
AcDbEntity
8
1
62
256
6
ByLayer
370
13
48
1
60
0
100
AcDbSpline
70
4
71
3
72
8
73
4
40
0
40
0
40
0
40
0
40
1
40
1
40
1
40
1
41
1
10
29.5964890019635
20
11.8026645496351
30
0
41
1
10
29.5934936621595
20
11.8015244996311
30
0
41
1
10
29.590499776207
20
11.8003844320357
30
0
41
1
10
29.5875073723823
20
11.7992443482018
30
0
0
SPLINE
5
1EF
100
AcDbEntity
8
1
62
256
6
ByLayer
370
13
48
1
60
0
100
AcDbSpline
70
4
71
3
72
8
73
4
40
0
40
0
40
0
40
0
40
1
40
1
40
1
40
1
41
1
10
33.0647600217522
20
10.8736779644117
30
0
41
1
10
32.9478492133727
20
10.8429264091241
30
0
41
1
10
32.8265101800571
20
10.8279427131974
30
0
41
1
10
32.7060768987951
20
10.8251312018677
30
0
0
SPLINE
5
1F0
100
AcDbEntity
8
1
62
256
6
ByLayer
370
13
48
1
60
0
100
AcDbSpline
70
4
71
3
72
8
73
4
40
0
40
0
40
0
40
0
40
1
40
1
40
1
40
1
41
1
10
29.5875073723823
20
12.2007556517984
30
0
41
1
10
29.590499776207
20
12.1996155679646
30
0
41
1
10
29.5934936621595
20
12.1984755003692
30
0
41
1
10
29.5964890019635
20
12.1973354503652
30
0
0
SPLINE
5
1F1
100
AcDbEntity
8
1
62
256
6
ByLayer
370
13
48
1
60
0
100
AcDbSpline
70
4
71
3
72
8
73
4
40
0
40
0
40
0
40
0
40
1
40
1
40
1
40
1
41
1
10
29.4661840397671
20
12.2510243555529
30
0
41
1
10
29.4686096513477
20
12.2510243555529
30
0
41
1
10
29.4713428169146
20
12.250848359902
30
0
41
1
10
29.4743263124381
20
12.2504858645476
30
0
0
SPLINE
5
1F2
100
AcDbEntity
8
1
62
256
6
ByLayer
370
13
48
1
60
0
100
AcDbSpline
70
4
71
3
72
16
73
12
40
0
40
0
40
0
40
0
40
0.0355303527441481
40
0.0355303527441481
40
0.0917680599187357
40
0.0917680599187357
40
0.200182520092063
40
0.200182520092063
40
0.439533504711995
40
0.439533504711995
40
1
40
1
40
1
40
1
41
1
10
33.0647600217523
20
10.8736779644117
30
0
41
1
10
33.0655855998635
20
10.8743116919937
30
0
41
1
10
33.0664120929671
20
10.8749449260107
30
0
41
1
10
33.0685507889317
20
10.8765828455442
30
0
41
1
10
33.069864068878
20
10.8775871593143
30
0
41
1
10
33.0737129338245
20
10.8805260228997
30
0
41
1
10
33.0762525536655
20
10.882459481592
30
0
41
1
10
33.0844114693382
20
10.8886507387097
30
0
41
1
10
33.0900517136
20
10.8928990594863
30
0
41
1
10
33.1089188273347
20
10.9069955282562
30
0
41
1
10
33.1222466489562
20
10.9167682610636
30
0
41
1
10
33.135515563742
20
10.9262943891195
30
0
0
SPLINE
5
1F3
100
AcDbEntity
8
1
62
256
6
ByLayer
370
13
48
1
60
0
100
AcDbSpline
70
4
71
3
72
8
73
4
40
0
40
0
40
0
40
0
40
1
40
1
40
1
40
1
41
1
10
29.4743263124384
20
11.7495141354526
30
0
41
1
10
29.471342816915
20
11.7491516400982
30
0
41
1
10
29.4686096513474
20
11.7489756444472
30
0
41
1
10
29.4661840397669
20
11.7489756444472
30
0
0
SPLINE
5
1F4
100
AcDbEntity
8
1
62
256
6
ByLayer
370
13
48
1
60
0
100
AcDbSpline
70
4
71
3
72
16
73
12
40
0
40
0
40
0
40
0
40
0.0355303527441481
40
0.0355303527441481
40
0.0917680599187357
40
0.0917680599187357
40
0.200182520092063
40
0.200182520092063
40
0.439533504711995
40
0.439533504711995
40
1
40
1
40
1
40
1
41
1
10
33.0647600217523
20
13.1263220355886
30
0
41
1
10
33.0655855998635
20
13.1256883080066
30
0
41
1
10
33.0664120929671
20
13.1250550739896
30
0
41
1
10
33.0685507889317
20
13.1234171544561
30
0
41
1
10
33.0698640688781
20
13.122412840686
30
0
41
1
10
33.0737129338245
20
13.1194739771005
30
0
41
1
10
33.0762525536655
20
13.1175405184083
30
0
41
1
10
33.0844114693382
20
13.1113492612906
30
0
41
1
10
33.0900517136001
20
13.107100940514
30
0
41
1
10
33.1089188273347
20
13.0930044717441
30
0
41
1
10
33.1222466489562
20
13.0832317389367
30
0
41
1
10
33.135515563742
20
13.0737056108808
30
0
0
SPLINE
5
1F5
100
AcDbEntity
8
1
62
256
6
ByLayer
370
13
48
1
60
0
100
AcDbSpline
70
4
71
3
72
8
73
4
40
0
40
0
40
0
40
0
40
1
40
1
40
1
40
1
41
1
10
32.7060768987951
20
10.8251312018677
30
0
41
1
10
32.5916360304014
20
10.8223078286369
30
0
41
1
10
32.4749005955276
20
10.8260610367294
30
0
41
1
10
32.3587805434612
20
10.8215907726178
30
0
0
SPLINE
5
1F6
100
AcDbEntity
8
1
62
256
6
ByLayer
370
13
48
1
60
0
100
AcDbSpline
70
4
71
3
72
10
73
6
40
0
40
0
40
0
40
0
40
0.155061591761428
40
0.155061591761428
40
1
40
1
40
1
40
1
41
1
10
33.3213895076228
20
11.1463012229624
30
0
41
1
10
33.3304066184318
20
11.1511070680181
30
0
41
1
10
33.3393274149502
20
11.15609803033
30
0
41
1
10
33.3954797246052
20
11.1892192237275
30
0
41
1
10
33.4409287471059
20
11.2234820606995
30
0
41
1
10
33.4749811562301
20
11.2665870890606
30
0
0
SPLINE
5
1F7
100
AcDbEntity
8
1
62
256
6
ByLayer
370
13
48
1
60
0
100
AcDbSpline
70
4
71
3
72
10
73
6
40
0
40
0
40
0
40
0
40
0.155061591761428
40
0.155061591761428
40
1
40
1
40
1
40
1
41
1
10
33.3213895076228
20
12.8536987770379
30
0
41
1
10
33.3304066184318
20
12.8488929319822
30
0
41
1
10
33.3393274149502
20
12.8439019696703
30
0
41
1
10
33.3954797246052
20
12.8107807762728
30
0
41
1
10
33.4409287471059
20
12.7765179393007
30
0
41
1
10
33.4749811562301
20
12.7334129109397
30
0
0
SPLINE
5
1F8
100
AcDbEntity
8
1
62
256
6
ByLayer
370
13
48
1
60
0
100
AcDbSpline
70
4
71
3
72
8
73
4
40
0
40
0
40
0
40
0
40
1
40
1
40
1
40
1
41
1
10
32.7060768987951
20
13.1748687981326
30
0
41
1
10
32.5916360304014
20
13.1776921713634
30
0
41
1
10
32.4749005955276
20
13.1739389632709
30
0
41
1
10
32.3587805434612
20
13.1784092273825
30
0
0
SPLINE
5
1F9
100
AcDbEntity
8
1
62
256
6
ByLayer
370
13
48
1
60
0
100
AcDbSpline
70
4
71
3
72
12
73
8
40
0
40
0
40
0
40
0
40
0.0075770979405842
40
0.0075770979405842
40
0.524912447401083
40
0.524912447401083
40
1
40
1
40
1
40
1
41
1
10
33.0213727254144
20
11.4109243775771
30
0
41
1
10
33.022693884863
20
11.4108753640971
30
0
41
1
10
33.0240151186687
20
11.4108286952263
30
0
41
1
10
33.1154638182289
20
11.4077622069792
30
0
41
1
10
33.205673527038
20
11.4125262603929
30
0
41
1
10
33.3786115881781
20
11.4165825891107
30
0
41
1
10
33.4613940232687
20
11.4189024501286
30
0
41
1
10
33.5441651422333
20
11.4216103813446
30
0
0
SPLINE
5
1FA
100
AcDbEntity
8
1
62
256
6
ByLayer
370
13
48
1
60
0
100
AcDbSpline
70
4
71
3
72
10
73
6
40
0
40
0
40
0
40
0
40
0.596085739020476
40
0.596085739020476
40
1
40
1
40
1
40
1
41
1
10
33.4964383490931
20
11.2943932095384
30
0
41
1
10
33.5128939358856
20
11.3161686778154
30
0
41
1
10
33.5267245821227
20
11.3405970994093
30
0
41
1
10
33.54081187438
20
11.3842694800442
30
0
41
1
10
33.544038381206
20
11.4030190147409
30
0
41
1
10
33.5441651422481
20
11.4216103813398
30
0
0
SPLINE
5
1FB
100
AcDbEntity
8
1
62
256
6
ByLayer
370
13
48
1
60
0
100
AcDbSpline
70
4
71
3
72
8
73
4
40
0
40
0
40
0
40
0
40
1
40
1
40
1
40
1
41
1
10
33.4749811562301
20
11.2665870890606
30
0
41
1
10
33.4822263780104
20
11.2757584075768
30
0
41
1
10
33.4893737130963
20
11.2850446667622
30
0
41
1
10
33.4964383490931
20
11.2943932095384
30
0
0
SPLINE
5
1FC
100
AcDbEntity
8
1
62
256
6
ByLayer
370
13
48
1
60
0
100
AcDbSpline
70
4
71
3
72
8
73
4
40
0
40
0
40
0
40
0
40
1
40
1
40
1
40
1
41
1
10
33.4749811562301
20
12.7334129109397
30
0
41
1
10
33.4822263780104
20
12.7242415924235
30
0
41
1
10
33.4893737130963
20
12.7149553332381
30
0
41
1
10
33.4964383490931
20
12.7056067904619
30
0
0
SPLINE
5
1FD
100
AcDbEntity
8
1
62
256
6
ByLayer
370
13
48
1
60
0
100
AcDbSpline
70
4
71
3
72
12
73
8
40
0
40
0
40
0
40
0
40
0.0075770979405842
40
0.0075770979405842
40
0.524912447401083
40
0.524912447401083
40
1
40
1
40
1
40
1
41
1
10
33.0213727254144
20
12.5890756224231
30
0
41
1
10
33.022693884863
20
12.5891246359032
30
0
41
1
10
33.0240151186687
20
12.589171304774
30
0
41
1
10
33.1154638182289
20
12.5922377930211
30
0
41
1
10
33.205673527038
20
12.5874737396074
30
0
41
1
10
33.3786115881781
20
12.5834174108896
30
0
41
1
10
33.4613940232687
20
12.5810975498717
30
0
41
1
10
33.5441651422333
20
12.5783896186557
30
0
0
SPLINE
5
1FE
100
AcDbEntity
8
1
62
256
6
ByLayer
370
13
48
1
60
0
100
AcDbSpline
70
4
71
3
72
10
73
6
40
0
40
0
40
0
40
0
40
0.596085739020476
40
0.596085739020476
40
1
40
1
40
1
40
1
41
1
10
33.4964383490931
20
12.7056067904619
30
0
41
1
10
33.5128939358856
20
12.6838313221849
30
0
41
1
10
33.5267245821227
20
12.6594029005909
30
0
41
1
10
33.54081187438
20
12.6157305199561
30
0
41
1
10
33.544038381206
20
12.5969809852594
30
0
41
1
10
33.5441651422481
20
12.5783896186605
30
0
0
SPLINE
5
1FF
100
AcDbEntity
8
1
62
256
6
ByLayer
370
13
48
1
60
0
100
AcDbSpline
70
4
71
3
72
8
73
4
40
0
40
0
40
0
40
0
40
1
40
1
40
1
40
1
41
1
10
32.3587805434612
20
10.8215907726178
30
0
41
1
10
32.2587308196864
20
10.8181509409093
30
0
41
1
10
32.1579761895169
20
10.8221156724947
30
0
41
1
10
32.0587805434612
20
10.835575814649
30
0
0
SPLINE
5
200
100
AcDbEntity
8
1
62
256
6
ByLayer
370
13
48
1
60
0
100
AcDbSpline
70
4
71
3
72
8
73
4
40
0
40
0
40
0
40
0
40
1
40
1
40
1
40
1
41
1
10
32.3587805434612
20
13.1784092273825
30
0
41
1
10
32.2587308196864
20
13.181849059091
30
0
41
1
10
32.1579761895169
20
13.1778843275056
30
0
41
1
10
32.0587805434612
20
13.1644241853513
30
0
0
SPLINE
5
201
100
AcDbEntity
8
1
62
256
6
ByLayer
370
13
48
1
60
0
100
AcDbSpline
70
4
71
3
72
16
73
12
40
0
40
0
40
0
40
0
40
0.113631665737173
40
0.113631665737173
40
0.758132216188134
40
0.758132216188134
40
0.942823120099093
40
0.942823120099093
40
0.947778003019258
40
0.947778003019258
40
1
40
1
40
1
40
1
41
1
10
31.8112677608007
20
12.5158410745109
30
0
41
1
10
31.8332807942052
20
12.5228451433718
30
0
41
1
10
31.8554088133188
20
12.5294977911433
30
0
41
1
10
32.0026697940167
20
12.5711855692798
30
0
41
1
10
32.1333481685155
20
12.5939279587492
30
0
41
1
10
32.3009734748332
20
12.5924434259839
30
0
41
1
10
32.3386296238165
20
12.5906371905467
30
0
41
1
10
32.3773004835499
20
12.5892590357792
30
0
41
1
10
32.3783108496887
20
12.5892230184458
30
0
41
1
10
32.3899699703881
20
12.5888073752391
30
0
41
1
10
32.40061882194
20
12.5884304618731
30
0
41
1
10
32.4112677608007
20
12.5880560414711
30
0
0
SPLINE
5
202
100
AcDbEntity
8
1
62
256
6
ByLayer
370
13
48
1
60
0
100
AcDbSpline
70
4
71
3
72
16
73
12
40
0
40
0
40
0
40
0
40
0.113631665737173
40
0.113631665737173
40
0.758132216188134
40
0.758132216188134
40
0.942823120099093
40
0.942823120099093
40
0.947778003019258
40
0.947778003019258
40
1
40
1
40
1
40
1
41
1
10
31.8112677608007
20
11.4841589254894
30
0
41
1
10
31.8332807942052
20
11.4771548566284
30
0
41
1
10
31.8554088133188
20
11.470502208857
30
0
41
1
10
32.0026697940167
20
11.4288144307205
30
0
41
1
10
32.1333481685155
20
11.4060720412511
30
0
41
1
10
32.3009734748332
20
11.4075565740164
30
0
41
1
10
32.3386296238165
20
11.4093628094537
30
0
41
1
10
32.3773004835499
20
11.4107409642211
30
0
41
1
10
32.3783108496887
20
11.4107769815545
30
0
41
1
10
32.3899699703881
20
11.4111926247612
30
0
41
1
10
32.40061882194
20
11.4115695381272
30
0
41
1
10
32.4112677608007
20
11.4119439585292
30
0
0
SPLINE
5
203
100
AcDbEntity
8
1
62
256
6
ByLayer
370
13
48
1
60
0
100
AcDbSpline
70
4
71
3
72
10
73
6
40
0
40
0
40
0
40
0
40
0.411878619131049
40
0.411878619131049
40
1
40
1
40
1
40
1
41
1
10
33.5970257408783
20
11.4216103813444
30
0
41
1
10
33.5970257408783
20
11.3985018754405
30
0
41
1
10
33.5938567437524
20
11.3752198575114
30
0
41
1
10
33.5795589487909
20
11.3211524463558
30
0
41
1
10
33.5654981180153
20
11.2906737309444
30
0
41
1
10
33.5480487400853
20
11.2629298615152
30
0
0
SPLINE
5
204
100
AcDbEntity
8
1
62
256
6
ByLayer
370
13
48
1
60
0
100
AcDbSpline
70
4
71
3
72
10
73
6
40
0
40
0
40
0
40
0
40
0.411878619131049
40
0.411878619131049
40
1
40
1
40
1
40
1
41
1
10
33.5970257408783
20
12.5783896186559
30
0
41
1
10
33.5970257408783
20
12.6014981245598
30
0
41
1
10
33.5938567437524
20
12.6247801424889
30
0
41
1
10
33.5795589487909
20
12.6788475536445
30
0
41
1
10
33.5654981180153
20
12.7093262690559
30
0
41
1
10
33.5480487400853
20
12.7370701384852
30
0
0
SPLINE
5
205
100
AcDbEntity
8
1
62
256
6
ByLayer
370
13
48
1
60
0
100
AcDbSpline
70
4
71
3
72
8
73
4
40
0
40
0
40
0
40
0
40
1
40
1
40
1
40
1
41
1
10
33.548048740085
20
11.2629298615152
30
0
41
1
10
33.5406964490064
20
11.253577963493
30
0
41
1
10
33.5332455329699
20
11.2443294855103
30
0
41
1
10
33.5256851850747
20
11.2352342528897
30
0
0
SPLINE
5
206
100
AcDbEntity
8
1
62
256
6
ByLayer
370
13
48
1
60
0
100
AcDbSpline
70
4
71
3
72
8
73
4
40
0
40
0
40
0
40
0
40
1
40
1
40
1
40
1
41
1
10
33.548048740085
20
12.7370701384851
30
0
41
1
10
33.5406964490064
20
12.7464220365072
30
0
41
1
10
33.5332455329699
20
12.75567051449
30
0
41
1
10
33.5256851850747
20
12.7647657471105
30
0
0
SPLINE
5
207
100
AcDbEntity
8
1
62
256
6
ByLayer
370
13
48
1
60
0
100
AcDbSpline
70
4
71
3
72
12
73
8
40
0
40
0
40
0
40
0
40
0.390105015408732
40
0.390105015408732
40
0.395238792462735
40
0.395238792462735
40
1
40
1
40
1
40
1
41
1
10
32.4112677608007
20
11.4119439585292
30
0
41
1
10
32.4930131894969
20
11.4140517035567
30
0
41
1
10
32.575069491157
20
11.4144624557819
30
0
41
1
10
32.6568134956408
20
11.4147479575745
30
0
41
1
10
32.6578786372164
20
11.4147515642836
30
0
41
1
10
32.7833815366521
20
11.4151631361618
30
0
41
1
10
32.906145891386
20
11.4140592174298
30
0
41
1
10
33.0213727254144
20
11.4109243775771
30
0
0
SPLINE
5
208
100
AcDbEntity
8
1
62
256
6
ByLayer
370
13
48
1
60
0
100
AcDbSpline
70
4
71
3
72
12
73
8
40
0
40
0
40
0
40
0
40
0.390105015408732
40
0.390105015408732
40
0.395238792462735
40
0.395238792462735
40
1
40
1
40
1
40
1
41
1
10
32.4112677608007
20
12.5880560414711
30
0
41
1
10
32.4930131894969
20
12.5859482964436
30
0
41
1
10
32.575069491157
20
12.5855375442185
30
0
41
1
10
32.6568134956408
20
12.5852520424258
30
0
41
1
10
32.6578786372164
20
12.5852484357167
30
0
41
1
10
32.7833815366521
20
12.5848368638385
30
0
41
1
10
32.906145891386
20
12.5859407825705
30
0
41
1
10
33.0213727254144
20
12.5890756224231
30
0
0
SPLINE
5
209
100
AcDbEntity
8
1
62
256
6
ByLayer
370
18
48
1
60
0
100
AcDbSpline
70
4
71
3
72
16
73
12
40
0
40
0
40
0
40
0
40
0.210601603648632
40
0.210601603648632
40
0.421213120937357
40
0.421213120937357
40
0.631488126460197
40
0.631488126460197
40
0.839116239420829
40
0.839116239420829
40
1
40
1
40
1
40
1
41
1
10
33.6046912194301
20
13.3055562538531
30
0
41
1
10
33.6048851041009
20
13.3284783623568
30
0
41
1
10
33.6011366843306
20
13.3517152848399
30
0
41
1
10
33.5864049129777
20
13.3949753647062
30
0
41
1
10
33.5752157349576
20
13.4155997347471
30
0
41
1
10
33.5470242400575
20
13.4513452122233
30
0
41
1
10
33.52963219728
20
13.4669744061748
30
0
41
1
10
33.4913444393929
20
13.4908763407797
30
0
41
1
10
33.4699543211539
20
13.4995700363139
30
0
41
1
10
33.4309045828753
20
13.5079407305391
30
0
41
1
10
33.4131262908524
20
13.5092818527201
30
0
41
1
10
33.3956316353027
20
13.5082037976608
30
0
0
SPLINE
5
20A
100
AcDbEntity
8
1
62
256
6
ByLayer
370
18
48
1
60
0
100
AcDbSpline
70
4
71
3
72
10
73
6
40
0
40
0
40
0
40
0
40
0.584711417492912
40
0.584711417492912
40
1
40
1
40
1
40
1
41
1
10
25.2351939284819
20
10.7500000000001
30
0
41
1
10
25.2376165600086
20
10.7500000000001
30
0
41
1
10
25.2400566535846
20
10.7500000000001
30
0
41
1
10
25.2442589248979
20
10.7500000000001
30
0
41
1
10
25.2460127381757
20
10.7500000000001
30
0
41
1
10
25.2477750315741
20
10.7500000000001
30
0
0
SPLINE
5
20B
100
AcDbEntity
8
1
62
256
6
ByLayer
370
18
48
1
60
0
100
AcDbSpline
70
4
71
3
72
16
73
12
40
0
40
0
40
0
40
0
40
0.202092460849674
40
0.202092460849674
40
0.404032245588857
40
0.404032245588857
40
0.608298678109005
40
0.608298678109005
40
0.816163444624768
40
0.816163444624768
40
1
40
1
40
1
40
1
41
1
10
33.3956316353027
20
10.4917962023395
30
0
41
1
10
33.4174897444444
20
10.4904492626939
30
0
41
1
10
33.4398491383954
20
10.4929140846626
30
0
41
1
10
33.4818390291393
20
10.5049642526357
30
0
41
1
10
33.5020457535964
20
10.5147039661699
30
0
41
1
10
33.5378824730738
20
10.5400724179086
30
0
41
1
10
33.5539463831898
20
10.5561077473292
30
0
41
1
10
33.5798894042431
20
10.5924035125335
30
0
41
1
10
33.5900129368111
20
10.6132286035612
30
0
41
1
10
33.6020260177162
20
10.6540842965976
30
0
41
1
10
33.6048610089749
20
10.6743702955194
30
0
41
1
10
33.6046912194301
20
10.6944437461472
30
0
0
SPLINE
5
20C
100
AcDbEntity
8
1
62
256
6
ByLayer
370
18
48
1
60
0
100
AcDbSpline
70
4
71
3
72
10
73
6
40
0
40
0
40
0
40
0
40
0.629562107774395
40
0.629562107774395
40
1
40
1
40
1
40
1
41
1
10
23.8
20
10.7500000000001
30
0
41
1
10
23.7782969300918
20
10.7500000000001
30
0
41
1
10
23.756172793229
20
10.7536410631935
30
0
41
1
10
23.7231987911384
20
10.7648782131051
30
0
41
1
10
23.7112516429095
20
10.7702987801803
30
0
41
1
10
23.6999999999999
20
10.776794919243
30
0
0
SPLINE
5
20D
100
AcDbEntity
8
1
62
256
6
ByLayer
370
18
48
1
60
0
100
AcDbSpline
70
4
71
3
72
10
73
6
40
0
40
0
40
0
40
0
40
0.62956174027551
40
0.62956174027551
40
1
40
1
40
1
40
1
41
1
10
23.7
20
13.223205080757
30
0
41
1
10
23.718944038489
20
13.2341424264782
30
0
41
1
10
23.7400004695306
20
13.2420308411128
30
0
41
1
10
23.7741148019192
20
13.2487405286445
30
0
41
1
10
23.7871096425299
20
13.2500000000002
30
0
41
1
10
23.8
20
13.2500000000002
30
0
0
SPLINE
5
20E
100
AcDbEntity
8
1
62
256
6
ByLayer
370
18
48
1
60
0
100
AcDbSpline
70
4
71
3
72
10
73
6
40
0
40
0
40
0
40
0
40
0.76746257010027
40
0.76746257010027
40
1
40
1
40
1
40
1
41
1
10
25.2477750315741
20
13.2500000000001
30
0
41
1
10
25.2445183560327
20
13.2500000000001
30
0
41
1
10
25.2412905642182
20
13.2500000000001
30
0
41
1
10
25.237123695827
20
13.2500000000001
30
0
41
1
10
25.2361574346187
20
13.2500000000001
30
0
41
1
10
25.2351939284819
20
13.2500000000001
30
0
0
SPLINE
5
20F
100
AcDbEntity
8
1
62
256
6
ByLayer
370
18
48
1
60
0
100
AcDbSpline
70
4
71
3
72
14
73
10
40
0
40
0
40
0
40
0
40
0.209562190252725
40
0.209562190252725
40
0.419048660097219
40
0.419048660097219
40
0.628042586344193
40
0.628042586344193
40
1
40
1
40
1
40
1
41
1
10
32.0587805434612
20
13.4097853116086
30
0
41
1
10
31.9766126081606
20
13.4040112672196
30
0
41
1
10
31.894096633241
20
13.398691675714
30
0
41
1
10
31.7317767669575
20
13.3891850947953
30
0
41
1
10
31.6514176992139
20
13.3849652769823
30
0
41
1
10
31.49577107806
20
13.3777765091769
30
0
41
1
10
31.4199400027966
20
13.3747800931393
30
0
41
1
10
31.219734627046
20
13.3683061296881
30
0
41
1
10
31.1007351939601
20
13.3661821282842
30
0
41
1
10
30.9981203716825
20
13.3661997365009
30
0
0
SPLINE
5
210
100
AcDbEntity
8
1
62
256
6
ByLayer
370
18
48
1
60
0
100
AcDbSpline
70
4
71
3
72
8
73
4
40
0
40
0
40
0
40
0
40
1
40
1
40
1
40
1
41
1
10
32.7060768987951
20
13.4574120129641
30
0
41
1
10
32.5917418362529
20
13.4479573909198
30
0
41
1
10
32.4750917668497
20
13.4390400260504
30
0
41
1
10
32.3587805434612
20
13.4308666897687
30
0
0
SPLINE
5
211
100
AcDbEntity
8
1
62
256
6
ByLayer
370
18
48
1
60
0
100
AcDbSpline
70
4
71
3
72
14
73
10
40
0
40
0
40
0
40
0
40
0.208995027535852
40
0.208995027535852
40
0.417850725206471
40
0.417850725206471
40
0.626704295977397
40
0.626704295977397
40
1
40
1
40
1
40
1
41
1
10
30.9981203716814
20
10.6338002634984
30
0
41
1
10
31.0562077150716
20
10.6338102310109
30
0
41
1
10
31.1193237323134
20
10.6331440464029
30
0
41
1
10
31.2529850333382
20
10.6304855473309
30
0
41
1
10
31.3239830856551
20
10.6284850037929
30
0
41
1
10
31.4714347232615
20
10.6232230123532
30
0
41
1
10
31.5483929364638
20
10.6199435787732
30
0
41
1
10
31.7664550970089
20
10.6092372119779
30
0
41
1
10
31.9134966889725
20
10.6004239679823
30
0
41
1
10
32.0587805434602
20
10.5902146883923
30
0
0
SPLINE
5
212
100
AcDbEntity
8
1
62
256
6
ByLayer
370
18
48
1
60
0
100
AcDbSpline
70
4
71
3
72
8
73
4
40
0
40
0
40
0
40
0
40
1
40
1
40
1
40
1
41
1
10
32.3587805434612
20
10.5691333102316
30
0
41
1
10
32.4750917668497
20
10.5609599739499
30
0
41
1
10
32.5917418362529
20
10.5520426090804
30
0
41
1
10
32.7060768987951
20
10.5425879870362
30
0
0
LINE
5
70
100
AcDbEntity
8
80
62
256
6
ByLayer
370
18
48
1
60
0
100
AcDbLine
10
0
20
0
30
0
11
-5
21
0
31
0
39
0
210
0
220
0
230
1
0
LINE
5
71
100
AcDbEntity
8
81
62
256
6
ByLayer
370
18
48
1
60
0
100
AcDbLine
10
33.6
20
13.5
30
0
11
38.6
21
13.5
31
0
39
0
210
0
220
0
230
1
0
LINE
5
72
100
AcDbEntity
8
1
62
256
6
ByLayer
370
18
48
1
60
0
100
AcDbLine
10
-0.1
20
-12.502029
30
0
11
-0.1
21
12.839993
31
0
39
0
210
0
220
0
230
1
0
LINE
5
74
100
AcDbEntity
8
SK1
62
256
6
ByLayer
370
13
48
1
60
0
100
AcDbLine
10
-1.227723
20
12.375
30
0
11
-1.227723
21
-12.5
31
0
39
0
210
0
220
0
230
1
0
LINE
5
76
100
AcDbEntity
8
SK1
62
256
6
ByLayer
370
18
48
1
60
0
100
AcDbLine
10
-116.4
20
-12.5
30
0
11
-116.4
21
12.375
31
0
39
0
210
0
220
0
230
1
0
LINE
5
77
100
AcDbEntity
8
SK1
62
256
6
ByLayer
370
18
48
1
60
0
100
AcDbLine
10
-116.4
20
-12.5
30
0
11
-1.227723
21
-12.5
31
0
39
0
210
0
220
0
230
1
0
LINE
5
78
100
AcDbEntity
8
SK1
62
256
6
ByLayer
370
18
48
1
60
0
100
AcDbLine
10
-0.1
20
-12.502029
30
0
11
-0.1
21
12.839993
31
0
39
0
210
0
220
0
230
1
0
LINE
5
79
100
AcDbEntity
8
SK1
62
256
6
ByLayer
370
18
48
1
60
0
100
AcDbLine
10
-116.4
20
12.375
30
0
11
-1.227723
21
12.375
31
0
39
0
210
0
220
0
230
1
0
LINE
5
7A
100
AcDbEntity
8
1
62
256
6
ByLayer
370
13
48
1
60
0
100
AcDbLine
10
0.317758
20
-12.505174
30
0
11
0.317758
21
13.175
31
0
39
0
210
0
220
0
230
1
0
LINE
5
7B
100
AcDbEntity
8
1
62
256
6
ByLayer
370
18
48
1
60
0
100
AcDbLine
10
29.015611
20
11.008431
30
0
11
28.95928
21
10.825
31
0
39
0
210
0
220
0
230
1
0
LINE
5
7C
100
AcDbEntity
8
1
62
256
6
ByLayer
370
18
48
1
60
0
100
AcDbLine
10
19.890738
20
13.175
30
0
11
24.890738
21
13.175
31
0
39
0
210
0
220
0
230
1
0
LINE
5
7D
100
AcDbEntity
8
1
62
256
6
ByLayer
370
18
48
1
60
0
100
AcDbLine
10
6
20
-10.213235
30
0
11
6
21
9.225
31
0
39
0
210
0
220
0
230
1
0
LINE
5
7E
100
AcDbEntity
8
1
62
256
6
ByLayer
370
18
48
1
60
0
100
AcDbLine
10
2.97596
20
-12.518324
30
0
11
1.125279
21
-12.518324
31
0
39
0
210
0
220
0
230
1
0
LINE
5
7F
100
AcDbEntity
8
1
62
256
6
ByLayer
370
18
48
1
60
0
100
AcDbLine
10
29.015611
20
11.008431
30
0
11
29.015611
21
12.991569
31
0
39
0
210
0
220
0
230
1
0
LINE
5
80
100
AcDbEntity
8
1
62
256
6
ByLayer
370
18
48
1
60
0
100
AcDbLine
10
24.890738
20
10.825
30
0
11
28.95928
21
10.825
31
0
39
0
210
0
220
0
230
1
0
LINE
5
81
100
AcDbEntity
8
1
62
256
6
ByLayer
370
18
48
1
60
0
100
AcDbLine
10
0.317758
20
13.175
30
0
11
1.125279
21
13.175
31
0
39
0
210
0
220
0
230
1
0
LINE
5
82
100
AcDbEntity
8
1
62
256
6
ByLayer
370
13
48
1
60
0
100
AcDbLine
10
19.890738
20
13.175
30
0
11
19.890738
21
10.825
31
0
39
0
210
0
220
0
230
1
0
LINE
5
83
100
AcDbEntity
8
1
62
256
6
ByLayer
370
18
48
1
60
0
100
AcDbLine
10
28.95928
20
13.175
30
0
11
29.015611
21
12.991569
31
0
39
0
210
0
220
0
230
1
0
LINE
5
84
100
AcDbEntity
8
1
62
256
6
ByLayer
370
18
48
1
60
0
100
AcDbLine
10
6
20
-10.213235
30
0
11
2.97596
21
-12.518324
31
0
39
0
210
0
220
0
230
1
0
LINE
5
85
100
AcDbEntity
8
1
62
256
6
ByLayer
370
18
48
1
60
0
100
AcDbLine
10
7.6
20
10.825
30
0
11
19.890738
21
10.825
31
0
39
0
210
0
220
0
230
1
0
LINE
5
86
100
AcDbEntity
8
1
62
256
6
ByLayer
370
18
48
1
60
0
100
AcDbLine
10
1.125279
20
13.175
30
0
11
19.890738
21
13.175
31
0
39
0
210
0
220
0
230
1
0
LINE
5
87
100
AcDbEntity
8
1
62
256
6
ByLayer
370
18
48
1
60
0
100
AcDbLine
10
0.157917
20
13.175
30
0
11
0.317758
21
13.175
31
0
39
0
210
0
220
0
230
1
0
LINE
5
88
100
AcDbEntity
8
1
62
256
6
ByLayer
370
18
48
1
60
0
100
AcDbLine
10
1.125279
20
-12.518324
30
0
11
1.125279
21
13.175
31
0
39
0
210
0
220
0
230
1
0
LINE
5
89
100
AcDbEntity
8
1
62
256
6
ByLayer
370
18
48
1
60
0
100
AcDbLine
10
19.890738
20
10.825
30
0
11
24.890738
21
10.825
31
0
39
0
210
0
220
0
230
1
0
LINE
5
8A
100
AcDbEntity
8
1
62
256
6
ByLayer
370
18
48
1
60
0
100
AcDbLine
10
24.890738
20
13.175
30
0
11
28.95928
21
13.175
31
0
39
0
210
0
220
0
230
1
0
LINE
5
8B
100
AcDbEntity
8
1
62
256
6
ByLayer
370
13
48
1
60
0
100
AcDbLine
10
24.890738
20
10.825
30
0
11
24.890738
21
13.175
31
0
39
0
210
0
220
0
230
1
0
LINE
5
8C
100
AcDbEntity
8
1
62
256
6
ByLayer
370
18
48
1
60
0
100
AcDbLine
10
0.317758
20
-12.505174
30
0
11
1.125279
21
-12.518324
31
0
39
0
210
0
220
0
230
1
0
LINE
5
8D
100
AcDbEntity
8
1
62
256
6
ByLayer
370
13
48
1
60
0
100
AcDbLine
10
25.189581
20
10.75
30
0
11
25.145758
21
10.825002
31
0
39
0
210
0
220
0
230
1
0
LINE
5
8E
100
AcDbEntity
8
1
62
256
6
ByLayer
370
13
48
1
60
0
100
AcDbLine
10
24.265685
20
10.825003
30
0
11
24.265685
21
10.75
31
0
39
0
210
0
220
0
230
1
0
LINE
5
8F
100
AcDbEntity
8
1
62
256
6
ByLayer
370
13
48
1
60
0
100
AcDbLine
10
24.265685
20
13.174997
30
0
11
24.265685
21
13.25
31
0
39
0
210
0
220
0
230
1
0
LINE
5
90
100
AcDbEntity
8
1
62
256
6
ByLayer
370
13
48
1
60
0
100
AcDbLine
10
24.890738
20
10.825
30
0
11
24.890738
21
13.175
31
0
39
0
210
0
220
0
230
1
0
LINE
5
91
100
AcDbEntity
8
1
62
256
6
ByLayer
370
13
48
1
60
0
100
AcDbLine
10
19.890738
20
13.175
30
0
11
19.890738
21
10.825
31
0
39
0
210
0
220
0
230
1
0
LINE
5
92
100
AcDbEntity
8
1
62
256
6
ByLayer
370
13
48
1
60
0
100
AcDbLine
10
0.317758
20
-12.505174
30
0
11
0.317758
21
13.175
31
0
39
0
210
0
220
0
230
1
0
LINE
5
93
100
AcDbEntity
8
1
62
256
6
ByLayer
370
13
48
1
60
0
100
AcDbLine
10
-1.227723
20
12.375
30
0
11
-1.227723
21
-12.5
31
0
39
0
210
0
220
0
230
1
0
LINE
5
94
100
AcDbEntity
8
1
62
256
6
ByLayer
370
13
48
1
60
0
100
AcDbLine
10
30.055978
20
10.75
30
0
11
30.055978
21
11.173244
31
0
39
0
210
0
220
0
230
1
0
LINE
5
95
100
AcDbEntity
8
1
62
256
6
ByLayer
370
13
48
1
60
0
100
AcDbLine
10
30.207676
20
11.165535
30
0
11
30.480446
21
11.152104
31
0
39
0
210
0
220
0
230
1
0
LINE
5
96
100
AcDbEntity
8
1
62
256
6
ByLayer
370
13
48
1
60
0
100
AcDbLine
10
30.737538
20
10.641081
30
0
11
30.716974
21
10.935155
31
0
39
0
210
0
220
0
230
1
0
LINE
5
97
100
AcDbEntity
8
1
62
256
6
ByLayer
370
13
48
1
60
0
100
AcDbLine
10
30.737538
20
13.358919
30
0
11
30.716974
21
13.064845
31
0
39
0
210
0
220
0
230
1
0
LINE
5
98
100
AcDbEntity
8
1
62
256
6
ByLayer
370
13
48
1
60
0
100
AcDbLine
10
30.480446
20
12.847896
30
0
11
30.207676
21
12.834465
31
0
39
0
210
0
220
0
230
1
0
LINE
5
99
100
AcDbEntity
8
1
62
256
6
ByLayer
370
13
48
1
60
0
100
AcDbLine
10
30.055978
20
12.826756
30
0
11
30.055978
21
13.25
31
0
39
0
210
0
220
0
230
1
0
LINE
5
9A
100
AcDbEntity
8
1
62
256
6
ByLayer
370
13
48
1
60
0
100
AcDbLine
10
32.058781
20
13.164424
30
0
11
32.058781
21
13.409785
31
0
39
0
210
0
220
0
230
1
0
LINE
5
9B
100
AcDbEntity
8
1
62
256
6
ByLayer
370
13
48
1
60
0
100
AcDbLine
10
30.99812
20
13.047848
30
0
11
30.99812
21
13.3662
31
0
39
0
210
0
220
0
230
1
0
LINE
5
9C
100
AcDbEntity
8
1
62
256
6
ByLayer
370
13
48
1
60
0
100
AcDbLine
10
30.630516
20
12.693729
30
0
11
30.480446
21
12.847896
31
0
39
0
210
0
220
0
230
1
0
LINE
5
9D
100
AcDbEntity
8
1
62
256
6
ByLayer
370
13
48
1
60
0
100
AcDbLine
10
30.99812
20
10.952152
30
0
11
30.99812
21
10.6338
31
0
39
0
210
0
220
0
230
1
0
LINE
5
9E
100
AcDbEntity
8
1
62
256
6
ByLayer
370
13
48
1
60
0
100
AcDbLine
10
32.058781
20
10.835576
30
0
11
32.058781
21
10.590215
31
0
39
0
210
0
220
0
230
1
0
LINE
5
9F
100
AcDbEntity
8
1
62
256
6
ByLayer
370
13
48
1
60
0
100
AcDbLine
10
30.480446
20
11.152104
30
0
11
30.630516
21
11.306271
31
0
39
0
210
0
220
0
230
1
0
LINE
5
A0
100
AcDbEntity
8
1
62
256
6
ByLayer
370
13
48
1
60
0
100
AcDbLine
10
30.207676
20
11.165535
30
0
11
30.221372
21
11.44369
31
0
39
0
210
0
220
0
230
1
0
LINE
5
A1
100
AcDbEntity
8
1
62
256
6
ByLayer
370
13
48
1
60
0
100
AcDbLine
10
30.451055
20
11.43238
30
0
11
30.221372
21
11.44369
31
0
39
0
210
0
220
0
230
1
0
LINE
5
A2
100
AcDbEntity
8
1
62
256
6
ByLayer
370
13
48
1
60
0
100
AcDbLine
10
30.221372
20
12.55631
30
0
11
30.451055
21
12.56762
31
0
39
0
210
0
220
0
230
1
0
LINE
5
A3
100
AcDbEntity
8
1
62
256
6
ByLayer
370
13
48
1
60
0
100
AcDbLine
10
30.221372
20
12.55631
30
0
11
30.207676
21
12.834465
31
0
39
0
210
0
220
0
230
1
0
LINE
5
A4
100
AcDbEntity
8
1
62
256
6
ByLayer
370
13
48
1
60
0
100
AcDbLine
10
30.893328
20
13.04953
30
0
11
30.915472
21
13.366214
31
0
39
0
210
0
220
0
230
1
0
LINE
5
A5
100
AcDbEntity
8
1
62
256
6
ByLayer
370
13
48
1
60
0
100
AcDbLine
10
30.893328
20
10.95047
30
0
11
30.915472
21
10.633786
31
0
39
0
210
0
220
0
230
1
0
LINE
5
A6
100
AcDbEntity
8
1
62
256
6
ByLayer
370
13
48
1
60
0
100
AcDbLine
10
30.464379
20
12.55631
30
0
11
30.221372
21
12.55631
31
0
39
0
210
0
220
0
230
1
0
LINE
5
A7
100
AcDbEntity
8
1
62
256
6
ByLayer
370
13
48
1
60
0
100
AcDbLine
10
30.464379
20
11.44369
30
0
11
30.221372
21
11.44369
31
0
39
0
210
0
220
0
230
1
0
LINE
5
A8
100
AcDbEntity
8
1
62
256
6
ByLayer
370
13
48
1
60
0
100
AcDbLine
10
29.987574
20
11.173244
30
0
11
30.055978
21
11.173244
31
0
39
0
210
0
220
0
230
1
0
LINE
5
A9
100
AcDbEntity
8
1
62
256
6
ByLayer
370
13
48
1
60
0
100
AcDbLine
10
29.987574
20
12.826756
30
0
11
30.055978
21
12.826756
31
0
39
0
210
0
220
0
230
1
0
LINE
5
AA
100
AcDbEntity
8
1
62
256
6
ByLayer
370
13
48
1
60
0
100
AcDbLine
10
29.987574
20
13.25
30
0
11
29.987574
21
12.826756
31
0
39
0
210
0
220
0
230
1
0
LINE
5
AB
100
AcDbEntity
8
1
62
256
6
ByLayer
370
13
48
1
60
0
100
AcDbLine
10
29.987574
20
11.173244
30
0
11
29.987574
21
10.75
31
0
39
0
210
0
220
0
230
1
0
LINE
5
AC
100
AcDbEntity
8
1
62
256
6
ByLayer
370
13
48
1
60
0
100
AcDbLine
10
29.263912
20
10.75
30
0
11
29.263912
21
10.866083
31
0
39
0
210
0
220
0
230
1
0
LINE
5
AD
100
AcDbEntity
8
1
62
256
6
ByLayer
370
13
48
1
60
0
100
AcDbLine
10
29.263912
20
13.133917
30
0
11
29.263912
21
13.25
31
0
39
0
210
0
220
0
230
1
0
LINE
5
AE
100
AcDbEntity
8
1
62
256
6
ByLayer
370
13
48
1
60
0
100
AcDbLine
10
31.714687
20
12.819384
30
0
11
31.811268
21
12.515841
31
0
39
0
210
0
220
0
230
1
0
LINE
5
AF
100
AcDbEntity
8
1
62
256
6
ByLayer
370
13
48
1
60
0
100
AcDbLine
10
31.714687
20
11.180616
30
0
11
31.811268
21
11.484159
31
0
39
0
210
0
220
0
230
1
0
LINE
5
B0
100
AcDbEntity
8
1
62
256
6
ByLayer
370
13
48
1
60
0
100
AcDbLine
10
29.06942
20
12.367998
30
0
11
29.379442
21
12.367998
31
0
39
0
210
0
220
0
230
1
0
LINE
5
B1
100
AcDbEntity
8
1
62
256
6
ByLayer
370
13
48
1
60
0
100
AcDbLine
10
29.015611
20
12.81851
30
0
11
29.06942
21
12.367998
31
0
39
0
210
0
220
0
230
1
0
LINE
5
B2
100
AcDbEntity
8
1
62
256
6
ByLayer
370
13
48
1
60
0
100
AcDbLine
10
29.177267
20
13.075984
30
0
11
28.984859
21
13.075984
31
0
39
0
210
0
220
0
230
1
0
LINE
5
B3
100
AcDbEntity
8
1
62
256
6
ByLayer
370
13
48
1
60
0
100
AcDbLine
10
29.177267
20
10.924016
30
0
11
28.984859
21
10.924016
31
0
39
0
210
0
220
0
230
1
0
LINE
5
B4
100
AcDbEntity
8
1
62
256
6
ByLayer
370
13
48
1
60
0
100
AcDbLine
10
29.015611
20
11.18149
30
0
11
29.06942
21
11.632002
31
0
39
0
210
0
220
0
230
1
0
LINE
5
B5
100
AcDbEntity
8
1
62
256
6
ByLayer
370
13
48
1
60
0
100
AcDbLine
10
29.06942
20
11.632002
30
0
11
29.379442
21
11.632002
31
0
39
0
210
0
220
0
230
1
0
LINE
5
B6
100
AcDbEntity
8
1
62
256
6
ByLayer
370
13
48
1
60
0
100
AcDbLine
10
29.172358
20
13.25
30
0
11
29.172358
21
13.125902
31
0
39
0
210
0
220
0
230
1
0
LINE
5
B7
100
AcDbEntity
8
1
62
256
6
ByLayer
370
13
48
1
60
0
100
AcDbLine
10
29.172358
20
10.874098
30
0
11
29.172358
21
10.75
31
0
39
0
210
0
220
0
230
1
0
LINE
5
B8
100
AcDbEntity
8
1
62
256
6
ByLayer
370
13
48
1
60
0
100
AcDbLine
10
31.811268
20
12.515841
30
0
11
31.811268
21
11.484159
31
0
39
0
210
0
220
0
230
1
0
LINE
5
B9
100
AcDbEntity
8
1
62
256
6
ByLayer
370
13
48
1
60
0
100
AcDbLine
10
28.98199
20
10.874562
30
0
11
29.170595
21
10.874562
31
0
39
0
210
0
220
0
230
1
0
LINE
5
BA
100
AcDbEntity
8
1
62
256
6
ByLayer
370
13
48
1
60
0
100
AcDbLine
10
28.98199
20
10.75
30
0
11
28.98199
21
10.874562
31
0
39
0
210
0
220
0
230
1
0
LINE
5
BB
100
AcDbEntity
8
1
62
256
6
ByLayer
370
13
48
1
60
0
100
AcDbLine
10
28.98199
20
13.125438
30
0
11
29.170595
21
13.125438
31
0
39
0
210
0
220
0
230
1
0
LINE
5
BC
100
AcDbEntity
8
1
62
256
6
ByLayer
370
13
48
1
60
0
100
AcDbLine
10
28.98199
20
13.25
30
0
11
28.98199
21
13.125438
31
0
39
0
210
0
220
0
230
1
0
LINE
5
BD
100
AcDbEntity
8
1
62
256
6
ByLayer
370
13
48
1
60
0
100
AcDbLine
10
33.600117
20
12.764766
30
0
11
33.525685
21
12.764766
31
0
39
0
210
0
220
0
230
1
0
LINE
5
BE
100
AcDbEntity
8
1
62
256
6
ByLayer
370
13
48
1
60
0
100
AcDbLine
10
33.135516
20
13.073706
30
0
11
33.135516
21
13.492175
31
0
39
0
210
0
220
0
230
1
0
LINE
5
BF
100
AcDbEntity
8
1
62
256
6
ByLayer
370
13
48
1
60
0
100
AcDbLine
10
33.135516
20
10.926294
30
0
11
33.135516
21
10.507825
31
0
39
0
210
0
220
0
230
1
0
LINE
5
C0
100
AcDbEntity
8
1
62
256
6
ByLayer
370
13
48
1
60
0
100
AcDbLine
10
33.600117
20
11.235234
30
0
11
33.525685
21
11.235234
31
0
39
0
210
0
220
0
230
1
0
LINE
5
C1
100
AcDbEntity
8
1
62
256
6
ByLayer
370
13
48
1
60
0
100
AcDbLine
10
33.06476
20
13.487072
30
0
11
33.06476
21
13.126322
31
0
39
0
210
0
220
0
230
1
0
LINE
5
C2
100
AcDbEntity
8
1
62
256
6
ByLayer
370
13
48
1
60
0
100
AcDbLine
10
32.706077
20
13.174869
30
0
11
32.706077
21
13.457412
31
0
39
0
210
0
220
0
230
1
0
LINE
5
C3
100
AcDbEntity
8
1
62
256
6
ByLayer
370
13
48
1
60
0
100
AcDbLine
10
32.706077
20
10.825131
30
0
11
32.706077
21
10.542588
31
0
39
0
210
0
220
0
230
1
0
LINE
5
C4
100
AcDbEntity
8
1
62
256
6
ByLayer
370
13
48
1
60
0
100
AcDbLine
10
33.06476
20
10.512928
30
0
11
33.06476
21
10.873678
31
0
39
0
210
0
220
0
230
1
0
LINE
5
C5
100
AcDbEntity
8
1
62
256
6
ByLayer
370
13
48
1
60
0
100
AcDbLine
10
29.106333
20
11.748976
30
0
11
29.466184
21
11.748976
31
0
39
0
210
0
220
0
230
1
0
LINE
5
C6
100
AcDbEntity
8
1
62
256
6
ByLayer
370
13
48
1
60
0
100
AcDbLine
10
29.106333
20
12.251024
30
0
11
29.466184
21
12.251024
31
0
39
0
210
0
220
0
230
1
0
LINE
5
C7
100
AcDbEntity
8
1
62
256
6
ByLayer
370
13
48
1
60
0
100
AcDbLine
10
32.358781
20
10.821591
30
0
11
32.358781
21
10.569133
31
0
39
0
210
0
220
0
230
1
0
LINE
5
C8
100
AcDbEntity
8
1
62
256
6
ByLayer
370
13
48
1
60
0
100
AcDbLine
10
32.358781
20
13.178409
30
0
11
32.358781
21
13.430867
31
0
39
0
210
0
220
0
230
1
0
LINE
5
C9
100
AcDbEntity
8
1
62
256
6
ByLayer
370
13
48
1
60
0
100
AcDbLine
10
28.974468
20
13.125438
30
0
11
28.98199
21
13.125438
31
0
39
0
210
0
220
0
230
1
0
LINE
5
CA
100
AcDbEntity
8
1
62
256
6
ByLayer
370
13
48
1
60
0
100
AcDbLine
10
28.974468
20
10.874562
30
0
11
28.98199
21
10.874562
31
0
39
0
210
0
220
0
230
1
0
LINE
5
CB
100
AcDbEntity
8
1
62
256
6
ByLayer
370
13
48
1
60
0
100
AcDbLine
10
25.566112
20
10.824999
30
0
11
25.566112
21
10.75
31
0
39
0
210
0
220
0
230
1
0
LINE
5
CC
100
AcDbEntity
8
1
62
256
6
ByLayer
370
13
48
1
60
0
100
AcDbLine
10
25.566112
20
13.175001
30
0
11
25.566112
21
13.25
31
0
39
0
210
0
220
0
230
1
0
LINE
5
CD
100
AcDbEntity
8
1
62
256
6
ByLayer
370
13
48
1
60
0
100
AcDbLine
10
29.015605
20
11.632002
30
0
11
29.06942
21
11.632002
31
0
39
0
210
0
220
0
230
1
0
LINE
5
CE
100
AcDbEntity
8
1
62
256
6
ByLayer
370
13
48
1
60
0
100
AcDbLine
10
29.015605
20
12.367998
30
0
11
29.06942
21
12.367998
31
0
39
0
210
0
220
0
230
1
0
LINE
5
CF
100
AcDbEntity
8
1
62
256
6
ByLayer
370
13
48
1
60
0
100
AcDbLine
10
29.14904
20
12.200756
30
0
11
29.587507
21
12.200756
31
0
39
0
210
0
220
0
230
1
0
LINE
5
D0
100
AcDbEntity
8
1
62
256
6
ByLayer
370
13
48
1
60
0
100
AcDbLine
10
29.14904
20
11.799244
30
0
11
29.587507
21
11.799244
31
0
39
0
210
0
220
0
230
1
0
LINE
5
D1
100
AcDbEntity
8
1
62
256
6
ByLayer
370
13
48
1
60
0
100
AcDbLine
10
32.42193
20
11.108704
30
0
11
32.411268
21
11.411944
31
0
39
0
210
0
220
0
230
1
0
LINE
5
D2
100
AcDbEntity
8
1
62
256
6
ByLayer
370
13
48
1
60
0
100
AcDbLine
10
32.42193
20
12.891296
30
0
11
32.411268
21
12.588056
31
0
39
0
210
0
220
0
230
1
0
LINE
5
D3
100
AcDbEntity
8
1
62
256
6
ByLayer
370
13
48
1
60
0
100
AcDbLine
10
33.544165
20
11.42161
30
0
11
33.597026
21
11.42161
31
0
39
0
210
0
220
0
230
1
0
LINE
5
D4
100
AcDbEntity
8
1
62
256
6
ByLayer
370
13
48
1
60
0
100
AcDbLine
10
33.544165
20
12.57839
30
0
11
33.597026
21
12.57839
31
0
39
0
210
0
220
0
230
1
0
LINE
5
D5
100
AcDbEntity
8
1
62
256
6
ByLayer
370
13
48
1
60
0
100
AcDbLine
10
33.548049
20
11.26293
30
0
11
33.6
21
11.26293
31
0
39
0
210
0
220
0
230
1
0
LINE
5
D6
100
AcDbEntity
8
1
62
256
6
ByLayer
370
13
48
1
60
0
100
AcDbLine
10
33.597026
20
11.42161
30
0
11
33.597026
21
12.57839
31
0
39
0
210
0
220
0
230
1
0
LINE
5
D7
100
AcDbEntity
8
1
62
256
6
ByLayer
370
13
48
1
60
0
100
AcDbLine
10
33.548049
20
12.73707
30
0
11
33.6
21
12.73707
31
0
39
0
210
0
220
0
230
1
0
LINE
5
D8
100
AcDbEntity
8
1
62
256
6
ByLayer
370
13
48
1
60
0
100
AcDbLine
10
29.152254
20
12.197335
30
0
11
29.596489
21
12.197335
31
0
39
0
210
0
220
0
230
1
0
LINE
5
D9
100
AcDbEntity
8
1
62
256
6
ByLayer
370
13
48
1
60
0
100
AcDbLine
10
29.152254
20
11.802665
30
0
11
29.596489
21
11.802665
31
0
39
0
210
0
220
0
230
1
0
LINE
5
DA
100
AcDbEntity
8
1
62
256
6
ByLayer
370
13
48
1
60
0
100
AcDbLine
10
33.021373
20
12.589076
30
0
11
33.021373
21
11.410924
31
0
39
0
210
0
220
0
230
1
0
LINE
5
DB
100
AcDbEntity
8
1
62
256
6
ByLayer
370
13
48
1
60
0
100
AcDbLine
10
33.544165
20
12.57839
30
0
11
33.544165
21
11.42161
31
0
39
0
210
0
220
0
230
1
0
LINE
5
DC
100
AcDbEntity
8
1
62
256
6
ByLayer
370
13
48
1
60
0
100
AcDbLine
10
29.14904
20
11.799244
30
0
11
29.152254
21
11.802665
31
0
39
0
210
0
220
0
230
1
0
LINE
5
DD
100
AcDbEntity
8
1
62
256
6
ByLayer
370
13
48
1
60
0
100
AcDbLine
10
29.14904
20
12.200756
30
0
11
29.152254
21
12.197335
31
0
39
0
210
0
220
0
230
1
0
LINE
5
DE
100
AcDbEntity
8
1
62
256
6
ByLayer
370
13
48
1
60
0
100
AcDbLine
10
32.411268
20
12.588056
30
0
11
32.411268
21
11.411944
31
0
39
0
210
0
220
0
230
1
0
LINE
5
DF
100
AcDbEntity
8
1
62
256
6
ByLayer
370
13
48
1
60
0
100
AcDbLine
10
29.015588
20
12.251024
30
0
11
29.106333
21
12.251024
31
0
39
0
210
0
220
0
230
1
0
LINE
5
E0
100
AcDbEntity
8
1
62
256
6
ByLayer
370
13
48
1
60
0
100
AcDbLine
10
29.015595
20
11.799244
30
0
11
29.14904
21
11.799244
31
0
39
0
210
0
220
0
230
1
0
LINE
5
E1
100
AcDbEntity
8
1
62
256
6
ByLayer
370
13
48
1
60
0
100
AcDbLine
10
29.015588
20
11.748976
30
0
11
29.106333
21
11.748976
31
0
39
0
210
0
220
0
230
1
0
LINE
5
E2
100
AcDbEntity
8
1
62
256
6
ByLayer
370
13
48
1
60
0
100
AcDbLine
10
29.015595
20
12.200756
30
0
11
29.14904
21
12.200756
31
0
39
0
210
0
220
0
230
1
0
LINE
5
E3
100
AcDbEntity
8
1
62
256
6
ByLayer
370
13
48
1
60
0
100
AcDbLine
10
25.189581
20
13.25
30
0
11
25.145758
21
13.174998
31
0
39
0
210
0
220
0
230
1
0
LINE
5
E4
100
AcDbEntity
8
1
62
256
6
ByLayer
370
13
48
1
60
0
100
AcDbLine
10
29.015598
20
12.197335
30
0
11
29.152254
21
12.197335
31
0
39
0
210
0
220
0
230
1
0
LINE
5
E5
100
AcDbEntity
8
1
62
256
6
ByLayer
370
13
48
1
60
0
100
AcDbLine
10
29.015598
20
11.802665
30
0
11
29.152254
21
11.802665
31
0
39
0
210
0
220
0
230
1
0
LINE
5
E6
100
AcDbEntity
8
1
62
256
6
ByLayer
370
13
48
1
60
0
100
AcDbLine
10
23.7
20
13.223205
30
0
11
23.7
21
13.174965
31
0
39
0
210
0
220
0
230
1
0
LINE
5
E7
100
AcDbEntity
8
1
62
256
6
ByLayer
370
13
48
1
60
0
100
AcDbLine
10
23.7
20
10.825035
30
0
11
23.7
21
10.776795
31
0
39
0
210
0
220
0
230
1
0
LINE
5
E8
100
AcDbEntity
8
1
62
256
6
ByLayer
370
18
48
1
60
0
100
AcDbLine
10
24.890738
20
10.825
30
0
11
28.95928
21
10.825
31
0
39
0
210
0
220
0
230
1
0
LINE
5
E9
100
AcDbEntity
8
1
62
256
6
ByLayer
370
18
48
1
60
0
100
AcDbLine
10
19.890738
20
13.175
30
0
11
24.890738
21
13.175
31
0
39
0
210
0
220
0
230
1
0
LINE
5
EA
100
AcDbEntity
8
1
62
256
6
ByLayer
370
18
48
1
60
0
100
AcDbLine
10
7.6
20
10.825
30
0
11
19.890738
21
10.825
31
0
39
0
210
0
220
0
230
1
0
LINE
5
EB
100
AcDbEntity
8
1
62
256
6
ByLayer
370
18
48
1
60
0
100
AcDbLine
10
24.890738
20
13.175
30
0
11
28.95928
21
13.175
31
0
39
0
210
0
220
0
230
1
0
LINE
5
EC
100
AcDbEntity
8
1
62
256
6
ByLayer
370
18
48
1
60
0
100
AcDbLine
10
19.890738
20
10.825
30
0
11
24.890738
21
10.825
31
0
39
0
210
0
220
0
230
1
0
LINE
5
ED
100
AcDbEntity
8
1
62
256
6
ByLayer
370
18
48
1
60
0
100
AcDbLine
10
1.125279
20
13.175
30
0
11
19.890738
21
13.175
31
0
39
0
210
0
220
0
230
1
0
LINE
5
EE
100
AcDbEntity
8
1
62
256
6
ByLayer
370
18
48
1
60
0
100
AcDbLine
10
6
20
-10.213235
30
0
11
6
21
9.225
31
0
39
0
210
0
220
0
230
1
0
LINE
5
EF
100
AcDbEntity
8
1
62
256
6
ByLayer
370
18
48
1
60
0
100
AcDbLine
10
28.95928
20
13.175
30
0
11
29.015611
21
12.991569
31
0
39
0
210
0
220
0
230
1
0
LINE
5
F0
100
AcDbEntity
8
1
62
256
6
ByLayer
370
18
48
1
60
0
100
AcDbLine
10
29.015611
20
11.008431
30
0
11
29.015611
21
12.991569
31
0
39
0
210
0
220
0
230
1
0
LINE
5
F1
100
AcDbEntity
8
1
62
256
6
ByLayer
370
18
48
1
60
0
100
AcDbLine
10
29.015611
20
11.008431
30
0
11
28.95928
21
10.825
31
0
39
0
210
0
220
0
230
1
0
LINE
5
F2
100
AcDbEntity
8
1
62
256
6
ByLayer
370
18
48
1
60
0
100
AcDbLine
10
-116.4
20
-12.5
30
0
11
-116.4
21
12.375
31
0
39
0
210
0
220
0
230
1
0
LINE
5
F3
100
AcDbEntity
8
1
62
256
6
ByLayer
370
18
48
1
60
0
100
AcDbLine
10
1.125279
20
-12.518324
30
0
11
1.125279
21
13.175
31
0
39
0
210
0
220
0
230
1
0
LINE
5
F4
100
AcDbEntity
8
1
62
256
6
ByLayer
370
18
48
1
60
0
100
AcDbLine
10
0.157917
20
13.175
30
0
11
0.317758
21
13.175
31
0
39
0
210
0
220
0
230
1
0
LINE
5
F5
100
AcDbEntity
8
1
62
256
6
ByLayer
370
18
48
1
60
0
100
AcDbLine
10
0.317758
20
13.175
30
0
11
1.125279
21
13.175
31
0
39
0
210
0
220
0
230
1
0
LINE
5
F6
100
AcDbEntity
8
1
62
256
6
ByLayer
370
18
48
1
60
0
100
AcDbLine
10
-116.4
20
12.375
30
0
11
-1.227723
21
12.375
31
0
39
0
210
0
220
0
230
1
0
LINE
5
F7
100
AcDbEntity
8
1
62
256
6
ByLayer
370
18
48
1
60
0
100
AcDbLine
10
0.317758
20
-12.505174
30
0
11
1.125279
21
-12.518324
31
0
39
0
210
0
220
0
230
1
0
LINE
5
F8
100
AcDbEntity
8
1
62
256
6
ByLayer
370
18
48
1
60
0
100
AcDbLine
10
-116.4
20
-12.5
30
0
11
-1.227723
21
-12.5
31
0
39
0
210
0
220
0
230
1
0
LINE
5
F9
100
AcDbEntity
8
1
62
256
6
ByLayer
370
18
48
1
60
0
100
AcDbLine
10
2.97596
20
-12.518324
30
0
11
1.125279
21
-12.518324
31
0
39
0
210
0
220
0
230
1
0
LINE
5
FA
100
AcDbEntity
8
1
62
256
6
ByLayer
370
18
48
1
60
0
100
AcDbLine
10
6
20
-10.213235
30
0
11
2.97596
21
-12.518324
31
0
39
0
210
0
220
0
230
1
0
LINE
5
FB
100
AcDbEntity
8
1
62
256
6
ByLayer
370
18
48
1
60
0
100
AcDbLine
10
33.600117
20
12.764766
30
0
11
33.604691
21
13.305556
31
0
39
0
210
0
220
0
230
1
0
LINE
5
FC
100
AcDbEntity
8
1
62
256
6
ByLayer
370
18
48
1
60
0
100
AcDbLine
10
33.6
20
11.26293
30
0
11
33.6
21
12.73707
31
0
39
0
210
0
220
0
230
1
0
LINE
5
FD
100
AcDbEntity
8
1
62
256
6
ByLayer
370
18
48
1
60
0
100
AcDbLine
10
30.29752
20
13.307909
30
0
11
30.24436
21
13.277217
31
0
39
0
210
0
220
0
230
1
0
LINE
5
FE
100
AcDbEntity
8
1
62
256
6
ByLayer
370
18
48
1
60
0
100
AcDbLine
10
23.8
20
10.75
30
0
11
24.265685
21
10.75
31
0
39
0
210
0
220
0
230
1
0
LINE
5
FF
100
AcDbEntity
8
1
62
256
6
ByLayer
370
18
48
1
60
0
100
AcDbLine
10
25.189581
20
13.25
30
0
11
24.265685
21
13.25
31
0
39
0
210
0
220
0
230
1
0
LINE
5
100
100
AcDbEntity
8
1
62
256
6
ByLayer
370
18
48
1
60
0
100
AcDbLine
10
29.263912
20
10.75
30
0
11
29.987574
21
10.75
31
0
39
0
210
0
220
0
230
1
0
LINE
5
101
100
AcDbEntity
8
1
62
256
6
ByLayer
370
18
48
1
60
0
100
AcDbLine
10
24.265685
20
10.75
30
0
11
25.189581
21
10.75
31
0
39
0
210
0
220
0
230
1
0
LINE
5
102
100
AcDbEntity
8
1
62
256
6
ByLayer
370
18
48
1
60
0
100
AcDbLine
10
30.99812
20
13.3662
30
0
11
30.915472
21
13.366214
31
0
39
0
210
0
220
0
230
1
0
LINE
5
103
100
AcDbEntity
8
1
62
256
6
ByLayer
370
18
48
1
60
0
100
AcDbLine
10
30.395343
20
10.665009
30
0
11
30.737538
21
10.641081
31
0
39
0
210
0
220
0
230
1
0
LINE
5
104
100
AcDbEntity
8
1
62
256
6
ByLayer
370
18
48
1
60
0
100
AcDbLine
10
25.566112
20
13.25
30
0
11
25.247775
21
13.25
31
0
39
0
210
0
220
0
230
1
0
LINE
5
105
100
AcDbEntity
8
1
62
256
6
ByLayer
370
18
48
1
60
0
100
AcDbLine
10
33.135516
20
10.507825
30
0
11
33.395632
21
10.491796
31
0
39
0
210
0
220
0
230
1
0
LINE
5
106
100
AcDbEntity
8
1
62
256
6
ByLayer
370
18
48
1
60
0
100
AcDbLine
10
25.566112
20
10.75
30
0
11
28.98199
21
10.75
31
0
39
0
210
0
220
0
230
1
0
LINE
5
107
100
AcDbEntity
8
1
62
256
6
ByLayer
370
18
48
1
60
0
100
AcDbLine
10
29.987574
20
13.25
30
0
11
29.263912
21
13.25
31
0
39
0
210
0
220
0
230
1
0
LINE
5
108
100
AcDbEntity
8
1
62
256
6
ByLayer
370
18
48
1
60
0
100
AcDbLine
10
33.06476
20
13.487072
30
0
11
32.706077
21
13.457412
31
0
39
0
210
0
220
0
230
1
0
LINE
5
109
100
AcDbEntity
8
1
62
256
6
ByLayer
370
18
48
1
60
0
100
AcDbLine
10
28.98199
20
13.25
30
0
11
25.566112
21
13.25
31
0
39
0
210
0
220
0
230
1
0
LINE
5
10A
100
AcDbEntity
8
1
62
256
6
ByLayer
370
18
48
1
60
0
100
AcDbLine
10
30.153398
20
10.75
30
0
11
30.055978
21
10.75
31
0
39
0
210
0
220
0
230
1
0
LINE
5
10B
100
AcDbEntity
8
1
62
256
6
ByLayer
370
18
48
1
60
0
100
AcDbLine
10
25.247775
20
10.75
30
0
11
25.566112
21
10.75
31
0
39
0
210
0
220
0
230
1
0
LINE
5
10C
100
AcDbEntity
8
1
62
256
6
ByLayer
370
18
48
1
60
0
100
AcDbLine
10
30.055978
20
13.25
30
0
11
29.987574
21
13.25
31
0
39
0
210
0
220
0
230
1
0
LINE
5
10D
100
AcDbEntity
8
1
62
256
6
ByLayer
370
18
48
1
60
0
100
AcDbLine
10
33.395632
20
13.508204
30
0
11
33.135516
21
13.492175
31
0
39
0
210
0
220
0
230
1
0
LINE
5
10E
100
AcDbEntity
8
1
62
256
6
ByLayer
370
18
48
1
60
0
100
AcDbLine
10
32.058781
20
10.590215
30
0
11
32.358781
21
10.569133
31
0
39
0
210
0
220
0
230
1
0
LINE
5
10F
100
AcDbEntity
8
1
62
256
6
ByLayer
370
18
48
1
60
0
100
AcDbLine
10
30.254705
20
10.722882
30
0
11
30.309449
21
10.691276
31
0
39
0
210
0
220
0
230
1
0
LINE
5
110
100
AcDbEntity
8
1
62
256
6
ByLayer
370
18
48
1
60
0
100
AcDbLine
10
29.987574
20
10.75
30
0
11
30.055978
21
10.75
31
0
39
0
210
0
220
0
230
1
0
LINE
5
111
100
AcDbEntity
8
1
62
256
6
ByLayer
370
18
48
1
60
0
100
AcDbLine
10
32.706077
20
10.542588
30
0
11
33.06476
21
10.512928
31
0
39
0
210
0
220
0
230
1
0
LINE
5
112
100
AcDbEntity
8
1
62
256
6
ByLayer
370
18
48
1
60
0
100
AcDbLine
10
30.915472
20
10.633786
30
0
11
30.99812
21
10.6338
31
0
39
0
210
0
220
0
230
1
0
LINE
5
113
100
AcDbEntity
8
1
62
256
6
ByLayer
370
18
48
1
60
0
100
AcDbLine
10
29.172358
20
13.25
30
0
11
28.98199
21
13.25
31
0
39
0
210
0
220
0
230
1
0
LINE
5
114
100
AcDbEntity
8
1
62
256
6
ByLayer
370
18
48
1
60
0
100
AcDbLine
10
25.189581
20
10.75
30
0
11
25.235194
21
10.75
31
0
39
0
210
0
220
0
230
1
0
LINE
5
115
100
AcDbEntity
8
1
62
256
6
ByLayer
370
18
48
1
60
0
100
AcDbLine
10
32.358781
20
13.430867
30
0
11
32.058781
21
13.409785
31
0
39
0
210
0
220
0
230
1
0
LINE
5
116
100
AcDbEntity
8
1
62
256
6
ByLayer
370
18
48
1
60
0
100
AcDbLine
10
30.737538
20
13.358919
30
0
11
30.38336
21
13.334153
31
0
39
0
210
0
220
0
230
1
0
LINE
5
117
100
AcDbEntity
8
1
62
256
6
ByLayer
370
18
48
1
60
0
100
AcDbLine
10
29.263912
20
13.25
30
0
11
29.172358
21
13.25
31
0
39
0
210
0
220
0
230
1
0
LINE
5
118
100
AcDbEntity
8
1
62
256
6
ByLayer
370
18
48
1
60
0
100
AcDbLine
10
29.172358
20
10.75
30
0
11
29.263912
21
10.75
31
0
39
0
210
0
220
0
230
1
0
LINE
5
119
100
AcDbEntity
8
1
62
256
6
ByLayer
370
18
48
1
60
0
100
AcDbLine
10
25.235194
20
13.25
30
0
11
25.189581
21
13.25
31
0
39
0
210
0
220
0
230
1
0
LINE
5
11A
100
AcDbEntity
8
1
62
256
6
ByLayer
370
18
48
1
60
0
100
AcDbLine
10
33.604691
20
10.694444
30
0
11
33.600117
21
11.235234
31
0
39
0
210
0
220
0
230
1
0
LINE
5
11B
100
AcDbEntity
8
1
62
256
6
ByLayer
370
18
48
1
60
0
100
AcDbLine
10
30.055978
20
13.25
30
0
11
30.142652
21
13.25
31
0
39
0
210
0
220
0
230
1
0
LINE
5
11C
100
AcDbEntity
8
1
62
256
6
ByLayer
370
18
48
1
60
0
100
AcDbLine
10
28.98199
20
10.75
30
0
11
29.172358
21
10.75
31
0
39
0
210
0
220
0
230
1
0
LINE
5
11D
100
AcDbEntity
8
1
62
256
6
ByLayer
370
18
48
1
60
0
100
AcDbLine
10
24.265685
20
13.25
30
0
11
23.8
21
13.25
31
0
39
0
210
0
220
0
230
1
0
LINE
5
11E
100
AcDbEntity
8
SK2
62
256
6
ByLayer
370
13
48
1
60
0
100
AcDbLine
10
-126
20
12.5
30
0
11
-126
21
-12.5
31
0
39
0
210
0
220
0
230
1
0
LINE
5
120
100
AcDbEntity
8
SK2
62
256
6
ByLayer
370
13
48
1
60
0
100
AcDbLine
10
-118.4
20
-12.5
30
0
11
-128
21
-12.5
31
0
39
0
210
0
220
0
230
1
0
LINE
5
121
100
AcDbEntity
8
SK2
62
256
6
ByLayer
370
13
48
1
60
0
100
AcDbLine
10
-118.4
20
12.5
30
0
11
-128
21
12.5
31
0
39
0
210
0
220
0
230
1
0
LINE
5
122
100
AcDbEntity
8
SK2
62
256
6
ByLayer
370
18
48
1
60
0
100
AcDbLine
10
-126
20
-12.5
30
0
11
-126.417997
21
-9.325002
31
0
39
0
210
0
220
0
230
1
0
LINE
5
123
100
AcDbEntity
8
SK2
62
256
6
ByLayer
370
18
48
1
60
0
100
AcDbLine
10
-126
20
-12.5
30
0
11
-125.582003
21
-9.324998
31
0
39
0
210
0
220
0
230
1
0
LINE
5
124
100
AcDbEntity
8
SK2
62
256
6
ByLayer
370
18
48
1
60
0
100
AcDbLine
10
-126.417997
20
-9.325002
30
0
11
-125.582003
21
-9.324998
31
0
39
0
210
0
220
0
230
1
0
LINE
5
125
100
AcDbEntity
8
SK2
62
256
6
ByLayer
370
18
48
1
60
0
100
AcDbLine
10
-126
20
12.5
30
0
11
-125.582003
21
9.325002
31
0
39
0
210
0
220
0
230
1
0
LINE
5
126
100
AcDbEntity
8
SK2
62
256
6
ByLayer
370
18
48
1
60
0
100
AcDbLine
10
-126
20
12.5
30
0
11
-126.417997
21
9.324998
31
0
39
0
210
0
220
0
230
1
0
LINE
5
127
100
AcDbEntity
8
SK2
62
256
6
ByLayer
370
18
48
1
60
0
100
AcDbLine
10
-125.582003
20
9.325002
30
0
11
-126.417997
21
9.324998
31
0
39
0
210
0
220
0
230
1
0
MTEXT
5
213
100
AcDbEntity
8
SK6
62
256
6
ByLayer
370
18
48
1
60
0
100
AcDbMText
10
-73.025
20
-50.379878
30
0
210
0
220
0
230
1
1
\W0.7844;QD-RFG26-2525A
40
3.5
41
0
44
1.084337
50
0
71
7
72
5
7
iso_b_vert
0
MTEXT
5
217
100
AcDbEntity
8
SK2
62
256
6
ByLayer
370
18
48
1
60
0
100
AcDbMText
10
-126.875
20
-1.169737
30
0
210
0
220
0
230
1
1
\W0.6740;25
40
3.5
41
0
44
1.084337
50
89.9999999999999
71
7
72
5
7
iso_b_vert
0
DIMENSION
5
226
100
AcDbEntity
8
2
62
256
6
ByLayer
370
13
48
1
60
0
100
AcDbDimension
2
DimnDraft3D1
10
58.7
20
13.5
30
0
11
58.7
21
-1.590789
31
0
70
32
71
5
72
1
41
1
210
0
220
0
230
1
3
Standard
100
AcDbAlignedDimension
13
9.6
23
-12.5
33
0
14
35.6
24
13.5
34
0
50
90
100
AcDbRotatedDimension
1001
ACAD
1000
DSTYLE
1002
{
1070
    74
1070
     0
1070
   279
1070
     0
1070
   172
1070
     1
1070
   173
1070
     1
1070
   340
1005
214
1070
   271
1070
     1
1070
    77
1070
     1
1070
    73
1070
     0
1070
   171
1070
     3
1070
   274
1070
     4
1070
   177
1070
     2
1070
   176
1070
     2
1070
   178
1070
     7
1070
    78
1070
     8
1070
    41
1041
3.175
1070
   147
1041
1.75
1070
    42
1041
2.0
1070
    44
1041
2.0
1070
   140
1041
3.5
1070
   343
1005
227
1070
   344
1005
227
1002
}
0
DIMENSION
5
23B
100
AcDbEntity
8
SK2
62
256
6
ByLayer
370
13
48
1
60
0
100
AcDbDimension
2
DimnDraft3D2
10
33.6
20
36.108569
30
0
11
-44.361184
21
36.108569
31
0
70
32
71
5
72
1
41
1
210
0
220
0
230
1
3
Standard
100
AcDbAlignedDimension
13
-116.4
23
-10.5
33
0
14
33.6
24
15.5
34
0
50
0
100
AcDbRotatedDimension
1001
ACAD
1000
DSTYLE
1002
{
1070
   279
1070
     0
1070
   172
1070
     1
1070
   173
1070
     1
1070
   340
1005
214
1070
   271
1070
     1
1070
    77
1070
     1
1070
    73
1070
     0
1070
   171
1070
     3
1070
   274
1070
     4
1070
   177
1070
     2
1070
   176
1070
     2
1070
   178
1070
     7
1070
    78
1070
     8
1070
    41
1041
3.175
1070
   147
1041
1.75
1070
    42
1041
2.0
1070
    44
1041
2.0
1070
   140
1041
3.5
1070
   343
1005
227
1070
   344
1005
227
1002
}
0
DIMENSION
5
249
100
AcDbEntity
8
2
62
256
6
ByLayer
370
13
48
1
60
0
100
AcDbDimension
2
DimnDraft3D3
10
33.6
20
30.108569
30
0
11
12.692105
21
30.108569
31
0
70
32
71
5
72
1
41
1
210
0
220
0
230
1
3
Standard
100
AcDbAlignedDimension
13
0
23
14.5
33
0
14
33.6
24
15.5
34
0
50
0
100
AcDbRotatedDimension
1001
ACAD
1000
DSTYLE
1002
{
1070
   279
1070
     0
1070
   172
1070
     1
1070
   173
1070
     1
1070
   340
1005
214
1070
   271
1070
     1
1070
    77
1070
     1
1070
    73
1070
     0
1070
   171
1070
     3
1070
   274
1070
     4
1070
   177
1070
     2
1070
   176
1070
     2
1070
   178
1070
     7
1070
    78
1070
     8
1070
    41
1041
3.175
1070
   147
1041
1.75
1070
    42
1041
2.0
1070
    44
1041
2.0
1070
   140
1041
3.5
1070
   343
1005
227
1070
   344
1005
227
1002
}
0
DIMENSION
5
257
100
AcDbEntity
8
2
62
256
6
ByLayer
370
13
48
1
60
0
100
AcDbDimension
2
DimnDraft3D4
10
7.6
20
-25.618324
30
0
11
18.509211
21
-25.618324
31
0
70
32
71
5
72
1
41
1
210
0
220
0
230
1
3
Standard
100
AcDbAlignedDimension
13
33.6
23
11.5
33
0
14
7.6
24
-14.5
34
0
50
0
100
AcDbRotatedDimension
1001
ACAD
1000
DSTYLE
1002
{
1070
   279
1070
     0
1070
   172
1070
     1
1070
   173
1070
     1
1070
   340
1005
214
1070
   271
1070
     1
1070
    77
1070
     1
1070
    73
1070
     0
1070
   171
1070
     3
1070
   274
1070
     4
1070
   177
1070
     2
1070
   176
1070
     2
1070
   178
1070
     7
1070
    78
1070
     8
1070
    41
1041
3.175
1070
   147
1041
1.75
1070
    42
1041
2.0
1070
    44
1041
2.0
1070
   140
1041
3.5
1070
   343
1005
227
1070
   344
1005
227
1002
}
0
DIMENSION
5
265
100
AcDbEntity
8
2
62
256
6
ByLayer
370
13
48
1
60
0
100
AcDbDimension
2
DimnDraft3D5
10
51.7
20
10.5
30
0
11
51.7
21
-1.320789
31
0
70
32
71
5
72
1
41
1
210
0
220
0
230
1
3
Standard
100
AcDbAlignedDimension
13
35.6
23
13.5
33
0
14
35.6
24
10.5
34
0
50
90
100
AcDbRotatedDimension
1001
ACAD
1000
DSTYLE
1002
{
1070
    74
1070
     0
1070
   279
1070
     0
1070
   172
1070
     1
1070
   173
1070
     1
1070
   340
1005
214
1070
   271
1070
     1
1070
    77
1070
     1
1070
    73
1070
     0
1070
   171
1070
     3
1070
   274
1070
     4
1070
   177
1070
     2
1070
   176
1070
     2
1070
   178
1070
     7
1070
    78
1070
     8
1070
    41
1041
3.175
1070
   147
1041
1.75
1070
    42
1041
2.0
1070
    44
1041
2.0
1070
   140
1041
3.5
1070
   343
1005
227
1070
   344
1005
227
1002
}
0
ENDSEC
0
SECTION
2
OBJECTS
0
DICTIONARY
5
2cf
330
0
100
AcDbDictionary
280
0
281
1
3
ACAD_GROUP
350
2d0
3
ACAD_MLINESTYLE
350
2d1
0
DICTIONARY
5
2d0
330
0
100
AcDbDictionary
280
0
281
1
0
DICTIONARY
5
2d1
330
0
100
AcDbDictionary
280
0
281
1
3
Standard
350
18
0
MLINESTYLE
5
18
330
2d1
100
AcDbMlineStyle
2
Standard
70
0
3

62
256
51
90
52
90
71
2
49
-0.5
62
256
6
ByLayer
49
0.5
62
256
6
ByLayer
0
RASTERVARIABLES
5
2be
330

100
AcDbRasterVariables
90
0
70
1
71
1
72
1
0
ENDSEC
0
EOF
