0
SECTION
2
HEADER
9
$ACADVER
1
AC1015
9
$DWGCODEPAGE
3
ANSI_1252
9
$HANDSEED
5
28f
9
$ANGBASE
50
0
9
$ANGDIR
70
0
9
$ATTMODE
70
1
9
$AUNITS
70
0
9
$AUPREC
70
0
9
$CECOLOR
62
256
9
$CELTSCALE
40
1
9
$CELTYPE
6
ByLayer
9
$CELWEIGHT
370
18
9
$CLAYER
8
0
9
$CMLJUST
70
0
9
$CMLSCALE
40
1
9
$CMLSTYLE
2
Standard
9
$DIMSTYLE
2
Standard
9
$TEXTSIZE
40
0.2
9
$TEXTSTYLE
7
Standard
9
$LUNITS
70
2
9
$LUPREC
70
4
9
$EXTNAMES
290
1
9
$INSUNITS
70
4
9
$LTSCALE
40
1
9
$LWDISPLAY
290
1
9
$PDMODE
70
0
9
$PDSIZE
40
0
9
$PLINEGEN
70
0
0
ENDSEC
0
SECTION
2
CLASSES
0
CLASS
1
RASTERVARIABLES
2
AcDbRasterVariables
3
ISM
90
0
280
0
281
0
0
ENDSEC
0
SECTION
2
TABLES
0
TABLE
2
VPORT
5
285
100
AcDbSymbolTable
0
VPORT
5
1
100
AcDbSymbolTableRecord
100
AcDbViewportTableRecord
2
*Active
70
0
10
0
20
0
11
1
21
1
12
-1
22
1
13
0
23
0
14
0.5
24
0.5
15
10
25
10
16
0
26
0
36
1
17
0
27
0
37
0
0
ENDTAB
0
TABLE
2
LTYPE
5
286
100
AcDbSymbolTable
0
LTYPE
5
14
100
AcDbSymbolTableRecord
100
AcDbLinetypeTableRecord
70
0
2
ByBlock
3

72
65
73
0
40
0
0
LTYPE
5
15
100
AcDbSymbolTableRecord
100
AcDbLinetypeTableRecord
70
0
2
ByLayer
3

72
65
73
0
40
0
0
LTYPE
5
16
100
AcDbSymbolTableRecord
100
AcDbLinetypeTableRecord
70
0
2
CONTINUOUS
3
Solid line
72
65
73
0
40
0
0
LTYPE
5
6A
100
AcDbSymbolTableRecord
100
AcDbLinetypeTableRecord
70
0
2
CENTER
3
____ _ ____ _ ____ _ ____
72
65
73
4
40
47.5
49
22
74
0
49
-8.5
74
0
49
8.5
74
0
49
-8.5
74
0
0
LTYPE
5
6B
100
AcDbSymbolTableRecord
100
AcDbLinetypeTableRecord
70
0
2
DASHED
3
__ __ __ __ __ __ __ __ __
72
65
73
2
40
25.72
49
12.86
74
0
49
-12.86
74
0
0
ENDTAB
0
TABLE
2
LAYER
5
287
100
AcDbSymbolTable
0
LAYER
5
10
100
AcDbSymbolTableRecord
100
AcDbLayerTableRecord
2
0
70
0
62
7
6
CONTINUOUS
290
1
370
-3
390
0
0
LAYER
5
6D
100
AcDbSymbolTableRecord
100
AcDbLayerTableRecord
2
81
70
0
62
-3
6
CONTINUOUS
290
1
370
-3
390
0
0
LAYER
5
6F
100
AcDbSymbolTableRecord
100
AcDbLayerTableRecord
2
80
70
0
62
-6
6
CONTINUOUS
290
1
370
-3
390
0
0
LAYER
5
73
100
AcDbSymbolTableRecord
100
AcDbLayerTableRecord
2
1
70
0
62
4
6
CONTINUOUS
290
1
370
-3
390
0
0
LAYER
5
103
100
AcDbSymbolTableRecord
100
AcDbLayerTableRecord
2
2
70
0
62
7
6
CONTINUOUS
290
1
370
-3
390
0
0
LAYER
5
272
100
AcDbSymbolTableRecord
100
AcDbLayerTableRecord
2
SK1
70
0
62
4
6
CONTINUOUS
290
1
370
-3
390
0
0
LAYER
5
273
100
AcDbSymbolTableRecord
100
AcDbLayerTableRecord
2
SK2
70
0
62
7
6
CONTINUOUS
290
1
370
-3
390
0
0
LAYER
5
274
100
AcDbSymbolTableRecord
100
AcDbLayerTableRecord
2
SK6
70
0
62
5
6
CONTINUOUS
290
1
370
-3
390
0
0
ENDTAB
0
TABLE
2
STYLE
5
288
100
AcDbSymbolTable
0
STYLE
5
11
100
AcDbSymbolTableRecord
100
AcDbTextStyleTableRecord
2
Standard
3
txt
70
0
71
0
40
0
41
1
42
0
50
0
0
STYLE
5
1F1
100
AcDbSymbolTableRecord
100
AcDbTextStyleTableRecord
2
iso_b_vert
3
simplex.shx
70
0
71
0
40
0
41
1
42
0
50
0
0
STYLE
5
1F2
100
AcDbSymbolTableRecord
100
AcDbTextStyleTableRecord
2
DWGDirectTextStyle
3
simplex
70
0
71
0
40
0
41
1
42
0
50
0
0
ENDTAB
0
TABLE
2
DIMSTYLE
5
289
100
AcDbSymbolTable
100
AcDbDimStyleTable
0
DIMSTYLE
105
27
100
AcDbSymbolTableRecord
100
AcDbDimStyleTableRecord
2
Standard
70
0
3
<>
41
0.18
42
0.0625
44
0.18
140
0.18
147
0.09
73
0
74
0
77
1
271
2
275
0
278
52
280
0
340
11
0
ENDTAB
0
TABLE
2
VIEW
5
28a
100
AcDbSymbolTable
0
ENDTAB
0
TABLE
2
UCS
5
28b
100
AcDbSymbolTable
0
ENDTAB
0
TABLE
2
APPID
5
28c
100
AcDbSymbolTable
0
APPID
5
12
100
AcDbSymbolTableRecord
100
AcDbRegAppTableRecord
2
ACAD
70
0
0
ENDTAB
0
TABLE
2
BLOCK_RECORD
5
28d
100
AcDbSymbolTable
0
BLOCK_RECORD
5
1F
100
AcDbSymbolTableRecord
100
AcDbBlockTableRecord
2
*Model_Space
340
0
70
0
0
BLOCK_RECORD
5
1B
100
AcDbSymbolTableRecord
100
AcDbBlockTableRecord
2
*Paper_Space
340
0
70
0
0
BLOCK_RECORD
5
23
100
AcDbSymbolTableRecord
100
AcDbBlockTableRecord
2
*Paper_Space0
340
0
70
0
0
BLOCK_RECORD
5
1F6
100
AcDbSymbolTableRecord
100
AcDbBlockTableRecord
2
DimnDraft3D1
340
0
70
0
0
BLOCK_RECORD
5
204
100
AcDbSymbolTableRecord
100
AcDbBlockTableRecord
2
_CLOSED
340
0
70
0
0
BLOCK_RECORD
5
20B
100
AcDbSymbolTableRecord
100
AcDbBlockTableRecord
2
DimnDraft3D2
340
0
70
0
0
ENDTAB
0
ENDSEC
0
SECTION
2
BLOCKS
0
BLOCK
5
20
100
AcDbEntity
8
0
100
AcDbBlockBegin
2
*Model_Space
70
0
10
0
20
0
30
0
3
*Model_Space
0
ENDBLK
5
21
100
AcDbEntity
8
0
100
AcDbBlockEnd
0
BLOCK
5
1C
100
AcDbEntity
8
0
100
AcDbBlockBegin
2
*Paper_Space
70
0
10
0
20
0
30
0
3
*Paper_Space
0
ENDBLK
5
1D
100
AcDbEntity
8
0
100
AcDbBlockEnd
0
BLOCK
5
24
100
AcDbEntity
8
0
100
AcDbBlockBegin
2
*Paper_Space0
70
0
10
0
20
0
30
0
3
*Paper_Space0
0
ENDBLK
5
25
100
AcDbEntity
8
0
100
AcDbBlockEnd
0
BLOCK
5
201
100
AcDbEntity
8
0
100
AcDbBlockBegin
2
DimnDraft3D1
70
0
10
0
20
0
30
0
3
DimnDraft3D1
0
MTEXT
5
1F7
100
AcDbEntity
8
SK2
62
256
6
ByLayer
370
18
48
1
60
0
100
AcDbMText
10
-20.648684
20
23.725889
30
0
210
0
220
0
230
1
1
\W0.5296;110
40
3.5
41
0
44
1.084337
50
0
71
7
72
5
7
iso_b_vert
0
LINE
5
1F8
100
AcDbEntity
8
SK2
62
256
6
ByLayer
370
13
48
1
60
0
100
AcDbLine
10
-74
20
-0.35
30
0
11
-74
21
24.850889
31
0
39
0
210
0
220
0
230
1
0
LINE
5
1F9
100
AcDbEntity
8
SK2
62
256
6
ByLayer
370
13
48
1
60
0
100
AcDbLine
10
36
20
2
30
0
11
36
21
24.850889
31
0
39
0
210
0
220
0
230
1
0
LINE
5
1FA
100
AcDbEntity
8
SK2
62
256
6
ByLayer
370
13
48
1
60
0
100
AcDbLine
10
-74
20
22.850889
30
0
11
36
21
22.850889
31
0
39
0
210
0
220
0
230
1
0
LINE
5
1FB
100
AcDbEntity
8
SK2
62
256
6
ByLayer
370
13
48
1
60
0
100
AcDbLine
10
-74
20
22.850889
30
0
11
-70.825002
21
23.268886
31
0
39
0
210
0
220
0
230
1
0
LINE
5
1FC
100
AcDbEntity
8
SK2
62
256
6
ByLayer
370
13
48
1
60
0
100
AcDbLine
10
-74
20
22.850889
30
0
11
-70.824998
21
22.432892
31
0
39
0
210
0
220
0
230
1
0
LINE
5
1FD
100
AcDbEntity
8
SK2
62
256
6
ByLayer
370
13
48
1
60
0
100
AcDbLine
10
-70.825002
20
23.268886
30
0
11
-70.824998
21
22.432892
31
0
39
0
210
0
220
0
230
1
0
LINE
5
1FE
100
AcDbEntity
8
SK2
62
256
6
ByLayer
370
13
48
1
60
0
100
AcDbLine
10
36
20
22.850889
30
0
11
32.825002
21
22.432892
31
0
39
0
210
0
220
0
230
1
0
LINE
5
1FF
100
AcDbEntity
8
SK2
62
256
6
ByLayer
370
13
48
1
60
0
100
AcDbLine
10
36
20
22.850889
30
0
11
32.824998
21
23.268886
31
0
39
0
210
0
220
0
230
1
0
LINE
5
200
100
AcDbEntity
8
SK2
62
256
6
ByLayer
370
13
48
1
60
0
100
AcDbLine
10
32.825002
20
22.432892
30
0
11
32.824998
21
23.268886
31
0
39
0
210
0
220
0
230
1
0
ENDBLK
5
202
100
AcDbEntity
8
0
100
AcDbBlockEnd
0
BLOCK
5
205
100
AcDbEntity
8
0
100
AcDbBlockBegin
2
_CLOSED
70
0
10
0
20
0
30
0
3
_CLOSED
0
LINE
5
207
100
AcDbEntity
8
0
62
256
6
ByLayer
370
-2
48
1
60
0
100
AcDbLine
10
-1
20
0.166667
30
0
11
0
21
0
31
0
39
0
210
0
220
0
230
1
0
LINE
5
208
100
AcDbEntity
8
0
62
256
6
ByLayer
370
-2
48
1
60
0
100
AcDbLine
10
0
20
0
30
0
11
-1
21
-0.166667
31
0
39
0
210
0
220
0
230
1
0
LINE
5
209
100
AcDbEntity
8
0
62
256
6
ByLayer
370
-2
48
1
60
0
100
AcDbLine
10
-1
20
0.166667
30
0
11
-1
21
-0.166667
31
0
39
0
210
0
220
0
230
1
0
LINE
5
20A
100
AcDbEntity
8
0
62
256
6
ByLayer
370
-2
48
1
60
0
100
AcDbLine
10
0
20
0
30
0
11
-1
21
0
31
0
39
0
210
0
220
0
230
1
0
ENDBLK
5
206
100
AcDbEntity
8
0
100
AcDbBlockEnd
0
BLOCK
5
216
100
AcDbEntity
8
0
100
AcDbBlockBegin
2
DimnDraft3D2
70
0
10
0
20
0
30
0
3
DimnDraft3D2
0
MTEXT
5
20C
100
AcDbEntity
8
2
62
256
6
ByLayer
370
18
48
1
60
0
100
AcDbMText
10
18.284211
20
-14.725
30
0
210
0
220
0
230
1
1
\W0.6740;33
40
3.5
41
0
44
1.084337
50
0
71
7
72
5
7
iso_b_vert
0
LINE
5
20D
100
AcDbEntity
8
2
62
256
6
ByLayer
370
13
48
1
60
0
100
AcDbLine
10
36
20
-2
30
0
11
36
21
-17.6
31
0
39
0
210
0
220
0
230
1
0
LINE
5
20E
100
AcDbEntity
8
2
62
256
6
ByLayer
370
13
48
1
60
0
100
AcDbLine
10
3
20
-4.35
30
0
11
3
21
-17.6
31
0
39
0
210
0
220
0
230
1
0
LINE
5
20F
100
AcDbEntity
8
2
62
256
6
ByLayer
370
13
48
1
60
0
100
AcDbLine
10
36
20
-15.6
30
0
11
3
21
-15.6
31
0
39
0
210
0
220
0
230
1
0
LINE
5
210
100
AcDbEntity
8
2
62
256
6
ByLayer
370
13
48
1
60
0
100
AcDbLine
10
36
20
-15.6
30
0
11
32.825002
21
-16.017997
31
0
39
0
210
0
220
0
230
1
0
LINE
5
211
100
AcDbEntity
8
2
62
256
6
ByLayer
370
13
48
1
60
0
100
AcDbLine
10
36
20
-15.6
30
0
11
32.824998
21
-15.182003
31
0
39
0
210
0
220
0
230
1
0
LINE
5
212
100
AcDbEntity
8
2
62
256
6
ByLayer
370
13
48
1
60
0
100
AcDbLine
10
32.825002
20
-16.017997
30
0
11
32.824998
21
-15.182003
31
0
39
0
210
0
220
0
230
1
0
LINE
5
213
100
AcDbEntity
8
2
62
256
6
ByLayer
370
13
48
1
60
0
100
AcDbLine
10
3
20
-15.6
30
0
11
6.174998
21
-15.182003
31
0
39
0
210
0
220
0
230
1
0
LINE
5
214
100
AcDbEntity
8
2
62
256
6
ByLayer
370
13
48
1
60
0
100
AcDbLine
10
3
20
-15.6
30
0
11
6.175002
21
-16.017997
31
0
39
0
210
0
220
0
230
1
0
LINE
5
215
100
AcDbEntity
8
2
62
256
6
ByLayer
370
13
48
1
60
0
100
AcDbLine
10
6.174998
20
-15.182003
30
0
11
6.175002
21
-16.017997
31
0
39
0
210
0
220
0
230
1
0
ENDBLK
5
217
100
AcDbEntity
8
0
100
AcDbBlockEnd
0
ENDSEC
0
SECTION
2
ENTITIES
0
ARC
5
10C
100
AcDbEntity
8
1
62
256
6
ByLayer
370
18
48
1
60
0
100
AcDbCircle
39
0
10
-3
20
-3.6
30
0
40
1.60000000000361
210
0
220
0
230
-1
100
AcDbArc
50
51.375167
51
90
0
ELLIPSE
5
10D
100
AcDbEntity
8
1
62
256
6
ByLayer
370
18
48
1
60
0
100
AcDbEllipse
10
31.433236
20
-1
30
0
11
-3.67381906146731E-17
21
0.600000000000029
31
0
210
0
220
0
230
-1
40
0.087156
41
-2.79781155762739
42
-0.343781095962411
0
ELLIPSE
5
10E
100
AcDbEntity
8
1
62
256
6
ByLayer
370
18
48
1
60
0
100
AcDbEllipse
10
22.290738
20
36.558127
30
0
11
-2.2851465657644E-15
21
37.3205080739905
31
0
210
0
220
0
230
-1
40
0.267949
41
2.93911863866931
42
3.14159265358979
0
ELLIPSE
5
10F
100
AcDbEntity
8
1
62
256
6
ByLayer
370
18
48
1
60
0
100
AcDbEllipse
10
22.290738
20
-38.908127
30
0
11
-2.285146565745E-15
21
37.3205080736736
31
0
210
0
220
0
230
-1
40
0.267949
41
0
42
0.148795965700417
0
ELLIPSE
5
110
100
AcDbEntity
8
1
62
256
6
ByLayer
370
18
48
1
60
0
100
AcDbEllipse
10
14.6
20
46.929041
30
0
11
-2.97069053585123E-15
21
48.5166605020263
31
0
210
0
220
0
230
-1
40
0.267949
41
3.14159265358979
42
-3.01108002358619
0
ELLIPSE
5
111
100
AcDbEntity
8
1
62
256
6
ByLayer
370
18
48
1
60
0
100
AcDbEllipse
10
14.6
20
-49.279041
30
0
11
-2.97069053568299E-15
21
48.5166604992786
31
0
210
0
220
0
230
-1
40
0.267949
41
-0.130512630007312
42
-1.09314345543514E-15
0
ELLIPSE
5
112
100
AcDbEntity
8
1
62
256
6
ByLayer
370
18
48
1
60
0
100
AcDbEllipse
10
31.002042
20
-1
30
0
11
1.22702733225074
21
1.24008174362612E-15
31
0
210
0
220
0
230
-1
40
0.488987
41
1.22701523083262
42
-1.22701523083264
0
ELLIPSE
5
113
100
AcDbEntity
8
1
62
256
6
ByLayer
370
13
48
1
60
0
100
AcDbEllipse
10
34.558781
20
-2.04974
30
0
11
0.01872883045826
21
0.23926811511287
31
0
210
0
220
0
230
1
40
0.005457
41
0.689493843859815
42
1.50119639836352
0
ELLIPSE
5
114
100
AcDbEntity
8
1
62
256
6
ByLayer
370
13
48
1
60
0
100
AcDbEllipse
10
33.328622
20
-1.945286
30
0
11
-0.0140720258040038
21
0.239587099172246
31
0
210
0
220
0
230
1
40
0.707947
41
-1.56290533331169
42
-0.878776813451947
0
ELLIPSE
5
115
100
AcDbEntity
8
1
62
256
6
ByLayer
370
13
48
1
60
0
100
AcDbEllipse
10
34.558781
20
0.04974
30
0
11
0.01872883045826
21
-0.23926811511287
31
0
210
0
220
0
230
1
40
0.005457
41
-1.5011963983635
42
-0.689493843868005
0
ELLIPSE
5
116
100
AcDbEntity
8
1
62
256
6
ByLayer
370
13
48
1
60
0
100
AcDbEllipse
10
33.328622
20
-0.054714
30
0
11
-0.014072025804004
21
-0.239587099172246
31
0
210
0
220
0
230
1
40
0.707947
41
0.878776813451831
42
1.56290533331169
0
ELLIPSE
5
117
100
AcDbEntity
8
1
62
256
6
ByLayer
370
13
48
1
60
0
100
AcDbEllipse
10
32.43649
20
-1.758586
30
0
11
0.0157922723779912
21
-0.299835837393106
31
0
210
0
220
0
230
-1
40
0.9154
41
-2.6673719520559
42
-1.47753833586018
0
ELLIPSE
5
118
100
AcDbEntity
8
1
62
256
6
ByLayer
370
13
48
1
60
0
100
AcDbEllipse
10
32.43649
20
-0.241414
30
0
11
0.0157922723854235
21
0.299835837391082
31
0
210
0
220
0
230
-1
40
0.9154
41
1.47753833583196
42
2.66737195203317
0
ELLIPSE
5
119
100
AcDbEntity
8
1
62
256
6
ByLayer
370
13
48
1
60
0
100
AcDbEllipse
10
33.225674
20
-0.052415
30
0
11
0.108797387019834
21
0.213923183824607
31
0
210
0
220
0
230
1
40
0.678268
41
-1.85056859826447
42
-1.29102409435776
0
ELLIPSE
5
11A
100
AcDbEntity
8
1
62
256
6
ByLayer
370
13
48
1
60
0
100
AcDbEllipse
10
33.225674
20
-1.947585
30
0
11
0.108797387019834
21
-0.213923183824607
31
0
210
0
220
0
230
1
40
0.678268
41
1.29102409435773
42
1.8505685982645
0
ELLIPSE
5
11B
100
AcDbEntity
8
1
62
256
6
ByLayer
370
13
48
1
60
0
100
AcDbEllipse
10
33.015335
20
-1.761523
30
0
11
0.218929773670482
21
0.120705236839962
31
0
210
0
220
0
230
1
40
0.451067
41
0.609381009277236
42
1.29921470224124
0
ELLIPSE
5
11C
100
AcDbEntity
8
1
62
256
6
ByLayer
370
13
48
1
60
0
100
AcDbEllipse
10
33.015335
20
-0.238477
30
0
11
-0.218929773670478
21
0.120705236839969
31
0
210
0
220
0
230
1
40
0.451067
41
1.84237795134864
42
2.53221164431264
0
ELLIPSE
5
11D
100
AcDbEntity
8
1
62
256
6
ByLayer
370
13
48
1
60
0
100
AcDbEllipse
10
32.970529
20
-1
30
0
11
1.42452172478571
21
1.43967728988173E-15
31
0
210
0
220
0
230
-1
40
0.350995
41
-2.25836112864632
42
-1.9547687622322
0
ELLIPSE
5
11E
100
AcDbEntity
8
1
62
256
6
ByLayer
370
13
48
1
60
0
100
AcDbEllipse
10
32.970529
20
-1
30
0
11
1.42452172481663
21
1.43967728991298E-15
31
0
210
0
220
0
230
-1
40
0.350995
41
1.9547687622316
42
2.25836112863832
0
ELLIPSE
5
11F
100
AcDbEntity
8
1
62
256
6
ByLayer
370
13
48
1
60
0
100
AcDbEllipse
10
32.368086
20
-0.241414
30
0
11
0.274689327593313
21
0.0155897448652477
31
0
210
0
220
0
230
-1
40
0.363396
41
0.0206212699768859
42
1.21045488617544
0
ELLIPSE
5
120
100
AcDbEntity
8
1
62
256
6
ByLayer
370
13
48
1
60
0
100
AcDbEllipse
10
32.538645
20
-0.329328
30
0
11
-0.0383160393775672
21
0.196295392524676
31
0
210
0
220
0
230
1
40
0.336408
41
1.5052250622305
42
2.7357139470445
0
ELLIPSE
5
121
100
AcDbEntity
8
1
62
256
6
ByLayer
370
13
48
1
60
0
100
AcDbEllipse
10
32.368086
20
-1.758586
30
0
11
0.274689327591885
21
-0.0155897448654296
31
0
210
0
220
0
230
-1
40
0.363396
41
-1.2104548861793
42
-0.0206212699772844
0
ELLIPSE
5
122
100
AcDbEntity
8
1
62
256
6
ByLayer
370
13
48
1
60
0
100
AcDbEllipse
10
32.538645
20
-1.670672
30
0
11
-0.038316039377568
21
-0.196295392524676
31
0
210
0
220
0
230
1
40
0.336408
41
-2.73571394704451
42
-1.5052250622305
0
ELLIPSE
5
123
100
AcDbEntity
8
1
62
256
6
ByLayer
370
13
48
1
60
0
100
AcDbEllipse
10
32.902124
20
-1
30
0
11
1.44889559359717
21
1.46431047362604E-15
31
0
210
0
220
0
230
-1
40
0.483127
41
-2.25836112861004
42
-1.95476876222693
0
ELLIPSE
5
124
100
AcDbEntity
8
1
62
256
6
ByLayer
370
13
48
1
60
0
100
AcDbEllipse
10
32.902124
20
-1
30
0
11
1.44889559340983
21
1.46431047343671E-15
31
0
210
0
220
0
230
-1
40
0.483127
41
1.95476876223649
42
2.25836112866445
0
ELLIPSE
5
125
100
AcDbEntity
8
1
62
256
6
ByLayer
370
13
48
1
60
0
100
AcDbEllipse
10
33.227398
20
-1.947216
30
0
11
0.00548700145360604
21
0.239937268499598
31
0
210
0
220
0
230
1
40
0.706448
41
-1.50523037236397
42
-0.849098397829147
0
ELLIPSE
5
126
100
AcDbEntity
8
1
62
256
6
ByLayer
370
13
48
1
60
0
100
AcDbEllipse
10
33.227398
20
-0.052784
30
0
11
0.00548700145360587
21
-0.239937268499598
31
0
210
0
220
0
230
1
40
0.706448
41
0.849098397829147
42
1.50523037236397
0
ELLIPSE
5
127
100
AcDbEntity
8
1
62
256
6
ByLayer
370
13
48
1
60
0
100
AcDbEllipse
10
32.427763
20
-1.649029
30
0
11
-0.038316039377568
21
-0.196295392524676
31
0
210
0
220
0
230
1
40
0.336408
41
-2.73571394704432
42
-1.50522506223053
0
ELLIPSE
5
128
100
AcDbEntity
8
1
62
256
6
ByLayer
370
13
48
1
60
0
100
AcDbEllipse
10
32.427763
20
-0.350971
30
0
11
-0.0383160393775672
21
0.196295392524676
31
0
210
0
220
0
230
1
40
0.336408
41
1.5052250622305
42
2.73571394704412
0
ELLIPSE
5
129
100
AcDbEntity
8
1
62
256
6
ByLayer
370
13
48
1
60
0
100
AcDbEllipse
10
33.04569
20
-1.741747
30
0
11
-0.199155198215831
21
0.224359548545661
31
0
210
0
220
0
230
1
40
0.867907
41
-1.48925493040504
42
-0.845841420110056
0
ELLIPSE
5
12A
100
AcDbEntity
8
1
62
256
6
ByLayer
370
13
48
1
60
0
100
AcDbEllipse
10
32.050977
20
-1.540956
30
0
11
-0.073759863887595
21
-0.185901808703636
31
0
210
0
220
0
230
1
40
0.32047
41
-2.41409938327884
42
-1.44432262990159
0
ELLIPSE
5
12B
100
AcDbEntity
8
1
62
256
6
ByLayer
370
13
48
1
60
0
100
AcDbEllipse
10
32.050977
20
-0.459044
30
0
11
-0.0737598638875999
21
0.185901808703635
31
0
210
0
220
0
230
1
40
0.32047
41
1.44432262990152
42
2.41409938327879
0
ELLIPSE
5
12C
100
AcDbEntity
8
1
62
256
6
ByLayer
370
13
48
1
60
0
100
AcDbEllipse
10
33.04569
20
-0.258253
30
0
11
-0.199155198215837
21
-0.224359548545656
31
0
210
0
220
0
230
1
40
0.867907
41
0.845841420110088
42
1.48925493040509
0
ELLIPSE
5
12D
100
AcDbEntity
8
1
62
256
6
ByLayer
370
13
48
1
60
0
100
AcDbEllipse
10
34.248298
20
-1.38002
30
0
11
-0.11829996020908
21
-0.382106162492219
31
0
210
0
220
0
230
1
40
0.046276
41
-1.55647013370581
42
-0.635362849072007
0
ELLIPSE
5
12E
100
AcDbEntity
8
1
62
256
6
ByLayer
370
13
48
1
60
0
100
AcDbEllipse
10
34.248298
20
-0.61998
30
0
11
-0.11829996020908
21
0.382106162492219
31
0
210
0
220
0
230
1
40
0.046276
41
0.635362849071982
42
1.55647013370581
0
ELLIPSE
5
12F
100
AcDbEntity
8
1
62
256
6
ByLayer
370
13
48
1
60
0
100
AcDbEllipse
10
31.957016
20
-1.572024
30
0
11
0.179591653469728
21
-0.0880161235456845
31
0
210
0
220
0
230
1
40
0.15816
41
-2.67666253996289
42
-1.88296142475572
0
ELLIPSE
5
130
100
AcDbEntity
8
1
62
256
6
ByLayer
370
13
48
1
60
0
100
AcDbEllipse
10
31.957016
20
-0.427976
30
0
11
0.179591653469724
21
0.088016123545693
31
0
210
0
220
0
230
1
40
0.15816
41
1.88296142475581
42
2.67666253996303
0
ELLIPSE
5
131
100
AcDbEntity
8
1
62
256
6
ByLayer
370
13
48
1
60
0
100
AcDbEllipse
10
33.092262
20
-0.377343
30
0
11
-0.299347745291831
21
0.0197718837923231
31
0
210
0
220
0
230
1
40
0.777951
41
1.69879303455137
42
2.22934227679634
0
ELLIPSE
5
132
100
AcDbEntity
8
1
62
256
6
ByLayer
370
13
48
1
60
0
100
AcDbEllipse
10
33.092262
20
-1.622657
30
0
11
-0.299347745291887
21
-0.0197718837914814
31
0
210
0
220
0
230
1
40
0.777951
41
-2.22934227679359
42
-1.69879303454918
0
ELLIPSE
5
133
100
AcDbEntity
8
1
62
256
6
ByLayer
370
13
48
1
60
0
100
AcDbEllipse
10
32.094521
20
-1.479243
30
0
11
-0.108483181757181
21
0.279698765238315
31
0
210
0
220
0
230
1
40
0.360955
41
-1.02016075382501
42
-0.199709661794712
0
ELLIPSE
5
134
100
AcDbEntity
8
1
62
256
6
ByLayer
370
13
48
1
60
0
100
AcDbEllipse
10
32.094521
20
-0.520757
30
0
11
-0.108483181757198
21
-0.279698765238309
31
0
210
0
220
0
230
1
40
0.360955
41
0.199709661794835
42
1.02016075382507
0
ELLIPSE
5
135
100
AcDbEntity
8
1
62
256
6
ByLayer
370
13
48
1
60
0
100
AcDbEllipse
10
31.746868
20
-0.124017
30
0
11
0.0582979366851084
21
-0.138207635745132
31
0
210
0
220
0
230
1
40
0.750326
41
-1.87731940571836
42
-1.57180531127307
0
ELLIPSE
5
136
100
AcDbEntity
8
1
62
256
6
ByLayer
370
13
48
1
60
0
100
AcDbEllipse
10
31.95842
20
-1.432607
30
0
11
-0.0312161822556661
21
0.197548854629383
31
0
210
0
220
0
230
1
40
0.644886
41
0.296340224814531
42
1.02563059493708
0
ELLIPSE
5
137
100
AcDbEntity
8
1
62
256
6
ByLayer
370
13
48
1
60
0
100
AcDbEllipse
10
31.95842
20
-0.567393
30
0
11
-0.031216182255666
21
-0.197548854629383
31
0
210
0
220
0
230
1
40
0.644886
41
-1.02563059493716
42
-0.296340224814722
0
ELLIPSE
5
138
100
AcDbEntity
8
1
62
256
6
ByLayer
370
13
48
1
60
0
100
AcDbEllipse
10
31.746868
20
-1.875983
30
0
11
-0.0582979366828937
21
-0.138207635746066
31
0
210
0
220
0
230
1
40
0.750326
41
-1.56978734232577
42
-1.26427324788339
0
ELLIPSE
5
139
100
AcDbEntity
8
1
62
256
6
ByLayer
370
13
48
1
60
0
100
AcDbEllipse
10
32.08571
20
-0.517337
30
0
11
-0.10863468183397
21
-0.279639957629149
31
0
210
0
220
0
230
1
40
0.363718
41
0.200467310718246
42
1.01550685106542
0
ELLIPSE
5
13A
100
AcDbEntity
8
1
62
256
6
ByLayer
370
13
48
1
60
0
100
AcDbEllipse
10
32.08571
20
-1.482663
30
0
11
-0.108634681833984
21
0.279639957629143
31
0
210
0
220
0
230
1
40
0.363718
41
-1.01550685106553
42
-0.200467310718487
0
ELLIPSE
5
13B
100
AcDbEntity
8
1
62
256
6
ByLayer
370
13
48
1
60
0
100
AcDbEllipse
10
33.173143
20
-0.814597
30
0
11
-0.27643120211388
21
-0.11655809923757
31
0
210
0
220
0
230
1
40
0.259655
41
1.58999251460062
42
2.12275416956032
0
ELLIPSE
5
13C
100
AcDbEntity
8
1
62
256
6
ByLayer
370
13
48
1
60
0
100
AcDbEllipse
10
33.173143
20
-1.185403
30
0
11
-0.276431202115174
21
0.116558099234502
31
0
210
0
220
0
230
1
40
0.259655
41
-2.12275416956316
42
-1.58999251460351
0
ELLIPSE
5
13D
100
AcDbEntity
8
1
62
256
6
ByLayer
370
13
48
1
60
0
100
AcDbEllipse
10
35.147654
20
-2.050449
30
0
11
-0.00522684702752667
21
0.239943076728942
31
0
210
0
220
0
230
1
40
0.172153
41
0.730759907122237
42
1.49827444467684
0
ELLIPSE
5
13E
100
AcDbEntity
8
1
62
256
6
ByLayer
370
13
48
1
60
0
100
AcDbEllipse
10
35.147654
20
0.050449
30
0
11
-0.00522684702752689
21
-0.239943076728942
31
0
210
0
220
0
230
1
40
0.172153
41
-1.49827444467684
42
-0.730759907122504
0
ELLIPSE
5
13F
100
AcDbEntity
8
1
62
256
6
ByLayer
370
13
48
1
60
0
100
AcDbEllipse
10
31.744099
20
-1.875438
30
0
11
4.24912383924225E-17
21
0.15
31
0
210
0
220
0
230
1
40
0.772149
41
1.23482044578595
42
1.5707963267949
0
ELLIPSE
5
140
100
AcDbEntity
8
1
62
256
6
ByLayer
370
13
48
1
60
0
100
AcDbEllipse
10
31.744099
20
-0.124562
30
0
11
4.24912383924225E-17
21
0.15
31
0
210
0
220
0
230
1
40
0.772149
41
1.5707963267949
42
1.90677220780381
0
ELLIPSE
5
141
100
AcDbEntity
8
1
62
256
6
ByLayer
370
13
48
1
60
0
100
AcDbEllipse
10
31.943122
20
-0.566064
30
0
11
5.665498452323E-17
21
0.2
31
0
210
0
220
0
230
1
40
0.817574
41
1.90677220780383
42
2.72521072930062
0
ELLIPSE
5
142
100
AcDbEntity
8
1
62
256
6
ByLayer
370
13
48
1
60
0
100
AcDbEllipse
10
31.943122
20
-1.433936
30
0
11
5.665498452323E-17
21
0.2
31
0
210
0
220
0
230
1
40
0.817574
41
0.416381924289176
42
1.23482044578598
0
ELLIPSE
5
143
100
AcDbEntity
8
1
62
256
6
ByLayer
370
13
48
1
60
0
100
AcDbEllipse
10
31.533999
20
-0.566064
30
0
11
5.665498452323E-17
21
0.2
31
0
210
0
220
0
230
1
40
0.34202
41
1.90677220780381
42
2.72521072930056
0
ELLIPSE
5
144
100
AcDbEntity
8
1
62
256
6
ByLayer
370
13
48
1
60
0
100
AcDbEllipse
10
31.533999
20
-1.433936
30
0
11
-3.67381906146713E-17
21
-0.2
31
0
210
0
220
0
230
1
40
0.34202
41
-2.72521072930056
42
-1.90677220780381
0
ELLIPSE
5
145
100
AcDbEntity
8
1
62
256
6
ByLayer
370
13
48
1
60
0
100
AcDbEllipse
10
35.7528
20
-1.781043
30
0
11
-0.053394885983678
21
0.0845516773978496
31
0
210
0
220
0
230
1
40
0.139768
41
-1.57716944641314
42
-0.739917285382745
0
ELLIPSE
5
146
100
AcDbEntity
8
1
62
256
6
ByLayer
370
13
48
1
60
0
100
AcDbEllipse
10
35.913536
20
-1.631503
30
0
11
-0.0833383062250993
21
0.0552695821906731
31
0
210
0
220
0
230
1
40
0.125147
41
-1.63389016497502
42
-1.00886584004918
0
ELLIPSE
5
147
100
AcDbEntity
8
1
62
256
6
ByLayer
370
13
48
1
60
0
100
AcDbEllipse
10
35.7528
20
-0.218957
30
0
11
-0.053394885983678
21
-0.0845516773978496
31
0
210
0
220
0
230
1
40
0.139768
41
0.739917285382716
42
1.57716944641314
0
ELLIPSE
5
148
100
AcDbEntity
8
1
62
256
6
ByLayer
370
13
48
1
60
0
100
AcDbEllipse
10
35.913536
20
-0.368497
30
0
11
-0.0833383062250994
21
-0.0552695821906731
31
0
210
0
220
0
230
1
40
0.125147
41
1.00886584004884
42
1.63389016497516
0
ELLIPSE
5
149
100
AcDbEntity
8
1
62
256
6
ByLayer
370
13
48
1
60
0
100
AcDbEllipse
10
35.258678
20
-1.448773
30
0
11
0.0150020396796473
21
0.399718574506427
31
0
210
0
220
0
230
1
40
0.406498
41
-2.33646244174219
42
-1.55554103694364
0
ELLIPSE
5
14A
100
AcDbEntity
8
1
62
256
6
ByLayer
370
13
48
1
60
0
100
AcDbEllipse
10
35.258678
20
-0.551227
30
0
11
0.0150020396796469
21
-0.399718574506427
31
0
210
0
220
0
230
1
40
0.406498
41
1.55554103694364
42
2.33646244174212
0
ELLIPSE
5
14B
100
AcDbEntity
8
1
62
256
6
ByLayer
370
13
48
1
60
0
100
AcDbEllipse
10
35.620468
20
-0.137003
30
0
11
-0.0517697807122172
21
-0.0855563545565667
31
0
210
0
220
0
230
1
40
0.139863
41
0.736209352900307
42
1.57449803098188
0
ELLIPSE
5
14C
100
AcDbEntity
8
1
62
256
6
ByLayer
370
13
48
1
60
0
100
AcDbEllipse
10
35.523358
20
-0.059726
30
0
11
-0.0777352233758328
21
-0.0629065580580387
31
0
210
0
220
0
230
1
40
0.130472
41
1.15591732835963
42
1.62177056438514
0
ELLIPSE
5
14D
100
AcDbEntity
8
1
62
256
6
ByLayer
370
13
48
1
60
0
100
AcDbEllipse
10
35.620468
20
-1.862997
30
0
11
-0.0517697807122172
21
0.0855563545565667
31
0
210
0
220
0
230
1
40
0.139863
41
-1.57449803098188
42
-0.736209352901048
0
ELLIPSE
5
14E
100
AcDbEntity
8
1
62
256
6
ByLayer
370
13
48
1
60
0
100
AcDbEllipse
10
34.758781
20
0.053593
30
0
11
-0.00794321942284783
21
-0.239868516619419
31
0
210
0
220
0
230
1
40
0.002314
41
0.706533322298574
42
1.50102146588763
0
ELLIPSE
5
14F
100
AcDbEntity
8
1
62
256
6
ByLayer
370
13
48
1
60
0
100
AcDbEllipse
10
35.523358
20
-1.940274
30
0
11
-0.0777352233758327
21
0.0629065580580387
31
0
210
0
220
0
230
1
40
0.130472
41
-1.62177056438507
42
-1.15591732835924
0
ELLIPSE
5
150
100
AcDbEntity
8
1
62
256
6
ByLayer
370
13
48
1
60
0
100
AcDbEllipse
10
31.782996
20
-3.080141
30
0
11
-3.67381906146715E-16
21
-2.00000000000001
31
0
210
0
220
0
230
1
40
0.34202
41
-2.79252680319094
42
-2.72521072930061
0
ELLIPSE
5
151
100
AcDbEntity
8
1
62
256
6
ByLayer
370
13
48
1
60
0
100
AcDbEllipse
10
31.782996
20
1.080141
30
0
11
5.66549845232303E-16
21
2.00000000000001
31
0
210
0
220
0
230
1
40
0.34202
41
2.72521072930061
42
2.79252680319094
0
ELLIPSE
5
152
100
AcDbEntity
8
1
62
256
6
ByLayer
370
13
48
1
60
0
100
AcDbEllipse
10
34.758781
20
-2.053593
30
0
11
-0.00794321942284761
21
0.239868516619419
31
0
210
0
220
0
230
1
40
0.002314
41
-1.50102146588769
42
-0.70653332227922
0
ELLIPSE
5
153
100
AcDbEntity
8
1
62
256
6
ByLayer
370
13
48
1
60
0
100
AcDbEllipse
10
31.527689
20
-1
30
0
11
5.94877337493915E-17
21
0.21
31
0
210
0
220
0
230
1
40
0.34202
41
-2.7925268031909
42
-0.349065850398889
0
ELLIPSE
5
154
100
AcDbEntity
8
1
62
256
6
ByLayer
370
13
48
1
60
0
100
AcDbEllipse
10
35.935867
20
-1.596883
30
0
11
-0.0846523861242153
21
0.0532350779418681
31
0
210
0
220
0
230
1
40
0.065225
41
-1.67414551543584
42
-1.04575763084714
0
ELLIPSE
5
155
100
AcDbEntity
8
1
62
256
6
ByLayer
370
13
48
1
60
0
100
AcDbEllipse
10
35.935867
20
-0.403117
30
0
11
-0.0846523861242153
21
-0.053235077941868
31
0
210
0
220
0
230
1
40
0.065225
41
1.0457576308478
42
1.67414551543585
0
ELLIPSE
5
156
100
AcDbEntity
8
1
62
256
6
ByLayer
370
18
48
1
60
0
100
AcDbEllipse
10
33.229028
20
0.09703
30
0
11
0.251841921970963
21
0.0177818623362726
31
0
210
0
220
0
230
-1
40
0.06924
41
-1.56101782180139
42
-0.774400198847893
0
ELLIPSE
5
157
100
AcDbEntity
8
1
62
256
6
ByLayer
370
18
48
1
60
0
100
AcDbEllipse
10
36.048748
20
-1.596883
30
0
11
1.1330996904646E-16
21
0.4
31
0
210
0
220
0
230
1
40
0.121869
41
1.5707963267949
42
1.64009079051253
0
ELLIPSE
5
158
100
AcDbEntity
8
1
62
256
6
ByLayer
370
18
48
1
60
0
100
AcDbEllipse
10
36.048748
20
-0.403117
30
0
11
1.1330996904646E-16
21
0.4
31
0
210
0
220
0
230
1
40
0.121869
41
1.50150186307726
42
1.5707963267949
0
ELLIPSE
5
159
100
AcDbEntity
8
1
62
256
6
ByLayer
370
18
48
1
60
0
100
AcDbEllipse
10
32.763694
20
0.2
30
0
11
0.201946432116473
21
0
31
0
210
0
220
0
230
1
40
0.990362
41
-1.5707963267949
42
-1.04299365512072
0
ELLIPSE
5
15A
100
AcDbEntity
8
1
62
256
6
ByLayer
370
18
48
1
60
0
100
AcDbEllipse
10
35.506337
20
0.221995
30
0
11
0.239997045322708
21
0.0169489930203654
31
0
210
0
220
0
230
-1
40
0.070266
41
-1.73995037614147
42
-1.44395567152744
0
ELLIPSE
5
15B
100
AcDbEntity
8
1
62
256
6
ByLayer
370
18
48
1
60
0
100
AcDbEllipse
10
33.229028
20
-2.09703
30
0
11
0.251841921997982
21
-0.0177818623395387
31
0
210
0
220
0
230
-1
40
0.06924
41
0.774400198841118
42
1.56101782172068
0
ELLIPSE
5
15C
100
AcDbEntity
8
1
62
256
6
ByLayer
370
18
48
1
60
0
100
AcDbEllipse
10
33.04757
20
-0.099113
30
0
11
0.0586247302012056
21
-0.191752852286547
31
0
210
6.12981425419713E-17
220
3.68340493301087E-17
230
1
40
0.997435
41
2.91526219766618
42
-2.91526219766616
0
ELLIPSE
5
15D
100
AcDbEntity
8
1
62
256
6
ByLayer
370
18
48
1
60
0
100
AcDbEllipse
10
35.506337
20
-2.221995
30
0
11
0.239997044633702
21
-0.0169489929732435
31
0
210
0
220
0
230
-1
40
0.070266
41
1.4439556710704
42
1.73995037654015
0
ELLIPSE
5
15E
100
AcDbEntity
8
1
62
256
6
ByLayer
370
18
48
1
60
0
100
AcDbEllipse
10
33.059275
20
-1.901706
30
0
11
0.0029729393167071
21
0.200467814146891
31
0
210
6.93732911333492E-17
220
-1.56964250509404E-18
230
1
40
0.997557
41
2.6338628041141
42
3.08674247812912
0
ELLIPSE
5
15F
100
AcDbEntity
8
1
62
256
6
ByLayer
370
18
48
1
60
0
100
AcDbEllipse
10
32.77444
20
-2.2
30
0
11
-0.201490790302156
21
2.46746902040712E-17
31
0
210
0
220
0
230
1
40
0.992601
41
-2.09761674342106
42
-1.5707963267949
0
POINT
5
6C
100
AcDbEntity
8
81
62
256
6
ByLayer
370
18
48
1
60
0
100
AcDbPoint
10
36
20
0
30
0
39
0
210
0
220
0
230
1
50
360
0
POINT
5
6E
100
AcDbEntity
8
80
62
256
6
ByLayer
370
18
48
1
60
0
100
AcDbPoint
10
0
20
0
30
0
39
0
210
0
220
0
230
1
50
360
0
SPLINE
5
160
100
AcDbEntity
8
1
62
256
6
ByLayer
370
18
48
1
60
0
100
AcDbSpline
70
4
71
3
72
14
73
10
40
0
40
0
40
0
40
0
40
0.340724882609509
40
0.340724882609509
40
0.863824040295302
40
0.863824040295302
40
0.990650257730131
40
0.990650257730131
40
1
40
1
40
1
40
1
41
1
10
8.22661422067898
20
-2.35000000000042
30
0
41
1
10
8.32314836702722
20
-2.27286927747753
30
0
41
1
10
8.42877716938648
20
-2.2070125255309
30
0
41
1
10
8.70866514600675
20
-2.07416410424099
30
0
41
1
10
8.89363450186514
20
-2.023776349657
30
0
41
1
10
9.12412285035282
20
-2.00255371355843
30
0
41
1
10
9.16978011356423
20
-2.00031495076436
30
0
41
1
10
9.21872484074493
20
-2.00001032909086
30
0
41
1
10
9.22204413384281
20
-2.00000000000006
30
0
41
1
10
9.22536343845093
20
-2.00000000000006
30
0
0
SPLINE
5
161
100
AcDbEntity
8
1
62
256
6
ByLayer
370
13
48
1
60
0
100
AcDbSpline
70
4
71
3
72
16
73
12
40
0
40
0
40
0
40
0
40
0.0007084940797618
40
0.0007084940797618
40
0.283937687189524
40
0.283937687189524
40
0.567818407080674
40
0.567818407080674
40
0.999291505920235
40
0.999291505920235
40
1
40
1
40
1
40
1
41
1
10
34.2289221872925
20
-0.619980094835626
30
0
41
1
10
34.2289416274202
20
-0.619975491243935
30
0
41
1
10
34.2289610676156
20
-0.619970887960761
30
0
41
1
10
34.2367519568992
20
-0.618125989234613
30
0
41
1
10
34.2445252383641
20
-0.616281732446225
30
0
41
1
10
34.2600911151087
20
-0.612580944521852
30
0
41
1
10
34.2678840471777
20
-0.610724239953925
30
0
41
1
10
34.2875212263735
20
-0.60603587395849
30
0
41
1
10
34.2993665335015
20
-0.603198996476777
30
0
41
1
10
34.311228866792
20
-0.600350063513133
30
0
41
1
10
34.3112483137595
20
-0.600345392811192
30
0
41
1
10
34.3112677608008
20
-0.600340722416803
30
0
0
SPLINE
5
162
100
AcDbEntity
8
1
62
256
6
ByLayer
370
13
48
1
60
0
100
AcDbSpline
70
4
71
3
72
16
73
12
40
0
40
0
40
0
40
0
40
0.0007084940797618
40
0.0007084940797618
40
0.283937687189524
40
0.283937687189524
40
0.567818407080674
40
0.567818407080674
40
0.999291505920235
40
0.999291505920235
40
1
40
1
40
1
40
1
41
1
10
34.2289221872925
20
-1.3800199051644
30
0
41
1
10
34.228941627443
20
-1.3800245086141
30
0
41
1
10
34.2289610676156
20
-1.38002911203927
30
0
41
1
10
34.2367519568992
20
-1.38187401076542
30
0
41
1
10
34.2445252383641
20
-1.3837182675538
30
0
41
1
10
34.2600911151087
20
-1.38741905547818
30
0
41
1
10
34.2678840471777
20
-1.3892757600461
30
0
41
1
10
34.2875212263735
20
-1.39396412604154
30
0
41
1
10
34.2993665335015
20
-1.39680100352325
30
0
41
1
10
34.311228866792
20
-1.3996499364869
30
0
41
1
10
34.3112483137939
20
-1.39965460704536
30
0
41
1
10
34.3112677608008
20
-1.39965927758323
30
0
0
SPLINE
5
163
100
AcDbEntity
8
1
62
256
6
ByLayer
370
13
48
1
60
0
100
AcDbSpline
70
4
71
3
72
8
73
4
40
0
40
0
40
0
40
0
40
1
40
1
40
1
40
1
41
1
10
34.2289221872925
20
-1
30
0
41
1
10
34.2563707117952
20
-1
30
0
41
1
10
34.283819236298
20
-1
30
0
41
1
10
34.3112677608008
20
-1
30
0
0
SPLINE
5
164
100
AcDbEntity
8
1
62
256
6
ByLayer
370
13
48
1
60
0
100
AcDbSpline
70
4
71
3
72
10
73
6
40
0
40
0
40
0
40
0
40
0.709896843428722
40
0.709896843428722
40
1
40
1
40
1
40
1
41
1
10
33.1845849620887
20
-1.63211842871985
30
0
41
1
10
33.1786971522085
20
-1.62647295753101
30
0
41
1
10
33.1730792764886
20
-1.62028909132124
30
0
41
1
10
33.1667433148843
20
-1.61133142851605
30
0
41
1
10
33.1650681599822
20
-1.60865531633283
30
0
41
1
10
33.163694842982
20
-1.60602246752006
30
0
0
SPLINE
5
165
100
AcDbEntity
8
1
62
256
6
ByLayer
370
13
48
1
60
0
100
AcDbSpline
70
4
71
3
72
8
73
4
40
0
40
0
40
0
40
0
40
1
40
1
40
1
40
1
41
1
10
33.1636948430068
20
-1.60602246752151
30
0
41
1
10
33.1842500998041
20
-1.58779496586749
30
0
41
1
10
33.204612279328
20
-1.56984832001294
30
0
41
1
10
33.2235446149629
20
-1.55119885589841
30
0
0
SPLINE
5
166
100
AcDbEntity
8
1
62
256
6
ByLayer
370
13
48
1
60
0
100
AcDbSpline
70
4
71
3
72
10
73
6
40
0
40
0
40
0
40
0
40
0.644331995687774
40
0.644331995687774
40
1
40
1
40
1
40
1
41
1
10
33.2235446149629
20
-1.55119885589841
30
0
41
1
10
33.2423417535849
20
-1.53268256879338
30
0
41
1
10
33.2543614792979
20
-1.50733356762151
30
0
41
1
10
33.2635582436185
20
-1.46251306334796
30
0
41
1
10
33.2646514454074
20
-1.44500789786605
30
0
41
1
10
33.2632877280427
20
-1.42637866686363
30
0
0
SPLINE
5
167
100
AcDbEntity
8
1
62
256
6
ByLayer
370
13
48
1
60
0
100
AcDbSpline
70
4
71
3
72
12
73
8
40
0
40
0
40
0
40
0
40
0.0568772518374145
40
0.0568772518374145
40
0.598921195001007
40
0.598921195001007
40
1
40
1
40
1
40
1
41
1
10
34.1425891010003
20
-1.68431154917465
30
0
41
1
10
34.1245515992803
20
-1.67896696386532
30
0
41
1
10
34.1065274742932
20
-1.6736347630451
30
0
41
1
10
33.9189632613311
20
-1.61821938628683
30
0
41
1
10
33.7497242492963
20
-1.56872689759518
30
0
41
1
10
33.4764510412474
20
-1.48886053124653
30
0
41
1
10
33.365133916484
20
-1.45631980627925
30
0
41
1
10
33.2632877280432
20
-1.42637866686241
30
0
0
SPLINE
5
168
100
AcDbEntity
8
1
62
256
6
ByLayer
370
13
48
1
60
0
100
AcDbSpline
70
4
71
3
72
12
73
8
40
0
40
0
40
0
40
0
40
0.432851996086571
40
0.432851996086571
40
0.716418616561771
40
0.716418616561771
40
1
40
1
40
1
40
1
41
1
10
34.2151325614844
20
-1.70581819602023
30
0
41
1
10
34.2046568328338
20
-1.7027185855089
30
0
41
1
10
34.1941840602842
20
-1.69961481384473
30
0
41
1
10
34.1768579385476
20
-1.69447558400074
30
0
41
1
10
34.170001810704
20
-1.69244018508493
30
0
41
1
10
34.1562928218783
20
-1.68837320481026
30
0
41
1
10
34.1494397680902
20
-1.68634142976765
30
0
41
1
10
34.1425891010003
20
-1.68431154917465
30
0
0
SPLINE
5
169
100
AcDbEntity
8
1
62
256
6
ByLayer
370
13
48
1
60
0
100
AcDbSpline
70
4
71
3
72
14
73
10
40
0
40
0
40
0
40
0
40
0.0559482231425851
40
0.0559482231425851
40
0.255082555375332
40
0.255082555375332
40
0.91736630964965
40
0.91736630964965
40
1
40
1
40
1
40
1
41
1
10
34.8217062023472
20
-1.75118175246956
30
0
41
1
10
34.8102710337184
20
-1.75157703713995
30
0
41
1
10
34.7988345011549
20
-1.75193380487471
30
0
41
1
10
34.746704106935
20
-1.75384176273096
30
0
41
1
10
34.7060132231142
20
-1.75577285922549
30
0
41
1
10
34.5310688272088
20
-1.7614732732028
30
0
41
1
10
34.3936591146986
20
-1.75637362027803
30
0
41
1
10
34.2478771051644
20
-1.71537353651658
30
0
41
1
10
34.2314856310115
20
-1.71065682327841
30
0
41
1
10
34.2151325614844
20
-1.70581819602023
30
0
0
SPLINE
5
16A
100
AcDbEntity
8
1
62
256
6
ByLayer
370
13
48
1
60
0
100
AcDbSpline
70
4
71
3
72
12
73
8
40
0
40
0
40
0
40
0
40
0.580466676309606
40
0.580466676309606
40
0.902092447109163
40
0.902092447109163
40
1
40
1
40
1
40
1
41
1
10
35.36542001724
20
-1.73018146508017
30
0
41
1
10
35.2648041446478
20
-1.73444915357814
30
0
41
1
10
35.1598849325172
20
-1.73848103833501
30
0
41
1
10
34.9950542118575
20
-1.74475286216159
30
0
41
1
10
34.9355659682511
20
-1.74708287474502
30
0
41
1
10
34.8579762169911
20
-1.74990079744282
30
0
41
1
10
34.8398403518264
20
-1.75055490108392
30
0
41
1
10
34.8217062023472
20
-1.75118175246956
30
0
0
SPLINE
5
16B
100
AcDbEntity
8
1
62
256
6
ByLayer
370
13
48
1
60
0
100
AcDbSpline
70
4
71
3
72
14
73
10
40
0
40
0
40
0
40
0
40
0.0740326958458219
40
0.0740326958458219
40
0.743257125695834
40
0.743257125695834
40
0.939124438646558
40
0.939124438646558
40
1
40
1
40
1
40
1
41
1
10
35.7213347612453
20
-1.71356743665018
30
0
41
1
10
35.7126059855915
20
-1.71391730683214
30
0
41
1
10
35.7038751248009
20
-1.71426850819501
30
0
41
1
10
35.6162008436679
20
-1.71780695323497
30
0
41
1
10
35.5369961926742
20
-1.7212377850538
30
0
41
1
10
35.4347137397946
20
-1.72522678539437
30
0
41
1
10
35.4110630969842
20
-1.72766581184985
30
0
41
1
10
35.3801088915618
20
-1.7294978169256
30
0
41
1
10
35.3727654069312
20
-1.729869905539
30
0
41
1
10
35.36542001724
20
-1.73018146508017
30
0
0
SPLINE
5
16C
100
AcDbEntity
8
1
62
256
6
ByLayer
370
13
48
1
60
0
100
AcDbSpline
70
4
71
3
72
8
73
4
40
0
40
0
40
0
40
0
40
1
40
1
40
1
40
1
41
1
10
35.5901406592839
20
-1.7947362745702
30
0
41
1
10
35.6341557915993
20
-1.7681417556106
30
0
41
1
10
35.6778467711874
20
-1.74101170653276
30
0
41
1
10
35.7213347612452
20
-1.71356743665029
30
0
0
SPLINE
5
16D
100
AcDbEntity
8
1
62
256
6
ByLayer
370
13
48
1
60
0
100
AcDbSpline
70
4
71
3
72
8
73
4
40
0
40
0
40
0
40
0
40
1
40
1
40
1
40
1
41
1
10
35.1161920011118
20
-1.87237146477241
30
0
41
1
10
35.2757348334777
20
-1.87220675050452
30
0
41
1
10
35.4355792331503
20
-1.83837853620506
30
0
41
1
10
35.5901406592828
20
-1.79473627457085
30
0
0
SPLINE
5
16E
100
AcDbEntity
8
1
62
256
6
ByLayer
370
13
48
1
60
0
100
AcDbSpline
70
4
71
3
72
8
73
4
40
0
40
0
40
0
40
0
40
1
40
1
40
1
40
1
41
1
10
34.7530991918524
20
-1.87113284158681
30
0
41
1
10
34.8746599531638
20
-1.86739905833187
30
0
41
1
10
34.9968950955519
20
-1.8724946285802
30
0
41
1
10
35.116192001113
20
-1.8723714647742
30
0
0
SPLINE
5
16F
100
AcDbEntity
8
1
62
256
6
ByLayer
370
13
48
1
60
0
100
AcDbSpline
70
4
71
3
72
8
73
4
40
0
40
0
40
0
40
0
40
1
40
1
40
1
40
1
41
1
10
34.572400536749
20
-1.8650628416442
30
0
41
1
10
34.6323837831874
20
-1.8707969485975
30
0
41
1
10
34.6928500715066
20
-1.87298341535961
30
0
41
1
10
34.7530991918524
20
-1.8711328415869
30
0
0
SPLINE
5
170
100
AcDbEntity
8
1
62
256
6
ByLayer
370
13
48
1
60
0
100
AcDbSpline
70
4
71
3
72
12
73
8
40
0
40
0
40
0
40
0
40
0.140444200279774
40
0.140444200279774
40
0.578672846880988
40
0.578672846880988
40
1
40
1
40
1
40
1
41
1
10
33.4502390423
20
-1.78473650062347
30
0
41
1
10
33.4907683260285
20
-1.78008772019786
30
0
41
1
10
33.5340049971858
20
-1.77734194597335
30
0
41
1
10
33.7188333798473
20
-1.7726563822427
30
0
41
1
10
33.8828017897204
20
-1.78399433470455
30
0
41
1
10
34.2193415913498
20
-1.82078391152035
30
0
41
1
10
34.3971452699764
20
-1.84830928955307
30
0
41
1
10
34.572400536749
20
-1.8650628416442
30
0
0
SPLINE
5
171
100
AcDbEntity
8
1
62
256
6
ByLayer
370
13
48
1
60
0
100
AcDbSpline
70
4
71
3
72
8
73
4
40
0
40
0
40
0
40
0
40
1
40
1
40
1
40
1
41
1
10
33.3582665042272
20
-1.7916091454137
30
0
41
1
10
33.3890156099214
20
-1.79061877233204
30
0
41
1
10
33.4196882286927
20
-1.78824073290238
30
0
41
1
10
33.4502390423
20
-1.78473650062347
30
0
0
SPLINE
5
172
100
AcDbEntity
8
1
62
256
6
ByLayer
370
13
48
1
60
0
100
AcDbSpline
70
4
71
3
72
10
73
6
40
0
40
0
40
0
40
0
40
0.258944711528363
40
0.258944711528363
40
1
40
1
40
1
40
1
41
1
10
33.1845849620887
20
-1.63211842871985
30
0
41
1
10
33.199277300327
20
-1.6462060392081
30
0
41
1
10
33.2140493078695
20
-1.66021101078502
30
0
41
1
10
33.2714142308746
20
-1.71395980753715
30
0
41
1
10
33.3146891560262
20
-1.75301104300212
30
0
41
1
10
33.358266504227
20
-1.79160914541384
30
0
0
SPLINE
5
173
100
AcDbEntity
8
1
62
256
6
ByLayer
370
13
48
1
60
0
100
AcDbSpline
70
4
71
3
72
10
73
6
40
0
40
0
40
0
40
0
40
0.649009211321481
40
0.649009211321481
40
1
40
1
40
1
40
1
41
1
10
33.2632877280426
20
-0.573621333136714
30
0
41
1
10
33.2657560063979
20
-0.539903109076761
30
0
41
1
10
33.2599458432007
20
-0.509876843659583
30
0
41
1
10
33.2416692657146
20
-0.471530096856725
30
0
41
1
10
33.2338663110395
20
-0.458968621812346
30
0
41
1
10
33.2235446149629
20
-0.448801144101623
30
0
0
SPLINE
5
174
100
AcDbEntity
8
1
62
256
6
ByLayer
370
13
48
1
60
0
100
AcDbSpline
70
4
71
3
72
8
73
4
40
0
40
0
40
0
40
0
40
1
40
1
40
1
40
1
41
1
10
33.2235446149629
20
-0.448801144101623
30
0
41
1
10
33.204612279328
20
-0.430151679987063
30
0
41
1
10
33.1842500998041
20
-0.412205034132541
30
0
41
1
10
33.1636948430068
20
-0.393977532478516
30
0
0
SPLINE
5
175
100
AcDbEntity
8
1
62
256
6
ByLayer
370
13
48
1
60
0
100
AcDbSpline
70
4
71
3
72
12
73
8
40
0
40
0
40
0
40
0
40
0.276452079067817
40
0.276452079067817
40
0.899464630432222
40
0.899464630432222
40
1
40
1
40
1
40
1
41
1
10
33.1636948430209
20
-0.393977532464504
30
0
41
1
10
33.1650009626683
20
-0.391473510765934
30
0
41
1
10
33.1665799094947
20
-0.388930548448911
30
0
41
1
10
33.1722215249124
20
-0.380861718219677
30
0
41
1
10
33.177018376239
20
-0.375395095320982
30
0
41
1
10
33.1829057388044
20
-0.369508132688594
30
0
41
1
10
33.1837412366061
20
-0.368690569532589
30
0
41
1
10
33.1845849620887
20
-0.367881571280179
30
0
0
SPLINE
5
176
100
AcDbEntity
8
1
62
256
6
ByLayer
370
13
48
1
60
0
100
AcDbSpline
70
4
71
3
72
10
73
6
40
0
40
0
40
0
40
0
40
0.258944711528364
40
0.258944711528364
40
1
40
1
40
1
40
1
41
1
10
33.1845849620887
20
-0.367881571280179
30
0
41
1
10
33.199277300327
20
-0.353793960791933
30
0
41
1
10
33.2140493078695
20
-0.339788989215009
30
0
41
1
10
33.2714142308746
20
-0.286040192462877
30
0
41
1
10
33.3146891560262
20
-0.246988956997882
30
0
41
1
10
33.358266504227
20
-0.208390854586185
30
0
0
SPLINE
5
177
100
AcDbEntity
8
1
62
256
6
ByLayer
370
13
48
1
60
0
100
AcDbSpline
70
4
71
3
72
8
73
4
40
0
40
0
40
0
40
0
40
1
40
1
40
1
40
1
41
1
10
33.3582665042272
20
-0.208390854586327
30
0
41
1
10
33.3890156099214
20
-0.20938122766799
30
0
41
1
10
33.4196882286927
20
-0.211759267097619
30
0
41
1
10
33.4502390423
20
-0.215263499376562
30
0
0
SPLINE
5
178
100
AcDbEntity
8
1
62
256
6
ByLayer
370
13
48
1
60
0
100
AcDbSpline
70
4
71
3
72
12
73
8
40
0
40
0
40
0
40
0
40
0.140444200279774
40
0.140444200279774
40
0.578672846880988
40
0.578672846880988
40
1
40
1
40
1
40
1
41
1
10
33.4502390423
20
-0.215263499376562
30
0
41
1
10
33.4907683260285
20
-0.219912279802173
30
0
41
1
10
33.5340049971858
20
-0.222658054026681
30
0
41
1
10
33.7188333798473
20
-0.227343617757327
30
0
41
1
10
33.8828017897204
20
-0.216005665295484
30
0
41
1
10
34.2193415913498
20
-0.179216088479677
30
0
41
1
10
34.3971452699764
20
-0.151690710446957
30
0
41
1
10
34.572400536749
20
-0.134937158355797
30
0
0
SPLINE
5
179
100
AcDbEntity
8
1
62
256
6
ByLayer
370
13
48
1
60
0
100
AcDbSpline
70
4
71
3
72
8
73
4
40
0
40
0
40
0
40
0
40
1
40
1
40
1
40
1
41
1
10
34.572400536749
20
-0.134937158355797
30
0
41
1
10
34.6323837831874
20
-0.129203051402527
30
0
41
1
10
34.6928500715066
20
-0.127016584640415
30
0
41
1
10
34.7530991918524
20
-0.128867158413129
30
0
0
SPLINE
5
17A
100
AcDbEntity
8
1
62
256
6
ByLayer
370
13
48
1
60
0
100
AcDbSpline
70
4
71
3
72
8
73
4
40
0
40
0
40
0
40
0
40
1
40
1
40
1
40
1
41
1
10
34.7530991918524
20
-0.128867158413215
30
0
41
1
10
34.8746599531638
20
-0.132600941668159
30
0
41
1
10
34.9968950955519
20
-0.127505371419829
30
0
41
1
10
35.116192001113
20
-0.127628535225824
30
0
0
SPLINE
5
17B
100
AcDbEntity
8
1
62
256
6
ByLayer
370
13
48
1
60
0
100
AcDbSpline
70
4
71
3
72
8
73
4
40
0
40
0
40
0
40
0
40
1
40
1
40
1
40
1
41
1
10
35.1161920011118
20
-0.127628535227615
30
0
41
1
10
35.2757348334777
20
-0.127793249495511
30
0
41
1
10
35.4355792331503
20
-0.161621463794972
30
0
41
1
10
35.5901406592828
20
-0.205263725429177
30
0
0
SPLINE
5
17C
100
AcDbEntity
8
1
62
256
6
ByLayer
370
13
48
1
60
0
100
AcDbSpline
70
4
71
3
72
8
73
4
40
0
40
0
40
0
40
0
40
1
40
1
40
1
40
1
41
1
10
35.5901406592839
20
-0.20526372542983
30
0
41
1
10
35.6341557915993
20
-0.231858244389429
30
0
41
1
10
35.6778467711874
20
-0.258988293467269
30
0
41
1
10
35.7213347612452
20
-0.286432563349734
30
0
0
SPLINE
5
17D
100
AcDbEntity
8
1
62
256
6
ByLayer
370
13
48
1
60
0
100
AcDbSpline
70
4
71
3
72
14
73
10
40
0
40
0
40
0
40
0
40
0.0740326958458219
40
0.0740326958458219
40
0.743257125695834
40
0.743257125695834
40
0.939124438646558
40
0.939124438646558
40
1
40
1
40
1
40
1
41
1
10
35.7213347612453
20
-0.286432563349848
30
0
41
1
10
35.7126059855915
20
-0.286082693167884
30
0
41
1
10
35.7038751248009
20
-0.285731491805024
30
0
41
1
10
35.6162008436679
20
-0.282193046765059
30
0
41
1
10
35.5369961926742
20
-0.278762214946226
30
0
41
1
10
35.4347137397946
20
-0.274773214605659
30
0
41
1
10
35.4110630969842
20
-0.272334188150182
30
0
41
1
10
35.3801088915618
20
-0.270502183074427
30
0
41
1
10
35.3727654069312
20
-0.270130094461024
30
0
41
1
10
35.36542001724
20
-0.269818534919864
30
0
0
SPLINE
5
17E
100
AcDbEntity
8
1
62
256
6
ByLayer
370
13
48
1
60
0
100
AcDbSpline
70
4
71
3
72
12
73
8
40
0
40
0
40
0
40
0
40
0.580466676309606
40
0.580466676309606
40
0.902092447109163
40
0.902092447109163
40
1
40
1
40
1
40
1
41
1
10
35.36542001724
20
-0.269818534919864
30
0
41
1
10
35.2648041446478
20
-0.265550846421888
30
0
41
1
10
35.1598849325172
20
-0.261518961665018
30
0
41
1
10
34.9950542118575
20
-0.255247137838438
30
0
41
1
10
34.9355659682511
20
-0.25291712525501
30
0
41
1
10
34.8579762169911
20
-0.250099202557209
30
0
41
1
10
34.8398403518264
20
-0.249445098916112
30
0
41
1
10
34.8217062023472
20
-0.248818247530465
30
0
0
SPLINE
5
17F
100
AcDbEntity
8
1
62
256
6
ByLayer
370
13
48
1
60
0
100
AcDbSpline
70
4
71
3
72
14
73
10
40
0
40
0
40
0
40
0
40
0.0559482231425851
40
0.0559482231425851
40
0.255082555375332
40
0.255082555375332
40
0.91736630964965
40
0.91736630964965
40
1
40
1
40
1
40
1
41
1
10
34.8217062023472
20
-0.248818247530465
30
0
41
1
10
34.8102710337184
20
-0.248422962860076
30
0
41
1
10
34.7988345011549
20
-0.248066195125318
30
0
41
1
10
34.746704106935
20
-0.246158237269071
30
0
41
1
10
34.7060132231142
20
-0.244227140774541
30
0
41
1
10
34.5310688272088
20
-0.238526726797232
30
0
41
1
10
34.3936591146986
20
-0.243626379722002
30
0
41
1
10
34.2478771051644
20
-0.284626463483448
30
0
41
1
10
34.2314856310115
20
-0.289343176721616
30
0
41
1
10
34.2151325614844
20
-0.294181803979796
30
0
0
SPLINE
5
180
100
AcDbEntity
8
1
62
256
6
ByLayer
370
13
48
1
60
0
100
AcDbSpline
70
4
71
3
72
12
73
8
40
0
40
0
40
0
40
0
40
0.432851996086571
40
0.432851996086571
40
0.716418616561771
40
0.716418616561771
40
1
40
1
40
1
40
1
41
1
10
34.2151325614844
20
-0.294181803979796
30
0
41
1
10
34.2046568328338
20
-0.297281414491124
30
0
41
1
10
34.1941840602842
20
-0.300385186155296
30
0
41
1
10
34.1768579385476
20
-0.305524415999287
30
0
41
1
10
34.170001810704
20
-0.307559814915095
30
0
41
1
10
34.1562928218783
20
-0.311626795189739
30
0
41
1
10
34.1494397680902
20
-0.313658570232377
30
0
41
1
10
34.1425891010003
20
-0.315688450825377
30
0
0
SPLINE
5
181
100
AcDbEntity
8
1
62
256
6
ByLayer
370
13
48
1
60
0
100
AcDbSpline
70
4
71
3
72
12
73
8
40
0
40
0
40
0
40
0
40
0.0568772518374259
40
0.0568772518374259
40
0.598921195001127
40
0.598921195001127
40
1
40
1
40
1
40
1
41
1
10
34.1425891010003
20
-0.315688450825377
30
0
41
1
10
34.1245515992803
20
-0.321033036134708
30
0
41
1
10
34.1065274742932
20
-0.326365236954928
30
0
41
1
10
33.9189632613311
20
-0.381780613713204
30
0
41
1
10
33.7497242492963
20
-0.431273102404845
30
0
41
1
10
33.4764510412475
20
-0.51113946875347
30
0
41
1
10
33.3651339164841
20
-0.543680193720746
30
0
41
1
10
33.2632877280433
20
-0.573621333137567
30
0
0
SPLINE
5
182
100
AcDbEntity
8
1
62
256
6
ByLayer
370
13
48
1
60
0
100
AcDbSpline
70
4
71
3
72
8
73
4
40
0
40
0
40
0
40
0
40
1
40
1
40
1
40
1
41
1
10
33.2188209596174
20
-1.95106875233085
30
0
41
1
10
33.1566840705692
20
-1.89866090839902
30
0
41
1
10
33.0964721480718
20
-1.84395531214258
30
0
41
1
10
33.0373478591962
20
-1.78817096352103
30
0
0
SPLINE
5
183
100
AcDbEntity
8
1
62
256
6
ByLayer
370
13
48
1
60
0
100
AcDbSpline
70
4
71
3
72
8
73
4
40
0
40
0
40
0
40
0
40
1
40
1
40
1
40
1
41
1
10
33.2188209596174
20
-0.0489312476691737
30
0
41
1
10
33.1566840705692
20
-0.101339091601005
30
0
41
1
10
33.0964721480718
20
-0.156044687857445
30
0
41
1
10
33.0373478591962
20
-0.211829036479003
30
0
0
SPLINE
5
184
100
AcDbEntity
8
1
62
256
6
ByLayer
370
13
48
1
60
0
100
AcDbSpline
70
4
71
3
72
12
73
8
40
0
40
0
40
0
40
0
40
0.430493117721161
40
0.430493117721161
40
0.862618336992714
40
0.862618336992714
40
1
40
1
40
1
40
1
41
1
10
34.5587805434612
20
-2.03299794738635
30
0
41
1
10
34.3906987623659
20
-2.01774132082312
30
0
41
1
10
34.2215883462255
20
-1.98852245015618
30
0
41
1
10
33.9044434955373
20
-1.94545736623397
30
0
41
1
10
33.751699988043
20
-1.93032408348299
30
0
41
1
10
33.5772887625654
20
-1.92916958740005
30
0
41
1
10
33.5365461454505
20
-1.93038666700338
30
0
41
1
10
33.4981203716814
20
-1.93343347795707
30
0
0
SPLINE
5
185
100
AcDbEntity
8
1
62
256
6
ByLayer
370
13
48
1
60
0
100
AcDbSpline
70
4
71
3
72
12
73
8
40
0
40
0
40
0
40
0
40
0.430493117721161
40
0.430493117721161
40
0.862618336992714
40
0.862618336992714
40
1
40
1
40
1
40
1
41
1
10
34.5587805434612
20
0.0329979473863204
30
0
41
1
10
34.3906987623659
20
0.0177413208230917
30
0
41
1
10
34.2215883462255
20
-0.0114775498438462
30
0
41
1
10
33.9044434955373
20
-0.0545426337660615
30
0
41
1
10
33.751699988043
20
-0.069675916517042
30
0
41
1
10
33.5772887625654
20
-0.0708304125999746
30
0
41
1
10
33.5365461454505
20
-0.0696133329966528
30
0
41
1
10
33.4981203716814
20
-0.0665665220429617
30
0
0
SPLINE
5
186
100
AcDbEntity
8
1
62
256
6
ByLayer
370
13
48
1
60
0
100
AcDbSpline
70
4
71
3
72
12
73
8
40
0
40
0
40
0
40
0
40
0.018287446984155
40
0.018287446984155
40
0.429383149668921
40
0.429383149668921
40
1
40
1
40
1
40
1
41
1
10
33.0074254881241
20
-1.50786811191611
30
0
41
1
10
33.007536236287
20
-1.50831483068305
30
0
41
1
10
33.0076466703323
20
-1.50876807122057
30
0
41
1
10
33.0102522277265
20
-1.5196479588619
30
0
41
1
10
33.012595462443
20
-1.53354944284456
30
0
41
1
10
33.0175084652177
20
-1.57312684172703
30
0
41
1
10
33.0199051952737
20
-1.60201390845381
30
0
41
1
10
33.0216132026687
20
-1.63401038559758
30
0
0
SPLINE
5
187
100
AcDbEntity
8
1
62
256
6
ByLayer
370
13
48
1
60
0
100
AcDbSpline
70
4
71
3
72
10
73
6
40
0
40
0
40
0
40
0
40
0.318891167720856
40
0.318891167720856
40
1
40
1
40
1
40
1
41
1
10
33.0216132026687
20
-1.63401038559758
30
0
41
1
10
33.0224098521601
20
-1.64893419519345
30
0
41
1
10
33.0235152334821
20
-1.66467393883468
30
0
41
1
10
33.0278307781878
20
-1.71498246457014
30
0
41
1
10
33.0321174721148
20
-1.75195059433207
30
0
41
1
10
33.0373478591962
20
-1.78817096352103
30
0
0
SPLINE
5
188
100
AcDbEntity
8
1
62
256
6
ByLayer
370
13
48
1
60
0
100
AcDbSpline
70
4
71
3
72
12
73
8
40
0
40
0
40
0
40
0
40
0.089550281954247
40
0.089550281954247
40
0.695495664143286
40
0.695495664143286
40
1
40
1
40
1
40
1
41
1
10
33.0373478591962
20
-0.211829036479003
30
0
41
1
10
33.0366504824215
20
-0.216658362464017
30
0
41
1
10
33.0359706281935
20
-0.22149162483322
30
0
41
1
10
33.030892834415
20
-0.258578219858009
30
0
41
1
10
33.027265294638
20
-0.291126835310763
30
0
41
1
10
33.0234116552874
20
-0.336807087435943
30
0
41
1
10
33.0223723977324
20
-0.351767446813227
30
0
41
1
10
33.0216132026687
20
-0.365989614402451
30
0
0
SPLINE
5
189
100
AcDbEntity
8
1
62
256
6
ByLayer
370
13
48
1
60
0
100
AcDbSpline
70
4
71
3
72
14
73
10
40
0
40
0
40
0
40
0
40
0.209495302841087
40
0.209495302841087
40
0.672464390491942
40
0.672464390491942
40
0.981903526404807
40
0.981903526404807
40
1
40
1
40
1
40
1
41
1
10
33.0216132026687
20
-0.365989614402451
30
0
41
1
10
33.0209795101629
20
-0.377860715098023
30
0
41
1
10
33.0202559987988
20
-0.389273135088388
30
0
41
1
10
33.0176940629878
20
-0.423709212880936
30
0
41
1
10
33.0155182997219
20
-0.444718253593152
30
0
41
1
10
33.0114230927657
20
-0.473150502418008
30
0
41
1
10
33.0096341492853
20
-0.482932923178254
30
0
41
1
10
33.0076466700101
20
-0.491231928781588
30
0
41
1
10
33.0075362362064
20
-0.49168516931752
30
0
41
1
10
33.0074254881241
20
-0.492131888083861
30
0
0
SPLINE
5
18A
100
AcDbEntity
8
1
62
256
6
ByLayer
370
13
48
1
60
0
100
AcDbSpline
70
4
71
3
72
8
73
4
40
0
40
0
40
0
40
0
40
1
40
1
40
1
40
1
41
1
10
33.3582665042275
20
-1.7916091454137
30
0
41
1
10
33.3515452911909
20
-1.79888853901588
30
0
41
1
10
33.3437211106933
20
-1.80765631511818
30
0
41
1
10
33.3350869923575
20
-1.81758886749859
30
0
0
SPLINE
5
18B
100
AcDbEntity
8
1
62
256
6
ByLayer
370
13
48
1
60
0
100
AcDbSpline
70
4
71
3
72
14
73
10
40
0
40
0
40
0
40
0
40
0.448208770210974
40
0.448208770210974
40
0.913122348259776
40
0.913122348259776
40
0.983427664880478
40
0.983427664880478
40
1
40
1
40
1
40
1
41
1
10
33.3350869923623
20
-1.81758886750282
30
0
41
1
10
33.3215455531755
20
-1.83316672375918
30
0
41
1
10
33.305341588264
20
-1.851795795838
30
0
41
1
10
33.2698920668223
20
-1.89250928593583
30
0
41
1
10
33.2499835745949
20
-1.91535310561716
30
0
41
1
10
33.2270726024479
20
-1.94161336427999
30
0
41
1
10
33.2240126344075
20
-1.9451201036025
30
0
41
1
10
33.2202420283414
20
-1.94944054967388
30
0
41
1
10
33.2195314790725
20
-1.95025465305452
30
0
41
1
10
33.2188209596159
20
-1.95106875232966
30
0
0
SPLINE
5
18C
100
AcDbEntity
8
1
62
256
6
ByLayer
370
13
48
1
60
0
100
AcDbSpline
70
4
71
3
72
14
73
10
40
0
40
0
40
0
40
0
40
0.448209783482341
40
0.448209783482341
40
0.913122824433937
40
0.913122824433937
40
0.983427843025058
40
0.983427843025058
40
1
40
1
40
1
40
1
41
1
10
33.3951729104533
20
-0.0642670223120376
30
0
41
1
10
33.3746094473681
20
-0.0624785464435718
30
0
41
1
10
33.3500116922507
20
-0.0603392878397528
30
0
41
1
10
33.2962303412136
20
-0.0556622737301495
30
0
41
1
10
33.2660425013692
20
-0.0530372014636953
30
0
41
1
10
33.2313234526433
20
-0.0500183352356203
30
0
41
1
10
33.2266868400137
20
-0.0496151802339
30
0
41
1
10
33.2209739567194
20
-0.049118448671976
30
0
41
1
10
33.2198974468538
20
-0.049024847307237
30
0
41
1
10
33.2188209596194
20
-0.0489312476692305
30
0
0
SPLINE
5
18D
100
AcDbEntity
8
1
62
256
6
ByLayer
370
13
48
1
60
0
100
AcDbSpline
70
4
71
3
72
14
73
10
40
0
40
0
40
0
40
0
40
0.448208770210974
40
0.448208770210974
40
0.913122348259776
40
0.913122348259776
40
0.983427664880478
40
0.983427664880478
40
1
40
1
40
1
40
1
41
1
10
33.3350869923623
20
-0.182411132497208
30
0
41
1
10
33.3215455531755
20
-0.166833276240851
30
0
41
1
10
33.305341588264
20
-0.148204204162028
30
0
41
1
10
33.2698920668223
20
-0.107490714064198
30
0
41
1
10
33.2499835745949
20
-0.0846468943828711
30
0
41
1
10
33.2270726024479
20
-0.0583866357200407
30
0
41
1
10
33.2240126344075
20
-0.054879896397523
30
0
41
1
10
33.2202420283414
20
-0.0505594503261477
30
0
41
1
10
33.2195314790725
20
-0.0497453469455138
30
0
41
1
10
33.2188209596159
20
-0.0489312476703674
30
0
0
SPLINE
5
18E
100
AcDbEntity
8
1
62
256
6
ByLayer
370
13
48
1
60
0
100
AcDbSpline
70
4
71
3
72
14
73
10
40
0
40
0
40
0
40
0
40
0.448209783482341
40
0.448209783482341
40
0.913122824433937
40
0.913122824433937
40
0.983427843025058
40
0.983427843025058
40
1
40
1
40
1
40
1
41
1
10
33.3951729104533
20
-1.93573297768799
30
0
41
1
10
33.3746094473681
20
-1.93752145355646
30
0
41
1
10
33.3500116922507
20
-1.93966071216028
30
0
41
1
10
33.2962303412136
20
-1.94433772626988
30
0
41
1
10
33.2660425013692
20
-1.94696279853633
30
0
41
1
10
33.2313234526433
20
-1.94998166476441
30
0
41
1
10
33.2266868400137
20
-1.95038481976613
30
0
41
1
10
33.2209739567194
20
-1.95088155132805
30
0
41
1
10
33.2198974468538
20
-1.95097515269279
30
0
41
1
10
33.2188209596194
20
-1.9510687523308
30
0
0
SPLINE
5
18F
100
AcDbEntity
8
1
62
256
6
ByLayer
370
13
48
1
60
0
100
AcDbSpline
70
4
71
3
72
8
73
4
40
0
40
0
40
0
40
0
40
1
40
1
40
1
40
1
41
1
10
33.3582665042275
20
-0.208390854586327
30
0
41
1
10
33.3515452911909
20
-0.201111460984151
30
0
41
1
10
33.3437211106933
20
-0.192343684881848
30
0
41
1
10
33.3350869923575
20
-0.182411132501443
30
0
0
SPLINE
5
190
100
AcDbEntity
8
1
62
256
6
ByLayer
370
13
48
1
60
0
100
AcDbSpline
70
4
71
3
72
12
73
8
40
0
40
0
40
0
40
0
40
0.37350315843554
40
0.37350315843554
40
0.795694705497851
40
0.795694705497851
40
1
40
1
40
1
40
1
41
1
10
33.059385679813
20
-0.536408072716625
30
0
41
1
10
33.0710534635609
20
-0.542290576280749
30
0
41
1
10
33.0816831597665
20
-0.549222960104146
30
0
41
1
10
33.1006200088993
20
-0.56665688539502
30
0
41
1
10
33.1085333602959
20
-0.577737565528167
30
0
41
1
10
33.1143528017274
20
-0.596936083603822
30
0
41
1
10
33.1153239472322
20
-0.603719992000833
30
0
41
1
10
33.1152169044539
20
-0.610839099115935
30
0
0
SPLINE
5
191
100
AcDbEntity
8
1
62
256
6
ByLayer
370
13
48
1
60
0
100
AcDbSpline
70
4
71
3
72
12
73
8
40
0
40
0
40
0
40
0
40
0.0542763744367155
40
0.0542763744367155
40
0.496521492455521
40
0.496521492455521
40
1
40
1
40
1
40
1
41
1
10
33.1152169044538
20
-0.610839099115992
30
0
41
1
10
33.1151561390062
20
-0.614880434152326
30
0
41
1
10
33.1151785928067
20
-0.61901562535121
30
0
41
1
10
33.116167948326
20
-0.657062107595294
30
0
41
1
10
33.1229550923539
20
-0.697337107287183
30
0
41
1
10
33.1518066817856
20
-0.786507676266183
30
0
41
1
10
33.1764269684705
20
-0.837477992455604
30
0
41
1
10
33.2087083957605
20
-0.884123031130514
30
0
0
SPLINE
5
192
100
AcDbEntity
8
1
62
256
6
ByLayer
370
13
48
1
60
0
100
AcDbSpline
70
4
71
3
72
16
73
12
40
0
40
0
40
0
40
0
40
0.298315131809684
40
0.298315131809684
40
0.533632825549725
40
0.533632825549725
40
0.64077898617517
40
0.64077898617517
40
0.930881665385067
40
0.930881665385067
40
1
40
1
40
1
40
1
41
1
10
33.2087083957605
20
-0.884123031130514
30
0
41
1
10
33.2224586946462
20
-0.903991521380107
30
0
41
1
10
33.2344062486955
20
-0.926075415521098
30
0
41
1
10
33.2474662168349
20
-0.968431187886665
30
0
41
1
10
33.2502777390208
20
-0.988623845841886
30
0
41
1
10
33.2488025034954
20
-1.01739593378653
30
0
41
1
10
33.2475581030794
20
-1.026478270627
30
0
41
1
10
33.2404854878039
20
-1.05897160653507
30
0
41
1
10
33.230331619189
20
-1.08145277276822
30
0
41
1
10
33.2150440331609
20
-1.10645957618692
30
0
41
1
10
33.2119321889307
20
-1.11121874989536
30
0
41
1
10
33.2087083957605
20
-1.11587696886951
30
0
0
SPLINE
5
193
100
AcDbEntity
8
1
62
256
6
ByLayer
370
13
48
1
60
0
100
AcDbSpline
70
4
71
3
72
12
73
8
40
0
40
0
40
0
40
0
40
0.072400628024118
40
0.072400628024118
40
0.542681200842481
40
0.542681200842481
40
1
40
1
40
1
40
1
41
1
10
33.2087083957605
20
-1.11587696886951
30
0
41
1
10
33.2039784382181
20
-1.1227115196009
30
0
41
1
10
33.1994173867099
20
-1.12961841582251
30
0
41
1
10
33.1670358688112
20
-1.18100142314458
30
0
41
1
10
33.1459582481575
20
-1.22845368565001
30
0
41
1
10
33.120221996636
20
-1.31506106745383
30
0
41
1
10
33.1147143497319
20
-1.35573743269907
30
0
41
1
10
33.1152169044538
20
-1.38916090088418
30
0
0
SPLINE
5
194
100
AcDbEntity
8
1
62
256
6
ByLayer
370
13
48
1
60
0
100
AcDbSpline
70
4
71
3
72
10
73
6
40
0
40
0
40
0
40
0
40
0.334030053675942
40
0.334030053675942
40
1
40
1
40
1
40
1
41
1
10
33.1152169044538
20
-1.38916090088418
30
0
41
1
10
33.1153918659962
20
-1.40079708952155
30
0
41
1
10
33.112626158964
20
-1.41153959536169
30
0
41
1
10
33.0979583359749
20
-1.43933507962265
30
0
41
1
10
33.0800208663975
20
-1.45318836125469
30
0
41
1
10
33.059385679813
20
-1.4635919272834
30
0
0
SPLINE
5
195
100
AcDbEntity
8
1
62
256
6
ByLayer
370
13
48
1
60
0
100
AcDbSpline
70
4
71
3
72
8
73
4
40
0
40
0
40
0
40
0
40
1
40
1
40
1
40
1
41
1
10
32.0664455980651
20
-1.38639691040783
30
0
41
1
10
32.0610646480122
20
-1.36589479801796
30
0
41
1
10
32.0558908241367
20
-1.34283967198499
30
0
41
1
10
32.0526147090177
20
-1.31784340304034
30
0
0
SPLINE
5
196
100
AcDbEntity
8
1
62
256
6
ByLayer
370
13
48
1
60
0
100
AcDbSpline
70
4
71
3
72
8
73
4
40
0
40
0
40
0
40
0
40
1
40
1
40
1
40
1
41
1
10
32.0526147090177
20
-1.31784340304034
30
0
41
1
10
32.0731026391489
20
-1.31207168206856
30
0
41
1
10
32.0938876855838
20
-1.30669079672063
30
0
41
1
10
32.1148664719513
20
-1.30166464877593
30
0
0
SPLINE
5
197
100
AcDbEntity
8
1
62
256
6
ByLayer
370
13
48
1
60
0
100
AcDbSpline
70
4
71
3
72
8
73
4
40
0
40
0
40
0
40
0
40
1
40
1
40
1
40
1
41
1
10
32.1148664719505
20
-1.30166464877129
30
0
41
1
10
32.1178417098663
20
-1.30095183413687
30
0
41
1
10
32.1208179657885
20
-1.3002392941558
30
0
41
1
10
32.123795214021
20
-1.29952702287551
30
0
0
SPLINE
5
198
100
AcDbEntity
8
1
62
256
6
ByLayer
370
13
48
1
60
0
100
AcDbSpline
70
4
71
3
72
28
73
24
40
0
40
0
40
0
40
0
40
0.0824331628013926
40
0.0824331628013926
40
0.235485992714892
40
0.235485992714892
40
0.365353750303328
40
0.365353750303328
40
0.450881865339947
40
0.450881865339947
40
0.480850336949852
40
0.480850336949852
40
0.574325592928214
40
0.574325592928214
40
0.597106041801673
40
0.597106041801673
40
0.701976945932075
40
0.701976945932075
40
0.720205522192435
40
0.720205522192435
40
0.850377367168771
40
0.850377367168771
40
1
40
1
40
1
40
1
41
1
10
32.123795214021
20
-1.29952702287551
30
0
41
1
10
32.147791077577
20
-1.29378629750684
30
0
41
1
10
32.1712519946268
20
-1.28656605484699
30
0
41
1
10
32.2351496262034
20
-1.26134891309906
30
0
41
1
10
32.2740994363458
20
-1.23898104176055
30
0
41
1
10
32.3349325388924
20
-1.18529451684151
30
0
41
1
10
32.3592944515774
20
-1.15496767914789
30
0
41
1
10
32.3879457247085
20
-1.09746690196053
30
0
41
1
10
32.3964642542704
20
-1.07212529897146
30
0
41
1
10
32.4026326894441
20
-1.03684846197487
30
0
41
1
10
32.4037700606155
20
-1.02747480493136
30
0
41
1
10
32.4063614612622
20
-0.989233174993103
30
0
41
1
10
32.4034520633988
20
-0.959437097652994
30
0
41
1
10
32.3943898978956
20
-0.924986601100841
30
0
41
1
10
32.3923244016579
20
-0.918232749878285
30
0
41
1
10
32.3795450947273
20
-0.881572930500397
30
0
41
1
10
32.3637586656491
20
-0.853732471331512
30
0
41
1
10
32.3414347991992
20
-0.825553583648201
30
0
41
1
10
32.337982466813
20
-0.821433422885036
30
0
41
1
10
32.3094104165165
20
-0.789115806956403
30
0
41
1
10
32.2792041383534
20
-0.765762469235227
30
0
41
1
10
32.208915041613
20
-0.726123267052145
30
0
41
1
10
32.1671153730992
20
-0.710836810691717
30
0
41
1
10
32.123795214021
20
-0.70047297712452
30
0
0
SPLINE
5
199
100
AcDbEntity
8
1
62
256
6
ByLayer
370
13
48
1
60
0
100
AcDbSpline
70
4
71
3
72
8
73
4
40
0
40
0
40
0
40
0
40
1
40
1
40
1
40
1
41
1
10
32.123795214021
20
-0.70047297712452
30
0
41
1
10
32.1208179657885
20
-0.699760705844227
30
0
41
1
10
32.1178417098663
20
-0.699048165863161
30
0
41
1
10
32.1148664719505
20
-0.698335351228707
30
0
0
SPLINE
5
19A
100
AcDbEntity
8
1
62
256
6
ByLayer
370
13
48
1
60
0
100
AcDbSpline
70
4
71
3
72
8
73
4
40
0
40
0
40
0
40
0
40
1
40
1
40
1
40
1
41
1
10
32.1148664719505
20
-0.698335351228707
30
0
41
1
10
32.093887685583
20
-0.693309203284031
30
0
41
1
10
32.0731026391491
20
-0.687928317926634
30
0
41
1
10
32.0526147090179
20
-0.682156596954826
30
0
0
SPLINE
5
19B
100
AcDbEntity
8
1
62
256
6
ByLayer
370
13
48
1
60
0
100
AcDbSpline
70
4
71
3
72
10
73
6
40
0
40
0
40
0
40
0
40
0.151242748517103
40
0.151242748517103
40
1
40
1
40
1
40
1
41
1
10
32.0526147090177
20
-0.682156596959686
30
0
41
1
10
32.0531149923946
20
-0.678339509530417
30
0
41
1
10
32.0536590318523
20
-0.674569253603408
30
0
41
1
10
32.0574716522986
20
-0.650188628271138
30
0
41
1
10
32.0618827558909
20
-0.630988105649266
30
0
41
1
10
32.0664455980651
20
-0.613603089592232
30
0
0
SPLINE
5
19C
100
AcDbEntity
8
1
62
256
6
ByLayer
370
13
48
1
60
0
100
AcDbSpline
70
4
71
3
72
14
73
10
40
0
40
0
40
0
40
0
40
0.0180992437321471
40
0.0180992437321471
40
0.327555555031554
40
0.327555555031554
40
0.783089016631575
40
0.783089016631575
40
1
40
1
40
1
40
1
41
1
10
33.0074254881241
20
-0.492131888083861
30
0
41
1
10
33.0084604407255
20
-0.491868030885144
30
0
41
1
10
33.0094951241647
20
-0.491597675853626
30
0
41
1
10
33.0281664148289
20
-0.486598841480515
30
0
41
1
10
33.0457666302326
20
-0.479939410985395
30
0
41
1
10
33.0877311305171
20
-0.459253373252977
30
0
41
1
10
33.1118879593938
20
-0.4429772893657
30
0
41
1
10
33.1442130974434
20
-0.414514653398669
30
0
41
1
10
33.1542531544874
20
-0.40454130255543
30
0
41
1
10
33.1636948430209
20
-0.393977532464504
30
0
0
SPLINE
5
19D
100
AcDbEntity
8
1
62
256
6
ByLayer
370
13
48
1
60
0
100
AcDbSpline
70
4
71
3
72
12
73
8
40
0
40
0
40
0
40
0
40
0.0182847240742239
40
0.0182847240742239
40
0.429358008400497
40
0.429358008400497
40
1
40
1
40
1
40
1
41
1
10
33.0074254881188
20
-1.5078681119227
30
0
41
1
10
33.0084604407251
20
-1.50813196911932
30
0
41
1
10
33.0094951241747
20
-1.50840232414532
30
0
41
1
10
33.0339733233843
20
-1.51495583276042
30
0
41
1
10
33.0574007313325
20
-1.52469513839307
30
0
41
1
10
33.1101056255246
20
-1.55485505831396
30
0
41
1
10
33.1391079375758
20
-1.57851357276039
30
0
41
1
10
33.1636948430209
20
-1.60602246753552
30
0
0
SPLINE
5
19E
100
AcDbEntity
8
1
62
256
6
ByLayer
370
13
48
1
60
0
100
AcDbSpline
70
4
71
3
72
16
73
12
40
0
40
0
40
0
40
0
40
0.266114531305344
40
0.266114531305344
40
0.459598281789052
40
0.459598281789052
40
0.654681344527544
40
0.654681344527544
40
0.849490422247785
40
0.849490422247785
40
1
40
1
40
1
40
1
41
1
10
31.982572519129
20
-0.459044325429119
30
0
41
1
10
31.9735711562898
20
-0.462615776952106
30
0
41
1
10
31.964076996927
20
-0.46515188176457
30
0
41
1
10
31.9475300168957
20
-0.466616821611609
30
0
41
1
10
31.9404025170202
20
-0.466328190611762
30
0
41
1
10
31.9266373127103
20
-0.463443639303563
30
0
41
1
10
31.9198551395321
20
-0.46077142096604
30
0
41
1
10
31.9077423483697
20
-0.453183958555059
30
0
41
1
10
31.9022610792339
20
-0.448182278587609
30
0
41
1
10
31.8941824291229
20
-0.438048599006862
30
0
41
1
10
31.891139239586
20
-0.433132010845611
30
0
41
1
10
31.8886123585658
20
-0.42797606075078
30
0
0
SPLINE
5
19F
100
AcDbEntity
8
1
62
256
6
ByLayer
370
13
48
1
60
0
100
AcDbSpline
70
4
71
3
72
8
73
4
40
0
40
0
40
0
40
0
40
1
40
1
40
1
40
1
41
1
10
31.8886123585655
20
-0.427976060751007
30
0
41
1
10
31.8362826886598
20
-0.321200488670598
30
0
41
1
10
31.7808772994326
20
-0.21569322283662
30
0
41
1
10
31.7172833606158
20
-0.116082762486286
30
0
0
SPLINE
5
1A0
100
AcDbEntity
8
1
62
256
6
ByLayer
370
13
48
1
60
0
100
AcDbSpline
70
4
71
3
72
8
73
4
40
0
40
0
40
0
40
0
40
1
40
1
40
1
40
1
41
1
10
31.7172833606115
20
-1.88391723752747
30
0
41
1
10
31.7808772994312
20
-1.78430677717353
30
0
41
1
10
31.8362826886578
20
-1.67879951133366
30
0
41
1
10
31.8886123585655
20
-1.57202393924905
30
0
0
SPLINE
5
1A1
100
AcDbEntity
8
1
62
256
6
ByLayer
370
13
48
1
60
0
100
AcDbSpline
70
4
71
3
72
16
73
12
40
0
40
0
40
0
40
0
40
0.0863584761048735
40
0.0863584761048735
40
0.277083676707827
40
0.277083676707827
40
0.497685001356078
40
0.497685001356078
40
0.715930577764417
40
0.715930577764417
40
1
40
1
40
1
40
1
41
1
10
31.8886123585655
20
-1.57202393924908
30
0
41
1
10
31.8900705944436
20
-1.5690484958651
30
0
41
1
10
31.8916961209683
20
-1.5661579434387
30
0
41
1
10
31.8974070451895
20
-1.55735691232343
30
0
41
1
10
31.9022173965363
20
-1.55184732128475
30
0
41
1
10
31.9139979851071
20
-1.54226911343253
30
0
41
1
10
31.9213908281853
20
-1.53843037778546
30
0
41
1
10
31.9366464624699
20
-1.5340357553045
30
0
41
1
10
31.944705300207
20
-1.53334602098298
30
0
41
1
10
31.9627947729503
20
-1.53451115101674
30
0
41
1
10
31.9729718531551
20
-1.53714643882222
30
0
41
1
10
31.982572519129
20
-1.54095567457094
30
0
0
SPLINE
5
1A2
100
AcDbEntity
8
1
62
256
6
ByLayer
370
13
48
1
60
0
100
AcDbSpline
70
4
71
3
72
8
73
4
40
0
40
0
40
0
40
0
40
1
40
1
40
1
40
1
41
1
10
33.0074254881232
20
-0.49213188808119
30
0
41
1
10
33.0252541290505
20
-0.506788750328155
30
0
41
1
10
33.042634420939
20
-0.521538635230911
30
0
41
1
10
33.059385679813
20
-0.536408072716625
30
0
0
SPLINE
5
1A3
100
AcDbEntity
8
1
62
256
6
ByLayer
370
13
48
1
60
0
100
AcDbSpline
70
4
71
3
72
8
73
4
40
0
40
0
40
0
40
0
40
1
40
1
40
1
40
1
41
1
10
33.3968964503546
20
-1.93536379658193
30
0
41
1
10
33.3963107228281
20
-1.93535040188166
30
0
41
1
10
33.3957150920118
20
-1.93545723342979
30
0
41
1
10
33.3951729104351
20
-1.9357329769127
30
0
0
SPLINE
5
1A4
100
AcDbEntity
8
1
62
256
6
ByLayer
370
13
48
1
60
0
100
AcDbSpline
70
4
71
3
72
8
73
4
40
0
40
0
40
0
40
0
40
1
40
1
40
1
40
1
41
1
10
33.059385679813
20
-1.4635919272834
30
0
41
1
10
33.042634420939
20
-1.47846136476912
30
0
41
1
10
33.0252541290505
20
-1.49321124967187
30
0
41
1
10
33.0074254881232
20
-1.50786811191884
30
0
0
SPLINE
5
1A5
100
AcDbEntity
8
1
62
256
6
ByLayer
370
13
48
1
60
0
100
AcDbSpline
70
4
71
3
72
8
73
4
40
0
40
0
40
0
40
0
40
1
40
1
40
1
40
1
41
1
10
33.3968964503546
20
-0.0646362034181038
30
0
41
1
10
33.3963107228281
20
-0.0646495981183648
30
0
41
1
10
33.3957150920118
20
-0.0645427665702414
30
0
41
1
10
33.3951729104351
20
-0.064267023087325
30
0
0
SPLINE
5
1A6
100
AcDbEntity
8
1
62
256
6
ByLayer
370
13
48
1
60
0
100
AcDbSpline
70
4
71
3
72
8
73
4
40
0
40
0
40
0
40
0
40
1
40
1
40
1
40
1
41
1
10
33.4981203716814
20
-1.93343347795707
30
0
41
1
10
33.4644516713932
20
-1.93541099185862
30
0
41
1
10
33.4306859121295
20
-1.93613651032925
30
0
41
1
10
33.3968964503549
20
-1.93536379658195
30
0
0
SPLINE
5
1A7
100
AcDbEntity
8
1
62
256
6
ByLayer
370
13
48
1
60
0
100
AcDbSpline
70
4
71
3
72
8
73
4
40
0
40
0
40
0
40
0
40
1
40
1
40
1
40
1
41
1
10
33.4981203716814
20
-0.0665665220429617
30
0
41
1
10
33.4644516713932
20
-0.0645890081414109
30
0
41
1
10
33.4306859121295
20
-0.0638634896707799
30
0
41
1
10
33.3968964503549
20
-0.0646362034180754
30
0
0
SPLINE
5
1A8
100
AcDbEntity
8
1
62
256
6
ByLayer
370
13
48
1
60
0
100
AcDbSpline
70
4
71
3
72
12
73
8
40
0
40
0
40
0
40
0
40
0.4751334286001
40
0.4751334286001
40
0.932572567163114
40
0.932572567163114
40
1
40
1
40
1
40
1
41
1
10
33.263287728043
20
-1.42637866686383
30
0
41
1
10
33.268170611684
20
-1.39838990330017
30
0
41
1
10
33.2754113106086
20
-1.36310823139252
30
0
41
1
10
33.2979694230474
20
-1.28667698100807
30
0
41
1
10
33.3132711544947
20
-1.2448097161097
30
0
41
1
10
33.3372384178264
20
-1.19762931915528
30
0
41
1
10
33.340483523696
20
-1.1915026238872
30
0
41
1
10
33.3438616980138
20
-1.18540315019502
30
0
0
SPLINE
5
1A9
100
AcDbEntity
8
1
62
256
6
ByLayer
370
13
48
1
60
0
100
AcDbSpline
70
4
71
3
72
12
73
8
40
0
40
0
40
0
40
0
40
0.317065405549387
40
0.317065405549387
40
0.935122454125188
40
0.935122454125188
40
1
40
1
40
1
40
1
41
1
10
33.3438616980199
20
-1.18540315019999
30
0
41
1
10
33.4265429048384
20
-1.20202516837335
30
0
41
1
10
33.5144360245087
20
-1.22030972505223
30
0
41
1
10
33.782412259695
20
-1.27751526595944
30
0
41
1
10
33.9751745905629
20
-1.32050918919262
30
0
41
1
10
34.1879205279658
20
-1.37033954232939
30
0
41
1
10
34.2084174418277
20
-1.37516535078706
30
0
41
1
10
34.2289221872925
20
-1.3800199051644
30
0
0
SPLINE
5
1AA
100
AcDbEntity
8
1
62
256
6
ByLayer
370
13
48
1
60
0
100
AcDbSpline
70
4
71
3
72
12
73
8
40
0
40
0
40
0
40
0
40
0.485156157749666
40
0.485156157749666
40
0.94199112372415
40
0.94199112372415
40
1
40
1
40
1
40
1
41
1
10
33.3438616980129
20
-0.814596849803706
30
0
41
1
10
33.3199171752548
20
-0.771363738397071
30
0
41
1
10
33.302462416397
20
-0.726351529477199
30
0
41
1
10
33.2781770476215
20
-0.64785948386475
30
0
41
1
10
33.2704660180375
20
-0.612817098888058
30
0
41
1
10
33.2645310175682
20
-0.580656305993216
30
0
41
1
10
33.2638924892732
20
-0.577087833738517
30
0
41
1
10
33.2632877280431
20
-0.57362133313643
30
0
0
SPLINE
5
1AB
100
AcDbEntity
8
1
62
256
6
ByLayer
370
13
48
1
60
0
100
AcDbSpline
70
4
71
3
72
12
73
8
40
0
40
0
40
0
40
0
40
0.317065405549387
40
0.317065405549387
40
0.935122454125188
40
0.935122454125188
40
1
40
1
40
1
40
1
41
1
10
33.3438616980199
20
-0.81459684980004
30
0
41
1
10
33.4265429048384
20
-0.797974831626675
30
0
41
1
10
33.5144360245087
20
-0.779690274947797
30
0
41
1
10
33.782412259695
20
-0.722484734040592
30
0
41
1
10
33.9751745905629
20
-0.679490810807408
30
0
41
1
10
34.1879205279658
20
-0.62966045767061
30
0
41
1
10
34.2084174418277
20
-0.624834649212971
30
0
41
1
10
34.2289221872925
20
-0.619980094835626
30
0
0
SPLINE
5
1AC
100
AcDbEntity
8
1
62
256
6
ByLayer
370
13
48
1
60
0
100
AcDbSpline
70
4
71
3
72
16
73
12
40
0
40
0
40
0
40
0
40
0.261377990657867
40
0.261377990657867
40
0.481934515979472
40
0.481934515979472
40
0.715311182526725
40
0.715311182526725
40
0.913572471675964
40
0.913572471675964
40
1
40
1
40
1
40
1
41
1
10
32.0664455980651
20
-1.38639691040783
30
0
41
1
10
32.0382650854169
20
-1.38414244604874
30
0
41
1
10
32.009482210257
20
-1.38531824841201
30
0
41
1
10
31.9583119591351
20
-1.39378733315326
30
0
41
1
10
31.9352599904951
20
-1.40016408823723
30
0
41
1
10
31.8908020800965
20
-1.41803562112457
30
0
41
1
10
31.8691978826307
20
-1.4299641903429
30
0
41
1
10
31.8336106141681
20
-1.4562362484794
30
0
41
1
10
31.8187432156444
20
-1.47011718678039
30
0
41
1
10
31.8003266032143
20
-1.49197986457031
30
0
41
1
10
31.7950841229876
20
-1.49891854086314
30
0
41
1
10
31.7902464010371
20
-1.50608581019651
30
0
0
SPLINE
5
1AD
100
AcDbEntity
8
1
62
256
6
ByLayer
370
13
48
1
60
0
100
AcDbSpline
70
4
71
3
72
16
73
12
40
0
40
0
40
0
40
0
40
0.151923161221768
40
0.151923161221768
40
0.356831087868239
40
0.356831087868239
40
0.562343627100699
40
0.562343627100699
40
0.755962877954035
40
0.755962877954035
40
1
40
1
40
1
40
1
41
1
10
31.7902464010371
20
-0.493914189803576
30
0
41
1
10
31.7987219344628
20
-0.506471015397779
30
0
41
1
10
31.8084607018454
20
-0.518342294361787
30
0
41
1
10
31.8337693949216
20
-0.543977180835952
30
0
41
1
10
31.8503767517157
20
-0.557146154975754
30
0
41
1
10
31.8864721144675
20
-0.579524374754186
30
0
41
1
10
31.9062083156533
20
-0.588875267437544
30
0
41
1
10
31.9462120188595
20
-0.602895154126116
30
0
41
1
10
31.9666130313181
20
-0.607888164253296
30
0
41
1
10
32.0132843685346
20
-0.614826667552137
30
0
41
1
10
32.0401191697389
20
-0.615709225669576
30
0
41
1
10
32.0664455980651
20
-0.613603089592232
30
0
0
SPLINE
5
1AE
100
AcDbEntity
8
1
62
256
6
ByLayer
370
13
48
1
60
0
100
AcDbSpline
70
4
71
3
72
10
73
6
40
0
40
0
40
0
40
0
40
0.416310615910619
40
0.416310615910619
40
1
40
1
40
1
40
1
41
1
10
31.7887490202787
20
-1.3679978802821
30
0
41
1
10
31.7881183420049
20
-1.38831202077401
30
0
41
1
10
31.787913339444
20
-1.40826858760568
30
0
41
1
10
31.7882249830662
20
-1.45487449309619
30
0
41
1
10
31.7890616222185
20
-1.4811415872154
30
0
41
1
10
31.7902464010371
20
-1.50608581019651
30
0
0
SPLINE
5
1AF
100
AcDbEntity
8
1
62
256
6
ByLayer
370
13
48
1
60
0
100
AcDbSpline
70
4
71
3
72
8
73
4
40
0
40
0
40
0
40
0
40
1
40
1
40
1
40
1
41
1
10
31.7887490202787
20
-1.3679978802821
30
0
41
1
10
31.8019833816743
20
-1.36122872097627
30
0
41
1
10
31.8170039201152
20
-1.35421770061561
30
0
41
1
10
31.8333034256004
20
-1.34737851195754
30
0
0
SPLINE
5
1B0
100
AcDbEntity
8
1
62
256
6
ByLayer
370
13
48
1
60
0
100
AcDbSpline
70
4
71
3
72
14
73
10
40
0
40
0
40
0
40
0
40
0.374928384423448
40
0.374928384423448
40
0.811710849728661
40
0.811710849728661
40
0.984903138272893
40
0.984903138272893
40
1
40
1
40
1
40
1
41
1
10
31.8333034255968
20
-1.34737851196132
30
0
41
1
10
31.8561224099593
20
-1.33780378350309
30
0
41
1
10
31.8818640226196
20
-1.33014298690145
30
0
41
1
10
31.9403666129891
20
-1.31862377946075
30
0
41
1
10
31.9743985825837
20
-1.31543391454483
30
0
41
1
10
32.0218660913331
20
-1.3157302747405
30
0
41
1
10
32.0355336219256
20
-1.31635384408534
30
0
41
1
10
32.0502708355023
20
-1.3176282314557
30
0
41
1
10
32.0514431034481
20
-1.31773359145794
30
0
41
1
10
32.0526147090185
20
-1.31784340304009
30
0
0
SPLINE
5
1B1
100
AcDbEntity
8
1
62
256
6
ByLayer
370
13
48
1
60
0
100
AcDbSpline
70
4
71
3
72
14
73
10
40
0
40
0
40
0
40
0
40
0.437747259254554
40
0.437747259254554
40
0.876374424145627
40
0.876374424145627
40
0.984868425798996
40
0.984868425798996
40
1
40
1
40
1
40
1
41
1
10
31.8333034255968
20
-0.652621488038704
30
0
41
1
10
31.8598845893819
20
-0.663774807631455
30
0
41
1
10
31.8905059503584
20
-0.672337281842033
30
0
41
1
10
31.9548008624908
20
-0.683011293679357
30
0
41
1
10
31.9893598844025
20
-0.685255341008912
30
0
41
1
10
32.0320199308042
20
-0.683730178561518
30
0
41
1
10
32.040577126936
20
-0.683210023372993
30
0
41
1
10
32.0502708354997
20
-0.682371768502321
30
0
41
1
10
32.0514431034474
20
-0.682266408531518
30
0
41
1
10
32.0526147090185
20
-0.682156596959942
30
0
0
SPLINE
5
1B2
100
AcDbEntity
8
1
62
256
6
ByLayer
370
13
48
1
60
0
100
AcDbSpline
70
4
71
3
72
8
73
4
40
0
40
0
40
0
40
0
40
1
40
1
40
1
40
1
41
1
10
31.7887490202787
20
-0.632002119717924
30
0
41
1
10
31.8019833816743
20
-0.638771279023757
30
0
41
1
10
31.8170039201152
20
-0.645782299384422
30
0
41
1
10
31.8333034256004
20
-0.652621488042485
30
0
0
SPLINE
5
1B3
100
AcDbEntity
8
1
62
256
6
ByLayer
370
13
48
1
60
0
100
AcDbSpline
70
4
71
3
72
10
73
6
40
0
40
0
40
0
40
0
40
0.583689384089929
40
0.583689384089929
40
1
40
1
40
1
40
1
41
1
10
31.7902464010371
20
-0.493914189803576
30
0
41
1
10
31.7890616222185
20
-0.518858412784653
30
0
41
1
10
31.7882249830662
20
-0.545125506903844
30
0
41
1
10
31.787913339444
20
-0.591731412394324
30
0
41
1
10
31.7881183420068
20
-0.61168797922403
30
0
41
1
10
31.7887490202806
20
-0.632002119715906
30
0
0
SPLINE
5
1B4
100
AcDbEntity
8
1
62
256
6
ByLayer
370
13
48
1
60
0
100
AcDbSpline
70
4
71
3
72
12
73
8
40
0
40
0
40
0
40
0
40
0.0293465478546648
40
0.0293465478546648
40
0.716199296865611
40
0.716199296865611
40
1
40
1
40
1
40
1
41
1
10
31.7172833606159
20
-0.116082762486229
30
0
41
1
10
31.7164151127
20
-0.116611952291351
30
0
41
1
10
31.7155496765878
20
-0.117141061802556
30
0
41
1
10
31.6947885333711
20
-0.129882755124868
30
0
41
1
10
31.6762446429395
20
-0.142313950660792
30
0
41
1
10
31.6544391961912
20
-0.158516865772242
30
0
41
1
10
31.6484807608144
20
-0.163174398408216
30
0
41
1
10
31.6431084369488
20
-0.167620344093763
30
0
0
SPLINE
5
1B5
100
AcDbEntity
8
1
62
256
6
ByLayer
370
13
48
1
60
0
100
AcDbSpline
70
4
71
3
72
8
73
4
40
0
40
0
40
0
40
0
40
1
40
1
40
1
40
1
41
1
10
31.6347524090111
20
-0.174015668654107
30
0
41
1
10
31.6914003240087
20
-0.278092982464585
30
0
41
1
10
31.7417769804954
20
-0.385688353982601
30
0
41
1
10
31.7902464010371
20
-0.493914189803576
30
0
0
SPLINE
5
1B6
100
AcDbEntity
8
1
62
256
6
ByLayer
370
13
48
1
60
0
100
AcDbSpline
70
4
71
3
72
8
73
4
40
0
40
0
40
0
40
0
40
1
40
1
40
1
40
1
41
1
10
31.6431084369488
20
-0.167620344093763
30
0
41
1
10
31.6402587641267
20
-0.169978632777315
30
0
41
1
10
31.6374665445716
20
-0.172115454638998
30
0
41
1
10
31.6347524090111
20
-0.174015668654107
30
0
0
SPLINE
5
1B7
100
AcDbEntity
8
1
62
256
6
ByLayer
370
13
48
1
60
0
100
AcDbSpline
70
4
71
3
72
12
73
8
40
0
40
0
40
0
40
0
40
0.0294712126629231
40
0.0294712126629231
40
0.622158766529877
40
0.622158766529877
40
1
40
1
40
1
40
1
41
1
10
31.7172833606159
20
-1.88391723751383
30
0
41
1
10
31.7164151127001
20
-1.88338804770731
30
0
41
1
10
31.7155496765894
20
-1.88285893819239
30
0
41
1
10
31.6974755734967
20
-1.87176635645878
30
0
41
1
10
31.6812985888191
20
-1.8610592182423
30
0
41
1
10
31.6583964628079
20
-1.84454863385716
30
0
41
1
10
31.6502306848161
20
-1.83827377695499
30
0
41
1
10
31.6431084369488
20
-1.83237965590618
30
0
0
SPLINE
5
1B8
100
AcDbEntity
8
1
62
256
6
ByLayer
370
13
48
1
60
0
100
AcDbSpline
70
4
71
3
72
8
73
4
40
0
40
0
40
0
40
0
40
1
40
1
40
1
40
1
41
1
10
31.6431084369444
20
-1.8323796559163
30
0
41
1
10
31.6402587641224
20
-1.83002136723286
30
0
41
1
10
31.6374665445714
20
-1.82788454536086
30
0
41
1
10
31.6347524090111
20
-1.82598433134598
30
0
0
SPLINE
5
1B9
100
AcDbEntity
8
1
62
256
6
ByLayer
370
13
48
1
60
0
100
AcDbSpline
70
4
71
3
72
8
73
4
40
0
40
0
40
0
40
0
40
1
40
1
40
1
40
1
41
1
10
31.7902464010371
20
-1.50608581019651
30
0
41
1
10
31.7417769804954
20
-1.61431164601745
30
0
41
1
10
31.6914003240087
20
-1.72190701753544
30
0
41
1
10
31.6347524090112
20
-1.82598433134592
30
0
0
SPLINE
5
1BA
100
AcDbEntity
8
1
62
256
6
ByLayer
370
13
48
1
60
0
100
AcDbSpline
70
4
71
3
72
26
73
22
40
0
40
0
40
0
40
0
40
0.0827515238844934
40
0.0827515238844934
40
0.12581559206367
40
0.12581559206367
40
0.250670450127126
40
0.250670450127126
40
0.38565988459967
40
0.38565988459967
40
0.523243120522087
40
0.523243120522087
40
0.658177082710726
40
0.658177082710726
40
0.794420311219042
40
0.794420311219042
40
0.893778828576378
40
0.893778828576378
40
0.931785368228296
40
0.931785368228296
40
1
40
1
40
1
40
1
41
1
10
32.0082223121694
20
-0.802664549634983
30
0
41
1
10
32.0214322023478
20
-0.807227903669627
30
0
41
1
10
32.0338393291367
20
-0.813410384166701
30
0
41
1
10
32.050164463161
20
-0.824711050077099
30
0
41
1
10
32.0554067929997
20
-0.828973600938895
30
0
41
1
10
32.0741182154141
20
-0.846590405386564
30
0
41
1
10
32.0849906535055
20
-0.862355206926509
30
0
41
1
10
32.1024421427667
20
-0.898454897469804
30
0
41
1
10
32.1088810701152
20
-0.919640485885793
30
0
41
1
10
32.1169546526535
20
-0.964264403208034
30
0
41
1
10
32.1185900386567
20
-0.988397999284331
30
0
41
1
10
32.1169724550515
20
-1.03498335983028
30
0
41
1
10
32.1137934005019
20
-1.05811328064087
30
0
41
1
10
32.1026256115211
20
-1.10076983621295
30
0
41
1
10
32.0944617984535
20
-1.12088587256983
30
0
41
1
10
32.0752524001787
20
-1.15105544763961
30
0
41
1
10
32.0653654595556
20
-1.16264511239373
30
0
41
1
10
32.0489068076275
20
-1.17619263643806
30
0
41
1
10
32.0440023231556
20
-1.17971768532001
30
0
41
1
10
32.0295383953429
20
-1.18869409793376
30
0
41
1
10
32.0191535387159
20
-1.19355926024605
30
0
41
1
10
32.0082223121694
20
-1.19733545036505
30
0
0
SPLINE
5
1BB
100
AcDbEntity
8
1
62
256
6
ByLayer
370
13
48
1
60
0
100
AcDbSpline
70
4
71
3
72
12
73
8
40
0
40
0
40
0
40
0
40
0.0293420255455753
40
0.0293420255455753
40
0.716180168206404
40
0.716180168206404
40
1
40
1
40
1
40
1
41
1
10
31.7172833606158
20
-0.116082762486258
30
0
41
1
10
31.7162857859542
20
-0.116164399503305
30
0
41
1
10
31.7152910702585
20
-0.116246029674329
30
0
41
1
10
31.6914121035417
20
-0.118211797935004
30
0
41
1
10
31.6698109573743
20
-0.120126487593524
30
0
41
1
10
31.6439993417919
20
-0.122618484198881
30
0
41
1
10
31.636886377975
20
-0.123334378470503
30
0
41
1
10
31.6304097099877
20
-0.124017366027829
30
0
0
SPLINE
5
1BC
100
AcDbEntity
8
1
62
256
6
ByLayer
370
13
48
1
60
0
100
AcDbSpline
70
4
71
3
72
14
73
10
40
0
40
0
40
0
40
0
40
0.375382008196676
40
0.375382008196676
40
0.812033352237096
40
0.812033352237096
40
0.984956163702167
40
0.984956163702167
40
1
40
1
40
1
40
1
41
1
10
31.8913621168403
20
-1.24954730170336
30
0
41
1
10
31.909071919611
20
-1.24868365443484
30
0
41
1
10
31.9286858369908
20
-1.2515219434602
30
0
41
1
10
31.9723411561591
20
-1.26530792342163
30
0
41
1
10
31.9971677204448
20
-1.27768887976592
30
0
41
1
10
32.0310180351576
20
-1.30068824615262
30
0
41
1
10
32.0406668461475
20
-1.3079473624056
30
0
41
1
10
32.0509791789015
20
-1.31647492623389
30
0
41
1
10
32.0517970365626
20
-1.31715725083217
30
0
41
1
10
32.0526147090192
20
-1.31784340303639
30
0
0
SPLINE
5
1BD
100
AcDbEntity
8
1
62
256
6
ByLayer
370
13
48
1
60
0
100
AcDbSpline
70
4
71
3
72
14
73
10
40
0
40
0
40
0
40
0
40
0.438226381079498
40
0.438226381079498
40
0.876606497754705
40
0.876606497754705
40
0.984922379464605
40
0.984922379464605
40
1
40
1
40
1
40
1
41
1
10
31.8913621168403
20
-0.75045269829667
30
0
41
1
10
31.9119904710236
20
-0.751458673460519
30
0
41
1
10
31.9352526901999
20
-0.747408384767027
30
0
41
1
10
31.9829208610343
20
-0.729797151724057
30
0
41
1
10
32.0079577365153
20
-0.715998013034834
30
0
41
1
10
32.0381767807406
20
-0.693828598433072
30
0
41
1
10
32.0441974945511
20
-0.689133043129829
30
0
41
1
10
32.050979178902
20
-0.683525073766532
30
0
41
1
10
32.0517970365627
20
-0.682842749167975
30
0
41
1
10
32.0526147090192
20
-0.682156596963637
30
0
0
SPLINE
5
1BE
100
AcDbEntity
8
1
62
256
6
ByLayer
370
13
48
1
60
0
100
AcDbSpline
70
4
71
3
72
12
73
8
40
0
40
0
40
0
40
0
40
0.0294665749521175
40
0.0294665749521175
40
0.622136526669372
40
0.622136526669372
40
1
40
1
40
1
40
1
41
1
10
31.7172833606161
20
-1.88391723751374
30
0
41
1
10
31.7162857859714
20
-1.88383560026747
30
0
41
1
10
31.7152910703256
20
-1.88375396940862
30
0
41
1
10
31.6945028901904
20
-1.88204264622999
30
0
41
1
10
31.6756947131271
20
-1.88039311121591
30
0
41
1
10
31.6487161066196
20
-1.87785273964011
30
0
41
1
10
31.6389959740471
20
-1.87688808590036
30
0
41
1
10
31.6304097099877
20
-1.87598263397217
30
0
0
SPLINE
5
1BF
100
AcDbEntity
8
1
62
256
6
ByLayer
370
13
48
1
60
0
100
AcDbSpline
70
4
71
3
72
8
73
4
40
0
40
0
40
0
40
0
40
1
40
1
40
1
40
1
41
1
10
31.8913621168403
20
-0.75045269829667
30
0
41
1
10
31.9259374584495
20
-0.768083369816708
30
0
41
1
10
31.9621644089747
20
-0.784375484532831
30
0
41
1
10
31.9995036654583
20
-0.799244348201711
30
0
0
SPLINE
5
1C0
100
AcDbEntity
8
1
62
256
6
ByLayer
370
13
48
1
60
0
100
AcDbSpline
70
4
71
3
72
8
73
4
40
0
40
0
40
0
40
0
40
1
40
1
40
1
40
1
41
1
10
31.9995036654583
20
-1.20075565179832
30
0
41
1
10
31.9621644089747
20
-1.21562451546717
30
0
41
1
10
31.9259374584495
20
-1.23191663018332
30
0
41
1
10
31.8913621168403
20
-1.24954730170336
30
0
0
SPLINE
5
1C1
100
AcDbEntity
8
1
62
256
6
ByLayer
370
13
48
1
60
0
100
AcDbSpline
70
4
71
3
72
10
73
6
40
0
40
0
40
0
40
0
40
0.848569790661836
40
0.848569790661836
40
1
40
1
40
1
40
1
41
1
10
35.9256934551194
20
-0.375421168777478
30
0
41
1
10
35.8913120258512
20
-0.323579089151764
30
0
41
1
10
35.8438979962596
20
-0.280120460440713
30
0
41
1
10
35.7838192549264
20
-0.238091239616068
30
0
41
1
10
35.774454665912
20
-0.231878437988058
30
0
41
1
10
35.7649581024897
20
-0.225881301836836
30
0
0
SPLINE
5
1C2
100
AcDbEntity
8
1
62
256
6
ByLayer
370
13
48
1
60
0
100
AcDbSpline
70
4
71
3
72
8
73
4
40
0
40
0
40
0
40
0
40
1
40
1
40
1
40
1
41
1
10
35.7649581024897
20
-0.225881301836836
30
0
41
1
10
35.7210882094167
20
-0.198177204049102
30
0
41
1
10
35.6770162605411
20
-0.17078728598463
30
0
41
1
10
35.6326256850655
20
-0.143926740441657
30
0
0
SPLINE
5
1C3
100
AcDbEntity
8
1
62
256
6
ByLayer
370
13
48
1
60
0
100
AcDbSpline
70
4
71
3
72
10
73
6
40
0
40
0
40
0
40
0
40
0.654900204513161
40
0.654900204513161
40
1
40
1
40
1
40
1
41
1
10
35.6326256850655
20
-0.143926740441657
30
0
41
1
10
35.6093808214963
20
-0.129861373866987
30
0
41
1
10
35.5866679047493
20
-0.114628201684837
30
0
41
1
10
35.5550034980856
20
-0.0877877060972594
30
0
41
1
10
35.5445398484845
20
-0.0778011772640355
30
0
41
1
10
35.535515563742
20
-0.0666496405734733
30
0
0
SPLINE
5
1C4
100
AcDbEntity
8
1
62
256
6
ByLayer
370
13
48
1
60
0
100
AcDbSpline
70
4
71
3
72
10
73
6
40
0
40
0
40
0
40
0
40
0.654900204513161
40
0.654900204513161
40
1
40
1
40
1
40
1
41
1
10
35.6326256850655
20
-1.85607325955837
30
0
41
1
10
35.6093808214963
20
-1.87013862613301
30
0
41
1
10
35.5866679047493
20
-1.88537179831519
30
0
41
1
10
35.5550034980856
20
-1.91221229390277
30
0
41
1
10
35.5445398484845
20
-1.92219882273599
30
0
41
1
10
35.535515563742
20
-1.93335035942656
30
0
0
SPLINE
5
1C5
100
AcDbEntity
8
1
62
256
6
ByLayer
370
13
48
1
60
0
100
AcDbSpline
70
4
71
3
72
8
73
4
40
0
40
0
40
0
40
0
40
1
40
1
40
1
40
1
41
1
10
35.7649581024897
20
-1.77411869816319
30
0
41
1
10
35.7210882094167
20
-1.80182279595093
30
0
41
1
10
35.6770162605411
20
-1.8292127140154
30
0
41
1
10
35.6326256850655
20
-1.85607325955837
30
0
0
SPLINE
5
1C6
100
AcDbEntity
8
1
62
256
6
ByLayer
370
13
48
1
60
0
100
AcDbSpline
70
4
71
3
72
10
73
6
40
0
40
0
40
0
40
0
40
0.635943996638209
40
0.635943996638209
40
1
40
1
40
1
40
1
41
1
10
35.5901406592828
20
-0.205263725429177
30
0
41
1
10
35.5670478691558
20
-0.185679333843211
30
0
41
1
10
35.5452589478459
20
-0.164012711121757
30
0
41
1
10
35.5163860503718
20
-0.125559734462968
30
0
41
1
10
35.5069119843145
20
-0.110482658881637
30
0
41
1
10
35.4995357068632
20
-0.0943639435976422
30
0
0
SPLINE
5
1C7
100
AcDbEntity
8
1
62
256
6
ByLayer
370
13
48
1
60
0
100
AcDbSpline
70
4
71
3
72
10
73
6
40
0
40
0
40
0
40
0
40
0.848569790661836
40
0.848569790661836
40
1
40
1
40
1
40
1
41
1
10
35.9256934551194
20
-1.62457883122255
30
0
41
1
10
35.8913120258512
20
-1.67642091084827
30
0
41
1
10
35.8438979962596
20
-1.71987953955931
30
0
41
1
10
35.7838192549264
20
-1.76190876038396
30
0
41
1
10
35.774454665912
20
-1.76812156201197
30
0
41
1
10
35.7649581024897
20
-1.77411869816319
30
0
0
SPLINE
5
1C8
100
AcDbEntity
8
1
62
256
6
ByLayer
370
13
48
1
60
0
100
AcDbSpline
70
4
71
3
72
16
73
12
40
0
40
0
40
0
40
0
40
0.0355583019934282
40
0.0355583019934282
40
0.0904281096557084
40
0.0904281096557084
40
0.198001345750339
40
0.198001345750339
40
0.437176612921005
40
0.437176612921005
40
1
40
1
40
1
40
1
41
1
10
35.4647600217524
20
-1.98597593937791
30
0
41
1
10
35.4651593706654
20
-1.98500952598468
30
0
41
1
10
35.4655599456349
20
-1.98404359668734
30
0
41
1
10
35.4665795843354
20
-1.98158370442053
30
0
41
1
10
35.4671995476743
20
-1.98009010417428
30
0
41
1
10
35.4690371309082
20
-1.97567012461576
30
0
41
1
10
35.4702570500455
20
-1.97274498909712
30
0
41
1
10
35.47419943455
20
-1.96332997857101
30
0
41
1
10
35.4769367796375
20
-1.95685057667092
30
0
41
1
10
35.4861842955318
20
-1.93526879385786
30
0
41
1
10
35.4928353954249
20
-1.92027764399296
30
0
41
1
10
35.4995357068632
20
-1.90563605640239
30
0
0
SPLINE
5
1C9
100
AcDbEntity
8
1
62
256
6
ByLayer
370
13
48
1
60
0
100
AcDbSpline
70
4
71
3
72
8
73
4
40
0
40
0
40
0
40
0
40
1
40
1
40
1
40
1
41
1
10
35.4647600217523
20
-1.98597593937788
30
0
41
1
10
35.3478211015788
20
-2.01651856583069
30
0
41
1
10
35.226489880715
20
-2.03133722671072
30
0
41
1
10
35.1060768987951
20
-2.03396026649668
30
0
0
SPLINE
5
1CA
100
AcDbEntity
8
1
62
256
6
ByLayer
370
13
48
1
60
0
100
AcDbSpline
70
4
71
3
72
16
73
12
40
0
40
0
40
0
40
0
40
0.0355583019934282
40
0.0355583019934282
40
0.0904281096557084
40
0.0904281096557084
40
0.198001345750339
40
0.198001345750339
40
0.437176612921005
40
0.437176612921005
40
1
40
1
40
1
40
1
41
1
10
35.4647600217524
20
-0.0140240606221198
30
0
41
1
10
35.4651593706654
20
-0.0149904740153488
30
0
41
1
10
35.4655599456349
20
-0.0159564033126856
30
0
41
1
10
35.4665795843354
20
-0.0184162955794989
30
0
41
1
10
35.4671995476743
20
-0.0199098958257196
30
0
41
1
10
35.4690371309082
20
-0.024329875384268
30
0
41
1
10
35.4702570500455
20
-0.0272550109029055
30
0
41
1
10
35.47419943455
20
-0.0366700214290177
30
0
41
1
10
35.4769367796375
20
-0.0431494233291119
30
0
41
1
10
35.4861842955318
20
-0.0647312061421701
30
0
41
1
10
35.4928353954249
20
-0.0797223560070677
30
0
41
1
10
35.4995357068632
20
-0.0943639435976422
30
0
0
SPLINE
5
1CB
100
AcDbEntity
8
1
62
256
6
ByLayer
370
13
48
1
60
0
100
AcDbSpline
70
4
71
3
72
10
73
6
40
0
40
0
40
0
40
0
40
0.635943996638209
40
0.635943996638209
40
1
40
1
40
1
40
1
41
1
10
35.5901406592828
20
-1.79473627457085
30
0
41
1
10
35.5670478691558
20
-1.81432066615679
30
0
41
1
10
35.5452589478459
20
-1.83598728887827
30
0
41
1
10
35.5163860503718
20
-1.87444026553706
30
0
41
1
10
35.5069119843145
20
-1.88951734111839
30
0
41
1
10
35.4995357068632
20
-1.90563605640239
30
0
0
SPLINE
5
1CC
100
AcDbEntity
8
1
62
256
6
ByLayer
370
13
48
1
60
0
100
AcDbSpline
70
4
71
3
72
8
73
4
40
0
40
0
40
0
40
0
40
1
40
1
40
1
40
1
41
1
10
35.4647600217523
20
-0.0140240606221482
30
0
41
1
10
35.3478211015788
20
0.0165185658306655
30
0
41
1
10
35.226489880715
20
0.0313372267106899
30
0
41
1
10
35.1060768987951
20
0.0339602664966492
30
0
0
SPLINE
5
1CD
100
AcDbEntity
8
1
62
256
6
ByLayer
370
13
48
1
60
0
100
AcDbSpline
70
4
71
3
72
12
73
8
40
0
40
0
40
0
40
0
40
0.351723890194534
40
0.351723890194534
40
0.712129136736367
40
0.712129136736367
40
1
40
1
40
1
40
1
41
1
10
33.3438616980133
20
-1.1854031501947
30
0
41
1
10
33.3585427486301
20
-1.14444099335455
30
0
41
1
10
33.3694774148618
20
-1.10082623998656
30
0
41
1
10
33.3795833503618
20
-1.01129904508221
30
0
41
1
10
33.3783942316414
20
-0.964465699902348
30
0
41
1
10
33.3654620411648
20
-0.883580288754928
30
0
41
1
10
33.3559204052135
20
-0.848242306694743
30
0
41
1
10
33.3438616980127
20
-0.814596849803849
30
0
0
SPLINE
5
1CE
100
AcDbEntity
8
1
62
256
6
ByLayer
370
13
48
1
60
0
100
AcDbSpline
70
4
71
3
72
8
73
4
40
0
40
0
40
0
40
0
40
1
40
1
40
1
40
1
41
1
10
31.9995036654583
20
-0.799244348201711
30
0
41
1
10
32.0024077881538
20
-0.800384540981327
30
0
41
1
10
32.005314019696
20
-0.801524608335853
30
0
41
1
10
32.0082223121694
20
-0.802664549634983
30
0
0
SPLINE
5
1CF
100
AcDbEntity
8
1
62
256
6
ByLayer
370
13
48
1
60
0
100
AcDbSpline
70
4
71
3
72
8
73
4
40
0
40
0
40
0
40
0
40
1
40
1
40
1
40
1
41
1
10
32.0082223121694
20
-1.19733545036505
30
0
41
1
10
32.005314019696
20
-1.19847539166418
30
0
41
1
10
32.0024077881538
20
-1.1996154590187
30
0
41
1
10
31.9995036654583
20
-1.20075565179832
30
0
0
SPLINE
5
1D0
100
AcDbEntity
8
1
62
256
6
ByLayer
370
13
48
1
60
0
100
AcDbSpline
70
4
71
3
72
8
73
4
40
0
40
0
40
0
40
0
40
1
40
1
40
1
40
1
41
1
10
31.6282766666319
20
-1.87543792814148
30
0
41
1
10
31.6289998534678
20
-1.875437928141
30
0
41
1
10
31.6297316666812
20
-1.87561136319655
30
0
41
1
10
31.6304097099816
20
-1.8759826339294
30
0
0
SPLINE
5
1D1
100
AcDbEntity
8
1
62
256
6
ByLayer
370
13
48
1
60
0
100
AcDbSpline
70
4
71
3
72
8
73
4
40
0
40
0
40
0
40
0
40
1
40
1
40
1
40
1
41
1
10
31.6304097099816
20
-0.124017366031893
30
0
41
1
10
31.6297316666801
20
-0.124388636767151
30
0
41
1
10
31.6289998534693
20
-0.124562071864688
30
0
41
1
10
31.6282766666319
20
-0.124562071864688
30
0
0
SPLINE
5
1D2
100
AcDbEntity
8
1
62
256
6
ByLayer
370
13
48
1
60
0
100
AcDbSpline
70
4
71
3
72
8
73
4
40
0
40
0
40
0
40
0
40
1
40
1
40
1
40
1
41
1
10
31.8769872801694
20
-0.748975644447086
30
0
41
1
10
31.8809941941598
20
-0.748975644447086
30
0
41
1
10
31.8858744381613
20
-0.749457137464901
30
0
41
1
10
31.8913621168403
20
-0.75045269829667
30
0
0
SPLINE
5
1D3
100
AcDbEntity
8
1
62
256
6
ByLayer
370
13
48
1
60
0
100
AcDbSpline
70
4
71
3
72
8
73
4
40
0
40
0
40
0
40
0
40
1
40
1
40
1
40
1
41
1
10
31.8913621168403
20
-1.24954730170336
30
0
41
1
10
31.8858744381611
20
-1.25054286253516
30
0
41
1
10
31.8809941941611
20
-1.25102435554908
30
0
41
1
10
31.8769872801707
20
-1.25102435554899
30
0
0
SPLINE
5
1D4
100
AcDbEntity
8
1
62
256
6
ByLayer
370
13
48
1
60
0
100
AcDbSpline
70
4
71
3
72
10
73
6
40
0
40
0
40
0
40
0
40
0.155458310972556
40
0.155458310972556
40
1
40
1
40
1
40
1
41
1
10
35.7213347612453
20
-1.71356743665018
30
0
41
1
10
35.7303785370381
20
-1.7087473576066
30
0
41
1
10
35.7393254653622
20
-1.70374109980091
30
0
41
1
10
35.7954964008332
20
-1.6705991260886
30
0
41
1
10
35.8409371698566
20
-1.63633270497462
30
0
41
1
10
35.8749845771854
20
-1.59322820385307
30
0
0
SPLINE
5
1D5
100
AcDbEntity
8
1
62
256
6
ByLayer
370
13
48
1
60
0
100
AcDbSpline
70
4
71
3
72
10
73
6
40
0
40
0
40
0
40
0
40
0.155458310972556
40
0.155458310972556
40
1
40
1
40
1
40
1
41
1
10
35.7213347612453
20
-0.286432563349848
30
0
41
1
10
35.7303785370381
20
-0.291252642393431
30
0
41
1
10
35.7393254653622
20
-0.29625890019912
30
0
41
1
10
35.7954964008332
20
-0.329400873911425
30
0
41
1
10
35.8409371698566
20
-0.363667295025408
30
0
41
1
10
35.8749845771854
20
-0.406771796146956
30
0
0
SPLINE
5
1D6
100
AcDbEntity
8
1
62
256
6
ByLayer
370
13
48
1
60
0
100
AcDbSpline
70
4
71
3
72
16
73
12
40
0
40
0
40
0
40
0
40
0.0355250902269691
40
0.0355250902269691
40
0.0916529298118418
40
0.0916529298118418
40
0.199749877619611
40
0.199749877619611
40
0.438904840271112
40
0.438904840271112
40
1
40
1
40
1
40
1
41
1
10
35.4647600217524
20
-1.98597593937788
30
0
41
1
10
35.4655860030917
20
-1.98534291127996
30
0
41
1
10
35.4664129457398
20
-1.98471043866329
30
0
41
1
10
35.4685502103392
20
-1.98307597527776
30
0
41
1
10
35.4698615812701
20
-1.98207432377819
30
0
41
1
10
35.4737020316477
20
-1.97914467526198
30
0
41
1
10
35.4762348060014
20
-1.97721733754085
30
0
41
1
10
35.4843821111612
20
-1.971034742071
30
0
41
1
10
35.490015337342
20
-1.96678597052471
30
0
41
1
10
35.5088835392968
20
-1.95266728619509
30
0
41
1
10
35.5222269173127
20
-1.94288203543241
30
0
41
1
10
35.535515563742
20
-1.93335035942656
30
0
0
SPLINE
5
1D7
100
AcDbEntity
8
1
62
256
6
ByLayer
370
13
48
1
60
0
100
AcDbSpline
70
4
71
3
72
16
73
12
40
0
40
0
40
0
40
0
40
0.0355250902269691
40
0.0355250902269691
40
0.0916529298118417
40
0.0916529298118417
40
0.199749877619611
40
0.199749877619611
40
0.438904840271112
40
0.438904840271112
40
1
40
1
40
1
40
1
41
1
10
35.4647600217524
20
-0.0140240606221482
30
0
41
1
10
35.4655860030917
20
-0.014657088720071
30
0
41
1
10
35.4664129457398
20
-0.0152895613367434
30
0
41
1
10
35.4685502103392
20
-0.0169240247222717
30
0
41
1
10
35.4698615812701
20
-0.0179256762218358
30
0
41
1
10
35.4737020316477
20
-0.0208553247380507
30
0
41
1
10
35.4762348060014
20
-0.0227826624591785
30
0
41
1
10
35.4843821111612
20
-0.0289652579290305
30
0
41
1
10
35.490015337342
20
-0.033214029475289
30
0
41
1
10
35.5088835392968
20
-0.0473327138049342
30
0
41
1
10
35.5222269173127
20
-0.0571179645676239
30
0
41
1
10
35.535515563742
20
-0.0666496405734733
30
0
0
SPLINE
5
1D8
100
AcDbEntity
8
1
62
256
6
ByLayer
370
13
48
1
60
0
100
AcDbSpline
70
4
71
3
72
8
73
4
40
0
40
0
40
0
40
0
40
1
40
1
40
1
40
1
41
1
10
35.1060768987951
20
-2.03396026649668
30
0
41
1
10
34.9916344595783
20
-2.03658360887897
30
0
41
1
10
34.874906152167
20
-2.03254547577126
30
0
41
1
10
34.7587805434613
20
-2.03685129678644
30
0
0
SPLINE
5
1D9
100
AcDbEntity
8
1
62
256
6
ByLayer
370
13
48
1
60
0
100
AcDbSpline
70
4
71
3
72
8
73
4
40
0
40
0
40
0
40
0
40
1
40
1
40
1
40
1
41
1
10
35.1060768987951
20
0.0339602664966492
30
0
41
1
10
34.9916344595783
20
0.0365836088789422
30
0
41
1
10
34.874906152167
20
0.0325454757712293
30
0
41
1
10
34.7587805434613
20
0.0368512967864092
30
0
0
SPLINE
5
1DA
100
AcDbEntity
8
1
62
256
6
ByLayer
370
13
48
1
60
0
100
AcDbSpline
70
4
71
3
72
14
73
10
40
0
40
0
40
0
40
0
40
0.0334466877100648
40
0.0334466877100648
40
0.147634490130718
40
0.147634490130718
40
0.594775924699149
40
0.594775924699149
40
1
40
1
40
1
40
1
41
1
10
35.4213727254144
20
-1.4487731616328
30
0
41
1
10
35.4272002143374
20
-1.44899187606248
30
0
41
1
10
35.4330293219699
20
-1.44916422710205
30
0
41
1
10
35.4587574615068
20
-1.44971200329252
30
0
41
1
10
35.4786653670228
20
-1.44938810387345
30
0
41
1
10
35.576494145549
20
-1.44770358443353
30
0
41
1
10
35.6544227194233
20
-1.44625262433539
30
0
41
1
10
35.8029558192714
20
-1.44256920612034
30
0
41
1
10
35.873564429311
20
-1.44052226231426
30
0
41
1
10
35.9441651422594
20
-1.43820577012588
30
0
0
SPLINE
5
1DB
100
AcDbEntity
8
1
62
256
6
ByLayer
370
13
48
1
60
0
100
AcDbSpline
70
4
71
3
72
12
73
8
40
0
40
0
40
0
40
0
40
0.447676549458682
40
0.447676549458682
40
0.911865963480885
40
0.911865963480885
40
1
40
1
40
1
40
1
41
1
10
35.8964397360486
20
-1.56542156969698
30
0
41
1
10
35.9088546309063
20
-1.54899157871051
30
0
41
1
10
35.9197349842376
20
-1.53115985699432
30
0
41
1
10
35.9363651532997
20
-1.49275971472335
30
0
41
1
10
35.9420103553974
20
-1.47166393194459
30
0
41
1
10
35.9439641163249
20
-1.44639348646729
30
0
41
1
10
35.9441371532748
20
-1.44229887015894
30
0
41
1
10
35.9441651422482
20
-1.438205770125
30
0
0
SPLINE
5
1DC
100
AcDbEntity
8
1
62
256
6
ByLayer
370
13
48
1
60
0
100
AcDbSpline
70
4
71
3
72
8
73
4
40
0
40
0
40
0
40
0
40
1
40
1
40
1
40
1
41
1
10
35.8749845771854
20
-1.59322820385307
30
0
41
1
10
35.8822290280935
20
-1.58405662613845
30
0
41
1
10
35.889375686801
20
-1.57477020025715
30
0
41
1
10
35.8964397360486
20
-1.56542156969698
30
0
0
SPLINE
5
1DD
100
AcDbEntity
8
1
62
256
6
ByLayer
370
13
48
1
60
0
100
AcDbSpline
70
4
71
3
72
8
73
4
40
0
40
0
40
0
40
0
40
1
40
1
40
1
40
1
41
1
10
35.8749845771854
20
-0.406771796146956
30
0
41
1
10
35.8822290280935
20
-0.41594337386158
30
0
41
1
10
35.889375686801
20
-0.42522979974288
30
0
41
1
10
35.8964397360486
20
-0.434578430303048
30
0
0
SPLINE
5
1DE
100
AcDbEntity
8
1
62
256
6
ByLayer
370
13
48
1
60
0
100
AcDbSpline
70
4
71
3
72
12
73
8
40
0
40
0
40
0
40
0
40
0.447676549458682
40
0.447676549458682
40
0.911865963480885
40
0.911865963480885
40
1
40
1
40
1
40
1
41
1
10
35.8964397360486
20
-0.434578430303048
30
0
41
1
10
35.9088546309063
20
-0.451008421289515
30
0
41
1
10
35.9197349842376
20
-0.468840143005707
30
0
41
1
10
35.9363651532997
20
-0.50724028527668
30
0
41
1
10
35.9420103553974
20
-0.528336068055438
30
0
41
1
10
35.9439641163249
20
-0.553606513532742
30
0
41
1
10
35.9441371532748
20
-0.557701129841092
30
0
41
1
10
35.9441651422482
20
-0.561794229875034
30
0
0
SPLINE
5
1DF
100
AcDbEntity
8
1
62
256
6
ByLayer
370
13
48
1
60
0
100
AcDbSpline
70
4
71
3
72
14
73
10
40
0
40
0
40
0
40
0
40
0.0334466877100648
40
0.0334466877100648
40
0.147634490130718
40
0.147634490130718
40
0.594775924699149
40
0.594775924699149
40
1
40
1
40
1
40
1
41
1
10
35.4213727254144
20
-0.551226838367228
30
0
41
1
10
35.4272002143374
20
-0.55100812393755
30
0
41
1
10
35.4330293219699
20
-0.550835772897983
30
0
41
1
10
35.4587574615068
20
-0.55028799670751
30
0
41
1
10
35.4786653670228
20
-0.550611896126583
30
0
41
1
10
35.576494145549
20
-0.552296415566502
30
0
41
1
10
35.6544227194233
20
-0.553747375664642
30
0
41
1
10
35.8029558192714
20
-0.557430793879689
30
0
41
1
10
35.873564429311
20
-0.559477737685768
30
0
41
1
10
35.9441651422594
20
-0.561794229874153
30
0
0
SPLINE
5
1E0
100
AcDbEntity
8
1
62
256
6
ByLayer
370
13
48
1
60
0
100
AcDbSpline
70
4
71
3
72
8
73
4
40
0
40
0
40
0
40
0
40
1
40
1
40
1
40
1
41
1
10
34.7587805434613
20
0.0368512967864092
30
0
41
1
10
34.6921381523133
20
0.0390581522053708
30
0
41
1
10
34.6252553140707
20
0.0382012930469386
30
0
41
1
10
34.5587805434612
20
0.0329979473863204
30
0
0
SPLINE
5
1E1
100
AcDbEntity
8
1
62
256
6
ByLayer
370
13
48
1
60
0
100
AcDbSpline
70
4
71
3
72
8
73
4
40
0
40
0
40
0
40
0
40
1
40
1
40
1
40
1
41
1
10
34.7587805434613
20
-2.03685129678644
30
0
41
1
10
34.6921381523133
20
-2.0390581522054
30
0
41
1
10
34.6252553140707
20
-2.03820129304697
30
0
41
1
10
34.5587805434612
20
-2.03299794738635
30
0
0
SPLINE
5
1E2
100
AcDbEntity
8
1
62
256
6
ByLayer
370
13
48
1
60
0
100
AcDbSpline
70
4
71
3
72
12
73
8
40
0
40
0
40
0
40
0
40
0.708579779368488
40
0.708579779368488
40
0.932133973697437
40
0.932133973697437
40
1
40
1
40
1
40
1
41
1
10
34.3112677608008
20
-1.39965927758323
30
0
41
1
10
34.4244377716514
20
-1.43519514113183
30
0
41
1
10
34.5446553749491
20
-1.45267203532279
30
0
41
1
10
34.7011317076579
20
-1.45161618596836
30
0
41
1
10
34.738967387079
20
-1.44982143382714
30
0
41
1
10
34.7882933798859
20
-1.44810164472835
30
0
41
1
10
34.7997803862395
20
-1.44769639966214
30
0
41
1
10
34.8112677608008
20
-1.44730180209908
30
0
0
SPLINE
5
1E3
100
AcDbEntity
8
1
62
256
6
ByLayer
370
13
48
1
60
0
100
AcDbSpline
70
4
71
3
72
12
73
8
40
0
40
0
40
0
40
0
40
0.708579779368488
40
0.708579779368488
40
0.932133973697437
40
0.932133973697437
40
1
40
1
40
1
40
1
41
1
10
34.3112677608008
20
-0.600340722416803
30
0
41
1
10
34.4244377716514
20
-0.5648048588682
30
0
41
1
10
34.5446553749491
20
-0.547327964677237
30
0
41
1
10
34.7011317076579
20
-0.548383814031666
30
0
41
1
10
34.738967387079
20
-0.550178566172889
30
0
41
1
10
34.7882933798859
20
-0.551898355271675
30
0
41
1
10
34.7997803862395
20
-0.552303600337893
30
0
41
1
10
34.8112677608008
20
-0.552698197900952
30
0
0
SPLINE
5
1E4
100
AcDbEntity
8
1
62
256
6
ByLayer
370
13
48
1
60
0
100
AcDbSpline
70
4
71
3
72
10
73
6
40
0
40
0
40
0
40
0
40
0.561541747824135
40
0.561541747824135
40
1
40
1
40
1
40
1
41
1
10
35.9970257409067
20
-1.43820577012588
30
0
41
1
10
35.9970257409067
20
-1.46951135555966
30
0
41
1
10
35.9911036869238
20
-1.50119377398192
30
0
41
1
10
35.9723010966289
20
-1.55382654084531
30
0
41
1
10
35.9611390447479
20
-1.57607558054576
30
0
41
1
10
35.9480538087948
20
-1.59688322259765
30
0
0
SPLINE
5
1E5
100
AcDbEntity
8
1
62
256
6
ByLayer
370
13
48
1
60
0
100
AcDbSpline
70
4
71
3
72
10
73
6
40
0
40
0
40
0
40
0
40
0.561541747824135
40
0.561541747824135
40
1
40
1
40
1
40
1
41
1
10
35.9970257409067
20
-0.561794229874153
30
0
41
1
10
35.9970257409067
20
-0.530488644440368
30
0
41
1
10
35.9911036869238
20
-0.498806226018104
30
0
41
1
10
35.9723010966289
20
-0.446173459154721
30
0
41
1
10
35.9611390447479
20
-0.423924419454266
30
0
41
1
10
35.9480538087948
20
-0.403116777402374
30
0
0
SPLINE
5
1E6
100
AcDbEntity
8
1
62
256
6
ByLayer
370
13
48
1
60
0
100
AcDbSpline
70
4
71
3
72
8
73
4
40
0
40
0
40
0
40
0
40
1
40
1
40
1
40
1
41
1
10
35.9480538087933
20
-1.59688322259711
30
0
41
1
10
35.9407025010737
20
-1.60623503743284
30
0
41
1
10
35.9332526545728
20
-1.61548351319567
30
0
41
1
10
35.9256934551194
20
-1.62457883122258
30
0
0
SPLINE
5
1E7
100
AcDbEntity
8
1
62
256
6
ByLayer
370
13
48
1
60
0
100
AcDbSpline
70
4
71
3
72
8
73
4
40
0
40
0
40
0
40
0
40
1
40
1
40
1
40
1
41
1
10
35.9480538087933
20
-0.403116777402914
30
0
41
1
10
35.9407025010737
20
-0.39376496256719
30
0
41
1
10
35.9332526545728
20
-0.384516486804358
30
0
41
1
10
35.9256934551194
20
-0.37542116877745
30
0
0
SPLINE
5
1E8
100
AcDbEntity
8
1
62
256
6
ByLayer
370
13
48
1
60
0
100
AcDbSpline
70
4
71
3
72
12
73
8
40
0
40
0
40
0
40
0
40
0.103790018033927
40
0.103790018033927
40
0.424238012362856
40
0.424238012362856
40
1
40
1
40
1
40
1
41
1
10
34.8112677608008
20
-1.44730180209908
30
0
41
1
10
34.8330673288143
20
-1.44675266228737
30
0
41
1
10
34.8548777846228
20
-1.44644510921884
30
0
41
1
10
34.9437817615811
20
-1.44525890517841
30
0
41
1
10
35.0108617198121
20
-1.44475225156552
30
0
41
1
10
35.195202236924
20
-1.44450185240083
30
0
41
1
10
35.3116787067388
20
-1.44575404178479
30
0
41
1
10
35.4213727254144
20
-1.4487731616328
30
0
0
SPLINE
5
1E9
100
AcDbEntity
8
1
62
256
6
ByLayer
370
13
48
1
60
0
100
AcDbSpline
70
4
71
3
72
12
73
8
40
0
40
0
40
0
40
0
40
0.103790018033927
40
0.103790018033927
40
0.424238012362856
40
0.424238012362856
40
1
40
1
40
1
40
1
41
1
10
34.8112677608008
20
-0.552698197900952
30
0
41
1
10
34.8330673288143
20
-0.553247337712662
30
0
41
1
10
34.8548777846228
20
-0.553554890781186
30
0
41
1
10
34.9437817615811
20
-0.554741094821622
30
0
41
1
10
35.0108617198121
20
-0.55524774843451
30
0
41
1
10
35.195202236924
20
-0.555498147599195
30
0
41
1
10
35.3116787067388
20
-0.554245958215233
30
0
41
1
10
35.4213727254144
20
-0.551226838367228
30
0
0
SPLINE
5
1EA
100
AcDbEntity
8
1
62
256
6
ByLayer
370
18
48
1
60
0
100
AcDbSpline
70
4
71
3
72
14
73
10
40
0
40
0
40
0
40
0
40
0.208995027535852
40
0.208995027535852
40
0.417850725206471
40
0.417850725206471
40
0.626704295977396
40
0.626704295977396
40
1
40
1
40
1
40
1
41
1
10
33.4981203716814
20
-2.12191940105456
30
0
41
1
10
33.5562077150717
20
-2.12190943354196
30
0
41
1
10
33.6193237323134
20
-2.12257561815
30
0
41
1
10
33.7529850333382
20
-2.12523411722205
30
0
41
1
10
33.8239830856551
20
-2.12723466076002
30
0
41
1
10
33.9714347232616
20
-2.13249665219979
30
0
41
1
10
34.0483929364638
20
-2.13577608577978
30
0
41
1
10
34.2664550970089
20
-2.14648245257504
30
0
41
1
10
34.4134966889726
20
-2.15529569657065
30
0
41
1
10
34.5587805434602
20
-2.16550497616066
30
0
0
SPLINE
5
1EB
100
AcDbEntity
8
1
62
256
6
ByLayer
370
18
48
1
60
0
100
AcDbSpline
70
4
71
3
72
8
73
4
40
0
40
0
40
0
40
0
40
1
40
1
40
1
40
1
41
1
10
34.7587805434613
20
-2.17955922826798
30
0
41
1
10
34.8750917668497
20
-2.18773256454969
30
0
41
1
10
34.991741836253
20
-2.19664992941909
30
0
41
1
10
35.1060768987951
20
-2.20610455146337
30
0
0
SPLINE
5
1EC
100
AcDbEntity
8
1
62
256
6
ByLayer
370
18
48
1
60
0
100
AcDbSpline
70
4
71
3
72
16
73
12
40
0
40
0
40
0
40
0
40
0.202092460849677
40
0.202092460849677
40
0.40403224558886
40
0.40403224558886
40
0.608298678109016
40
0.608298678109016
40
0.816163444624776
40
0.816163444624776
40
1
40
1
40
1
40
1
41
1
10
35.6892494524132
20
-2.25034085696512
30
0
41
1
10
35.7220366161256
20
-2.2523612664335
30
0
41
1
10
35.7555757070522
20
-2.24866403348045
30
0
41
1
10
35.818560543168
20
-2.23058878152079
30
0
41
1
10
35.8488706298537
20
-2.21597921121955
30
0
41
1
10
35.9026257090698
20
-2.17792653361138
30
0
41
1
10
35.9267215742437
20
-2.15387353948049
30
0
41
1
10
35.9656361058238
20
-2.09942989167411
30
0
41
1
10
35.9808214046758
20
-2.06819225513254
30
0
41
1
10
35.9988410260335
20
-2.00690871557796
30
0
41
1
10
36.0030935129214
20
-1.97647971719525
30
0
41
1
10
36.0028388286042
20
-1.94636954125355
30
0
0
SPLINE
5
1ED
100
AcDbEntity
8
1
62
256
6
ByLayer
370
18
48
1
60
0
100
AcDbSpline
70
4
71
3
72
16
73
12
40
0
40
0
40
0
40
0
40
0.21060160365595
40
0.21060160365595
40
0.421213120944743
40
0.421213120944743
40
0.631488126466471
40
0.631488126466471
40
0.839116239426997
40
0.839116239426997
40
1
40
1
40
1
40
1
41
1
10
36.0028388286042
20
-0.0536304587464826
30
0
41
1
10
36.0031296556105
20
-0.0192472959897145
30
0
41
1
10
35.9975070259551
20
0.0156080877359273
30
0
41
1
10
35.9754093689247
20
0.0804982075362091
30
0
41
1
10
35.9586256018935
20
0.111434762597554
30
0
41
1
10
35.9163383595429
20
0.165052978811161
30
0
41
1
10
35.8902502953765
20
0.188496769738038
30
0
41
1
10
35.8328186585456
20
0.224349671644745
30
0
41
1
10
35.8007334811871
20
0.237390214945748
30
0
41
1
10
35.74215887377
20
0.249946256282612
30
0
41
1
10
35.7154914357367
20
0.251957939553904
30
0
41
1
10
35.6892494524132
20
0.250340856965096
30
0
0
SPLINE
5
1EE
100
AcDbEntity
8
1
62
256
6
ByLayer
370
18
48
1
60
0
100
AcDbSpline
70
4
71
3
72
14
73
10
40
0
40
0
40
0
40
0
40
0.209562190252725
40
0.209562190252725
40
0.419048660097218
40
0.419048660097218
40
0.628042586344193
40
0.628042586344193
40
1
40
1
40
1
40
1
41
1
10
34.5587805434612
20
0.16550497616123
30
0
41
1
10
34.4766126081606
20
0.159730931772202
30
0
41
1
10
34.394096633241
20
0.154411340266563
30
0
41
1
10
34.2317767669575
20
0.144904759347895
30
0
41
1
10
34.1514176992139
20
0.140684941534886
30
0
41
1
10
33.99577107806
20
0.133496173729498
30
0
41
1
10
33.9199400027966
20
0.13049975769195
30
0
41
1
10
33.7197346270461
20
0.124025794240737
30
0
41
1
10
33.6007351939601
20
0.121901792836809
30
0
41
1
10
33.4981203716826
20
0.121919401053532
30
0
0
SPLINE
5
1EF
100
AcDbEntity
8
1
62
256
6
ByLayer
370
18
48
1
60
0
100
AcDbSpline
70
4
71
3
72
8
73
4
40
0
40
0
40
0
40
0
40
1
40
1
40
1
40
1
41
1
10
35.1060768987951
20
0.206104551463341
30
0
41
1
10
34.991741836253
20
0.196649929419095
30
0
41
1
10
34.8750917668497
20
0.187732564549663
30
0
41
1
10
34.7587805434613
20
0.179559228267948
30
0
0
LINE
5
70
100
AcDbEntity
8
80
62
256
6
ByLayer
370
18
48
1
60
0
100
AcDbLine
10
0
20
0
30
0
11
-5
21
0
31
0
39
0
210
0
220
0
230
1
0
LINE
5
71
100
AcDbEntity
8
81
62
256
6
ByLayer
370
18
48
1
60
0
100
AcDbLine
10
36
20
-2.5
30
0
11
41
21
-2.5
31
0
39
0
210
0
220
0
230
1
0
LINE
5
72
100
AcDbEntity
8
1
62
256
6
ByLayer
370
18
48
1
60
0
100
AcDbLine
10
0
20
0
30
0
11
0
21
-1.175
31
0
39
0
210
0
220
0
230
1
0
LINE
5
74
100
AcDbEntity
8
SK1
62
256
6
ByLayer
370
18
48
1
60
0
100
AcDbLine
10
0
20
0
30
0
11
-74
21
0
31
0
39
0
210
0
220
0
230
1
0
LINE
5
76
100
AcDbEntity
8
SK1
62
256
6
ByLayer
370
18
48
1
60
0
100
AcDbLine
10
-74
20
-2.35
30
0
11
-74
21
-1.175
31
0
39
0
210
0
220
0
230
1
0
LINE
5
77
100
AcDbEntity
8
SK1
62
256
6
ByLayer
370
18
48
1
60
0
100
AcDbLine
10
0
20
0
30
0
11
0
21
-1.175
31
0
39
0
210
0
220
0
230
1
0
LINE
5
78
100
AcDbEntity
8
SK1
62
256
6
ByLayer
370
18
48
1
60
0
100
AcDbLine
10
-74
20
-1.175
30
0
11
-74
21
0
31
0
39
0
210
0
220
0
230
1
0
LINE
5
79
100
AcDbEntity
8
SK1
62
256
6
ByLayer
370
18
48
1
60
0
100
AcDbLine
10
0
20
-1.175
30
0
11
-74
21
-1.175
31
0
39
0
210
0
220
0
230
1
0
LINE
5
7A
100
AcDbEntity
8
SK1
62
256
6
ByLayer
370
18
48
1
60
0
100
AcDbLine
10
0
20
-2.35
30
0
11
-74
21
-2.35
31
0
39
0
210
0
220
0
230
1
0
LINE
5
7B
100
AcDbEntity
8
SK1
62
256
6
ByLayer
370
18
48
1
60
0
100
AcDbLine
10
0
20
-1.175
30
0
11
0
21
-2.35
31
0
39
0
210
0
220
0
230
1
0
LINE
5
7C
100
AcDbEntity
8
1
62
256
6
ByLayer
370
18
48
1
60
0
100
AcDbLine
10
2.001251
20
-2.35
30
0
11
0
21
-2.35
31
0
39
0
210
0
220
0
230
1
0
LINE
5
7D
100
AcDbEntity
8
1
62
256
6
ByLayer
370
18
48
1
60
0
100
AcDbLine
10
14.6
20
-1.587619
30
0
11
22.290738
21
-1.587619
31
0
39
0
210
0
220
0
230
1
0
LINE
5
7E
100
AcDbEntity
8
1
62
256
6
ByLayer
370
13
48
1
60
0
100
AcDbLine
10
27.290738
20
-2
30
0
11
27.290738
21
0
31
0
39
0
210
0
220
0
230
1
0
LINE
5
7F
100
AcDbEntity
8
1
62
256
6
ByLayer
370
18
48
1
60
0
100
AcDbLine
10
2.001251
20
-2.35
30
0
11
8.226614
21
-2.35
31
0
39
0
210
0
220
0
230
1
0
LINE
5
80
100
AcDbEntity
8
1
62
256
6
ByLayer
370
18
48
1
60
0
100
AcDbLine
10
3
20
-2
30
0
11
23.773214
21
-2
31
0
39
0
210
0
220
0
230
1
0
LINE
5
81
100
AcDbEntity
8
1
62
256
6
ByLayer
370
18
48
1
60
0
100
AcDbLine
10
31.415611
20
-1.991569
30
0
11
31.413022
21
-2
31
0
39
0
210
0
220
0
230
1
0
LINE
5
82
100
AcDbEntity
8
1
62
256
6
ByLayer
370
18
48
1
60
0
100
AcDbLine
10
27.290738
20
-2
30
0
11
23.773214
21
-2
31
0
39
0
210
0
220
0
230
1
0
LINE
5
83
100
AcDbEntity
8
1
62
256
6
ByLayer
370
18
48
1
60
0
100
AcDbLine
10
31.415611
20
-1.991569
30
0
11
31.415611
21
-1.564892
31
0
39
0
210
0
220
0
230
1
0
LINE
5
84
100
AcDbEntity
8
1
62
256
6
ByLayer
370
18
48
1
60
0
100
AcDbLine
10
31.413022
20
0
30
0
11
31.415611
21
-0.008431
31
0
39
0
210
0
220
0
230
1
0
LINE
5
85
100
AcDbEntity
8
1
62
256
6
ByLayer
370
13
48
1
60
0
100
AcDbLine
10
22.290738
20
-0.762381
30
0
11
22.290738
21
-1.587619
31
0
39
0
210
0
220
0
230
1
0
LINE
5
86
100
AcDbEntity
8
1
62
256
6
ByLayer
370
18
48
1
60
0
100
AcDbLine
10
31.415611
20
-0.435108
30
0
11
31.415611
21
-0.008431
31
0
39
0
210
0
220
0
230
1
0
LINE
5
87
100
AcDbEntity
8
1
62
256
6
ByLayer
370
13
48
1
60
0
100
AcDbLine
10
14.6
20
-1.587619
30
0
11
14.6
21
-0.762381
31
0
39
0
210
0
220
0
230
1
0
LINE
5
88
100
AcDbEntity
8
1
62
256
6
ByLayer
370
18
48
1
60
0
100
AcDbLine
10
0
20
-1.175
30
0
11
0
21
-2.35
31
0
39
0
210
0
220
0
230
1
0
LINE
5
89
100
AcDbEntity
8
1
62
256
6
ByLayer
370
18
48
1
60
0
100
AcDbLine
10
24.301673
20
0
30
0
11
0
21
0
31
0
39
0
210
0
220
0
230
1
0
LINE
5
8A
100
AcDbEntity
8
1
62
256
6
ByLayer
370
18
48
1
60
0
100
AcDbLine
10
27.290738
20
0
30
0
11
31.413022
21
0
31
0
39
0
210
0
220
0
230
1
0
LINE
5
8B
100
AcDbEntity
8
1
62
256
6
ByLayer
370
18
48
1
60
0
100
AcDbLine
10
24.301673
20
0
30
0
11
27.290738
21
0
31
0
39
0
210
0
220
0
230
1
0
LINE
5
8C
100
AcDbEntity
8
1
62
256
6
ByLayer
370
18
48
1
60
0
100
AcDbLine
10
12.908148
20
-1.175
30
0
11
0
21
-1.175
31
0
39
0
210
0
220
0
230
1
0
LINE
5
8D
100
AcDbEntity
8
1
62
256
6
ByLayer
370
18
48
1
60
0
100
AcDbLine
10
22.290738
20
-0.762381
30
0
11
14.6
21
-0.762381
31
0
39
0
210
0
220
0
230
1
0
LINE
5
8E
100
AcDbEntity
8
1
62
256
6
ByLayer
370
18
48
1
60
0
100
AcDbLine
10
31.413022
20
-2
30
0
11
27.290738
21
-2
31
0
39
0
210
0
220
0
230
1
0
LINE
5
8F
100
AcDbEntity
8
1
62
256
6
ByLayer
370
13
48
1
60
0
100
AcDbLine
10
31.383813
20
-0.802665
30
0
11
31.552254
21
-0.802665
31
0
39
0
210
0
220
0
230
1
0
LINE
5
90
100
AcDbEntity
8
1
62
256
6
ByLayer
370
13
48
1
60
0
100
AcDbLine
10
31.383813
20
-1.197335
30
0
11
31.552254
21
-1.197335
31
0
39
0
210
0
220
0
230
1
0
LINE
5
91
100
AcDbEntity
8
1
62
256
6
ByLayer
370
13
48
1
60
0
100
AcDbLine
10
32.711238
20
-2
30
0
11
32.711238
21
-1.772114
31
0
39
0
210
0
220
0
230
1
0
LINE
5
92
100
AcDbEntity
8
1
62
256
6
ByLayer
370
13
48
1
60
0
100
AcDbLine
10
32.711238
20
-1.772114
30
0
11
33.037348
21
-1.788171
31
0
39
0
210
0
220
0
230
1
0
LINE
5
93
100
AcDbEntity
8
1
62
256
6
ByLayer
370
13
48
1
60
0
100
AcDbLine
10
33.230259
20
-2.11464
30
0
11
33.218821
21
-1.951069
31
0
39
0
210
0
220
0
230
1
0
LINE
5
94
100
AcDbEntity
8
1
62
256
6
ByLayer
370
13
48
1
60
0
100
AcDbLine
10
33.230259
20
0.11464
30
0
11
33.218821
21
-0.048931
31
0
39
0
210
0
220
0
230
1
0
LINE
5
95
100
AcDbEntity
8
1
62
256
6
ByLayer
370
13
48
1
60
0
100
AcDbLine
10
34.558781
20
0.032998
30
0
11
34.558781
21
0.165505
31
0
39
0
210
0
220
0
230
1
0
LINE
5
96
100
AcDbEntity
8
1
62
256
6
ByLayer
370
13
48
1
60
0
100
AcDbLine
10
33.037348
20
-0.211829
30
0
11
32.711238
21
-0.227886
31
0
39
0
210
0
220
0
230
1
0
LINE
5
97
100
AcDbEntity
8
1
62
256
6
ByLayer
370
13
48
1
60
0
100
AcDbLine
10
32.711238
20
-0.227886
30
0
11
32.711238
21
0
31
0
39
0
210
0
220
0
230
1
0
LINE
5
98
100
AcDbEntity
8
1
62
256
6
ByLayer
370
13
48
1
60
0
100
AcDbLine
10
34.558781
20
-2.032998
30
0
11
34.558781
21
-2.165505
31
0
39
0
210
0
220
0
230
1
0
LINE
5
99
100
AcDbEntity
8
1
62
256
6
ByLayer
370
13
48
1
60
0
100
AcDbLine
10
33.49812
20
-1.933433
30
0
11
33.49812
21
-2.121919
31
0
39
0
210
0
220
0
230
1
0
LINE
5
9A
100
AcDbEntity
8
1
62
256
6
ByLayer
370
13
48
1
60
0
100
AcDbLine
10
33.49812
20
-0.066567
30
0
11
33.49812
21
0.121919
31
0
39
0
210
0
220
0
230
1
0
LINE
5
9B
100
AcDbEntity
8
1
62
256
6
ByLayer
370
13
48
1
60
0
100
AcDbLine
10
33.007425
20
-1.507868
30
0
11
32.547776
21
-1.485236
31
0
39
0
210
0
220
0
230
1
0
LINE
5
9C
100
AcDbEntity
8
1
62
256
6
ByLayer
370
13
48
1
60
0
100
AcDbLine
10
32.547776
20
-0.514764
30
0
11
33.007425
21
-0.492132
31
0
39
0
210
0
220
0
230
1
0
LINE
5
9D
100
AcDbEntity
8
1
62
256
6
ByLayer
370
13
48
1
60
0
100
AcDbLine
10
33.037348
20
-1.788171
30
0
11
33.184585
21
-1.632118
31
0
39
0
210
0
220
0
230
1
0
LINE
5
9E
100
AcDbEntity
8
1
62
256
6
ByLayer
370
13
48
1
60
0
100
AcDbLine
10
33.184585
20
-0.367882
30
0
11
33.037348
21
-0.211829
31
0
39
0
210
0
220
0
230
1
0
LINE
5
9F
100
AcDbEntity
8
1
62
256
6
ByLayer
370
13
48
1
60
0
100
AcDbLine
10
33.395173
20
-0.064267
30
0
11
33.408193
21
0.121935
31
0
39
0
210
0
220
0
230
1
0
LINE
5
A0
100
AcDbEntity
8
1
62
256
6
ByLayer
370
13
48
1
60
0
100
AcDbLine
10
33.395173
20
-1.935733
30
0
11
33.408193
21
-2.121935
31
0
39
0
210
0
220
0
230
1
0
LINE
5
A1
100
AcDbEntity
8
1
62
256
6
ByLayer
370
13
48
1
60
0
100
AcDbLine
10
33.059386
20
-0.536408
30
0
11
32.436893
21
-0.536408
31
0
39
0
210
0
220
0
230
1
0
LINE
5
A2
100
AcDbEntity
8
1
62
256
6
ByLayer
370
13
48
1
60
0
100
AcDbLine
10
33.059386
20
-1.463592
30
0
11
32.436893
21
-1.463592
31
0
39
0
210
0
220
0
230
1
0
LINE
5
A3
100
AcDbEntity
8
1
62
256
6
ByLayer
370
13
48
1
60
0
100
AcDbLine
10
32.642833
20
-0.227886
30
0
11
32.711238
21
-0.227886
31
0
39
0
210
0
220
0
230
1
0
LINE
5
A4
100
AcDbEntity
8
1
62
256
6
ByLayer
370
13
48
1
60
0
100
AcDbLine
10
32.642833
20
-1.772114
30
0
11
32.711238
21
-1.772114
31
0
39
0
210
0
220
0
230
1
0
LINE
5
A5
100
AcDbEntity
8
1
62
256
6
ByLayer
370
13
48
1
60
0
100
AcDbLine
10
32.642833
20
-1.772114
30
0
11
32.642833
21
-2
31
0
39
0
210
0
220
0
230
1
0
LINE
5
A6
100
AcDbEntity
8
1
62
256
6
ByLayer
370
13
48
1
60
0
100
AcDbLine
10
32.642833
20
0
30
0
11
32.642833
21
-0.227886
31
0
39
0
210
0
220
0
230
1
0
LINE
5
A7
100
AcDbEntity
8
1
62
256
6
ByLayer
370
13
48
1
60
0
100
AcDbLine
10
32.470241
20
-0.329328
30
0
11
32.359359
21
-0.350971
31
0
39
0
210
0
220
0
230
1
0
LINE
5
A8
100
AcDbEntity
8
1
62
256
6
ByLayer
370
13
48
1
60
0
100
AcDbLine
10
31.717283
20
-0.116083
30
0
11
31.717283
21
0
31
0
39
0
210
0
220
0
230
1
0
LINE
5
A9
100
AcDbEntity
8
1
62
256
6
ByLayer
370
13
48
1
60
0
100
AcDbLine
10
31.717283
20
-2
30
0
11
31.717283
21
-1.883917
31
0
39
0
210
0
220
0
230
1
0
LINE
5
AA
100
AcDbEntity
8
1
62
256
6
ByLayer
370
13
48
1
60
0
100
AcDbLine
10
32.359359
20
-1.649029
30
0
11
32.470241
21
-1.670672
31
0
39
0
210
0
220
0
230
1
0
LINE
5
AB
100
AcDbEntity
8
1
62
256
6
ByLayer
370
13
48
1
60
0
100
AcDbLine
10
32.547776
20
-1.485236
30
0
11
32.436893
21
-1.463592
31
0
39
0
210
0
220
0
230
1
0
LINE
5
AC
100
AcDbEntity
8
1
62
256
6
ByLayer
370
13
48
1
60
0
100
AcDbLine
10
32.436893
20
-0.536408
30
0
11
32.547776
21
-0.514764
31
0
39
0
210
0
220
0
230
1
0
LINE
5
AD
100
AcDbEntity
8
1
62
256
6
ByLayer
370
13
48
1
60
0
100
AcDbLine
10
34.311268
20
-0.600341
30
0
11
34.311268
21
-1
31
0
39
0
210
0
220
0
230
1
0
LINE
5
AE
100
AcDbEntity
8
1
62
256
6
ByLayer
370
13
48
1
60
0
100
AcDbLine
10
31.383896
20
-0.799244
30
0
11
31.54904
21
-0.799244
31
0
39
0
210
0
220
0
230
1
0
LINE
5
AF
100
AcDbEntity
8
1
62
256
6
ByLayer
370
13
48
1
60
0
100
AcDbLine
10
31.63041
20
0
30
0
11
31.63041
21
-0.124017
31
0
39
0
210
0
220
0
230
1
0
LINE
5
B0
100
AcDbEntity
8
1
62
256
6
ByLayer
370
13
48
1
60
0
100
AcDbLine
10
31.63041
20
-1.875983
30
0
11
31.63041
21
-2
31
0
39
0
210
0
220
0
230
1
0
LINE
5
B1
100
AcDbEntity
8
1
62
256
6
ByLayer
370
13
48
1
60
0
100
AcDbLine
10
31.46942
20
-0.632002
30
0
11
31.788749
21
-0.632002
31
0
39
0
210
0
220
0
230
1
0
LINE
5
B2
100
AcDbEntity
8
1
62
256
6
ByLayer
370
13
48
1
60
0
100
AcDbLine
10
31.415612
20
-0.181494
30
0
11
31.46942
21
-0.632002
31
0
39
0
210
0
220
0
230
1
0
LINE
5
B3
100
AcDbEntity
8
1
62
256
6
ByLayer
370
13
48
1
60
0
100
AcDbLine
10
31.634752
20
-0.174016
30
0
11
31.414718
21
-0.174016
31
0
39
0
210
0
220
0
230
1
0
LINE
5
B4
100
AcDbEntity
8
1
62
256
6
ByLayer
370
13
48
1
60
0
100
AcDbLine
10
31.634752
20
-1.825984
30
0
11
31.414718
21
-1.825984
31
0
39
0
210
0
220
0
230
1
0
LINE
5
B5
100
AcDbEntity
8
1
62
256
6
ByLayer
370
13
48
1
60
0
100
AcDbLine
10
31.415612
20
-1.818506
30
0
11
31.46942
21
-1.367998
31
0
39
0
210
0
220
0
230
1
0
LINE
5
B6
100
AcDbEntity
8
1
62
256
6
ByLayer
370
13
48
1
60
0
100
AcDbLine
10
31.46942
20
-1.367998
30
0
11
31.788749
21
-1.367998
31
0
39
0
210
0
220
0
230
1
0
LINE
5
B7
100
AcDbEntity
8
1
62
256
6
ByLayer
370
13
48
1
60
0
100
AcDbLine
10
36.000117
20
-0.375421
30
0
11
35.925693
21
-0.375421
31
0
39
0
210
0
220
0
230
1
0
LINE
5
B8
100
AcDbEntity
8
1
62
256
6
ByLayer
370
13
48
1
60
0
100
AcDbLine
10
35.535516
20
-0.06665
30
0
11
35.535516
21
0.240867
31
0
39
0
210
0
220
0
230
1
0
LINE
5
B9
100
AcDbEntity
8
1
62
256
6
ByLayer
370
13
48
1
60
0
100
AcDbLine
10
35.535516
20
-1.93335
30
0
11
35.535516
21
-2.240867
31
0
39
0
210
0
220
0
230
1
0
LINE
5
BA
100
AcDbEntity
8
1
62
256
6
ByLayer
370
13
48
1
60
0
100
AcDbLine
10
36.000117
20
-1.624579
30
0
11
35.925693
21
-1.624579
31
0
39
0
210
0
220
0
230
1
0
LINE
5
BB
100
AcDbEntity
8
1
62
256
6
ByLayer
370
13
48
1
60
0
100
AcDbLine
10
34.228922
20
-0.61998
30
0
11
34.228922
21
-1
31
0
39
0
210
0
220
0
230
1
0
LINE
5
BC
100
AcDbEntity
8
1
62
256
6
ByLayer
370
13
48
1
60
0
100
AcDbLine
10
34.228922
20
-1.38002
30
0
11
34.228922
21
-1
31
0
39
0
210
0
220
0
230
1
0
LINE
5
BD
100
AcDbEntity
8
1
62
256
6
ByLayer
370
13
48
1
60
0
100
AcDbLine
10
35.106077
20
-2.03396
30
0
11
35.106077
21
-2.206105
31
0
39
0
210
0
220
0
230
1
0
LINE
5
BE
100
AcDbEntity
8
1
62
256
6
ByLayer
370
13
48
1
60
0
100
AcDbLine
10
35.46476
20
-2.235765
30
0
11
35.46476
21
-1.985976
31
0
39
0
210
0
220
0
230
1
0
LINE
5
BF
100
AcDbEntity
8
1
62
256
6
ByLayer
370
13
48
1
60
0
100
AcDbLine
10
31.41185
20
-1.875438
30
0
11
31.628277
21
-1.875438
31
0
39
0
210
0
220
0
230
1
0
LINE
5
C0
100
AcDbEntity
8
1
62
256
6
ByLayer
370
13
48
1
60
0
100
AcDbLine
10
31.41185
20
-0.124562
30
0
11
31.628277
21
-0.124562
31
0
39
0
210
0
220
0
230
1
0
LINE
5
C1
100
AcDbEntity
8
1
62
256
6
ByLayer
370
13
48
1
60
0
100
AcDbLine
10
35.46476
20
0.235765
30
0
11
35.46476
21
-0.014024
31
0
39
0
210
0
220
0
230
1
0
LINE
5
C2
100
AcDbEntity
8
1
62
256
6
ByLayer
370
13
48
1
60
0
100
AcDbLine
10
35.106077
20
0.03396
30
0
11
35.106077
21
0.206105
31
0
39
0
210
0
220
0
230
1
0
LINE
5
C3
100
AcDbEntity
8
1
62
256
6
ByLayer
370
13
48
1
60
0
100
AcDbLine
10
31.506333
20
-0.748976
30
0
11
31.876987
21
-0.748976
31
0
39
0
210
0
220
0
230
1
0
LINE
5
C4
100
AcDbEntity
8
1
62
256
6
ByLayer
370
13
48
1
60
0
100
AcDbLine
10
31.506333
20
-1.251024
30
0
11
31.876987
21
-1.251024
31
0
39
0
210
0
220
0
230
1
0
LINE
5
C5
100
AcDbEntity
8
1
62
256
6
ByLayer
370
13
48
1
60
0
100
AcDbLine
10
34.758781
20
-2.036851
30
0
11
34.758781
21
-2.179559
31
0
39
0
210
0
220
0
230
1
0
LINE
5
C6
100
AcDbEntity
8
1
62
256
6
ByLayer
370
13
48
1
60
0
100
AcDbLine
10
34.758781
20
0.036851
30
0
11
34.758781
21
0.179559
31
0
39
0
210
0
220
0
230
1
0
LINE
5
C7
100
AcDbEntity
8
1
62
256
6
ByLayer
370
13
48
1
60
0
100
AcDbLine
10
31.54904
20
-1.200756
30
0
11
31.999504
21
-1.200756
31
0
39
0
210
0
220
0
230
1
0
LINE
5
C8
100
AcDbEntity
8
1
62
256
6
ByLayer
370
13
48
1
60
0
100
AcDbLine
10
31.54904
20
-0.799244
30
0
11
31.999504
21
-0.799244
31
0
39
0
210
0
220
0
230
1
0
LINE
5
C9
100
AcDbEntity
8
1
62
256
6
ByLayer
370
13
48
1
60
0
100
AcDbLine
10
31.552254
20
-1.197335
30
0
11
32.008222
21
-1.197335
31
0
39
0
210
0
220
0
230
1
0
LINE
5
CA
100
AcDbEntity
8
1
62
256
6
ByLayer
370
13
48
1
60
0
100
AcDbLine
10
34.821706
20
-1.751182
30
0
11
34.811268
21
-1.447302
31
0
39
0
210
0
220
0
230
1
0
LINE
5
CB
100
AcDbEntity
8
1
62
256
6
ByLayer
370
13
48
1
60
0
100
AcDbLine
10
31.552254
20
-0.802665
30
0
11
32.008222
21
-0.802665
31
0
39
0
210
0
220
0
230
1
0
LINE
5
CC
100
AcDbEntity
8
1
62
256
6
ByLayer
370
13
48
1
60
0
100
AcDbLine
10
34.311268
20
-1.399659
30
0
11
34.215133
21
-1.705818
31
0
39
0
210
0
220
0
230
1
0
LINE
5
CD
100
AcDbEntity
8
1
62
256
6
ByLayer
370
13
48
1
60
0
100
AcDbLine
10
34.311268
20
-0.600341
30
0
11
34.215133
21
-0.294182
31
0
39
0
210
0
220
0
230
1
0
LINE
5
CE
100
AcDbEntity
8
1
62
256
6
ByLayer
370
13
48
1
60
0
100
AcDbLine
10
34.821706
20
-0.248818
30
0
11
34.811268
21
-0.552698
31
0
39
0
210
0
220
0
230
1
0
LINE
5
CF
100
AcDbEntity
8
1
62
256
6
ByLayer
370
13
48
1
60
0
100
AcDbLine
10
35.944165
20
-0.561794
30
0
11
35.997026
21
-0.561794
31
0
39
0
210
0
220
0
230
1
0
LINE
5
D0
100
AcDbEntity
8
1
62
256
6
ByLayer
370
13
48
1
60
0
100
AcDbLine
10
35.944165
20
-1.438206
30
0
11
35.997026
21
-1.438206
31
0
39
0
210
0
220
0
230
1
0
LINE
5
D1
100
AcDbEntity
8
1
62
256
6
ByLayer
370
13
48
1
60
0
100
AcDbLine
10
35.948054
20
-1.596883
30
0
11
36
21
-1.596883
31
0
39
0
210
0
220
0
230
1
0
LINE
5
D2
100
AcDbEntity
8
1
62
256
6
ByLayer
370
13
48
1
60
0
100
AcDbLine
10
35.421373
20
-0.551227
30
0
11
35.421373
21
-1.448773
31
0
39
0
210
0
220
0
230
1
0
LINE
5
D3
100
AcDbEntity
8
1
62
256
6
ByLayer
370
13
48
1
60
0
100
AcDbLine
10
31.383896
20
-1.200756
30
0
11
31.54904
21
-1.200756
31
0
39
0
210
0
220
0
230
1
0
LINE
5
D4
100
AcDbEntity
8
1
62
256
6
ByLayer
370
13
48
1
60
0
100
AcDbLine
10
35.997026
20
-1.438206
30
0
11
35.997026
21
-0.561794
31
0
39
0
210
0
220
0
230
1
0
LINE
5
D5
100
AcDbEntity
8
1
62
256
6
ByLayer
370
13
48
1
60
0
100
AcDbLine
10
35.948054
20
-0.403117
30
0
11
36
21
-0.403117
31
0
39
0
210
0
220
0
230
1
0
LINE
5
D6
100
AcDbEntity
8
1
62
256
6
ByLayer
370
13
48
1
60
0
100
AcDbLine
10
31.391919
20
-1.367998
30
0
11
31.46942
21
-1.367998
31
0
39
0
210
0
220
0
230
1
0
LINE
5
D7
100
AcDbEntity
8
1
62
256
6
ByLayer
370
13
48
1
60
0
100
AcDbLine
10
31.391919
20
-0.632002
30
0
11
31.46942
21
-0.632002
31
0
39
0
210
0
220
0
230
1
0
LINE
5
D8
100
AcDbEntity
8
1
62
256
6
ByLayer
370
13
48
1
60
0
100
AcDbLine
10
31.54904
20
-1.200756
30
0
11
31.552254
21
-1.197335
31
0
39
0
210
0
220
0
230
1
0
LINE
5
D9
100
AcDbEntity
8
1
62
256
6
ByLayer
370
13
48
1
60
0
100
AcDbLine
10
31.385697
20
-1.251024
30
0
11
31.506333
21
-1.251024
31
0
39
0
210
0
220
0
230
1
0
LINE
5
DA
100
AcDbEntity
8
1
62
256
6
ByLayer
370
13
48
1
60
0
100
AcDbLine
10
35.944165
20
-0.561794
30
0
11
35.944165
21
-1.438206
31
0
39
0
210
0
220
0
230
1
0
LINE
5
DB
100
AcDbEntity
8
1
62
256
6
ByLayer
370
13
48
1
60
0
100
AcDbLine
10
31.54904
20
-0.799244
30
0
11
31.552254
21
-0.802665
31
0
39
0
210
0
220
0
230
1
0
LINE
5
DC
100
AcDbEntity
8
1
62
256
6
ByLayer
370
13
48
1
60
0
100
AcDbLine
10
34.811268
20
-0.552698
30
0
11
34.811268
21
-1.447302
31
0
39
0
210
0
220
0
230
1
0
LINE
5
DD
100
AcDbEntity
8
1
62
256
6
ByLayer
370
13
48
1
60
0
100
AcDbLine
10
31.385697
20
-0.748976
30
0
11
31.506333
21
-0.748976
31
0
39
0
210
0
220
0
230
1
0
LINE
5
DE
100
AcDbEntity
8
1
62
256
6
ByLayer
370
13
48
1
60
0
100
AcDbLine
10
34.311268
20
-1.399659
30
0
11
34.311268
21
-1
31
0
39
0
210
0
220
0
230
1
0
LINE
5
DF
100
AcDbEntity
8
1
62
256
6
ByLayer
370
18
48
1
60
0
100
AcDbLine
10
31.717283
20
0
30
0
11
31.63041
21
0
31
0
39
0
210
0
220
0
230
1
0
LINE
5
E0
100
AcDbEntity
8
1
62
256
6
ByLayer
370
18
48
1
60
0
100
AcDbLine
10
32.711238
20
0
30
0
11
32.642833
21
0
31
0
39
0
210
0
220
0
230
1
0
LINE
5
E1
100
AcDbEntity
8
1
62
256
6
ByLayer
370
18
48
1
60
0
100
AcDbLine
10
32.875747
20
-2.027118
30
0
11
32.959449
21
-2.075443
31
0
39
0
210
0
220
0
230
1
0
LINE
5
E2
100
AcDbEntity
8
1
62
256
6
ByLayer
370
18
48
1
60
0
100
AcDbLine
10
33.045343
20
-2.10171
30
0
11
33.230259
21
-2.11464
31
0
39
0
210
0
220
0
230
1
0
LINE
5
E3
100
AcDbEntity
8
1
62
256
6
ByLayer
370
18
48
1
60
0
100
AcDbLine
10
33.49812
20
0.121919
30
0
11
33.408193
21
0.121935
31
0
39
0
210
0
220
0
230
1
0
LINE
5
E4
100
AcDbEntity
8
1
62
256
6
ByLayer
370
18
48
1
60
0
100
AcDbLine
10
34.558781
20
-2.165505
30
0
11
34.758781
21
-2.179559
31
0
39
0
210
0
220
0
230
1
0
LINE
5
E5
100
AcDbEntity
8
1
62
256
6
ByLayer
370
18
48
1
60
0
100
AcDbLine
10
33.408193
20
-2.121935
30
0
11
33.49812
21
-2.121919
31
0
39
0
210
0
220
0
230
1
0
LINE
5
E6
100
AcDbEntity
8
1
62
256
6
ByLayer
370
18
48
1
60
0
100
AcDbLine
10
32.94752
20
0.074628
30
0
11
32.865402
21
0.027217
31
0
39
0
210
0
220
0
230
1
0
LINE
5
E7
100
AcDbEntity
8
1
62
256
6
ByLayer
370
18
48
1
60
0
100
AcDbLine
10
31.63041
20
0
30
0
11
31.41185
21
0
31
0
39
0
210
0
220
0
230
1
0
LINE
5
E8
100
AcDbEntity
8
1
62
256
6
ByLayer
370
18
48
1
60
0
100
AcDbLine
10
35.689249
20
0.250341
30
0
11
35.535516
21
0.240867
31
0
39
0
210
0
220
0
230
1
0
LINE
5
E9
100
AcDbEntity
8
1
62
256
6
ByLayer
370
18
48
1
60
0
100
AcDbLine
10
31.717283
20
-2
30
0
11
32.642833
21
-2
31
0
39
0
210
0
220
0
230
1
0
LINE
5
EA
100
AcDbEntity
8
1
62
256
6
ByLayer
370
18
48
1
60
0
100
AcDbLine
10
36.000117
20
-0.375421
30
0
11
36.002839
21
-0.05363
31
0
39
0
210
0
220
0
230
1
0
LINE
5
EB
100
AcDbEntity
8
1
62
256
6
ByLayer
370
18
48
1
60
0
100
AcDbLine
10
31.63041
20
-2
30
0
11
31.717283
21
-2
31
0
39
0
210
0
220
0
230
1
0
LINE
5
EC
100
AcDbEntity
8
1
62
256
6
ByLayer
370
18
48
1
60
0
100
AcDbLine
10
34.758781
20
0.179559
30
0
11
34.558781
21
0.165505
31
0
39
0
210
0
220
0
230
1
0
LINE
5
ED
100
AcDbEntity
8
1
62
256
6
ByLayer
370
18
48
1
60
0
100
AcDbLine
10
35.106077
20
-2.206105
30
0
11
35.46476
21
-2.235765
31
0
39
0
210
0
220
0
230
1
0
LINE
5
EE
100
AcDbEntity
8
1
62
256
6
ByLayer
370
18
48
1
60
0
100
AcDbLine
10
32.711238
20
0
30
0
11
32.763694
21
0
31
0
39
0
210
0
220
0
230
1
0
LINE
5
EF
100
AcDbEntity
8
1
62
256
6
ByLayer
370
18
48
1
60
0
100
AcDbLine
10
36.002839
20
-1.94637
30
0
11
36.000117
21
-1.624579
31
0
39
0
210
0
220
0
230
1
0
LINE
5
F0
100
AcDbEntity
8
1
62
256
6
ByLayer
370
18
48
1
60
0
100
AcDbLine
10
33.230259
20
0.11464
30
0
11
33.03336
21
0.100872
31
0
39
0
210
0
220
0
230
1
0
LINE
5
F1
100
AcDbEntity
8
1
62
256
6
ByLayer
370
18
48
1
60
0
100
AcDbLine
10
32.642833
20
0
30
0
11
31.717283
21
0
31
0
39
0
210
0
220
0
230
1
0
LINE
5
F2
100
AcDbEntity
8
1
62
256
6
ByLayer
370
18
48
1
60
0
100
AcDbLine
10
35.46476
20
0.235765
30
0
11
35.106077
21
0.206105
31
0
39
0
210
0
220
0
230
1
0
LINE
5
F3
100
AcDbEntity
8
1
62
256
6
ByLayer
370
18
48
1
60
0
100
AcDbLine
10
32.642833
20
-2
30
0
11
32.711238
21
-2
31
0
39
0
210
0
220
0
230
1
0
LINE
5
F4
100
AcDbEntity
8
1
62
256
6
ByLayer
370
18
48
1
60
0
100
AcDbLine
10
31.41185
20
-2
30
0
11
31.63041
21
-2
31
0
39
0
210
0
220
0
230
1
0
LINE
5
F5
100
AcDbEntity
8
1
62
256
6
ByLayer
370
18
48
1
60
0
100
AcDbLine
10
36
20
-1.596883
30
0
11
36
21
-0.403117
31
0
39
0
210
0
220
0
230
1
0
LINE
5
F6
100
AcDbEntity
8
1
62
256
6
ByLayer
370
18
48
1
60
0
100
AcDbLine
10
35.535516
20
-2.240867
30
0
11
35.689249
21
-2.250341
31
0
39
0
210
0
220
0
230
1
0
LINE
5
F7
100
AcDbEntity
8
1
62
256
6
ByLayer
370
18
48
1
60
0
100
AcDbLine
10
32.77444
20
-2
30
0
11
32.711238
21
-2
31
0
39
0
210
0
220
0
230
1
0
LINE
5
F8
100
AcDbEntity
8
SK2
62
256
6
ByLayer
370
13
48
1
60
0
100
AcDbLine
10
-83.60005
20
-18.435263
30
0
11
-83.60005
21
8.75
31
0
39
0
210
0
220
0
230
1
0
LINE
5
FA
100
AcDbEntity
8
SK2
62
256
6
ByLayer
370
13
48
1
60
0
100
AcDbLine
10
-76
20
-2.35
30
0
11
-85.60005
21
-2.35
31
0
39
0
210
0
220
0
230
1
0
LINE
5
FB
100
AcDbEntity
8
SK2
62
256
6
ByLayer
370
13
48
1
60
0
100
AcDbLine
10
-76
20
0
30
0
11
-85.60005
21
0
31
0
39
0
210
0
220
0
230
1
0
LINE
5
FC
100
AcDbEntity
8
SK2
62
256
6
ByLayer
370
18
48
1
60
0
100
AcDbLine
10
-83.60005
20
-2.35
30
0
11
-83.182053
21
-5.524998
31
0
39
0
210
0
220
0
230
1
0
LINE
5
FD
100
AcDbEntity
8
SK2
62
256
6
ByLayer
370
18
48
1
60
0
100
AcDbLine
10
-83.60005
20
-2.35
30
0
11
-84.018047
21
-5.525002
31
0
39
0
210
0
220
0
230
1
0
LINE
5
FE
100
AcDbEntity
8
SK2
62
256
6
ByLayer
370
18
48
1
60
0
100
AcDbLine
10
-83.182053
20
-5.524998
30
0
11
-84.018047
21
-5.525002
31
0
39
0
210
0
220
0
230
1
0
LINE
5
FF
100
AcDbEntity
8
SK2
62
256
6
ByLayer
370
18
48
1
60
0
100
AcDbLine
10
-83.60005
20
0
30
0
11
-84.018047
21
3.174998
31
0
39
0
210
0
220
0
230
1
0
LINE
5
100
100
AcDbEntity
8
SK2
62
256
6
ByLayer
370
18
48
1
60
0
100
AcDbLine
10
-83.60005
20
0
30
0
11
-83.182053
21
3.175002
31
0
39
0
210
0
220
0
230
1
0
LINE
5
101
100
AcDbEntity
8
SK2
62
256
6
ByLayer
370
18
48
1
60
0
100
AcDbLine
10
-84.018047
20
3.174998
30
0
11
-83.182053
21
3.175002
31
0
39
0
210
0
220
0
230
1
0
LINE
5
102
100
AcDbEntity
8
2
62
256
6
ByLayer
370
18
48
1
60
0
100
AcDbLine
10
54.1
20
-11.25
30
0
11
54.1
21
15.716842
31
0
39
0
210
0
220
0
230
1
0
LINE
5
104
100
AcDbEntity
8
2
62
256
6
ByLayer
370
18
48
1
60
0
100
AcDbLine
10
38
20
-2.5
30
0
11
56.1
21
-2.5
31
0
39
0
210
0
220
0
230
1
0
LINE
5
105
100
AcDbEntity
8
2
62
256
6
ByLayer
370
18
48
1
60
0
100
AcDbLine
10
38
20
0
30
0
11
56.1
21
0
31
0
39
0
210
0
220
0
230
1
0
LINE
5
106
100
AcDbEntity
8
2
62
256
6
ByLayer
370
18
48
1
60
0
100
AcDbLine
10
54.1
20
-2.5
30
0
11
54.517997
21
-5.674998
31
0
39
0
210
0
220
0
230
1
0
LINE
5
107
100
AcDbEntity
8
2
62
256
6
ByLayer
370
18
48
1
60
0
100
AcDbLine
10
54.1
20
-2.5
30
0
11
53.682003
21
-5.675002
31
0
39
0
210
0
220
0
230
1
0
LINE
5
108
100
AcDbEntity
8
2
62
256
6
ByLayer
370
18
48
1
60
0
100
AcDbLine
10
54.517997
20
-5.674998
30
0
11
53.682003
21
-5.675002
31
0
39
0
210
0
220
0
230
1
0
LINE
5
109
100
AcDbEntity
8
2
62
256
6
ByLayer
370
18
48
1
60
0
100
AcDbLine
10
54.1
20
0
30
0
11
53.682003
21
3.174998
31
0
39
0
210
0
220
0
230
1
0
LINE
5
10A
100
AcDbEntity
8
2
62
256
6
ByLayer
370
18
48
1
60
0
100
AcDbLine
10
54.1
20
0
30
0
11
54.517997
21
3.175002
31
0
39
0
210
0
220
0
230
1
0
LINE
5
10B
100
AcDbEntity
8
2
62
256
6
ByLayer
370
18
48
1
60
0
100
AcDbLine
10
53.682003
20
3.174998
30
0
11
54.517997
21
3.175002
31
0
39
0
210
0
220
0
230
1
0
MTEXT
5
1F0
100
AcDbEntity
8
SK6
62
256
6
ByLayer
370
18
48
1
60
0
100
AcDbMText
10
-50.625025
20
-51.999555
30
0
210
0
220
0
230
1
1
\W0.7453;QD-NR1F33C21D
40
3.5
41
0
44
1.084337
50
0
71
7
72
5
7
iso_b_vert
0
MTEXT
5
1F4
100
AcDbEntity
8
SK2
62
256
6
ByLayer
370
18
48
1
60
0
100
AcDbMText
10
-84.47505
20
-17.560263
30
0
210
0
220
0
230
1
1
\W0.7451;2.4
40
3.5
41
0
44
1.084337
50
89.9999999999999
71
7
72
5
7
iso_b_vert
0
MTEXT
5
1F5
100
AcDbEntity
8
2
62
256
6
ByLayer
370
18
48
1
60
0
100
AcDbMText
10
53.225
20
11.13
30
0
210
0
220
0
230
1
1
\W0.7121;2.5
40
3.5
41
0
44
1.084337
50
89.9999999999999
71
7
72
5
7
iso_b_vert
0
DIMENSION
5
203
100
AcDbEntity
8
SK2
62
256
6
ByLayer
370
13
48
1
60
0
100
AcDbDimension
2
DimnDraft3D1
10
36
20
22.850889
30
0
11
-21.523684
21
22.850889
31
0
70
32
71
5
72
1
41
1
210
0
220
0
230
1
3
Standard
100
AcDbAlignedDimension
13
-74
23
-0.35
33
0
14
36
24
2
34
0
50
0
100
AcDbRotatedDimension
1001
ACAD
1000
DSTYLE
1002
{
1070
   279
1070
     0
1070
   172
1070
     1
1070
   173
1070
     1
1070
   340
1005
1F1
1070
   271
1070
     1
1070
    77
1070
     1
1070
    73
1070
     0
1070
   171
1070
     3
1070
   274
1070
     4
1070
   177
1070
     2
1070
   176
1070
     2
1070
   178
1070
     7
1070
    78
1070
     8
1070
    41
1041
3.175
1070
   147
1041
1.75
1070
    42
1041
2.0
1070
    44
1041
2.0
1070
   140
1041
3.5
1070
   343
1005
204
1070
   344
1005
204
1002
}
0
DIMENSION
5
218
100
AcDbEntity
8
2
62
256
6
ByLayer
370
13
48
1
60
0
100
AcDbDimension
2
DimnDraft3D2
10
3
20
-15.6
30
0
11
17.409211
21
-15.6
31
0
70
32
71
5
72
1
41
1
210
0
220
0
230
1
3
Standard
100
AcDbAlignedDimension
13
36
23
-2
33
0
14
3
24
-4.35
34
0
50
0
100
AcDbRotatedDimension
1001
ACAD
1000
DSTYLE
1002
{
1070
   279
1070
     0
1070
   172
1070
     1
1070
   173
1070
     1
1070
   340
1005
1F1
1070
   271
1070
     1
1070
    77
1070
     1
1070
    73
1070
     0
1070
   171
1070
     3
1070
   274
1070
     4
1070
   177
1070
     2
1070
   176
1070
     2
1070
   178
1070
     7
1070
    78
1070
     8
1070
    41
1041
3.175
1070
   147
1041
1.75
1070
    42
1041
2.0
1070
    44
1041
2.0
1070
   140
1041
3.5
1070
   343
1005
204
1070
   344
1005
204
1002
}
0
ENDSEC
0
SECTION
2
OBJECTS
0
DICTIONARY
5
282
330
0
100
AcDbDictionary
280
0
281
1
3
ACAD_GROUP
350
283
3
ACAD_MLINESTYLE
350
284
0
DICTIONARY
5
283
330
0
100
AcDbDictionary
280
0
281
1
0
DICTIONARY
5
284
330
0
100
AcDbDictionary
280
0
281
1
3
Standard
350
18
0
MLINESTYLE
5
18
330
284
100
AcDbMlineStyle
2
Standard
70
0
3

62
256
51
90
52
90
71
2
49
-0.5
62
256
6
ByLayer
49
0.5
62
256
6
ByLayer
0
RASTERVARIABLES
5
271
330

100
AcDbRasterVariables
90
0
70
1
71
1
72
1
0
ENDSEC
0
EOF
