0
SECTION
2
HEADER
9
$ACADVER
1
AC1015
9
$DWGCODEPAGE
3
ANSI_1252
9
$HANDSEED
5
2b5
9
$ANGBASE
50
0
9
$ANGDIR
70
0
9
$ATTMODE
70
1
9
$AUNITS
70
0
9
$AUPREC
70
0
9
$CECOLOR
62
256
9
$CELTSCALE
40
1
9
$CELTYPE
6
ByLayer
9
$CELWEIGHT
370
18
9
$CLAYER
8
0
9
$CMLJUST
70
0
9
$CMLSCALE
40
1
9
$CMLSTYLE
2
Standard
9
$DIMSTYLE
2
Standard
9
$TEXTSIZE
40
0.2
9
$TEXTSTYLE
7
Standard
9
$LUNITS
70
2
9
$LUPREC
70
4
9
$EXTNAMES
290
1
9
$INSUNITS
70
4
9
$LTSCALE
40
1
9
$LWDISPLAY
290
1
9
$PDMODE
70
0
9
$PDSIZE
40
0
9
$PLINEGEN
70
0
0
ENDSEC
0
SECTION
2
CLASSES
0
CLASS
1
RASTERVARIABLES
2
AcDbRasterVariables
3
ISM
90
0
280
0
281
0
0
ENDSEC
0
SECTION
2
TABLES
0
TABLE
2
VPORT
5
2ab
100
AcDbSymbolTable
0
VPORT
5
1
100
AcDbSymbolTableRecord
100
AcDbViewportTableRecord
2
*Active
70
0
10
0
20
0
11
1
21
1
12
-1
22
1
13
0
23
0
14
0.5
24
0.5
15
10
25
10
16
0
26
0
36
1
17
0
27
0
37
0
0
ENDTAB
0
TABLE
2
LTYPE
5
2ac
100
AcDbSymbolTable
0
LTYPE
5
14
100
AcDbSymbolTableRecord
100
AcDbLinetypeTableRecord
70
0
2
ByBlock
3

72
65
73
0
40
0
0
LTYPE
5
15
100
AcDbSymbolTableRecord
100
AcDbLinetypeTableRecord
70
0
2
ByLayer
3

72
65
73
0
40
0
0
LTYPE
5
16
100
AcDbSymbolTableRecord
100
AcDbLinetypeTableRecord
70
0
2
CONTINUOUS
3
Solid line
72
65
73
0
40
0
0
LTYPE
5
6A
100
AcDbSymbolTableRecord
100
AcDbLinetypeTableRecord
70
0
2
CENTER
3
____ _ ____ _ ____ _ ____
72
65
73
4
40
47.5
49
22
74
0
49
-8.5
74
0
49
8.5
74
0
49
-8.5
74
0
0
LTYPE
5
6B
100
AcDbSymbolTableRecord
100
AcDbLinetypeTableRecord
70
0
2
DASHED
3
__ __ __ __ __ __ __ __ __
72
65
73
2
40
25.72
49
12.86
74
0
49
-12.86
74
0
0
ENDTAB
0
TABLE
2
LAYER
5
2ad
100
AcDbSymbolTable
0
LAYER
5
10
100
AcDbSymbolTableRecord
100
AcDbLayerTableRecord
2
0
70
0
62
7
6
CONTINUOUS
290
1
370
-3
390
0
0
LAYER
5
6D
100
AcDbSymbolTableRecord
100
AcDbLayerTableRecord
2
81
70
0
62
-3
6
CONTINUOUS
290
1
370
-3
390
0
0
LAYER
5
6F
100
AcDbSymbolTableRecord
100
AcDbLayerTableRecord
2
80
70
0
62
-6
6
CONTINUOUS
290
1
370
-3
390
0
0
LAYER
5
73
100
AcDbSymbolTableRecord
100
AcDbLayerTableRecord
2
1
70
0
62
4
6
CONTINUOUS
290
1
370
-3
390
0
0
LAYER
5
ED
100
AcDbSymbolTableRecord
100
AcDbLayerTableRecord
2
2
70
0
62
7
6
CONTINUOUS
290
1
370
-3
390
0
0
LAYER
5
298
100
AcDbSymbolTableRecord
100
AcDbLayerTableRecord
2
SK1
70
0
62
4
6
CONTINUOUS
290
1
370
-3
390
0
0
LAYER
5
299
100
AcDbSymbolTableRecord
100
AcDbLayerTableRecord
2
SK2
70
0
62
7
6
CONTINUOUS
290
1
370
-3
390
0
0
LAYER
5
29a
100
AcDbSymbolTableRecord
100
AcDbLayerTableRecord
2
SK6
70
0
62
5
6
CONTINUOUS
290
1
370
-3
390
0
0
ENDTAB
0
TABLE
2
STYLE
5
2ae
100
AcDbSymbolTable
0
STYLE
5
11
100
AcDbSymbolTableRecord
100
AcDbTextStyleTableRecord
2
Standard
3
txt
70
0
71
0
40
0
41
1
42
0
50
0
0
STYLE
5
217
100
AcDbSymbolTableRecord
100
AcDbTextStyleTableRecord
2
iso_b_vert
3
simplex.shx
70
0
71
0
40
0
41
1
42
0
50
0
0
STYLE
5
218
100
AcDbSymbolTableRecord
100
AcDbTextStyleTableRecord
2
DWGDirectTextStyle
3
simplex
70
0
71
0
40
0
41
1
42
0
50
0
0
ENDTAB
0
TABLE
2
DIMSTYLE
5
2af
100
AcDbSymbolTable
100
AcDbDimStyleTable
0
DIMSTYLE
105
27
100
AcDbSymbolTableRecord
100
AcDbDimStyleTableRecord
2
Standard
70
0
3
<>
41
0.18
42
0.0625
44
0.18
140
0.18
147
0.09
73
0
74
0
77
1
271
2
275
0
278
52
280
0
340
11
0
ENDTAB
0
TABLE
2
VIEW
5
2b0
100
AcDbSymbolTable
0
ENDTAB
0
TABLE
2
UCS
5
2b1
100
AcDbSymbolTable
0
ENDTAB
0
TABLE
2
APPID
5
2b2
100
AcDbSymbolTable
0
APPID
5
12
100
AcDbSymbolTableRecord
100
AcDbRegAppTableRecord
2
ACAD
70
0
0
ENDTAB
0
TABLE
2
BLOCK_RECORD
5
2b3
100
AcDbSymbolTable
0
BLOCK_RECORD
5
1F
100
AcDbSymbolTableRecord
100
AcDbBlockTableRecord
2
*Model_Space
340
0
70
0
0
BLOCK_RECORD
5
1B
100
AcDbSymbolTableRecord
100
AcDbBlockTableRecord
2
*Paper_Space
340
0
70
0
0
BLOCK_RECORD
5
23
100
AcDbSymbolTableRecord
100
AcDbBlockTableRecord
2
*Paper_Space0
340
0
70
0
0
BLOCK_RECORD
5
21C
100
AcDbSymbolTableRecord
100
AcDbBlockTableRecord
2
DimnDraft3D1
340
0
70
0
0
BLOCK_RECORD
5
22A
100
AcDbSymbolTableRecord
100
AcDbBlockTableRecord
2
_CLOSED
340
0
70
0
0
BLOCK_RECORD
5
231
100
AcDbSymbolTableRecord
100
AcDbBlockTableRecord
2
DimnDraft3D2
340
0
70
0
0
ENDTAB
0
ENDSEC
0
SECTION
2
BLOCKS
0
BLOCK
5
20
100
AcDbEntity
8
0
100
AcDbBlockBegin
2
*Model_Space
70
0
10
0
20
0
30
0
3
*Model_Space
0
ENDBLK
5
21
100
AcDbEntity
8
0
100
AcDbBlockEnd
0
BLOCK
5
1C
100
AcDbEntity
8
0
100
AcDbBlockBegin
2
*Paper_Space
70
0
10
0
20
0
30
0
3
*Paper_Space
0
ENDBLK
5
1D
100
AcDbEntity
8
0
100
AcDbBlockEnd
0
BLOCK
5
24
100
AcDbEntity
8
0
100
AcDbBlockBegin
2
*Paper_Space0
70
0
10
0
20
0
30
0
3
*Paper_Space0
0
ENDBLK
5
25
100
AcDbEntity
8
0
100
AcDbBlockEnd
0
BLOCK
5
227
100
AcDbEntity
8
0
100
AcDbBlockBegin
2
DimnDraft3D1
70
0
10
0
20
0
30
0
3
DimnDraft3D1
0
MTEXT
5
21D
100
AcDbEntity
8
SK2
62
256
6
ByLayer
370
18
48
1
60
0
100
AcDbMText
10
-17.086184
20
23.812462
30
0
210
0
220
0
230
1
1
\W0.6217;150
40
3.5
41
0
44
1.084337
50
0
71
7
72
5
7
iso_b_vert
0
LINE
5
21E
100
AcDbEntity
8
SK2
62
256
6
ByLayer
370
13
48
1
60
0
100
AcDbLine
10
-90
20
-3.35
30
0
11
-90
21
24.937462
31
0
39
0
210
0
220
0
230
1
0
LINE
5
21F
100
AcDbEntity
8
SK2
62
256
6
ByLayer
370
13
48
1
60
0
100
AcDbLine
10
60
20
2
30
0
11
60
21
24.937462
31
0
39
0
210
0
220
0
230
1
0
LINE
5
220
100
AcDbEntity
8
SK2
62
256
6
ByLayer
370
13
48
1
60
0
100
AcDbLine
10
-90
20
22.937462
30
0
11
60
21
22.937462
31
0
39
0
210
0
220
0
230
1
0
LINE
5
221
100
AcDbEntity
8
SK2
62
256
6
ByLayer
370
13
48
1
60
0
100
AcDbLine
10
-90
20
22.937462
30
0
11
-86.825002
21
23.355459
31
0
39
0
210
0
220
0
230
1
0
LINE
5
222
100
AcDbEntity
8
SK2
62
256
6
ByLayer
370
13
48
1
60
0
100
AcDbLine
10
-90
20
22.937462
30
0
11
-86.824998
21
22.519465
31
0
39
0
210
0
220
0
230
1
0
LINE
5
223
100
AcDbEntity
8
SK2
62
256
6
ByLayer
370
13
48
1
60
0
100
AcDbLine
10
-86.825002
20
23.355459
30
0
11
-86.824998
21
22.519465
31
0
39
0
210
0
220
0
230
1
0
LINE
5
224
100
AcDbEntity
8
SK2
62
256
6
ByLayer
370
13
48
1
60
0
100
AcDbLine
10
60
20
22.937462
30
0
11
56.825002
21
22.519465
31
0
39
0
210
0
220
0
230
1
0
LINE
5
225
100
AcDbEntity
8
SK2
62
256
6
ByLayer
370
13
48
1
60
0
100
AcDbLine
10
60
20
22.937462
30
0
11
56.824998
21
23.355459
31
0
39
0
210
0
220
0
230
1
0
LINE
5
226
100
AcDbEntity
8
SK2
62
256
6
ByLayer
370
13
48
1
60
0
100
AcDbLine
10
56.825002
20
22.519465
30
0
11
56.824998
21
23.355459
31
0
39
0
210
0
220
0
230
1
0
ENDBLK
5
228
100
AcDbEntity
8
0
100
AcDbBlockEnd
0
BLOCK
5
22B
100
AcDbEntity
8
0
100
AcDbBlockBegin
2
_CLOSED
70
0
10
0
20
0
30
0
3
_CLOSED
0
LINE
5
22D
100
AcDbEntity
8
0
62
256
6
ByLayer
370
-2
48
1
60
0
100
AcDbLine
10
-1
20
0.166667
30
0
11
0
21
0
31
0
39
0
210
0
220
0
230
1
0
LINE
5
22E
100
AcDbEntity
8
0
62
256
6
ByLayer
370
-2
48
1
60
0
100
AcDbLine
10
0
20
0
30
0
11
-1
21
-0.166667
31
0
39
0
210
0
220
0
230
1
0
LINE
5
22F
100
AcDbEntity
8
0
62
256
6
ByLayer
370
-2
48
1
60
0
100
AcDbLine
10
-1
20
0.166667
30
0
11
-1
21
-0.166667
31
0
39
0
210
0
220
0
230
1
0
LINE
5
230
100
AcDbEntity
8
0
62
256
6
ByLayer
370
-2
48
1
60
0
100
AcDbLine
10
0
20
0
30
0
11
-1
21
0
31
0
39
0
210
0
220
0
230
1
0
ENDBLK
5
22C
100
AcDbEntity
8
0
100
AcDbBlockEnd
0
BLOCK
5
23C
100
AcDbEntity
8
0
100
AcDbBlockBegin
2
DimnDraft3D2
70
0
10
0
20
0
30
0
3
DimnDraft3D2
0
MTEXT
5
232
100
AcDbEntity
8
2
62
256
6
ByLayer
370
18
48
1
60
0
100
AcDbMText
10
28.784211
20
-18.225
30
0
210
0
220
0
230
1
1
\W0.6740;60
40
3.5
41
0
44
1.084337
50
0
71
7
72
5
7
iso_b_vert
0
LINE
5
233
100
AcDbEntity
8
2
62
256
6
ByLayer
370
13
48
1
60
0
100
AcDbLine
10
60
20
-2
30
0
11
60
21
-21.1
31
0
39
0
210
0
220
0
230
1
0
LINE
5
234
100
AcDbEntity
8
2
62
256
6
ByLayer
370
13
48
1
60
0
100
AcDbLine
10
0
20
-7.35
30
0
11
0
21
-21.1
31
0
39
0
210
0
220
0
230
1
0
LINE
5
235
100
AcDbEntity
8
2
62
256
6
ByLayer
370
13
48
1
60
0
100
AcDbLine
10
60
20
-19.1
30
0
11
0
21
-19.1
31
0
39
0
210
0
220
0
230
1
0
LINE
5
236
100
AcDbEntity
8
2
62
256
6
ByLayer
370
13
48
1
60
0
100
AcDbLine
10
60
20
-19.1
30
0
11
56.825002
21
-19.517997
31
0
39
0
210
0
220
0
230
1
0
LINE
5
237
100
AcDbEntity
8
2
62
256
6
ByLayer
370
13
48
1
60
0
100
AcDbLine
10
60
20
-19.1
30
0
11
56.824998
21
-18.682003
31
0
39
0
210
0
220
0
230
1
0
LINE
5
238
100
AcDbEntity
8
2
62
256
6
ByLayer
370
13
48
1
60
0
100
AcDbLine
10
56.825002
20
-19.517997
30
0
11
56.824998
21
-18.682003
31
0
39
0
210
0
220
0
230
1
0
LINE
5
239
100
AcDbEntity
8
2
62
256
6
ByLayer
370
13
48
1
60
0
100
AcDbLine
10
0
20
-19.1
30
0
11
3.174998
21
-18.682003
31
0
39
0
210
0
220
0
230
1
0
LINE
5
23A
100
AcDbEntity
8
2
62
256
6
ByLayer
370
13
48
1
60
0
100
AcDbLine
10
0
20
-19.1
30
0
11
3.175002
21
-19.517997
31
0
39
0
210
0
220
0
230
1
0
LINE
5
23B
100
AcDbEntity
8
2
62
256
6
ByLayer
370
13
48
1
60
0
100
AcDbLine
10
3.174998
20
-18.682003
30
0
11
3.175002
21
-19.517997
31
0
39
0
210
0
220
0
230
1
0
ENDBLK
5
23D
100
AcDbEntity
8
0
100
AcDbBlockEnd
0
ENDSEC
0
SECTION
2
ENTITIES
0
ELLIPSE
5
F6
100
AcDbEntity
8
1
62
256
6
ByLayer
370
18
48
1
60
0
100
AcDbEllipse
10
34.4
20
-44.909739
30
0
11
-2.97069053633412E-15
21
48.5166605099127
31
0
210
0
220
0
230
-1
40
0.267949
41
-0.51453772749362
42
-0.388030586714188
0
ELLIPSE
5
F7
100
AcDbEntity
8
1
62
256
6
ByLayer
370
18
48
1
60
0
100
AcDbEllipse
10
54.756457
20
-2.675
30
0
11
2.67247618690598
21
-0.988910700150816
31
0
210
0
220
0
230
-1
40
0.055572
41
2.03810859425435
42
2.11293313565102
0
ELLIPSE
5
F8
100
AcDbEntity
8
1
62
256
6
ByLayer
370
18
48
1
60
0
100
AcDbEllipse
10
54.03192
20
-2.675
30
0
11
-6.12303177647489E-17
21
1.00000000120251
31
0
210
0
220
0
230
-1
40
0.451247
41
-1.74550750745273
42
-1.39608514613707
0
ELLIPSE
5
F9
100
AcDbEntity
8
1
62
256
6
ByLayer
370
18
48
1
60
0
100
AcDbEllipse
10
54.756456
20
-2.675
30
0
11
2.67247502261957
21
0.988910319314242
31
0
210
0
220
0
230
-1
40
0.055572
41
-2.11293299970812
42
-2.03810843227669
0
ELLIPSE
5
FA
100
AcDbEntity
8
1
62
256
6
ByLayer
370
18
48
1
60
0
100
AcDbEllipse
10
52.152588
20
-2.675
30
0
11
2.01022273814866
21
2.03160960858764E-15
31
0
210
0
220
0
230
-1
40
0.497457
41
0.969678448663208
42
-0.969678448663208
0
ELLIPSE
5
FB
100
AcDbEntity
8
1
62
256
6
ByLayer
370
18
48
1
60
0
100
AcDbEllipse
10
53.851278
20
-2.675
30
0
11
0.443603531898263
21
0.985188736263356
31
0
210
0
220
0
230
-1
40
0.386547
41
-2.71279988024574
42
-2.20181390676652
0
ELLIPSE
5
FC
100
AcDbEntity
8
1
62
256
6
ByLayer
370
18
48
1
60
0
100
AcDbEllipse
10
34.4
20
39.559739
30
0
11
-2.97069053550617E-15
21
48.5166604963908
31
0
210
0
220
0
230
-1
40
0.267949
41
-2.75356206684144
42
-2.62705492603868
0
ELLIPSE
5
FD
100
AcDbEntity
8
1
62
256
6
ByLayer
370
18
48
1
60
0
100
AcDbEllipse
10
53.851278
20
-2.675
30
0
11
0.443603532165077
21
-0.985188736580695
31
0
210
0
220
0
230
-1
40
0.386547
41
2.20181390698202
42
2.71279988034241
0
ELLIPSE
5
FE
100
AcDbEntity
8
SK1
62
256
6
ByLayer
370
18
48
1
60
0
100
AcDbEllipse
10
-20.349543
20
-2.675
30
0
11
2.05418887044414
21
-0.28959207996417
31
0
210
0
220
0
230
-1
40
0.46595
41
2.84779202519483
42
-0.293800628394964
0
ELLIPSE
5
FF
100
AcDbEntity
8
SK1
62
256
6
ByLayer
370
18
48
1
60
0
100
AcDbEllipse
10
-20.349543
20
-2.675
30
0
11
2.05418887044415
21
0.28959207996418
31
0
210
0
220
0
230
-1
40
0.46595
41
0.293800628395024
42
-2.84779202519477
0
ELLIPSE
5
100
100
AcDbEntity
8
1
62
256
6
ByLayer
370
13
48
1
60
0
100
AcDbEllipse
10
57.936428
20
-0.394724
30
0
11
0.0344757044900425
21
-0.298012459135378
31
0
210
0
220
0
230
1
40
0.004013
41
-1.53612109567774
42
-0.696394960494154
0
ELLIPSE
5
101
100
AcDbEntity
8
1
62
256
6
ByLayer
370
13
48
1
60
0
100
AcDbEllipse
10
55.789628
20
-0.441445
30
0
11
-0.0230464571345715
21
-0.299113458094992
31
0
210
0
220
0
230
1
40
0.565336
41
0.788535504423518
42
1.58546383862669
0
ELLIPSE
5
102
100
AcDbEntity
8
1
62
256
6
ByLayer
370
13
48
1
60
0
100
AcDbEllipse
10
57.936428
20
-4.955276
30
0
11
0.0344757044900429
21
0.298012459135378
31
0
210
0
220
0
230
1
40
0.004013
41
0.696394960512211
42
1.53612109567778
0
ELLIPSE
5
103
100
AcDbEntity
8
1
62
256
6
ByLayer
370
13
48
1
60
0
100
AcDbEllipse
10
55.789628
20
-4.908555
30
0
11
-0.0230464571345713
21
0.299113458094992
31
0
210
0
220
0
230
1
40
0.565336
41
-1.58546383862666
42
-0.788535504423517
0
ELLIPSE
5
104
100
AcDbEntity
8
1
62
256
6
ByLayer
370
13
48
1
60
0
100
AcDbEllipse
10
54.633721
20
-1.34801
30
0
11
-0.14565509454833
21
-0.137056898520714
31
0
210
0
220
0
230
1
40
0.824655
41
0.865445253601636
42
1.58330062290273
0
ELLIPSE
5
105
100
AcDbEntity
8
1
62
256
6
ByLayer
370
13
48
1
60
0
100
AcDbEllipse
10
54.633727
20
-4.001996
30
0
11
0.145654533590935
21
-0.137057494667045
31
0
210
0
220
0
230
1
40
0.824654
41
1.55829671735593
42
2.27615066197122
0
ELLIPSE
5
106
100
AcDbEntity
8
1
62
256
6
ByLayer
370
13
48
1
60
0
100
AcDbEllipse
10
53.946601
20
-4.049722
30
0
11
0.0356112644714499
21
0.196804059517949
31
0
210
0
220
0
230
1
40
0.337181
41
0.552952312024952
42
1.63173288093479
0
ELLIPSE
5
107
100
AcDbEntity
8
1
62
256
6
ByLayer
370
13
48
1
60
0
100
AcDbEllipse
10
53.946601
20
-1.300282
30
0
11
-0.0356101531982815
21
0.19680426059716
31
0
210
0
220
0
230
1
40
0.337181
41
1.50986167657776
42
2.58863944786989
0
ELLIPSE
5
108
100
AcDbEntity
8
1
62
256
6
ByLayer
370
13
48
1
60
0
100
AcDbEllipse
10
53.794567
20
-4.018613
30
0
11
-0.0446222323637904
21
-0.194958601705264
31
0
210
0
220
0
230
1
40
0.334374
41
-2.52315165181347
42
-1.49441356325137
0
ELLIPSE
5
109
100
AcDbEntity
8
1
62
256
6
ByLayer
370
13
48
1
60
0
100
AcDbEllipse
10
53.794568
20
-1.331389
30
0
11
0.0446208929096927
21
-0.194958908275415
31
0
210
0
220
0
230
1
40
0.334374
41
-1.64717679303883
42
-0.618441579563153
0
ELLIPSE
5
10A
100
AcDbEntity
8
1
62
256
6
ByLayer
370
13
48
1
60
0
100
AcDbEllipse
10
53.794568
20
-1.331389
30
0
11
-0.189843150463844
21
0.0629251795544689
31
0
210
0
220
0
230
1
40
0.824862
41
0.783492188047283
42
1.83037412070842
0
ELLIPSE
5
10B
100
AcDbEntity
8
1
62
256
6
ByLayer
370
13
48
1
60
0
100
AcDbEllipse
10
53.794568
20
-1.331389
30
0
11
0.181415923983448
21
0.0841918198237332
31
0
210
0
220
0
230
1
40
0.151449
41
1.88624128123227
42
2.72609499686342
0
ELLIPSE
5
10C
100
AcDbEntity
8
1
62
256
6
ByLayer
370
13
48
1
60
0
100
AcDbEllipse
10
53.794567
20
-4.018613
30
0
11
-0.181415923982124
21
0.0841918198265856
31
0
210
0
220
0
230
1
40
0.151449
41
0.415497656646678
42
1.25535137230845
0
ELLIPSE
5
10D
100
AcDbEntity
8
1
62
256
6
ByLayer
370
13
48
1
60
0
100
AcDbEllipse
10
53.794567
20
-4.018613
30
0
11
0.189843211592928
21
0.0629249951297798
31
0
210
0
220
0
230
1
40
0.824861
41
1.31121310851455
42
2.3581012668609
0
ELLIPSE
5
10E
100
AcDbEntity
8
1
62
256
6
ByLayer
370
13
48
1
60
0
100
AcDbEllipse
10
53.218964
20
-0.091083
30
0
11
0.195374877001646
21
0.0540538505247804
31
0
210
0
220
0
230
-1
40
0.095151
41
-2.68744170643888
42
-1.9020435431025
0
ELLIPSE
5
10F
100
AcDbEntity
8
1
62
256
6
ByLayer
370
13
48
1
60
0
100
AcDbEllipse
10
53.218964
20
-5.258917
30
0
11
0.195374876981252
21
-0.0540538505206861
31
0
210
0
220
0
230
-1
40
0.095151
41
1.90204354303681
42
2.68744170643179
0
ELLIPSE
5
110
100
AcDbEntity
8
1
62
256
6
ByLayer
370
13
48
1
60
0
100
AcDbEllipse
10
53.795109
20
-2.091014
30
0
11
0.196520244347652
21
0.0371455725698102
31
0
210
0
220
0
230
1
40
0.382233
41
-2.69513202135753
42
-1.53760525501861
0
ELLIPSE
5
111
100
AcDbEntity
8
1
62
256
6
ByLayer
370
13
48
1
60
0
100
AcDbEllipse
10
53.795108
20
-3.258986
30
0
11
-0.196520211828147
21
0.037145744615234
31
0
210
0
220
0
230
1
40
0.382232
41
-1.60399008004386
42
-0.446460297603217
0
ELLIPSE
5
112
100
AcDbEntity
8
1
62
256
6
ByLayer
370
13
48
1
60
0
100
AcDbEllipse
10
54.717675
20
-1.531903
30
0
11
-0.199367740021548
21
-0.0158903819557826
31
0
210
0
220
0
230
1
40
0.789046
41
1.51750942137637
42
2.14132768530235
0
ELLIPSE
5
113
100
AcDbEntity
8
1
62
256
6
ByLayer
370
13
48
1
60
0
100
AcDbEllipse
10
54.717682
20
-3.8181
30
0
11
0.199367879080839
21
-0.0158886371601788
31
0
210
0
220
0
230
1
40
0.789045
41
1.00025908098126
42
1.62407577006631
0
ELLIPSE
5
114
100
AcDbEntity
8
1
62
256
6
ByLayer
370
13
48
1
60
0
100
AcDbEllipse
10
53.218964
20
-0.091083
30
0
11
0.199990731987411
21
0.0330226536470438
31
0
210
0
220
0
230
-1
40
0.058305
41
-2.6956332446585
42
-1.91023508129453
0
ELLIPSE
5
115
100
AcDbEntity
8
1
62
256
6
ByLayer
370
13
48
1
60
0
100
AcDbEllipse
10
53.218964
20
-5.258917
30
0
11
0.19999073195427
21
-0.0330226536429717
31
0
210
0
220
0
230
-1
40
0.058305
41
1.91023508118581
42
2.69563324463852
0
ELLIPSE
5
116
100
AcDbEntity
8
1
62
256
6
ByLayer
370
13
48
1
60
0
100
AcDbEllipse
10
53.083018
20
-0.115846
30
0
11
-0.0181929836887865
21
0.0465726888261731
31
0
210
0
220
0
230
1
40
0.894204
41
1.23473760232691
42
1.55767207624772
0
ELLIPSE
5
117
100
AcDbEntity
8
1
62
256
6
ByLayer
370
13
48
1
60
0
100
AcDbEllipse
10
53.083018
20
-5.234154
30
0
11
-0.0181929836887898
21
-0.0465726888261718
31
0
210
0
220
0
230
1
40
0.894204
41
-1.55767207624772
42
-1.2347376023269
0
ELLIPSE
5
118
100
AcDbEntity
8
1
62
256
6
ByLayer
370
13
48
1
60
0
100
AcDbEllipse
10
58.939269
20
-0.426965
30
0
11
-0.0770752947303412
21
-0.184551886856328
31
0
210
0
220
0
230
1
40
0.173493
41
0.733007810210912
42
1.60596878949836
0
ELLIPSE
5
119
100
AcDbEntity
8
1
62
256
6
ByLayer
370
13
48
1
60
0
100
AcDbEllipse
10
58.939269
20
-4.923035
30
0
11
-0.0770752947303411
21
0.184551886856328
31
0
210
0
220
0
230
1
40
0.173493
41
-1.60596878949836
42
-0.733007810210961
0
ELLIPSE
5
11A
100
AcDbEntity
8
1
62
256
6
ByLayer
370
13
48
1
60
0
100
AcDbEllipse
10
55.425098
20
-1.70672
30
0
11
0.0825713280238043
21
-0.288412856489417
31
0
210
0
220
0
230
1
40
0.558425
41
-2.51294443030654
42
-1.72932944862261
0
ELLIPSE
5
11B
100
AcDbEntity
8
1
62
256
6
ByLayer
370
13
48
1
60
0
100
AcDbEllipse
10
58.136428
20
-4.976456
30
0
11
0.0261610012051277
21
0.29885715988737
31
0
210
0
220
0
230
1
40
0.003045
41
0.693560700131687
42
1.53602277096625
0
ELLIPSE
5
11C
100
AcDbEntity
8
1
62
256
6
ByLayer
370
13
48
1
60
0
100
AcDbEllipse
10
58.878728
20
-4.998172
30
0
11
-0.00449393620032675
21
0.299966339007275
31
0
210
0
220
0
230
1
40
0.224443
41
0.739818792193526
42
1.42518632678385
0
ELLIPSE
5
11D
100
AcDbEntity
8
1
62
256
6
ByLayer
370
13
48
1
60
0
100
AcDbEllipse
10
58.136428
20
-0.373544
30
0
11
0.0261610012051277
21
-0.29885715988737
31
0
210
0
220
0
230
1
40
0.003045
41
-1.53602277096627
42
-0.693560700132151
0
ELLIPSE
5
11E
100
AcDbEntity
8
1
62
256
6
ByLayer
370
13
48
1
60
0
100
AcDbEllipse
10
55.425098
20
-3.64328
30
0
11
0.0825713280238047
21
0.288412856489417
31
0
210
0
220
0
230
1
40
0.558425
41
1.72932944862261
42
2.51294443030657
0
ELLIPSE
5
11F
100
AcDbEntity
8
1
62
256
6
ByLayer
370
13
48
1
60
0
100
AcDbEllipse
10
54.891168
20
-1.783399
30
0
11
-0.122268173255619
21
-0.158273477906862
31
0
210
0
220
0
230
1
40
0.484684
41
1.08447344820006
42
1.92906217311917
0
ELLIPSE
5
120
100
AcDbEntity
8
1
62
256
6
ByLayer
370
13
48
1
60
0
100
AcDbEllipse
10
54.891173
20
-3.566603
30
0
11
0.122268826309626
21
-0.158272973412603
31
0
210
0
220
0
230
1
40
0.484683
41
1.21252848060928
42
2.05711531973214
0
ELLIPSE
5
121
100
AcDbEntity
8
1
62
256
6
ByLayer
370
13
48
1
60
0
100
AcDbEllipse
10
58.878728
20
-0.351828
30
0
11
-0.00449393620032683
21
-0.299966339007275
31
0
210
0
220
0
230
1
40
0.224443
41
-1.42518632678393
42
-0.73981879219413
0
ELLIPSE
5
122
100
AcDbEntity
8
1
62
256
6
ByLayer
370
13
48
1
60
0
100
AcDbEllipse
10
56.298594
20
-3.845425
30
0
11
0.0475300676839184
21
0.296210892213575
31
0
210
0
220
0
230
1
40
0.247095
41
1.61042446202158
42
2.50923124540553
0
ELLIPSE
5
123
100
AcDbEntity
8
1
62
256
6
ByLayer
370
13
48
1
60
0
100
AcDbEllipse
10
53.079474
20
-5.233479
30
0
11
1.41637461308075E-17
21
0.05
31
0
210
0
220
0
230
1
40
0.906308
41
1.23482044578593
42
1.5707963267949
0
ELLIPSE
5
124
100
AcDbEntity
8
1
62
256
6
ByLayer
370
13
48
1
60
0
100
AcDbEllipse
10
53.079474
20
-0.116521
30
0
11
1.41637461308075E-17
21
0.05
31
0
210
0
220
0
230
1
40
0.906308
41
1.5707963267949
42
1.90677220780416
0
ELLIPSE
5
125
100
AcDbEntity
8
1
62
256
6
ByLayer
370
13
48
1
60
0
100
AcDbEllipse
10
56.298594
20
-1.504575
30
0
11
0.0475300676839182
21
-0.296210892213575
31
0
210
0
220
0
230
1
40
0.247095
41
-2.50923124540554
42
-1.61042446202158
0
ELLIPSE
5
126
100
AcDbEntity
8
1
62
256
6
ByLayer
370
13
48
1
60
0
100
AcDbEllipse
10
55.138309
20
-2.007499
30
0
11
-0.147116653644523
21
-0.13548686364529
31
0
210
0
220
0
230
1
40
0.428574
41
1.29393973964895
42
2.00635086389117
0
ELLIPSE
5
127
100
AcDbEntity
8
1
62
256
6
ByLayer
370
13
48
1
60
0
100
AcDbEllipse
10
55.138309
20
-3.342506
30
0
11
0.147116931807192
21
-0.135486561605342
31
0
210
0
220
0
230
1
40
0.428573
41
1.13524090981113
42
1.84765347921685
0
ELLIPSE
5
128
100
AcDbEntity
8
1
62
256
6
ByLayer
370
13
48
1
60
0
100
AcDbEllipse
10
53.960376
20
-3.19216
30
0
11
-0.0689676156405
21
0.187732437242114
31
0
210
0
220
0
230
1
40
0.223087
41
-1.29134485432404
42
-0.148829673704168
0
ELLIPSE
5
129
100
AcDbEntity
8
1
62
256
6
ByLayer
370
13
48
1
60
0
100
AcDbEllipse
10
54.205153
20
-2.806886
30
0
11
-0.199848046799084
21
-0.00779475404301651
31
0
210
0
220
0
230
1
40
0.083289
41
-1.69354097241406
42
-0.437958800565635
0
ELLIPSE
5
12A
100
AcDbEntity
8
1
62
256
6
ByLayer
370
13
48
1
60
0
100
AcDbEllipse
10
53.960377
20
-2.15784
30
0
11
0.0689675934147269
21
0.187732445407236
31
0
210
0
220
0
230
1
40
0.223086
41
-2.9927630062965
42
-1.85025134770713
0
ELLIPSE
5
12B
100
AcDbEntity
8
1
62
256
6
ByLayer
370
13
48
1
60
0
100
AcDbEllipse
10
54.205153
20
-2.543114
30
0
11
0.199848033790471
21
-0.00779508756094034
31
0
210
0
220
0
230
1
40
0.083293
41
-2.70363371402347
42
-1.44805176546407
0
ELLIPSE
5
12C
100
AcDbEntity
8
1
62
256
6
ByLayer
370
13
48
1
60
0
100
AcDbEllipse
10
53.795109
20
-2.091014
30
0
11
0.0817083505375211
21
0.182547926453405
31
0
210
0
220
0
230
1
40
0.256764
41
-2.96631956466345
42
-1.869923842355
0
ELLIPSE
5
12D
100
AcDbEntity
8
1
62
256
6
ByLayer
370
13
48
1
60
0
100
AcDbEllipse
10
53.951068
20
-2.15442
30
0
11
0.0689885705881151
21
0.187724737656519
31
0
210
0
220
0
230
1
40
0.223794
41
-2.99273803865018
42
-1.85208974570133
0
ELLIPSE
5
12E
100
AcDbEntity
8
1
62
256
6
ByLayer
370
13
48
1
60
0
100
AcDbEllipse
10
53.795108
20
-3.258986
30
0
11
-0.0817084005627238
21
0.182547904062143
31
0
210
0
220
0
230
1
40
0.256765
41
-1.27167207778638
42
-0.175273159290067
0
ELLIPSE
5
12F
100
AcDbEntity
8
1
62
256
6
ByLayer
370
13
48
1
60
0
100
AcDbEllipse
10
53.951068
20
-3.19558
30
0
11
-0.0689885942162015
21
0.187724728973229
31
0
210
0
220
0
230
1
40
0.223795
41
-1.28950643621435
42
-0.148854643107023
0
ELLIPSE
5
130
100
AcDbEntity
8
1
62
256
6
ByLayer
370
13
48
1
60
0
100
AcDbEllipse
10
59.830531
20
-4.178126
30
0
11
0.160247744810277
21
0.253615181492001
31
0
210
0
220
0
230
1
40
0.323223
41
-1.88751235157064
42
-1.36933681309583
0
ELLIPSE
5
131
100
AcDbEntity
8
1
62
256
6
ByLayer
370
13
48
1
60
0
100
AcDbEllipse
10
59.61054
20
-4.128722
30
0
11
-0.00934290352952681
21
0.29985448163007
31
0
210
0
220
0
230
1
40
0.37445
41
-2.32799563318286
42
-1.58246296899163
0
ELLIPSE
5
132
100
AcDbEntity
8
1
62
256
6
ByLayer
370
13
48
1
60
0
100
AcDbEllipse
10
59.61054
20
-1.221278
30
0
11
-0.00934290352952708
21
-0.29985448163007
31
0
210
0
220
0
230
1
40
0.37445
41
1.58246296899163
42
2.32799563318286
0
ELLIPSE
5
133
100
AcDbEntity
8
1
62
256
6
ByLayer
370
13
48
1
60
0
100
AcDbEllipse
10
59.830531
20
-1.171874
30
0
11
0.160247744810277
21
-0.253615181492001
31
0
210
0
220
0
230
1
40
0.323223
41
1.36933681309585
42
1.88751235157059
0
ELLIPSE
5
134
100
AcDbEntity
8
1
62
256
6
ByLayer
370
13
48
1
60
0
100
AcDbEllipse
10
59.947855
20
-4.249987
30
0
11
0.149040840011555
21
0.26035903673322
31
0
210
0
220
0
230
1
40
0.070614
41
-1.79230411601797
42
-1.53039607364757
0
ELLIPSE
5
135
100
AcDbEntity
8
1
62
256
6
ByLayer
370
13
48
1
60
0
100
AcDbEllipse
10
59.947855
20
-1.100013
30
0
11
0.149040840011555
21
-0.26035903673322
31
0
210
0
220
0
230
1
40
0.070614
41
1.53039607364757
42
1.79230411601797
0
ELLIPSE
5
136
100
AcDbEntity
8
1
62
256
6
ByLayer
370
13
48
1
60
0
100
AcDbEllipse
10
59.962359
20
-4.258575
30
0
11
0.158772341484591
21
0.254541437843626
31
0
210
0
220
0
230
1
40
0.050686
41
-1.77698417590514
42
-1.56451084021989
0
ELLIPSE
5
137
100
AcDbEntity
8
1
62
256
6
ByLayer
370
13
48
1
60
0
100
AcDbEllipse
10
59.962359
20
-1.091425
30
0
11
0.15877234148459
21
-0.254541437843626
31
0
210
0
220
0
230
1
40
0.050686
41
1.56451084021989
42
1.77698417590536
0
ELLIPSE
5
138
100
AcDbEntity
8
1
62
256
6
ByLayer
370
13
48
1
60
0
100
AcDbEllipse
10
59.980891
20
-1.082828
30
0
11
0.0998194591515971
21
-0.00600629458840042
31
0
210
0
220
0
230
1
40
0.02426
41
-1.61576796719803
42
-1.39458928037316
0
ELLIPSE
5
139
100
AcDbEntity
8
1
62
256
6
ByLayer
370
13
48
1
60
0
100
AcDbEllipse
10
60.855209
20
-1.100013
30
0
11
0.857470476513418
21
1.03193418878642E-09
31
0
210
0
220
0
230
-1
40
0.466488
41
-3.14159265303173
42
-3.10721596213918
0
ELLIPSE
5
13A
100
AcDbEntity
8
1
62
256
6
ByLayer
370
13
48
1
60
0
100
AcDbEllipse
10
60.855209
20
-4.249987
30
0
11
0.857470477518252
21
-1.01651451337E-09
31
0
210
0
220
0
230
-1
40
0.466488
41
3.10721596216772
42
3.14159265304012
0
ELLIPSE
5
13B
100
AcDbEntity
8
1
62
256
6
ByLayer
370
13
48
1
60
0
100
AcDbEllipse
10
59.980891
20
-4.267172
30
0
11
0.0998194591515971
21
0.00600629458840056
31
0
210
0
220
0
230
1
40
0.02426
41
1.39458928037316
42
1.61576796719803
0
ELLIPSE
5
13C
100
AcDbEntity
8
1
62
256
6
ByLayer
370
13
48
1
60
0
100
AcDbEllipse
10
59.022653
20
-4.144281
30
0
11
-0.00304278008350722
21
0.299984568752067
31
0
210
0
220
0
230
1
40
0.37459
41
-2.35205450232593
42
-1.5745958208753
0
ELLIPSE
5
13D
100
AcDbEntity
8
1
62
256
6
ByLayer
370
13
48
1
60
0
100
AcDbEllipse
10
59.022653
20
-1.205719
30
0
11
-0.00304278008350742
21
-0.299984568752067
31
0
210
0
220
0
230
1
40
0.37459
41
1.5745958208753
42
2.35205450232593
0
ELLIPSE
5
13E
100
AcDbEntity
8
1
62
256
6
ByLayer
370
13
48
1
60
0
100
AcDbEllipse
10
58.466686
20
-4.152428
30
0
11
-0.000603333593996458
21
0.299999393313677
31
0
210
0
220
0
230
1
40
0.176047
41
-2.42323398494257
42
-1.57115037716842
0
ELLIPSE
5
13F
100
AcDbEntity
8
1
62
256
6
ByLayer
370
13
48
1
60
0
100
AcDbEllipse
10
58.466686
20
-1.197572
30
0
11
-0.000603333593996598
21
-0.299999393313677
31
0
210
0
220
0
230
1
40
0.176047
41
1.57115037716842
42
2.42323398494296
0
ELLIPSE
5
140
100
AcDbEntity
8
1
62
256
6
ByLayer
370
13
48
1
60
0
100
AcDbEllipse
10
58.1994
20
-1.221945
30
0
11
0.0450980026263403
21
-0.296590913817525
31
0
210
0
220
0
230
1
40
0.079678
41
1.55868151923577
42
2.44833311311508
0
ELLIPSE
5
141
100
AcDbEntity
8
1
62
256
6
ByLayer
370
13
48
1
60
0
100
AcDbEllipse
10
58.1994
20
-4.128055
30
0
11
0.0450980026263406
21
0.296590913817525
31
0
210
0
220
0
230
1
40
0.079678
41
-2.44833311311511
42
-1.5586815192358
0
ELLIPSE
5
142
100
AcDbEntity
8
1
62
256
6
ByLayer
370
18
48
1
60
0
100
AcDbEllipse
10
58.867963
20
0.269226
30
0
11
0.299993003449848
21
0.0212470571900558
31
0
210
0
220
0
230
-1
40
0.09643
41
-1.78738101640262
42
-1.38953797935038
0
ELLIPSE
5
143
100
AcDbEntity
8
1
62
256
6
ByLayer
370
18
48
1
60
0
100
AcDbEllipse
10
60.048816
20
-1.100014
30
0
11
3.37752666480523E-08
21
-0.400007105391234
31
0
210
0
220
0
230
-1
40
0.122039
41
1.57079701875664
42
1.6051731047756
0
ELLIPSE
5
144
100
AcDbEntity
8
1
62
256
6
ByLayer
370
18
48
1
60
0
100
AcDbEllipse
10
59.988322
20
-4.391387
30
0
11
0.00675227452991291
21
-1.76695717194723
31
0
210
0
220
0
230
-1
40
0.006919
41
-1.62500973525148
42
-1.60952608698922
0
ELLIPSE
5
145
100
AcDbEntity
8
1
62
256
6
ByLayer
370
18
48
1
60
0
100
AcDbEllipse
10
59.988403
20
-0.959152
30
0
11
0.00673278828898982
21
1.76088721653409
31
0
210
0
220
0
230
-1
40
0.006895
41
1.60935360466855
42
1.62489052237647
0
ELLIPSE
5
146
100
AcDbEntity
8
1
62
256
6
ByLayer
370
18
48
1
60
0
100
AcDbEllipse
10
55.705211
20
0.225
30
0
11
0.203674870635643
21
2.49421540694359E-17
31
0
210
0
220
0
230
-1
40
0.981957
41
1.03927776944691
42
1.5707963267949
0
ELLIPSE
5
147
100
AcDbEntity
8
1
62
256
6
ByLayer
370
18
48
1
60
0
100
AcDbEllipse
10
58.867963
20
-5.619226
30
0
11
0.299993003240837
21
-0.0212470571762433
31
0
210
0
220
0
230
-1
40
0.09643
41
1.38953797918832
42
1.7873810165213
0
ELLIPSE
5
148
100
AcDbEntity
8
1
62
256
6
ByLayer
370
18
48
1
60
0
100
AcDbEllipse
10
55.705211
20
-5.575
30
0
11
-0.203674870635643
21
0
31
0
210
0
220
0
230
-1
40
0.981957
41
1.5707963267949
42
2.10231488414288
0
ELLIPSE
5
149
100
AcDbEntity
8
1
62
256
6
ByLayer
370
18
48
1
60
0
100
AcDbEllipse
10
60.048816
20
-4.249986
30
0
11
3.37778691760335E-08
21
0.400007105856824
31
0
210
0
220
0
230
-1
40
0.122039
41
-1.60517310478891
42
-1.57079701880996
0
POINT
5
6C
100
AcDbEntity
8
81
62
256
6
ByLayer
370
18
48
1
60
0
100
AcDbPoint
10
60
20
0
30
0
39
0
210
0
220
0
230
1
50
360
0
POINT
5
6E
100
AcDbEntity
8
80
62
256
6
ByLayer
370
18
48
1
60
0
100
AcDbPoint
10
0
20
0
30
0
39
0
210
0
220
0
230
1
50
360
0
SPLINE
5
14A
100
AcDbEntity
8
1
62
256
6
ByLayer
370
18
48
1
60
0
100
AcDbSpline
70
4
71
3
72
12
73
8
40
0
40
0
40
0
40
0
40
0.341621324294196
40
0.341621324294196
40
0.684704153808699
40
0.684704153808699
40
1
40
1
40
1
40
1
41
1
10
53.2820812253626
20
-3.11777611700111
30
0
41
1
10
53.2833724269376
20
-3.10910433471199
30
0
41
1
10
53.2862073194718
20
-3.10046901849972
30
0
41
1
10
53.2949039737674
20
-3.08474355552454
30
0
41
1
10
53.3009057799656
20
-3.07745675159237
30
0
41
1
10
53.3146091122721
20
-3.06593983628704
30
0
41
1
10
53.3222922726722
20
-3.06136809262753
30
0
41
1
10
53.3304703189271
20
-3.05802679607072
30
0
0
SPLINE
5
14B
100
AcDbEntity
8
1
62
256
6
ByLayer
370
18
48
1
60
0
100
AcDbSpline
70
4
71
3
72
14
73
10
40
0
40
0
40
0
40
0
40
0.265115496676514
40
0.265115496676514
40
0.530351997484542
40
0.530351997484542
40
0.794743006633561
40
0.794743006633561
40
1
40
1
40
1
40
1
41
1
10
53.5034740012557
20
-2.36209869934049
30
0
41
1
10
53.5178169193666
20
-2.36786814032357
30
0
41
1
10
53.5312798336785
20
-2.37607615959857
30
0
41
1
10
53.5541755035232
20
-2.39623979547676
30
0
41
1
10
53.5639170011516
20
-2.40846737762249
30
0
41
1
10
53.5784767387752
20
-2.43516268298183
30
0
41
1
10
53.5835136438584
20
-2.44997258714739
30
0
41
1
10
53.5880089221201
20
-2.47690858852709
30
0
41
1
10
53.5885025937915
20
-2.48911601564967
30
0
41
1
10
53.5875419938816
20
-2.50117627752527
30
0
0
SPLINE
5
14C
100
AcDbEntity
8
1
62
256
6
ByLayer
370
18
48
1
60
0
100
AcDbSpline
70
4
71
3
72
12
73
8
40
0
40
0
40
0
40
0
40
0.332414864303969
40
0.332414864303969
40
0.665450769116189
40
0.665450769116189
40
1
40
1
40
1
40
1
41
1
10
53.3304703189271
20
-2.29197320392751
30
0
41
1
10
53.3218610250492
20
-2.28845571294076
30
0
41
1
10
53.3137959778896
20
-2.28356724613016
30
0
41
1
10
53.3001780410715
20
-2.27170948329038
30
0
41
1
10
53.2944556422079
20
-2.26457694020755
30
0
41
1
10
53.2860910382751
20
-2.24918022845867
30
0
41
1
10
53.2833463988578
20
-2.24072085924649
30
0
41
1
10
53.2820812253617
20
-2.23222388299701
30
0
0
SPLINE
5
14D
100
AcDbEntity
8
1
62
256
6
ByLayer
370
18
48
1
60
0
100
AcDbSpline
70
4
71
3
72
14
73
10
40
0
40
0
40
0
40
0
40
0.27796482212789
40
0.27796482212789
40
0.556501573953207
40
0.556501573953207
40
0.827022564378623
40
0.827022564378623
40
1
40
1
40
1
40
1
41
1
10
53.5875419938806
20
-2.84882372247276
30
0
41
1
10
53.5888350105247
20
-2.86505745222527
30
0
41
1
10
53.5874656911384
20
-2.8816186943109
30
0
41
1
10
53.5793911623359
20
-2.91272744291101
30
0
41
1
10
53.5725501182787
20
-2.92770672303774
30
0
41
1
10
53.5544769848121
20
-2.95347034761491
30
0
41
1
10
53.5431148900936
20
-2.96471678629089
30
0
41
1
10
53.5219500249483
20
-2.97928282952105
30
0
41
1
10
53.5129131106973
20
-2.98410441745634
30
0
41
1
10
53.5034740012565
20
-2.98790130065896
30
0
0
SPLINE
5
14E
100
AcDbEntity
8
1
62
256
6
ByLayer
370
18
48
1
60
0
100
AcDbSpline
70
4
71
3
72
10
73
6
40
0
40
0
40
0
40
0
40
0.897705894104633
40
0.897705894104633
40
1
40
1
40
1
40
1
41
1
10
46.4
20
0.0249999999999773
30
0
41
1
10
46.36178653615
20
0.0249999999999773
30
0
41
1
10
46.3207420749075
20
0.0193343105251813
30
0
41
1
10
46.2758860617243
20
0.0052877174300363
30
0
41
1
10
46.2713037776589
20
0.003757903407319
30
0
41
1
10
46.2667246984264
20
0.0021335467320114
30
0
0
SPLINE
5
14F
100
AcDbEntity
8
1
62
256
6
ByLayer
370
13
48
1
60
0
100
AcDbSpline
70
4
71
2
72
6
73
3
40
0
40
0
40
0
40
1
40
1
40
1
41
0.981171512289559
10
53.5888998109255
20
-3.00422124018368
30
0
41
0.988994613314219
10
53.6285975512078
20
-3.00422124018365
30
0
41
1
10
53.6607948109093
20
-3.00422124018365
30
0
0
SPLINE
5
150
100
AcDbEntity
8
1
62
256
6
ByLayer
370
13
48
1
60
0
100
AcDbSpline
70
4
71
2
72
6
73
3
40
0
40
0
40
0
40
1
40
1
40
1
41
0.981783356868116
10
53.7102415871484
20
-2.8068857898186
30
0
41
0.989421609298606
10
53.751951150079
20
-2.80688578981862
30
0
41
1
10
53.7860245871508
20
-2.80688578981864
30
0
0
SPLINE
5
151
100
AcDbEntity
8
1
62
256
6
ByLayer
370
13
48
1
60
0
100
AcDbSpline
70
4
71
2
72
6
73
3
40
0
40
0
40
0
40
1
40
1
40
1
41
0.98178335686873
10
53.7102415871517
20
-2.675
30
0
41
0.989421609299031
10
53.7519511500804
20
-2.675
30
0
41
1
10
53.7860245871508
20
-2.67500000000001
30
0
0
SPLINE
5
152
100
AcDbEntity
8
1
62
256
6
ByLayer
370
13
48
1
60
0
100
AcDbSpline
70
4
71
3
72
8
73
4
40
0
40
0
40
0
40
0
40
1
40
1
40
1
40
1
41
1
10
54.8359016088517
20
-1.65571589190813
30
0
41
1
10
54.8282987682253
20
-1.58117400317292
30
0
41
1
10
54.7954578468317
20
-1.51806278787964
30
0
41
1
10
54.7485584035406
20
-1.46640215043553
30
0
0
SPLINE
5
153
100
AcDbEntity
8
1
62
256
6
ByLayer
370
13
48
1
60
0
100
AcDbSpline
70
4
71
3
72
12
73
8
40
0
40
0
40
0
40
0
40
0.160969670350478
40
0.160969670350478
40
0.981933655007004
40
0.981933655007004
40
1
40
1
40
1
40
1
41
1
10
54.7485584035404
20
-1.46640215043573
30
0
41
1
10
54.8024700593704
20
-1.41308405589032
30
0
41
1
10
54.85758824643
20
-1.36095102443284
30
0
41
1
10
55.1988536829988
20
-1.05408572124571
30
0
41
1
10
55.5237749365967
20
-0.836092347131228
30
0
41
1
10
55.877886153516
20
-0.668744515986475
30
0
41
1
10
55.8856025044902
20
-0.66512508039159
30
0
41
1
10
55.8933288758357
20
-0.661527262069967
30
0
0
SPLINE
5
154
100
AcDbEntity
8
1
62
256
6
ByLayer
370
13
48
1
60
0
100
AcDbSpline
70
4
71
3
72
10
73
6
40
0
40
0
40
0
40
0
40
0.51838227864566
40
0.51838227864566
40
1
40
1
40
1
40
1
41
1
10
55.8933288758356
20
-0.661527262070081
30
0
41
1
10
56.1963426277498
20
-0.697483135449943
30
0
41
1
10
56.5489274122891
20
-0.678868292409646
30
0
41
1
10
57.2521911215131
20
-0.665939910750183
30
0
41
1
10
57.610767528871
20
-0.662772816546891
30
0
41
1
10
57.9621095645939
20
-0.623436181455816
30
0
0
SPLINE
5
155
100
AcDbEntity
8
1
62
256
6
ByLayer
370
13
48
1
60
0
100
AcDbSpline
70
4
71
3
72
8
73
4
40
0
40
0
40
0
40
0
40
1
40
1
40
1
40
1
41
1
10
57.9621095645939
20
-0.623436181455816
30
0
41
1
10
58.0266681717127
20
-0.616208129836565
30
0
41
1
10
58.0912502214358
20
-0.609081649989008
30
0
41
1
10
58.155963685526
20
-0.603408596784789
30
0
0
SPLINE
5
156
100
AcDbEntity
8
1
62
256
6
ByLayer
370
13
48
1
60
0
100
AcDbSpline
70
4
71
3
72
8
73
4
40
0
40
0
40
0
40
0
40
1
40
1
40
1
40
1
41
1
10
58.155963685526
20
-0.603408596784789
30
0
41
1
10
58.3820343342518
20
-0.583590297205831
30
0
41
1
10
58.6101060020604
20
-0.574178047588077
30
0
41
1
10
58.8300209264768
20
-0.572700704526568
30
0
0
SPLINE
5
157
100
AcDbEntity
8
1
62
256
6
ByLayer
370
13
48
1
60
0
100
AcDbSpline
70
4
71
3
72
8
73
4
40
0
40
0
40
0
40
0
40
1
40
1
40
1
40
1
41
1
10
58.8300209264768
20
-0.572700704526568
30
0
41
1
10
58.8544812091952
20
-0.572536385397029
30
0
41
1
10
58.8789484763173
20
-0.572653592195877
30
0
41
1
10
58.9034132847064
20
-0.573065030456945
30
0
0
SPLINE
5
158
100
AcDbEntity
8
1
62
256
6
ByLayer
370
13
48
1
60
0
100
AcDbSpline
70
4
71
3
72
10
73
6
40
0
40
0
40
0
40
0
40
0.570501669014028
40
0.570501669014028
40
1
40
1
40
1
40
1
41
1
10
58.9034132847052
20
-0.573065030452483
30
0
41
1
10
59.0626475529977
20
-0.640391036807642
30
0
41
1
10
59.2142113386963
20
-0.725590125370019
30
0
41
1
10
59.4764810300831
20
-0.87941583031963
30
0
41
1
10
59.5878177951011
20
-0.948178051336868
30
0
41
1
10
59.6985587777237
20
-1.01785374149375
30
0
0
SPLINE
5
159
100
AcDbEntity
8
1
62
256
6
ByLayer
370
13
48
1
60
0
100
AcDbSpline
70
4
71
3
72
8
73
4
40
0
40
0
40
0
40
0
40
1
40
1
40
1
40
1
41
1
10
59.6985587777251
20
-1.01785374148497
30
0
41
1
10
59.5010010686878
20
-1.01063228166598
30
0
41
1
10
59.3039447417109
20
-1.00349840460504
30
0
41
1
10
59.1045819300008
20
-0.9952875224227
30
0
0
SPLINE
5
15A
100
AcDbEntity
8
1
62
256
6
ByLayer
370
13
48
1
60
0
100
AcDbSpline
70
4
71
3
72
10
73
6
40
0
40
0
40
0
40
0
40
0.0684120488039617
40
0.0684120488039617
40
1
40
1
40
1
40
1
41
1
10
59.1045819300009
20
-0.9952875224227
30
0
41
1
10
59.0912082692696
20
-0.994736719834862
30
0
41
1
10
59.077798766632
20
-0.994183915934684
30
0
41
1
10
58.8821298896841
20
-0.986239691791837
30
0
41
1
10
58.6934664393741
20
-0.978681253520506
30
0
41
1
10
58.5018995872127
20
-0.971776354271071
30
0
0
SPLINE
5
15B
100
AcDbEntity
8
1
62
256
6
ByLayer
370
13
48
1
60
0
100
AcDbSpline
70
4
71
3
72
10
73
6
40
0
40
0
40
0
40
0
40
0.468044400024023
40
0.468044400024023
40
1
40
1
40
1
40
1
41
1
10
58.5018995872127
20
-0.971776354271071
30
0
41
1
10
58.4517560104036
20
-0.969968962533073
30
0
41
1
10
58.4013033339733
20
-0.970303465141598
30
0
41
1
10
58.2937177499153
20
-0.976069823259081
30
0
41
1
10
58.2365975367621
20
-0.983133609600912
30
0
41
1
10
58.179814138327
20
-0.991521013343032
30
0
0
SPLINE
5
15C
100
AcDbEntity
8
1
62
256
6
ByLayer
370
13
48
1
60
0
100
AcDbSpline
70
4
71
3
72
12
73
8
40
0
40
0
40
0
40
0
40
0.0470115153722379
40
0.0470115153722379
40
0.465115903096302
40
0.465115903096302
40
1
40
1
40
1
40
1
41
1
10
58.179814138327
20
-0.991521013343032
30
0
41
1
10
58.1761082124741
20
-0.992068410949059
30
0
41
1
10
58.1724015800766
20
-0.992614772155491
30
0
41
1
10
58.1357276585558
20
-0.998010740072232
30
0
41
1
10
58.1027049262585
20
-1.00278987337001
30
0
41
1
10
58.0274164309494
20
-1.01377658461101
30
0
41
1
10
57.9851810589734
20
-1.02031209819734
30
0
41
1
10
57.9428619713804
20
-1.02625812022163
30
0
0
SPLINE
5
15D
100
AcDbEntity
8
1
62
256
6
ByLayer
370
13
48
1
60
0
100
AcDbSpline
70
4
71
3
72
12
73
8
40
0
40
0
40
0
40
0
40
0.590022741903274
40
0.590022741903274
40
0.970641250406561
40
0.970641250406561
40
1
40
1
40
1
40
1
41
1
10
57.9428619713804
20
-1.0262581202216
30
0
41
1
10
57.7448099475356
20
-1.05408531978355
30
0
41
1
10
57.5467439547593
20
-1.08187162947954
30
0
41
1
10
57.2208968260383
20
-1.12745902786639
30
0
41
1
10
57.0930873442261
20
-1.14527148259964
30
0
41
1
10
56.9554547439041
20
-1.16425514960014
30
0
41
1
10
56.9456021400096
20
-1.16564612262573
30
0
41
1
10
56.9357561156093
20
-1.16708315941418
30
0
0
SPLINE
5
15E
100
AcDbEntity
8
1
62
256
6
ByLayer
370
13
48
1
60
0
100
AcDbSpline
70
4
71
3
72
10
73
6
40
0
40
0
40
0
40
0
40
0.0961233254681772
40
0.0961233254681772
40
1
40
1
40
1
40
1
41
1
10
56.9357561156093
20
-1.16708315941418
30
0
41
1
10
56.9123664859309
20
-1.17049689849799
30
0
41
1
10
56.8889831583808
20
-1.17392265334203
30
0
41
1
10
56.6470954639657
20
-1.20936981293977
30
0
41
1
10
56.4281259949603
20
-1.24081223941695
30
0
41
1
10
56.2169946393813
20
-1.27258317074995
30
0
0
SPLINE
5
15F
100
AcDbEntity
8
1
62
256
6
ByLayer
370
13
48
1
60
0
100
AcDbSpline
70
4
71
3
72
12
73
8
40
0
40
0
40
0
40
0
40
0.33359647415066
40
0.33359647415066
40
0.666225407146582
40
0.666225407146582
40
1
40
1
40
1
40
1
41
1
10
56.2169946393812
20
-1.27258317074995
30
0
41
1
10
56.1029555215889
20
-1.28974371505052
30
0
41
1
10
55.990857756795
20
-1.3102846172616
30
0
41
1
10
55.7727874682058
20
-1.35660302132709
30
0
41
1
10
55.6664519302232
20
-1.3824744466738
30
0
41
1
10
55.4601968156914
20
-1.43853821634781
30
0
41
1
10
55.3602732084934
20
-1.46959162683939
30
0
41
1
10
55.263602185457
20
-1.50056044366855
30
0
0
SPLINE
5
160
100
AcDbEntity
8
1
62
256
6
ByLayer
370
13
48
1
60
0
100
AcDbSpline
70
4
71
3
72
8
73
4
40
0
40
0
40
0
40
0
40
1
40
1
40
1
40
1
41
1
10
55.263602185457
20
-1.50056044366855
30
0
41
1
10
55.1195966594488
20
-1.54669299318817
30
0
41
1
10
54.9767816280718
20
-1.59848780489995
30
0
41
1
10
54.8359016088488
20
-1.65571589191597
30
0
0
SPLINE
5
161
100
AcDbEntity
8
1
62
256
6
ByLayer
370
13
48
1
60
0
100
AcDbSpline
70
4
71
3
72
10
73
6
40
0
40
0
40
0
40
0
40
0.87060552001054
40
0.87060552001054
40
1
40
1
40
1
40
1
41
1
10
54.7485642137408
20
-3.88360359578596
30
0
41
1
10
54.789412610661
20
-3.8386086472735
30
0
41
1
10
54.8196650255191
20
-3.78522415489843
30
0
41
1
10
54.8334978291681
20
-3.71365428437275
30
0
41
1
10
54.8349105065332
20
-3.70407047482945
30
0
41
1
10
54.8359082989303
20
-3.69428682571947
30
0
0
SPLINE
5
162
100
AcDbEntity
8
1
62
256
6
ByLayer
370
13
48
1
60
0
100
AcDbSpline
70
4
71
3
72
8
73
4
40
0
40
0
40
0
40
0
40
1
40
1
40
1
40
1
41
1
10
55.263602185457
20
-3.84943955633147
30
0
41
1
10
55.1195989377399
20
-3.80330773666841
30
0
41
1
10
54.9767861477317
20
-3.75151383505531
30
0
41
1
10
54.8359082989292
20
-3.69428682571464
30
0
0
SPLINE
5
163
100
AcDbEntity
8
1
62
256
6
ByLayer
370
13
48
1
60
0
100
AcDbSpline
70
4
71
3
72
12
73
8
40
0
40
0
40
0
40
0
40
0.33359647415066
40
0.33359647415066
40
0.666225407146582
40
0.666225407146582
40
1
40
1
40
1
40
1
41
1
10
56.2169946393812
20
-4.0774168292501
30
0
41
1
10
56.1029555215889
20
-4.06025628494953
30
0
41
1
10
55.990857756795
20
-4.03971538273842
30
0
41
1
10
55.7727874682058
20
-3.99339697867296
30
0
41
1
10
55.6664519302232
20
-3.96752555332625
30
0
41
1
10
55.4601968156914
20
-3.91146178365221
30
0
41
1
10
55.3602732084934
20
-3.88040837316063
30
0
41
1
10
55.263602185457
20
-3.84943955633147
30
0
0
SPLINE
5
164
100
AcDbEntity
8
1
62
256
6
ByLayer
370
13
48
1
60
0
100
AcDbSpline
70
4
71
3
72
10
73
6
40
0
40
0
40
0
40
0
40
0.0961233254681772
40
0.0961233254681772
40
1
40
1
40
1
40
1
41
1
10
56.9357561156093
20
-4.18291684058588
30
0
41
1
10
56.9123664859309
20
-4.17950310150206
30
0
41
1
10
56.8889831583808
20
-4.17607734665802
30
0
41
1
10
56.6470954639657
20
-4.14063018706025
30
0
41
1
10
56.4281259949603
20
-4.1091877605831
30
0
41
1
10
56.2169946393813
20
-4.07741682925007
30
0
0
SPLINE
5
165
100
AcDbEntity
8
1
62
256
6
ByLayer
370
13
48
1
60
0
100
AcDbSpline
70
4
71
3
72
12
73
8
40
0
40
0
40
0
40
0
40
0.590022741903274
40
0.590022741903274
40
0.970641250406561
40
0.970641250406561
40
1
40
1
40
1
40
1
41
1
10
57.9428619713804
20
-4.32374187977842
30
0
41
1
10
57.7448099475356
20
-4.2959146802165
30
0
41
1
10
57.5467439547593
20
-4.26812837052049
30
0
41
1
10
57.2208968260383
20
-4.22254097213366
30
0
41
1
10
57.0930873442261
20
-4.20472851740038
30
0
41
1
10
56.9554547439041
20
-4.18574485039991
30
0
41
1
10
56.9456021400096
20
-4.18435387737432
30
0
41
1
10
56.9357561156093
20
-4.18291684058588
30
0
0
SPLINE
5
166
100
AcDbEntity
8
1
62
256
6
ByLayer
370
13
48
1
60
0
100
AcDbSpline
70
4
71
3
72
12
73
8
40
0
40
0
40
0
40
0
40
0.0470115153722379
40
0.0470115153722379
40
0.465115903096302
40
0.465115903096302
40
1
40
1
40
1
40
1
41
1
10
58.179814138327
20
-4.35847898665702
30
0
41
1
10
58.1761082124741
20
-4.35793158905096
30
0
41
1
10
58.1724015800766
20
-4.35738522784456
30
0
41
1
10
58.1357276585558
20
-4.35198925992782
30
0
41
1
10
58.1027049262585
20
-4.34721012663005
30
0
41
1
10
58.0274164309494
20
-4.33622341538904
30
0
41
1
10
57.9851810589734
20
-4.32968790180269
30
0
41
1
10
57.9428619713804
20
-4.32374187977842
30
0
0
SPLINE
5
167
100
AcDbEntity
8
1
62
256
6
ByLayer
370
13
48
1
60
0
100
AcDbSpline
70
4
71
3
72
10
73
6
40
0
40
0
40
0
40
0
40
0.468044400024023
40
0.468044400024023
40
1
40
1
40
1
40
1
41
1
10
58.5018995872127
20
-4.37822364572898
30
0
41
1
10
58.4517560104036
20
-4.38003103746698
30
0
41
1
10
58.4013033339733
20
-4.37969653485845
30
0
41
1
10
58.2937177499153
20
-4.37393017674097
30
0
41
1
10
58.2365975367621
20
-4.36686639039911
30
0
41
1
10
58.179814138327
20
-4.35847898665702
30
0
0
SPLINE
5
168
100
AcDbEntity
8
1
62
256
6
ByLayer
370
13
48
1
60
0
100
AcDbSpline
70
4
71
3
72
10
73
6
40
0
40
0
40
0
40
0
40
0.0684120488039617
40
0.0684120488039617
40
1
40
1
40
1
40
1
41
1
10
59.1045819300009
20
-4.35471247757732
30
0
41
1
10
59.0912082692696
20
-4.35526328016519
30
0
41
1
10
59.077798766632
20
-4.35581608406537
30
0
41
1
10
58.8821298896841
20
-4.36376030820821
30
0
41
1
10
58.6934664393741
20
-4.37131874647955
30
0
41
1
10
58.5018995872127
20
-4.37822364572895
30
0
0
SPLINE
5
169
100
AcDbEntity
8
1
62
256
6
ByLayer
370
13
48
1
60
0
100
AcDbSpline
70
4
71
3
72
8
73
4
40
0
40
0
40
0
40
0
40
1
40
1
40
1
40
1
41
1
10
59.6985587777251
20
-4.33214625851508
30
0
41
1
10
59.5010010686878
20
-4.33936771833405
30
0
41
1
10
59.3039447417109
20
-4.34650159539501
30
0
41
1
10
59.1045819300008
20
-4.35471247757735
30
0
0
SPLINE
5
16A
100
AcDbEntity
8
1
62
256
6
ByLayer
370
13
48
1
60
0
100
AcDbSpline
70
4
71
3
72
10
73
6
40
0
40
0
40
0
40
0
40
0.570501669014028
40
0.570501669014028
40
1
40
1
40
1
40
1
41
1
10
58.9034132847052
20
-4.77693496954757
30
0
41
1
10
59.0626475529977
20
-4.70960896319241
30
0
41
1
10
59.2142113386963
20
-4.62440987463003
30
0
41
1
10
59.4764810300831
20
-4.47058416968042
30
0
41
1
10
59.5878177951011
20
-4.40182194866318
30
0
41
1
10
59.6985587777237
20
-4.3321462585063
30
0
0
SPLINE
5
16B
100
AcDbEntity
8
1
62
256
6
ByLayer
370
13
48
1
60
0
100
AcDbSpline
70
4
71
3
72
8
73
4
40
0
40
0
40
0
40
0
40
1
40
1
40
1
40
1
41
1
10
58.8300209264768
20
-4.77729929547345
30
0
41
1
10
58.8544812091952
20
-4.77746361460302
30
0
41
1
10
58.8789484763173
20
-4.77734640780417
30
0
41
1
10
58.9034132847064
20
-4.77693496954311
30
0
0
SPLINE
5
16C
100
AcDbEntity
8
1
62
256
6
ByLayer
370
13
48
1
60
0
100
AcDbSpline
70
4
71
3
72
8
73
4
40
0
40
0
40
0
40
0
40
1
40
1
40
1
40
1
41
1
10
58.155963685526
20
-4.74659140321526
30
0
41
1
10
58.3820343342518
20
-4.76640970279419
30
0
41
1
10
58.6101060020604
20
-4.77582195241195
30
0
41
1
10
58.8300209264768
20
-4.77729929547345
30
0
0
SPLINE
5
16D
100
AcDbEntity
8
1
62
256
6
ByLayer
370
13
48
1
60
0
100
AcDbSpline
70
4
71
3
72
8
73
4
40
0
40
0
40
0
40
0
40
1
40
1
40
1
40
1
41
1
10
57.9621095645939
20
-4.72656381854421
30
0
41
1
10
58.0266681717127
20
-4.73379187016349
30
0
41
1
10
58.0912502214358
20
-4.74091835001104
30
0
41
1
10
58.155963685526
20
-4.74659140321526
30
0
0
SPLINE
5
16E
100
AcDbEntity
8
1
62
256
6
ByLayer
370
13
48
1
60
0
100
AcDbSpline
70
4
71
3
72
10
73
6
40
0
40
0
40
0
40
0
40
0.51838227864566
40
0.51838227864566
40
1
40
1
40
1
40
1
41
1
10
55.8933288758356
20
-4.68847273792997
30
0
41
1
10
56.1963426277498
20
-4.65251686455011
30
0
41
1
10
56.5489274122891
20
-4.67113170759038
30
0
41
1
10
57.2521911215131
20
-4.68406008924987
30
0
41
1
10
57.610767528871
20
-4.68722718345313
30
0
41
1
10
57.9621095645939
20
-4.72656381854421
30
0
0
SPLINE
5
16F
100
AcDbEntity
8
1
62
256
6
ByLayer
370
13
48
1
60
0
100
AcDbSpline
70
4
71
3
72
12
73
8
40
0
40
0
40
0
40
0
40
0.160964815992481
40
0.160964815992481
40
0.981933550480977
40
0.981933550480977
40
1
40
1
40
1
40
1
41
1
10
54.7485642137406
20
-3.88360359578573
30
0
41
1
10
54.8024740187669
20
-3.93691968914308
30
0
41
1
10
54.8575902714035
20
-3.98905079641992
30
0
41
1
10
55.1988536829988
20
-4.29591427875431
30
0
41
1
10
55.5237749365967
20
-4.51390765286882
30
0
41
1
10
55.877886153516
20
-4.68125548401358
30
0
41
1
10
55.8856025044902
20
-4.68487491960846
30
0
41
1
10
55.8933288758357
20
-4.68847273793008
30
0
0
SPLINE
5
170
100
AcDbEntity
8
1
62
256
6
ByLayer
370
13
48
1
60
0
100
AcDbSpline
70
4
71
3
72
14
73
10
40
0
40
0
40
0
40
0
40
0.46187092196456
40
0.46187092196456
40
0.784900183824898
40
0.784900183824898
40
0.964711008576954
40
0.964711008576954
40
1
40
1
40
1
40
1
41
1
10
55.1539525182229
20
-2.10518167172452
30
0
41
1
10
55.2284643702333
20
-2.17380655539515
30
0
41
1
10
55.3025028669999
20
-2.24731539918145
30
0
41
1
10
55.4134603247844
20
-2.38839085937016
30
0
41
1
10
55.4559337259585
20
-2.45236816674284
30
0
41
1
10
55.4988972131727
20
-2.56322937098221
30
0
41
1
10
55.5095547742977
20
-2.60609738421812
30
0
41
1
10
55.5130464995454
20
-2.65781838041349
30
0
41
1
10
55.5133357765146
20
-2.66643727951535
30
0
41
1
10
55.5133346813239
20
-2.67505019236657
30
0
0
SPLINE
5
171
100
AcDbEntity
8
1
62
256
6
ByLayer
370
13
48
1
60
0
100
AcDbSpline
70
4
71
3
72
12
73
8
40
0
40
0
40
0
40
0
40
0.17060963201422
40
0.17060963201422
40
0.423062344273913
40
0.423062344273913
40
1
40
1
40
1
40
1
41
1
10
55.513334681324
20
-2.67505019236657
30
0
41
1
10
55.5133294570519
20
-2.7161354600909
30
0
41
1
10
55.5062569401512
20
-2.75764525998966
30
0
41
1
10
55.4760172652894
20
-2.85379977822862
30
0
41
1
10
55.4470853575982
20
-2.90713656541789
30
0
41
1
10
55.3402394690949
20
-3.06638156643101
30
0
41
1
10
55.2467586441423
20
-3.15934894387362
30
0
41
1
10
55.1539521270622
20
-3.24482351506939
30
0
0
SPLINE
5
172
100
AcDbEntity
8
1
62
256
6
ByLayer
370
13
48
1
60
0
100
AcDbSpline
70
4
71
3
72
8
73
4
40
0
40
0
40
0
40
0
40
1
40
1
40
1
40
1
41
1
10
55.1539521270622
20
-3.24482351506939
30
0
41
1
10
55.0746745585377
20
-3.31783795832476
30
0
41
1
10
54.9894091098929
20
-3.38199535849969
30
0
41
1
10
54.9018459660846
20
-3.44023948349601
30
0
0
SPLINE
5
173
100
AcDbEntity
8
1
62
256
6
ByLayer
370
13
48
1
60
0
100
AcDbSpline
70
4
71
3
72
12
73
8
40
0
40
0
40
0
40
0
40
0.0772090170260868
40
0.0772090170260868
40
0.585567424894413
40
0.585567424894413
40
1
40
1
40
1
40
1
41
1
10
54.9018459660846
20
-3.44023948349601
30
0
41
1
10
54.8945755693702
20
-3.44507551240719
30
0
41
1
10
54.8874255779209
20
-3.44999794127517
30
0
41
1
10
54.8347459273611
20
-3.48759842963571
30
0
41
1
10
54.7940407199349
20
-3.5244834243278
30
0
41
1
10
54.7409378784399
20
-3.59474199943605
30
0
41
1
10
54.7242339685166
20
-3.62848307789832
30
0
41
1
10
54.7195835665847
20
-3.66016649523454
30
0
0
SPLINE
5
174
100
AcDbEntity
8
1
62
256
6
ByLayer
370
13
48
1
60
0
100
AcDbSpline
70
4
71
3
72
10
73
6
40
0
40
0
40
0
40
0
40
0.126368939291459
40
0.126368939291459
40
1
40
1
40
1
40
1
41
1
10
54.7195835665848
20
-3.66016649523454
30
0
41
1
10
54.7183540355183
20
-3.66854335092688
30
0
41
1
10
54.7167001220843
20
-3.67673276363937
30
0
41
1
10
54.7007011573231
20
-3.73893843785658
30
0
41
1
10
54.6675240870034
20
-3.78429491932533
30
0
41
1
10
54.6253542688251
20
-3.8216877516162
30
0
0
SPLINE
5
175
100
AcDbEntity
8
1
62
256
6
ByLayer
370
13
48
1
60
0
100
AcDbSpline
70
4
71
3
72
14
73
10
40
0
40
0
40
0
40
0
40
0.0736066511965389
40
0.0736066511965389
40
0.279115482337526
40
0.279115482337526
40
0.530737523610818
40
0.530737523610818
40
1
40
1
40
1
40
1
41
1
10
54.6253542688251
20
-3.8216877516162
30
0
41
1
10
54.6241314602749
20
-3.82277204073614
30
0
41
1
10
54.622733124495
20
-3.82382299976936
30
0
41
1
10
54.6169331770584
20
-3.827608249116
30
0
41
1
10
54.6115012509993
20
-3.83008928089785
30
0
41
1
10
54.598272783965
20
-3.83482229231228
30
0
41
1
10
54.5900612580311
20
-3.83697424585105
30
0
41
1
10
54.5658772529573
20
-3.84198746361687
30
0
41
1
10
54.5488164279867
20
-3.84402317655022
30
0
41
1
10
54.5319424296532
20
-3.84510710514473
30
0
0
SPLINE
5
176
100
AcDbEntity
8
1
62
256
6
ByLayer
370
13
48
1
60
0
100
AcDbSpline
70
4
71
3
72
10
73
6
40
0
40
0
40
0
40
0
40
0.676946846913182
40
0.676946846913182
40
1
40
1
40
1
40
1
41
1
10
54.5319424296532
20
-3.84510710514473
30
0
41
1
10
54.3989356554877
20
-3.85365101056266
30
0
41
1
10
54.2658374813154
20
-3.86102815023455
30
0
41
1
10
54.0691629176147
20
-3.87051834313016
30
0
41
1
10
54.0056133979924
20
-3.87335116802422
30
0
41
1
10
53.9420536790831
20
-3.87593996236998
30
0
0
SPLINE
5
177
100
AcDbEntity
8
1
62
256
6
ByLayer
370
13
48
1
60
0
100
AcDbSpline
70
4
71
3
72
10
73
6
40
0
40
0
40
0
40
0
40
0.626416619436475
40
0.626416619436475
40
1
40
1
40
1
40
1
41
1
10
53.9420536790831
20
-3.87593996236998
30
0
41
1
10
53.9108545968729
20
-3.87141461026423
30
0
41
1
10
53.8797114053825
20
-3.86648410416322
30
0
41
1
10
53.8301117971857
20
-3.85794473629093
30
0
41
1
10
53.811606640427
20
-3.85460502562199
30
0
41
1
10
53.7931300887783
20
-3.85111370558064
30
0
0
SPLINE
5
178
100
AcDbEntity
8
1
62
256
6
ByLayer
370
13
48
1
60
0
100
AcDbSpline
70
4
71
3
72
12
73
8
40
0
40
0
40
0
40
0
40
0.0703164649150449
40
0.0703164649150449
40
0.581360051712833
40
0.581360051712833
40
1
40
1
40
1
40
1
41
1
10
53.7931300887783
20
-3.85111370558064
30
0
41
1
10
53.7896064746126
20
-3.83989336147351
30
0
41
1
10
53.7863722461776
20
-3.8282476494841
30
0
41
1
10
53.7624315604254
20
-3.73015066241416
30
0
41
1
10
53.7566474511082
20
-3.62150997630329
30
0
41
1
10
53.7728792592852
20
-3.40366735950582
30
0
41
1
10
53.7901985409609
20
-3.29580231387052
30
0
41
1
10
53.815820588827
20
-3.18514433224505
30
0
0
SPLINE
5
179
100
AcDbEntity
8
1
62
256
6
ByLayer
370
13
48
1
60
0
100
AcDbSpline
70
4
71
3
72
12
73
8
40
0
40
0
40
0
40
0
40
0.435431113819515
40
0.435431113819515
40
0.717532805798725
40
0.717532805798725
40
1
40
1
40
1
40
1
41
1
10
53.815820588827
20
-3.18514433224505
30
0
41
1
10
53.8381724659014
20
-3.17626124626912
30
0
41
1
10
53.8606950871877
20
-3.16767565202261
30
0
41
1
10
53.8980537535315
20
-3.15401755471891
30
0
41
1
10
53.9128059409223
20
-3.14877177311502
30
0
41
1
10
53.9424455510013
20
-3.13852157323834
30
0
41
1
10
53.9573344578466
20
-3.13351701448491
30
0
41
1
10
53.9722773697903
20
-3.12863600728693
30
0
0
SPLINE
5
17A
100
AcDbEntity
8
1
62
256
6
ByLayer
370
13
48
1
60
0
100
AcDbSpline
70
4
71
3
72
8
73
4
40
0
40
0
40
0
40
0
40
1
40
1
40
1
40
1
41
1
10
53.9722773697903
20
-3.12863600728693
30
0
41
1
10
53.9753874653814
20
-3.12762011433219
30
0
41
1
10
53.9784978788126
20
-3.12660441685853
30
0
41
1
10
53.9816086093232
20
-3.12558891602527
30
0
0
SPLINE
5
17B
100
AcDbEntity
8
1
62
256
6
ByLayer
370
13
48
1
60
0
100
AcDbSpline
70
4
71
3
72
14
73
10
40
0
40
0
40
0
40
0
40
0.187918734288723
40
0.187918734288723
40
0.467635128165853
40
0.467635128165853
40
0.738040419848296
40
0.738040419848296
40
1
40
1
40
1
40
1
41
1
10
53.9816086093235
20
-3.12558891602595
30
0
41
1
10
54.0085357651895
20
-3.11679852125334
30
0
41
1
10
54.0345832940145
20
-3.10531260941048
30
0
41
1
10
54.0946317773617
20
-3.07048970508549
30
0
41
1
10
54.1272539304645
20
-3.04352250563551
30
0
41
1
10
54.1791059845184
20
-2.98123639022276
30
0
41
1
10
54.1994773814668
20
-2.94527429443227
30
0
41
1
10
54.2248145615187
20
-2.86980854786057
30
0
41
1
10
54.2306163965803
20
-2.82924381725462
30
0
41
1
10
54.2289770049337
20
-2.78941149163802
30
0
0
SPLINE
5
17C
100
AcDbEntity
8
1
62
256
6
ByLayer
370
13
48
1
60
0
100
AcDbSpline
70
4
71
3
72
8
73
4
40
0
40
0
40
0
40
0
40
1
40
1
40
1
40
1
41
1
10
54.2289770049337
20
-2.78941149163802
30
0
41
1
10
54.2258512531475
20
-2.7134650494356
30
0
41
1
10
54.2258513005742
20
-2.63653566499747
30
0
41
1
10
54.2289771490555
20
-2.56058924958467
30
0
0
SPLINE
5
17D
100
AcDbEntity
8
1
62
256
6
ByLayer
370
13
48
1
60
0
100
AcDbSpline
70
4
71
3
72
14
73
10
40
0
40
0
40
0
40
0
40
0.201099563909462
40
0.201099563909462
40
0.458157239793543
40
0.458157239793543
40
0.723216631469491
40
0.723216631469491
40
1
40
1
40
1
40
1
41
1
10
54.2289771490565
20
-2.56058924958447
30
0
41
1
10
54.2302439992733
20
-2.52980953220319
30
0
41
1
10
54.2271309592397
20
-2.49867035273604
30
0
41
1
10
54.2107139234838
20
-2.43159773227441
30
0
41
1
10
54.1945509040753
20
-2.3956308009096
30
0
41
1
10
54.1512433327387
20
-2.33178161099445
30
0
41
1
10
54.1231783841498
20
-2.30319520212586
30
0
41
1
10
54.0586223460756
20
-2.25601843232386
30
0
41
1
10
54.0209820083778
20
-2.23726505785794
30
0
41
1
10
53.981608910529
20
-2.22441165697728
30
0
0
SPLINE
5
17E
100
AcDbEntity
8
1
62
256
6
ByLayer
370
13
48
1
60
0
100
AcDbSpline
70
4
71
3
72
8
73
4
40
0
40
0
40
0
40
0
40
1
40
1
40
1
40
1
41
1
10
53.981608910529
20
-2.22441165697728
30
0
41
1
10
53.978498176657
20
-2.22339615371047
30
0
41
1
10
53.9753877598482
20
-2.22238045380035
30
0
41
1
10
53.9722776608639
20
-2.22136455840345
30
0
0
SPLINE
5
17F
100
AcDbEntity
8
1
62
256
6
ByLayer
370
13
48
1
60
0
100
AcDbSpline
70
4
71
3
72
12
73
8
40
0
40
0
40
0
40
0
40
0.436615517044599
40
0.436615517044599
40
0.718508457790393
40
0.718508457790393
40
1
40
1
40
1
40
1
41
1
10
53.9722776608641
20
-2.22136455840277
30
0
41
1
10
53.9491815355813
20
-2.21382034599046
30
0
41
1
10
53.9262134736132
20
-2.20598064177682
30
0
41
1
10
53.8886602659708
20
-2.19259108035754
30
0
41
1
10
53.8739867464327
20
-2.1872135387957
30
0
41
1
10
53.844793106068
20
-2.17621764167174
30
0
41
1
10
53.8302713793995
20
-2.17059910516733
30
0
41
1
10
53.8158206723641
20
-2.16485609884742
30
0
0
SPLINE
5
180
100
AcDbEntity
8
1
62
256
6
ByLayer
370
13
48
1
60
0
100
AcDbSpline
70
4
71
3
72
12
73
8
40
0
40
0
40
0
40
0
40
0.418641045368793
40
0.418641045368793
40
0.929686279124088
40
0.929686279124088
40
1
40
1
40
1
40
1
41
1
10
53.8158206723641
20
-2.16485609884742
30
0
41
1
10
53.7901986248806
20
-2.05419815435951
30
0
41
1
10
53.7728793261308
20
-1.94633315903906
30
0
41
1
10
53.7566475126931
20
-1.72849063073326
30
0
41
1
10
53.7624316672437
20
-1.61984999934577
30
0
41
1
10
53.7863724067102
20
-1.52175376692841
30
0
41
1
10
53.7896065104013
20
-1.51010856167224
30
0
41
1
10
53.7931299777108
20
-1.49888869082139
30
0
0
SPLINE
5
181
100
AcDbEntity
8
1
62
256
6
ByLayer
370
13
48
1
60
0
100
AcDbSpline
70
4
71
3
72
10
73
6
40
0
40
0
40
0
40
0
40
0.37358636951691
40
0.37358636951691
40
1
40
1
40
1
40
1
41
1
10
53.7931299777108
20
-1.49888869082139
30
0
41
1
10
53.8116065612642
20
-1.49539750366861
30
0
41
1
10
53.8301117484371
20
-1.49205792312424
30
0
41
1
10
53.8797110376986
20
-1.4835189639679
30
0
41
1
10
53.910853875297
20
-1.4785887204923
30
0
41
1
10
53.9420525990654
20
-1.47406361193794
30
0
0
SPLINE
5
182
100
AcDbEntity
8
1
62
256
6
ByLayer
370
13
48
1
60
0
100
AcDbSpline
70
4
71
3
72
10
73
6
40
0
40
0
40
0
40
0
40
0.676948473610577
40
0.676948473610577
40
1
40
1
40
1
40
1
41
1
10
53.9420525990654
20
-1.47406361193794
30
0
41
1
10
54.075235998862
20
-1.47948902860185
30
0
41
1
10
54.2083774130497
20
-1.4859756890707
30
0
41
1
10
54.4049646362058
20
-1.49703384092192
30
0
41
1
10
54.4684621823958
20
-1.50082106505417
30
0
41
1
10
54.5319363732116
20
-1.50489852183185
30
0
0
SPLINE
5
183
100
AcDbEntity
8
1
62
256
6
ByLayer
370
13
48
1
60
0
100
AcDbSpline
70
4
71
3
72
14
73
10
40
0
40
0
40
0
40
0
40
0.205642447172662
40
0.205642447172662
40
0.552024857255131
40
0.552024857255131
40
0.779314767021146
40
0.779314767021146
40
1
40
1
40
1
40
1
41
1
10
54.531936373212
20
-1.50489852182895
30
0
41
1
10
54.5394040291651
20
-1.50537822931292
30
0
41
1
10
54.5468649213434
20
-1.50604528007099
30
0
41
1
10
54.5665362510632
20
-1.50836963798787
30
0
41
1
10
54.578758452361
20
-1.51040669394541
30
0
41
1
10
54.5973818324614
20
-1.51500072050399
30
0
41
1
10
54.604452184691
20
-1.51717745162404
30
0
41
1
10
54.6165409219454
20
-1.5222082745824
30
0
41
1
10
54.621743211803
20
-1.52512147835458
30
0
41
1
10
54.6253481221195
20
-1.52831804486942
30
0
0
SPLINE
5
184
100
AcDbEntity
8
1
62
256
6
ByLayer
370
13
48
1
60
0
100
AcDbSpline
70
4
71
3
72
10
73
6
40
0
40
0
40
0
40
0
40
0.800695265608032
40
0.800695265608032
40
1
40
1
40
1
40
1
41
1
10
54.6253481221195
20
-1.52831804486942
30
0
41
1
10
54.6640260045436
20
-1.56261471606737
30
0
41
1
10
54.6951335289497
20
-1.6034571010776
30
0
41
1
10
54.7146627565243
20
-1.6639752214252
30
0
41
1
10
54.7176449242415
20
-1.67667687619166
30
0
41
1
10
54.7195766360304
20
-1.68983676167141
30
0
0
SPLINE
5
185
100
AcDbEntity
8
1
62
256
6
ByLayer
370
13
48
1
60
0
100
AcDbSpline
70
4
71
3
72
12
73
8
40
0
40
0
40
0
40
0
40
0.366233000367022
40
0.366233000367022
40
0.431397556128611
40
0.431397556128611
40
1
40
1
40
1
40
1
41
1
10
54.7195766360302
20
-1.68983676167141
30
0
41
1
10
54.7237001095776
20
-1.71792813637498
30
0
41
1
10
54.7372602127444
20
-1.74763265966325
30
0
41
1
10
54.7603497416968
20
-1.78092129644278
30
0
41
1
10
54.7640823290741
20
-1.78598261119046
30
0
41
1
10
54.8015757775001
20
-1.83406593586517
30
0
41
1
10
54.8490186945115
20
-1.87462771572785
30
0
41
1
10
54.9018406925719
20
-1.90976284552741
30
0
0
SPLINE
5
186
100
AcDbEntity
8
1
62
256
6
ByLayer
370
13
48
1
60
0
100
AcDbSpline
70
4
71
3
72
8
73
4
40
0
40
0
40
0
40
0
40
1
40
1
40
1
40
1
41
1
10
54.9018406925719
20
-1.90976284552741
30
0
41
1
10
54.9894057943155
20
-1.9680077307768
30
0
41
1
10
55.0746732080689
20
-2.03216599314436
30
0
41
1
10
55.1539525182229
20
-2.10518167172452
30
0
0
SPLINE
5
187
100
AcDbEntity
8
1
62
256
6
ByLayer
370
13
48
1
60
0
100
AcDbSpline
70
4
71
3
72
8
73
4
40
0
40
0
40
0
40
0
40
1
40
1
40
1
40
1
41
1
10
53.9466009007632
20
-4.04972214614992
30
0
41
1
10
54.1448711151022
20
-4.04453416544018
30
0
41
1
10
54.3430909311785
20
-4.03686580022799
30
0
41
1
10
54.5411735286767
20
-4.02680212265787
30
0
0
SPLINE
5
188
100
AcDbEntity
8
1
62
256
6
ByLayer
370
13
48
1
60
0
100
AcDbSpline
70
4
71
3
72
12
73
8
40
0
40
0
40
0
40
0
40
0.0174209929473798
40
0.0174209929473798
40
0.813177174176632
40
0.813177174176632
40
1
40
1
40
1
40
1
41
1
10
55.7896279194018
20
-4.9085550382772
30
0
41
1
10
55.7815141353121
20
-4.90473189044081
30
0
41
1
10
55.7734107189215
20
-4.90088665775698
30
0
41
1
10
55.39929607032
20
-4.72208269891965
30
0
41
1
10
55.0556304233215
20
-4.49215288031155
30
0
41
1
10
54.6796159575702
20
-4.16000301769864
30
0
41
1
10
54.6094990867718
20
-4.09427984418352
30
0
41
1
10
54.5411735286767
20
-4.02680212265676
30
0
0
SPLINE
5
189
100
AcDbEntity
8
1
62
256
6
ByLayer
370
13
48
1
60
0
100
AcDbSpline
70
4
71
3
72
8
73
4
40
0
40
0
40
0
40
0
40
1
40
1
40
1
40
1
41
1
10
55.8152478209054
20
-5.40652152853718
30
0
41
1
10
55.8066327245049
20
-5.24053658082136
30
0
41
1
10
55.798093648773
20
-5.0745476711742
30
0
41
1
10
55.7896279194009
20
-4.90855503826413
30
0
0
SPLINE
5
18A
100
AcDbEntity
8
1
62
256
6
ByLayer
370
13
48
1
60
0
100
AcDbSpline
70
4
71
3
72
8
73
4
40
0
40
0
40
0
40
0
40
1
40
1
40
1
40
1
41
1
10
55.8152478209045
20
0.0565215285201646
30
0
41
1
10
55.8066327245042
20
-0.109463419190007
30
0
41
1
10
55.7980936487727
20
-0.275452328831506
30
0
41
1
10
55.7896279194009
20
-0.441444961735925
30
0
0
SPLINE
5
18B
100
AcDbEntity
8
1
62
256
6
ByLayer
370
13
48
1
60
0
100
AcDbSpline
70
4
71
3
72
12
73
8
40
0
40
0
40
0
40
0
40
0.0174209007758012
40
0.0174209007758012
40
0.813172871791341
40
0.813172871791341
40
1
40
1
40
1
40
1
41
1
10
55.7896279194018
20
-0.441444961722851
30
0
41
1
10
55.7815141353121
20
-0.445268109559237
30
0
41
1
10
55.7734107189215
20
-0.449113342243066
30
0
41
1
10
55.39929607032
20
-0.627917301080402
30
0
41
1
10
55.0556304233215
20
-0.8578471196885
30
0
41
1
10
54.6796139209143
20
-1.18999878136773
30
0
41
1
10
54.6094951180445
20
-1.2557238761128
30
0
41
1
10
54.5411677260425
20
-1.32320360798235
30
0
0
SPLINE
5
18C
100
AcDbEntity
8
1
62
256
6
ByLayer
370
13
48
1
60
0
100
AcDbSpline
70
4
71
3
72
8
73
4
40
0
40
0
40
0
40
0
40
1
40
1
40
1
40
1
41
1
10
54.5411677260425
20
-1.32320360798235
30
0
41
1
10
54.3430870468135
20
-1.31313974543275
30
0
41
1
10
54.144869177038
20
-1.30547069664243
30
0
41
1
10
53.9466009007632
20
-1.30028153136922
30
0
0
SPLINE
5
18D
100
AcDbEntity
8
1
62
256
6
ByLayer
370
13
48
1
60
0
100
AcDbSpline
70
4
71
3
72
14
73
10
40
0
40
0
40
0
40
0
40
0.25556417273693
40
0.25556417273693
40
0.49418353017144
40
0.49418353017144
40
0.820252528573789
40
0.820252528573789
40
1
40
1
40
1
40
1
41
1
10
54.7485584035404
20
-1.46640215043567
30
0
41
1
10
54.7387064271179
20
-1.4561451436598
30
0
41
1
10
54.7260113454074
20
-1.44476443992846
30
0
41
1
10
54.6973555070672
20
-1.42172265875664
30
0
41
1
10
54.6814538668373
20
-1.40995681161866
30
0
41
1
10
54.6408961225525
20
-1.38195735811914
30
0
41
1
10
54.6146113396222
20
-1.36527684883558
30
0
41
1
10
54.5723358178908
20
-1.34041860938859
30
0
41
1
10
54.5567988692586
20
-1.33165575348838
30
0
41
1
10
54.5411677260426
20
-1.32320360798207
30
0
0
SPLINE
5
18E
100
AcDbEntity
8
1
62
256
6
ByLayer
370
13
48
1
60
0
100
AcDbSpline
70
4
71
3
72
16
73
12
40
0
40
0
40
0
40
0
40
0.350242859033379
40
0.350242859033379
40
0.423372547456697
40
0.423372547456697
40
0.679771193971581
40
0.679771193971581
40
0.911749531478506
40
0.911749531478506
40
1
40
1
40
1
40
1
41
1
10
54.5411735286767
20
-4.02680212265676
30
0
41
1
10
54.5713229274517
20
-4.01049960325611
30
0
41
1
10
54.6013275156643
20
-3.99290615607467
30
0
41
1
10
54.6345261613993
20
-3.97176384863647
30
0
41
1
10
54.6402297633722
20
-3.96806514506517
30
0
41
1
10
54.6652448409325
20
-3.95153836213603
30
0
41
1
10
54.6834263988366
20
-3.93867278497711
30
0
41
1
10
54.7138395780513
20
-3.91534019036408
30
0
41
1
10
54.7266833134206
20
-3.90459810367909
30
0
41
1
10
54.7413736271357
20
-3.89087088572532
30
0
41
1
10
54.7451349886706
20
-3.88717379994657
30
0
41
1
10
54.748564213741
20
-3.8836035957861
30
0
0
SPLINE
5
18F
100
AcDbEntity
8
1
62
256
6
ByLayer
370
13
48
1
60
0
100
AcDbSpline
70
4
71
3
72
10
73
6
40
0
40
0
40
0
40
0
40
0.480374533063216
40
0.480374533063216
40
1
40
1
40
1
40
1
41
1
10
57.9364283337291
20
-0.40519415215212
30
0
41
1
10
57.6034888340515
20
-0.447009789080425
30
0
41
1
10
57.262711540784
20
-0.446625322654654
30
0
41
1
10
56.5934202711034
20
-0.455178080185817
30
0
41
1
10
56.2570174116718
20
-0.475621551714653
30
0
41
1
10
55.9590474001662
20
-0.450085462505172
30
0
0
SPLINE
5
190
100
AcDbEntity
8
1
62
256
6
ByLayer
370
13
48
1
60
0
100
AcDbSpline
70
4
71
3
72
8
73
4
40
0
40
0
40
0
40
0
40
1
40
1
40
1
40
1
41
1
10
55.9590474001655
20
-0.450085462518132
30
0
41
1
10
55.9682355999365
20
-0.254503969116087
30
0
41
1
10
55.9775176399607
20
-0.0589268596347381
30
0
41
1
10
55.9868975798566
20
0.136645531923165
30
0
0
SPLINE
5
191
100
AcDbEntity
8
1
62
256
6
ByLayer
370
13
48
1
60
0
100
AcDbSpline
70
4
71
3
72
8
73
4
40
0
40
0
40
0
40
0
40
1
40
1
40
1
40
1
41
1
10
55.9590474001655
20
-4.89991453748189
30
0
41
1
10
55.9682355999365
20
-5.09549603088397
30
0
41
1
10
55.9775176399607
20
-5.29107314036531
30
0
41
1
10
55.9868975798566
20
-5.48664553192322
30
0
0
SPLINE
5
192
100
AcDbEntity
8
1
62
256
6
ByLayer
370
13
48
1
60
0
100
AcDbSpline
70
4
71
3
72
10
73
6
40
0
40
0
40
0
40
0
40
0.480374533063216
40
0.480374533063216
40
1
40
1
40
1
40
1
41
1
10
57.9364283337291
20
-4.94480584784793
30
0
41
1
10
57.6034888340515
20
-4.90299021091963
30
0
41
1
10
57.262711540784
20
-4.90337467734537
30
0
41
1
10
56.5934202711034
20
-4.89482191981423
30
0
41
1
10
56.2570174116718
20
-4.8743784482854
30
0
41
1
10
55.9590474001662
20
-4.89991453749488
30
0
0
SPLINE
5
193
100
AcDbEntity
8
1
62
256
6
ByLayer
370
18
48
1
60
0
100
AcDbSpline
70
4
71
3
72
10
73
6
40
0
40
0
40
0
40
0
40
0.491597105971525
40
0.491597105971525
40
1
40
1
40
1
40
1
41
1
10
46.2724913678667
20
-5.35409702730243
30
0
41
1
10
46.2936291819646
20
-5.36119872875486
30
0
41
1
10
46.3149576710834
20
-5.3664272435559
30
0
41
1
10
46.3576215142476
20
-5.37336056010352
30
0
41
1
10
46.3791739726231
20
-5.37500000000009
30
0
41
1
10
46.4
20
-5.37500000000009
30
0
0
SPLINE
5
194
100
AcDbEntity
8
1
62
256
6
ByLayer
370
18
48
1
60
0
100
AcDbSpline
70
4
71
3
72
13
73
9
40
0
40
0
40
0
40
0
40
0.0066933085962573
40
0.0259916001186265
40
0.0356407458798111
40
0.334764264476534
40
0.643536928834441
40
1
40
1
40
1
40
1
41
1
10
52.7580378891736
20
-5.37500000000003
30
0
41
1
10
52.758663912878
20
-5.37500000000003
30
0
41
1
10
52.7610824984206
20
-5.375
30
0
41
1
10
52.7643664118636
20
-5.37500000000003
30
0
41
1
10
52.7949584990024
20
-5.37500000000003
30
0
41
1
10
52.8525325928789
20
-5.37500000000003
30
0
41
1
10
52.9424403417796
20
-5.37500000000003
30
0
41
1
10
53.004460638997
20
-5.37500000000003
30
0
41
1
10
53.0376938891778
20
-5.37500000000003
30
0
0
SPLINE
5
195
100
AcDbEntity
8
1
62
256
6
ByLayer
370
18
48
1
60
0
100
AcDbSpline
70
4
71
2
72
9
73
6
40
0
40
0
40
0
40
0.0492648277050292
40
0.135695297913663
40
0.135695297913663
40
1
40
1
40
1
41
1
10
52.7590529396166
20
0.0249999999999773
30
0
41
1
10
52.765920847534
20
0.0249999999999773
30
0
41
1
10
52.7843349647747
20
0.0249999999999773
30
0
41
1
10
52.7968714379784
20
0.0249999999999773
30
0
41
1
10
52.8152816599139
20
0.0249999999999773
30
0
41
1
10
53.0377029396166
20
0.0249999999999773
30
0
0
SPLINE
5
196
100
AcDbEntity
8
1
62
256
6
ByLayer
370
13
48
1
60
0
100
AcDbSpline
70
4
71
3
72
8
73
4
40
0
40
0
40
0
40
0
40
1
40
1
40
1
40
1
41
1
10
53.0341585894645
20
-5.23347930937845
30
0
41
1
10
53.0353438534347
20
-5.23347930937845
30
0
41
1
10
53.0365335048264
20
-5.23369690755112
30
0
41
1
10
53.0377029396165
20
-5.23415373125184
30
0
0
SPLINE
5
197
100
AcDbEntity
8
1
62
256
6
ByLayer
370
13
48
1
60
0
100
AcDbSpline
70
4
71
3
72
10
73
6
40
0
40
0
40
0
40
0
40
0.299090051335139
40
0.299090051335139
40
1
40
1
40
1
40
1
41
1
10
52.763150750369
20
-5.23310803407787
30
0
41
1
10
52.7904739699092
20
-5.23208486087174
30
0
41
1
10
52.8171001671809
20
-5.23347944900937
30
0
41
1
10
52.9074727640397
20
-5.23347902169698
30
0
41
1
10
52.9708156312272
20
-5.23347930937845
30
0
41
1
10
53.0341585894645
20
-5.23347930937845
30
0
0
SPLINE
5
198
100
AcDbEntity
8
1
62
256
6
ByLayer
370
13
48
1
60
0
100
AcDbSpline
70
4
71
3
72
8
73
4
40
0
40
0
40
0
40
0
40
1
40
1
40
1
40
1
41
1
10
53.0377029396166
20
-0.115846268747958
30
0
41
1
10
53.0365335048265
20
-0.116303092448675
30
0
41
1
10
53.0353438534347
20
-0.116520690621599
30
0
41
1
10
53.0341585894645
20
-0.116520690621599
30
0
0
SPLINE
5
199
100
AcDbEntity
8
1
62
256
6
ByLayer
370
13
48
1
60
0
100
AcDbSpline
70
4
71
3
72
14
73
10
40
0
40
0
40
0
40
0
40
0.0136716899694139
40
0.0136716899694139
40
0.637192393526295
40
0.637192393526295
40
0.700909948663941
40
0.700909948663941
40
1
40
1
40
1
40
1
41
1
10
53.0341585894645
20
-0.11652069062157
30
0
41
1
10
53.0329230451718
20
-0.11652069062157
30
0
41
1
10
53.0316875008791
20
-0.11652069062157
30
0
41
1
10
52.974102855021
20
-0.11652069062157
30
0
41
1
10
52.9177537534556
20
-0.11652069062157
30
0
41
1
10
52.855646339511
20
-0.11652069062157
30
0
41
1
10
52.8498880320063
20
-0.11652070602284
30
0
41
1
10
52.8171001671808
20
-0.116520550990657
30
0
41
1
10
52.790473969909
20
-0.117915139128371
30
0
41
1
10
52.7631507503687
20
-0.116891965922207
30
0
0
SPLINE
5
19A
100
AcDbEntity
8
1
62
256
6
ByLayer
370
13
48
1
60
0
100
AcDbSpline
70
4
71
3
72
10
73
6
40
0
40
0
40
0
40
0
40
0.373709297613223
40
0.373709297613223
40
1
40
1
40
1
40
1
41
1
10
53.7261629787254
20
-4.01861311433458
30
0
41
1
10
53.745018825356
20
-4.0229288509187
30
0
41
1
10
53.7639090232256
20
-4.02707787191039
30
0
41
1
10
53.8145363046549
20
-4.03773990698696
30
0
41
1
10
53.8463321288579
20
-4.04395629049827
30
0
41
1
10
53.878196872098
20
-4.04972214614992
30
0
0
SPLINE
5
19B
100
AcDbEntity
8
1
62
256
6
ByLayer
370
13
48
1
60
0
100
AcDbSpline
70
4
71
3
72
10
73
6
40
0
40
0
40
0
40
0
40
0.626287703218406
40
0.626287703218406
40
1
40
1
40
1
40
1
41
1
10
53.878196872098
20
-1.30028153136922
30
0
41
1
10
53.8463325274094
20
-1.30604712908811
30
0
41
1
10
53.8145370964037
20
-1.31226323418849
30
0
41
1
10
53.7639101896304
20
-1.32292484358817
30
0
41
1
10
53.7450199784627
20
-1.32707373447329
30
0
41
1
10
53.7261641168768
20
-1.33138933814584
30
0
0
SPLINE
5
19C
100
AcDbEntity
8
1
62
256
6
ByLayer
370
13
48
1
60
0
100
AcDbSpline
70
4
71
3
72
8
73
4
40
0
40
0
40
0
40
0
40
1
40
1
40
1
40
1
41
1
10
53.0366922172745
20
-0.133005222884719
30
0
41
1
10
53.0381641510866
20
-0.132740361248437
30
0
41
1
10
53.0396521400637
20
-0.132242360243794
30
0
41
1
10
53.0411376656
20
-0.131501893524074
30
0
0
SPLINE
5
19D
100
AcDbEntity
8
1
62
256
6
ByLayer
370
13
48
1
60
0
100
AcDbSpline
70
4
71
3
72
8
73
4
40
0
40
0
40
0
40
0
40
1
40
1
40
1
40
1
41
1
10
53.0411376656
20
-5.21849810647598
30
0
41
1
10
53.0396521400637
20
-5.21775763975626
30
0
41
1
10
53.0381641510866
20
-5.21725963875159
30
0
41
1
10
53.0366922172745
20
-5.21699477711533
30
0
0
SPLINE
5
19E
100
AcDbEntity
8
1
62
256
6
ByLayer
370
13
48
1
60
0
100
AcDbSpline
70
4
71
3
72
12
73
8
40
0
40
0
40
0
40
0
40
0.0707113849956165
40
0.0707113849956165
40
0.582686810203343
40
0.582686810203343
40
1
40
1
40
1
40
1
41
1
10
53.6234410993736
20
-1.39732746720068
30
0
41
1
10
53.6191976307912
20
-1.41012986920066
30
0
41
1
10
53.6152532954154
20
-1.42341681026474
30
0
41
1
10
53.5856730948325
20
-1.53513647461014
30
0
41
1
10
53.5753574112632
20
-1.6587604421984
30
0
41
1
10
53.5851574406288
20
-1.90728658715548
30
0
41
1
10
53.6000400197121
20
-2.03028746428671
30
0
41
1
10
53.6239816481906
20
-2.15695167628203
30
0
0
SPLINE
5
19F
100
AcDbEntity
8
1
62
256
6
ByLayer
370
13
48
1
60
0
100
AcDbSpline
70
4
71
3
72
12
73
8
40
0
40
0
40
0
40
0
40
0.41731214513514
40
0.41731214513514
40
0.92928586889468
40
0.92928586889468
40
1
40
1
40
1
40
1
41
1
10
53.6239810325739
20
-3.19304832371802
30
0
41
1
10
53.6000392759948
20
-3.31971260581008
30
0
41
1
10
53.5851565790994
20
-3.44271357567752
30
0
41
1
10
53.5753562827877
20
-3.69123988545741
30
0
41
1
10
53.5856717794348
20
-3.81486395924017
30
0
41
1
10
53.6152518487447
20
-3.92658451823425
30
0
41
1
10
53.6191963265135
20
-3.93987204043626
30
0
41
1
10
53.623439961222
20
-3.95267498527912
30
0
0
SPLINE
5
1A0
100
AcDbEntity
8
1
62
256
6
ByLayer
370
13
48
1
60
0
100
AcDbSpline
70
4
71
2
72
6
73
3
40
0
40
0
40
0
40
1
40
1
40
1
41
1
10
53.3991138396654
20
-2.15695167628203
30
0
41
1
10
53.1966684399711
20
-1.51730739223433
30
0
41
1
10
52.9942230402768
20
-0.877663108186653
30
0
0
SPLINE
5
1A1
100
AcDbEntity
8
1
62
256
6
ByLayer
370
13
48
1
60
0
100
AcDbSpline
70
4
71
3
72
10
73
6
40
0
40
0
40
0
40
0
40
0.292742959368661
40
0.292742959368661
40
1
40
1
40
1
40
1
41
1
10
52.7681426122259
20
-0.133436868807763
30
0
41
1
10
52.794605000179
20
-0.134220064402143
30
0
41
1
10
52.8204448032252
20
-0.13300508708906
30
0
41
1
10
52.9100063820192
20
-0.133005510565056
30
0
41
1
10
52.9733492541219
20
-0.133005222884719
30
0
41
1
10
53.0366922172745
20
-0.133005222884719
30
0
0
SPLINE
5
1A2
100
AcDbEntity
8
1
62
256
6
ByLayer
370
13
48
1
60
0
100
AcDbSpline
70
4
71
3
72
14
73
10
40
0
40
0
40
0
40
0
40
0.0093983253738594
40
0.0093983253738594
40
0.638565273553543
40
0.638565273553543
40
0.707257040630498
40
0.707257040630498
40
1
40
1
40
1
40
1
41
1
10
53.0366922172745
20
-5.21699477711533
30
0
41
1
10
53.0358504896653
20
-5.21699477711533
30
0
41
1
10
53.0350087620562
20
-5.21699477711533
30
0
41
1
10
52.9778179328817
20
-5.21699477711533
30
0
41
1
10
52.9214688313162
20
-5.21699477711533
30
0
41
1
10
52.8589675957728
20
-5.21699477711533
30
0
41
1
10
52.8528154672586
20
-5.21699475985204
30
0
41
1
10
52.8204448032251
20
-5.21699491291093
30
0
41
1
10
52.7946050001788
20
-5.21577993559779
30
0
41
1
10
52.7681426122257
20
-5.21656313119226
30
0
0
SPLINE
5
1A3
100
AcDbEntity
8
1
62
256
6
ByLayer
370
13
48
1
60
0
100
AcDbSpline
70
4
71
2
72
6
73
3
40
0
40
0
40
0
40
1
40
1
40
1
41
1
10
53.3991138396654
20
-3.19304832371802
30
0
41
1
10
53.1966684399711
20
-3.83269260776569
30
0
41
1
10
52.9942230402768
20
-4.4723368918134
30
0
0
SPLINE
5
1A4
100
AcDbEntity
8
1
62
256
6
ByLayer
370
13
48
1
60
0
100
AcDbSpline
70
4
71
3
72
10
73
6
40
0
40
0
40
0
40
0
40
0.543339987341644
40
0.543339987341644
40
1
40
1
40
1
40
1
41
1
10
60.0003004601926
20
-1.02154573296002
30
0
41
1
10
59.8193074892229
20
-0.906125102607405
30
0
41
1
10
59.6382449878386
20
-0.790640982792098
30
0
41
1
10
59.298078114664
20
-0.590731105795044
30
0
41
1
10
59.1398730567058
20
-0.503122583681204
30
0
41
1
10
58.9739782123929
20
-0.433839119632637
30
0
0
SPLINE
5
1A5
100
AcDbEntity
8
1
62
256
6
ByLayer
370
13
48
1
60
0
100
AcDbSpline
70
4
71
3
72
10
73
6
40
0
40
0
40
0
40
0
40
0.234782437765391
40
0.234782437765391
40
1
40
1
40
1
40
1
41
1
10
58.9739782123929
20
-0.433839119632637
30
0
41
1
10
58.9693978590632
20
-0.431926204577195
30
0
41
1
10
58.9648613765137
20
-0.429900877560925
30
0
41
1
10
58.945927220229
20
-0.420764155066649
30
0
41
1
10
58.9317484564292
20
-0.412395592702268
30
0
41
1
10
58.9200263771115
20
-0.40133970757438
30
0
0
SPLINE
5
1A6
100
AcDbEntity
8
1
62
256
6
ByLayer
370
13
48
1
60
0
100
AcDbSpline
70
4
71
3
72
10
73
6
40
0
40
0
40
0
40
0
40
0.234782437765391
40
0.234782437765391
40
1
40
1
40
1
40
1
41
1
10
58.9739782123929
20
-4.91616088036741
30
0
41
1
10
58.9693978590632
20
-4.91807379542283
30
0
41
1
10
58.9648613765137
20
-4.92009912243913
30
0
41
1
10
58.945927220229
20
-4.9292358449334
30
0
41
1
10
58.9317484564292
20
-4.93760440729778
30
0
41
1
10
58.9200263771115
20
-4.94866029242567
30
0
0
SPLINE
5
1A7
100
AcDbEntity
8
1
62
256
6
ByLayer
370
13
48
1
60
0
100
AcDbSpline
70
4
71
3
72
10
73
6
40
0
40
0
40
0
40
0
40
0.543339987341528
40
0.543339987341528
40
1
40
1
40
1
40
1
41
1
10
60.0003004601923
20
-4.32845426704017
30
0
41
1
10
59.8193074892227
20
-4.44387489739267
30
0
41
1
10
59.6382449878386
20
-4.55935901720801
30
0
41
1
10
59.298078114664
20
-4.75926889420498
30
0
41
1
10
59.1398730567058
20
-4.84687741631882
30
0
41
1
10
58.9739782123929
20
-4.91616088036741
30
0
0
SPLINE
5
1A8
100
AcDbEntity
8
1
62
256
6
ByLayer
370
13
48
1
60
0
100
AcDbSpline
70
4
71
3
72
12
73
8
40
0
40
0
40
0
40
0
40
0.0484239545861539
40
0.0484239545861539
40
0.787342760202595
40
0.787342760202595
40
1
40
1
40
1
40
1
41
1
10
60.000294180537
20
-1.02294046160608
30
0
41
1
10
59.9993679960653
20
-1.02307853275334
30
0
41
1
10
59.9984413193327
20
-1.02321646495773
30
0
41
1
10
59.9833809106247
20
-1.02545670504912
30
0
41
1
10
59.9691247049826
20
-1.02754425656639
30
0
41
1
10
59.9507227023096
20
-1.03023227516985
30
0
41
1
10
59.9466029316181
20
-1.03083364728369
30
0
41
1
10
59.9424814286892
20
-1.03143557020115
30
0
0
SPLINE
5
1A9
100
AcDbEntity
8
1
62
256
6
ByLayer
370
13
48
1
60
0
100
AcDbSpline
70
4
71
3
72
8
73
4
40
0
40
0
40
0
40
0
40
1
40
1
40
1
40
1
41
1
10
59.9424814286893
20
-1.03143557020195
30
0
41
1
10
59.9393483176739
20
-1.0318931439092
30
0
41
1
10
59.9361974646702
20
-1.03222759782875
30
0
41
1
10
59.9330460166648
20
-1.03254501652665
30
0
0
SPLINE
5
1AA
100
AcDbEntity
8
1
62
256
6
ByLayer
370
13
48
1
60
0
100
AcDbSpline
70
4
71
3
72
8
73
4
40
0
40
0
40
0
40
0
40
1
40
1
40
1
40
1
41
1
10
59.9330460166647
20
-1.03254501652663
30
0
41
1
10
59.9079947760491
20
-1.03506821607283
30
0
41
1
10
59.8828469726042
20
-1.03912145406875
30
0
41
1
10
59.858519907022
20
-1.04366666662352
30
0
0
SPLINE
5
1AB
100
AcDbEntity
8
1
62
256
6
ByLayer
370
13
48
1
60
0
100
AcDbSpline
70
4
71
3
72
10
73
6
40
0
40
0
40
0
40
0
40
0.365019426424878
40
0.365019426424878
40
1
40
1
40
1
40
1
41
1
10
59.858519907022
20
-1.04366666662352
30
0
41
1
10
59.8392240542629
20
-1.04727185903457
30
0
41
1
10
59.8189374811642
20
-1.04583797658935
30
0
41
1
10
59.7651335246498
20
-1.03826650065156
30
0
41
1
10
59.7314968249904
20
-1.02872671749856
30
0
41
1
10
59.6985587777267
20
-1.01785374149125
30
0
0
SPLINE
5
1AC
100
AcDbEntity
8
1
62
256
6
ByLayer
370
13
48
1
60
0
100
AcDbSpline
70
4
71
3
72
10
73
6
40
0
40
0
40
0
40
0
40
0.365019426424878
40
0.365019426424878
40
1
40
1
40
1
40
1
41
1
10
59.858519907022
20
-4.3063333333765
30
0
41
1
10
59.8392240542629
20
-4.30272814096546
30
0
41
1
10
59.8189374811642
20
-4.30416202341067
30
0
41
1
10
59.7651335246498
20
-4.31173349934846
30
0
41
1
10
59.7314968249904
20
-4.32127328250149
30
0
41
1
10
59.6985587777267
20
-4.3321462585088
30
0
0
SPLINE
5
1AD
100
AcDbEntity
8
1
62
256
6
ByLayer
370
13
48
1
60
0
100
AcDbSpline
70
4
71
3
72
8
73
4
40
0
40
0
40
0
40
0
40
1
40
1
40
1
40
1
41
1
10
59.9330460166647
20
-4.31745498347343
30
0
41
1
10
59.9079947760491
20
-4.31493178392722
30
0
41
1
10
59.8828469726042
20
-4.3108785459313
30
0
41
1
10
59.858519907022
20
-4.3063333333765
30
0
0
SPLINE
5
1AE
100
AcDbEntity
8
1
62
256
6
ByLayer
370
13
48
1
60
0
100
AcDbSpline
70
4
71
3
72
8
73
4
40
0
40
0
40
0
40
0
40
1
40
1
40
1
40
1
41
1
10
59.9424814286893
20
-4.3185644297981
30
0
41
1
10
59.9393483176739
20
-4.31810685609085
30
0
41
1
10
59.9361974646702
20
-4.3177724021713
30
0
41
1
10
59.9330460166648
20
-4.3174549834734
30
0
0
SPLINE
5
1AF
100
AcDbEntity
8
1
62
256
6
ByLayer
370
13
48
1
60
0
100
AcDbSpline
70
4
71
3
72
12
73
8
40
0
40
0
40
0
40
0
40
0.048423954882324
40
0.048423954882324
40
0.787342760268783
40
0.787342760268783
40
1
40
1
40
1
40
1
41
1
10
60.0002941804905
20
-4.32705953841
30
0
41
1
10
59.9993679959648
20
-4.32692146727183
30
0
41
1
10
59.9984413193384
20
-4.32678353504318
30
0
41
1
10
59.9833809106247
20
-4.32454329495093
30
0
41
1
10
59.9691247049826
20
-4.32245574343364
30
0
41
1
10
59.9507227023096
20
-4.31976772483017
30
0
41
1
10
59.9466029316181
20
-4.31916635271634
30
0
41
1
10
59.9424814286892
20
-4.3185644297989
30
0
0
SPLINE
5
1B0
100
AcDbEntity
8
1
62
256
6
ByLayer
370
13
48
1
60
0
100
AcDbSpline
70
4
71
3
72
12
73
8
40
0
40
0
40
0
40
0
40
0.585953603913908
40
0.585953603913908
40
0.932562389653932
40
0.932562389653932
40
1
40
1
40
1
40
1
41
1
10
55.0058830934711
20
-1.78339874881624
30
0
41
1
10
54.960211272438
20
-1.76525203920659
30
0
41
1
10
54.9175125134992
20
-1.74312594032261
30
0
41
1
10
54.8656905223004
20
-1.70152786095156
30
0
41
1
10
54.8497083450445
20
-1.68429455583822
30
0
41
1
10
54.8387123558149
20
-1.66286174818328
30
0
41
1
10
54.8371603851938
20
-1.65929611520687
30
0
41
1
10
54.8359016088411
20
-1.65571589191646
30
0
0
SPLINE
5
1B1
100
AcDbEntity
8
1
62
256
6
ByLayer
370
13
48
1
60
0
100
AcDbSpline
70
4
71
3
72
8
73
4
40
0
40
0
40
0
40
0
40
1
40
1
40
1
40
1
41
1
10
55.0058830934711
20
-1.7833987488161
30
0
41
1
10
55.0878526142753
20
-1.75594038741457
30
0
41
1
10
55.1702705240861
20
-1.73041258753463
30
0
41
1
10
55.2530247822474
20
-1.70672040862425
30
0
0
SPLINE
5
1B2
100
AcDbEntity
8
1
62
256
6
ByLayer
370
13
48
1
60
0
100
AcDbSpline
70
4
71
3
72
12
73
8
40
0
40
0
40
0
40
0
40
0.397348218557931
40
0.397348218557931
40
0.918192388004562
40
0.918192388004562
40
1
40
1
40
1
40
1
41
1
10
54.8359082989188
20
-3.69428682571083
30
0
41
1
10
54.843188843999
20
-3.67357851315143
30
0
41
1
10
54.8603756193544
20
-3.6533138618106
30
0
41
1
10
54.9103520488149
20
-3.61196711173281
30
0
41
1
10
54.9471530158874
20
-3.59160128930284
30
0
41
1
10
54.9930740548547
20
-3.57179775874894
30
0
41
1
10
54.9994424535555
20
-3.5691642867624
30
0
41
1
10
55.0058884944385
20
-3.56660306041079
30
0
0
SPLINE
5
1B3
100
AcDbEntity
8
1
62
256
6
ByLayer
370
13
48
1
60
0
100
AcDbSpline
70
4
71
3
72
8
73
4
40
0
40
0
40
0
40
0
40
1
40
1
40
1
40
1
41
1
10
55.0058884944386
20
-3.56660306041096
30
0
41
1
10
55.0878562343346
20
-3.59406073390778
30
0
41
1
10
55.1702723413183
20
-3.61958793273092
30
0
41
1
10
55.2530247822474
20
-3.6432795913758
30
0
0
SPLINE
5
1B4
100
AcDbEntity
8
1
62
256
6
ByLayer
370
13
48
1
60
0
100
AcDbSpline
70
4
71
3
72
8
73
4
40
0
40
0
40
0
40
0
40
1
40
1
40
1
40
1
41
1
10
58.8014946002937
20
-4.9881238726405
30
0
41
1
10
58.5838173775252
20
-4.99156289728117
30
0
41
1
10
58.358631149245
20
-4.98738088365613
30
0
41
1
10
58.1364283337295
20
-4.96598605134173
30
0
0
SPLINE
5
1B5
100
AcDbEntity
8
1
62
256
6
ByLayer
370
13
48
1
60
0
100
AcDbSpline
70
4
71
3
72
10
73
6
40
0
40
0
40
0
40
0
40
0.89617120816834
40
0.89617120816834
40
1
40
1
40
1
40
1
41
1
10
58.8114628213833
20
-4.95564572239047
30
0
41
1
10
58.8083770286769
20
-4.96529175265263
30
0
41
1
10
58.8053823050141
20
-4.97501099574063
30
0
41
1
10
58.8021596379679
20
-4.98586844170532
30
0
41
1
10
58.8018264345891
20
-4.98699606187725
30
0
41
1
10
58.8014946003019
20
-4.9881238726673
30
0
0
SPLINE
5
1B6
100
AcDbEntity
8
1
62
256
6
ByLayer
370
13
48
1
60
0
100
AcDbSpline
70
4
71
3
72
8
73
4
40
0
40
0
40
0
40
0
40
1
40
1
40
1
40
1
41
1
10
58.8014946002937
20
-0.361876127359523
30
0
41
1
10
58.5838173775252
20
-0.358437102718881
30
0
41
1
10
58.358631149245
20
-0.362619116343893
30
0
41
1
10
58.1364283337295
20
-0.384013948658293
30
0
0
SPLINE
5
1B7
100
AcDbEntity
8
1
62
256
6
ByLayer
370
13
48
1
60
0
100
AcDbSpline
70
4
71
3
72
10
73
6
40
0
40
0
40
0
40
0
40
0.89617120816834
40
0.89617120816834
40
1
40
1
40
1
40
1
41
1
10
58.8114628213833
20
-0.39435427760958
30
0
41
1
10
58.8083770286769
20
-0.38470824734739
30
0
41
1
10
58.8053823050076
20
-0.374989004261352
30
0
41
1
10
58.8021596379687
20
-0.364131558294474
30
0
41
1
10
58.8018264345891
20
-0.363003938122802
30
0
41
1
10
58.8014946003019
20
-0.361876127332749
30
0
0
SPLINE
5
1B8
100
AcDbEntity
8
1
62
256
6
ByLayer
370
13
48
1
60
0
100
AcDbSpline
70
4
71
3
72
16
73
12
40
0
40
0
40
0
40
0
40
5.49005868016E-05
40
5.49005868016E-05
40
0.336585103415494
40
0.336585103415494
40
0.668681511902148
40
0.668681511902148
40
0.999945099413196
40
0.999945099413196
40
1
40
1
40
1
40
1
41
1
10
55.2530247822474
20
-3.64327959137577
30
0
41
1
10
55.2530408119084
20
-3.64328372293508
30
0
41
1
10
55.2530568416983
20
-3.64328785438093
30
0
41
1
10
55.351332883376
20
-3.66861835770294
30
0
41
1
10
55.4536280850695
20
-3.69548256197172
30
0
41
1
10
55.6640882219198
20
-3.74427777225054
30
0
41
1
10
55.7723571382594
20
-3.76729579566194
30
0
41
1
10
55.9940208878321
20
-3.80941363456935
30
0
41
1
10
56.1078139156937
20
-3.82868994525489
30
0
41
1
10
56.223538228656
20
-3.84541905611371
30
0
41
1
10
56.2235574062948
20
-3.84542182829918
30
0
41
1
10
56.2235765839736
20
-3.84542460054726
30
0
0
SPLINE
5
1B9
100
AcDbEntity
8
1
62
256
6
ByLayer
370
13
48
1
60
0
100
AcDbSpline
70
4
71
3
72
16
73
12
40
0
40
0
40
0
40
0
40
5.49005868016E-05
40
5.49005868016E-05
40
0.336585103415494
40
0.336585103415494
40
0.668681511902148
40
0.668681511902148
40
0.999945099413196
40
0.999945099413196
40
1
40
1
40
1
40
1
41
1
10
55.2530247822474
20
-1.70672040862425
30
0
41
1
10
55.2530408119894
20
-1.70671627702754
30
0
41
1
10
55.2530568416983
20
-1.70671214561909
30
0
41
1
10
55.351332883376
20
-1.68138164229711
30
0
41
1
10
55.4536280850695
20
-1.65451743802834
30
0
41
1
10
55.6640882219198
20
-1.60572222774951
30
0
41
1
10
55.7723571382594
20
-1.58270420433809
30
0
41
1
10
55.9940208878321
20
-1.5405863654307
30
0
41
1
10
56.1078139156937
20
-1.52131005474513
30
0
41
1
10
56.223538228656
20
-1.50458094388634
30
0
41
1
10
56.2235574062989
20
-1.50457817156871
30
0
41
1
10
56.2235765839736
20
-1.50457539945279
30
0
0
SPLINE
5
1BA
100
AcDbEntity
8
1
62
256
6
ByLayer
370
13
48
1
60
0
100
AcDbSpline
70
4
71
3
72
14
73
10
40
0
40
0
40
0
40
0
40
7.60921707146E-05
40
7.60921707146E-05
40
0.558418932331044
40
0.558418932331044
40
0.8175350131134
40
0.8175350131134
40
1
40
1
40
1
40
1
41
1
10
55.2530247822474
20
-3.34250589329304
30
0
41
1
10
55.253036668055
20
-3.34249212878291
30
0
41
1
10
55.2530485539515
20
-3.34247836421557
30
0
41
1
10
55.3402747516226
20
-3.2414625344064
30
0
41
1
10
55.4266797916594
20
-3.13125231653811
30
0
41
1
10
55.52373030621
20
-2.94727756786688
30
0
41
1
10
55.5500662281197
20
-2.88429821626417
30
0
41
1
10
55.5777718223727
20
-2.77188663556356
30
0
41
1
10
55.5841279769685
20
-2.72322836857759
30
0
41
1
10
55.5841229339402
20
-2.6749411265051
30
0
0
SPLINE
5
1BB
100
AcDbEntity
8
1
62
256
6
ByLayer
370
13
48
1
60
0
100
AcDbSpline
70
4
71
3
72
9
73
5
40
0
40
0
40
0
40
0
40
0.218499821058687
40
1
40
1
40
1
40
1
41
1
10
55.5841229630374
20
-2.67505887349034
30
0
41
1
10
55.6287172982937
20
-2.67503710501907
30
0
41
1
10
55.8328105329712
20
-2.67493747806654
30
0
41
1
10
56.0521571575866
20
-2.67497257317024
30
0
41
1
10
56.2235765839736
20
-2.67500000000001
30
0
0
SPLINE
5
1BC
100
AcDbEntity
8
1
62
256
6
ByLayer
370
13
48
1
60
0
100
AcDbSpline
70
4
71
3
72
14
73
10
40
0
40
0
40
0
40
0
40
0.229848554188354
40
0.229848554188354
40
0.556132982262946
40
0.556132982262946
40
0.999924050949996
40
0.999924050949996
40
1
40
1
40
1
40
1
41
1
10
55.5841229342492
20
-2.67505887349489
30
0
41
1
10
55.5841289378505
20
-2.6145318351966
30
0
41
1
10
55.5739446757336
20
-2.55339750573938
30
0
41
1
10
55.5318793094984
20
-2.41499798802522
30
0
41
1
10
55.4931246863409
20
-2.33916736066007
30
0
41
1
10
55.3909514875064
20
-2.17446484943821
30
0
41
1
10
55.3226503723761
20
-2.08813168505983
30
0
41
1
10
55.2530485539982
20
-2.00752680819193
30
0
41
1
10
55.2530366680782
20
-2.00751304365451
30
0
41
1
10
55.2530247822474
20
-2.00749927917417
30
0
0
SPLINE
5
1BD
100
AcDbEntity
8
1
62
256
6
ByLayer
370
13
48
1
60
0
100
AcDbSpline
70
4
71
3
72
8
73
4
40
0
40
0
40
0
40
0
40
1
40
1
40
1
40
1
41
1
10
58.9200263771116
20
-0.401339707574095
30
0
41
1
10
58.8913140489629
20
-0.392430581984911
30
0
41
1
10
58.8617201129099
20
-0.382847297972063
30
0
41
1
10
58.8329929794714
20
-0.372935956687854
30
0
0
SPLINE
5
1BE
100
AcDbEntity
8
1
62
256
6
ByLayer
370
13
48
1
60
0
100
AcDbSpline
70
4
71
3
72
10
73
6
40
0
40
0
40
0
40
0
40
0.895874350650011
40
0.895874350650011
40
1
40
1
40
1
40
1
41
1
10
58.8329929794783
20
-0.372935956682681
30
0
41
1
10
58.8235084653765
20
-0.36966364075775
30
0
41
1
10
58.8140728812381
20
-0.36635632833125
30
0
41
1
10
58.8036592855553
20
-0.362648895280387
30
0
41
1
10
58.8025762547404
20
-0.362262610978206
30
0
41
1
10
58.8014946002937
20
-0.361876127359523
30
0
0
SPLINE
5
1BF
100
AcDbEntity
8
1
62
256
6
ByLayer
370
13
48
1
60
0
100
AcDbSpline
70
4
71
3
72
8
73
4
40
0
40
0
40
0
40
0
40
1
40
1
40
1
40
1
41
1
10
58.9200263771116
20
-0.401339707574095
30
0
41
1
10
58.8947547498996
20
-0.428909199271345
30
0
41
1
10
58.8676414158413
20
-0.456060056061489
30
0
41
1
10
58.8427945046474
20
-0.478678462904241
30
0
0
SPLINE
5
1C0
100
AcDbEntity
8
1
62
256
6
ByLayer
370
13
48
1
60
0
100
AcDbSpline
70
4
71
3
72
8
73
4
40
0
40
0
40
0
40
0
40
1
40
1
40
1
40
1
41
1
10
58.8427945046474
20
-0.478678462904298
30
0
41
1
10
58.8319379533939
20
-0.45193117354151
30
0
41
1
10
58.8212332338795
20
-0.423285479894247
30
0
41
1
10
58.8114628213697
20
-0.394354277569221
30
0
0
SPLINE
5
1C1
100
AcDbEntity
8
1
62
256
6
ByLayer
370
13
48
1
60
0
100
AcDbSpline
70
4
71
3
72
8
73
4
40
0
40
0
40
0
40
0
40
1
40
1
40
1
40
1
41
1
10
58.9200263771116
20
-4.94866029242593
30
0
41
1
10
58.8947547498996
20
-4.92109080072868
30
0
41
1
10
58.8676414158413
20
-4.89393994393856
30
0
41
1
10
58.8427945046474
20
-4.87132153709581
30
0
0
SPLINE
5
1C2
100
AcDbEntity
8
1
62
256
6
ByLayer
370
13
48
1
60
0
100
AcDbSpline
70
4
71
3
72
10
73
6
40
0
40
0
40
0
40
0
40
0.895874350650011
40
0.895874350650011
40
1
40
1
40
1
40
1
41
1
10
58.8329929794783
20
-4.97706404331737
30
0
41
1
10
58.8235084653762
20
-4.98033635924145
30
0
41
1
10
58.8140728812381
20
-4.9836436716688
30
0
41
1
10
58.8036592855553
20
-4.98735110471966
30
0
41
1
10
58.8025762547404
20
-4.98773738902185
30
0
41
1
10
58.8014946002937
20
-4.9881238726405
30
0
0
SPLINE
5
1C3
100
AcDbEntity
8
1
62
256
6
ByLayer
370
13
48
1
60
0
100
AcDbSpline
70
4
71
3
72
8
73
4
40
0
40
0
40
0
40
0
40
1
40
1
40
1
40
1
41
1
10
58.9200263771116
20
-4.94866029242593
30
0
41
1
10
58.8913140489629
20
-4.95756941801511
30
0
41
1
10
58.8617201129099
20
-4.96715270202796
30
0
41
1
10
58.8329929794714
20
-4.9770640433122
30
0
0
SPLINE
5
1C4
100
AcDbEntity
8
1
62
256
6
ByLayer
370
13
48
1
60
0
100
AcDbSpline
70
4
71
3
72
8
73
4
40
0
40
0
40
0
40
0
40
1
40
1
40
1
40
1
41
1
10
58.8114628213756
20
-0.394354277587041
30
0
41
1
10
58.8184891520225
20
-0.387299515858445
30
0
41
1
10
58.8256944839945
20
-0.380131611567578
30
0
41
1
10
58.8329929794581
20
-0.3729359566683
30
0
0
SPLINE
5
1C5
100
AcDbEntity
8
1
62
256
6
ByLayer
370
13
48
1
60
0
100
AcDbSpline
70
4
71
3
72
8
73
4
40
0
40
0
40
0
40
0
40
1
40
1
40
1
40
1
41
1
10
58.8114628213756
20
-4.95564572241301
30
0
41
1
10
58.8184891520225
20
-4.96270048414161
30
0
41
1
10
58.8256944839945
20
-4.96986838843247
30
0
41
1
10
58.8329929794581
20
-4.97706404333175
30
0
0
SPLINE
5
1C6
100
AcDbEntity
8
1
62
256
6
ByLayer
370
13
48
1
60
0
100
AcDbSpline
70
4
71
3
72
8
73
4
40
0
40
0
40
0
40
0
40
1
40
1
40
1
40
1
41
1
10
58.8427945046474
20
-4.87132153709572
30
0
41
1
10
58.8319379533939
20
-4.89806882645854
30
0
41
1
10
58.8212332338795
20
-4.9267145201058
30
0
41
1
10
58.8114628213697
20
-4.9556457224308
30
0
0
SPLINE
5
1C7
100
AcDbEntity
8
1
62
256
6
ByLayer
370
13
48
1
60
0
100
AcDbSpline
70
4
71
3
72
8
73
4
40
0
40
0
40
0
40
0
40
1
40
1
40
1
40
1
41
1
10
55.2530247822474
20
-2.00749927917417
30
0
41
1
10
55.1763475749176
20
-1.92424032808722
30
0
41
1
10
55.0925991652656
20
-1.85038796160441
30
0
41
1
10
55.005883093471
20
-1.7833987488163
30
0
0
SPLINE
5
1C8
100
AcDbEntity
8
1
62
256
6
ByLayer
370
13
48
1
60
0
100
AcDbSpline
70
4
71
3
72
8
73
4
40
0
40
0
40
0
40
0
40
1
40
1
40
1
40
1
41
1
10
55.0058884944385
20
-3.56660306041073
30
0
41
1
10
55.0926026707734
20
-3.49961474057153
30
0
41
1
10
55.176349203494
20
-3.42576341903649
30
0
41
1
10
55.2530247822474
20
-3.34250589329306
30
0
0
SPLINE
5
1C9
100
AcDbEntity
8
1
62
256
6
ByLayer
370
13
48
1
60
0
100
AcDbSpline
70
4
71
3
72
10
73
6
40
0
40
0
40
0
40
0
40
0.212029667990108
40
0.212029667990108
40
1
40
1
40
1
40
1
41
1
10
58.9034132847034
20
-4.77693496955595
30
0
41
1
10
58.898185300015
20
-4.78246078692047
30
0
41
1
10
58.8931085566658
20
-4.78825000100767
30
0
41
1
10
58.8702328082276
20
-4.81649478145894
30
0
41
1
10
58.8544535780449
20
-4.84259707362506
30
0
41
1
10
58.8427945046447
20
-4.87132153710235
30
0
0
SPLINE
5
1CA
100
AcDbEntity
8
1
62
256
6
ByLayer
370
13
48
1
60
0
100
AcDbSpline
70
4
71
3
72
10
73
6
40
0
40
0
40
0
40
0
40
0.212029667990108
40
0.212029667990108
40
1
40
1
40
1
40
1
41
1
10
58.9034132847034
20
-0.57306503044407
30
0
41
1
10
58.898185300015
20
-0.567539213079584
30
0
41
1
10
58.8931085566658
20
-0.561749998992354
30
0
41
1
10
58.8702328082276
20
-0.533505218541109
30
0
41
1
10
58.8544535780449
20
-0.507402926374994
30
0
41
1
10
58.8427945046447
20
-0.478678462897704
30
0
0
SPLINE
5
1CB
100
AcDbEntity
8
1
62
256
6
ByLayer
370
13
48
1
60
0
100
AcDbSpline
70
4
71
3
72
8
73
4
40
0
40
0
40
0
40
0
40
1
40
1
40
1
40
1
41
1
10
58.1364283337292
20
-4.96598605134153
30
0
41
1
10
58.069644117832
20
-4.96013997439553
30
0
41
1
10
58.0030235608226
20
-4.95250994644965
30
0
41
1
10
57.9364283337291
20
-4.94480584784793
30
0
0
SPLINE
5
1CC
100
AcDbEntity
8
1
62
256
6
ByLayer
370
13
48
1
60
0
100
AcDbSpline
70
4
71
3
72
8
73
4
40
0
40
0
40
0
40
0
40
1
40
1
40
1
40
1
41
1
10
58.1364283337292
20
-0.384013948658492
30
0
41
1
10
58.069644117832
20
-0.38986002560452
30
0
41
1
10
58.0030235608226
20
-0.397490053550399
30
0
41
1
10
57.9364283337291
20
-0.40519415215212
30
0
0
SPLINE
5
1CD
100
AcDbEntity
8
1
62
256
6
ByLayer
370
13
48
1
60
0
100
AcDbSpline
70
4
71
3
72
8
73
4
40
0
40
0
40
0
40
0
40
1
40
1
40
1
40
1
41
1
10
55.5841229342547
20
-2.67505887349617
30
0
41
1
10
55.5621364911968
20
-2.67505591190584
30
0
41
1
10
55.5379945562381
20
-2.67505295125585
30
0
41
1
10
55.5133346813305
20
-2.67505019236762
30
0
0
SPLINE
5
1CE
100
AcDbEntity
8
1
62
256
6
ByLayer
370
13
48
1
60
0
100
AcDbSpline
70
4
71
3
72
18
73
14
40
0
40
0
40
0
40
0
40
0.0002320476331928
40
0.0002320476331928
40
0.275512896583265
40
0.275512896583265
40
0.549548193740028
40
0.549548193740028
40
0.82034827856401
40
0.82034827856401
40
0.999767952367583
40
0.999767952367583
40
1
40
1
40
1
40
1
41
1
10
54.0238910536757
20
-2.80688578981864
30
0
41
1
10
54.0238925498611
20
-2.80690547299545
30
0
41
1
10
54.0238940487922
20
-2.80692515591449
30
0
41
1
10
54.0256675055207
20
-2.83029513211048
30
0
41
1
10
54.0237464564308
20
-2.8540126971794
30
0
41
1
10
54.0124048683295
20
-2.89827370469874
30
0
41
1
10
54.002824023711
20
-2.91948762603243
30
0
41
1
10
53.9766946646277
20
-2.95609456421437
30
0
41
1
10
53.9597143144881
20
-2.97212451707503
30
0
41
1
10
53.9274022012003
20
-2.99252177957459
30
0
41
1
10
53.9131618975273
20
-2.99919413513243
30
0
41
1
10
53.8984185892745
20
-3.00420839244384
30
0
41
1
10
53.8983996878341
20
-3.00421481479117
30
0
41
1
10
53.8983807874304
20
-3.00422124018365
30
0
0
SPLINE
5
1CF
100
AcDbEntity
8
1
62
256
6
ByLayer
370
13
48
1
60
0
100
AcDbSpline
70
4
71
3
72
18
73
14
40
0
40
0
40
0
40
0
40
0.0002327629213411
40
0.0002327629213411
40
0.265137580931158
40
0.265137580931158
40
0.524413902056763
40
0.524413902056763
40
0.787810378106243
40
0.787810378106243
40
0.999767237013987
40
0.999767237013987
40
1
40
1
40
1
40
1
41
1
10
53.8983814923708
20
-2.3457787598164
30
0
41
1
10
53.8984003927771
20
-2.34578518520564
30
0
41
1
10
53.8984192942203
20
-2.34579160754953
30
0
41
1
10
53.9199474313848
20
-2.35311340711556
30
0
41
1
10
53.9405076835734
20
-2.36413012047771
30
0
41
1
10
53.9746194976181
20
-2.39182426841072
30
0
41
1
10
53.988861041942
20
-2.40878366803747
30
0
41
1
10
54.0101948543782
20
-2.44629265014575
30
0
41
1
10
54.0175625642359
20
-2.46744962050479
30
0
41
1
10
54.0244402017238
20
-2.50671398189652
30
0
41
1
10
54.0252680311183
20
-2.52497264302988
30
0
41
1
10
54.023894266307
20
-2.5430748441282
30
0
41
1
10
54.0238927673131
20
-2.54309452702583
30
0
41
1
10
54.023891271065
20
-2.54311421018142
30
0
0
SPLINE
5
1D0
100
AcDbEntity
8
1
62
256
6
ByLayer
370
13
48
1
60
0
100
AcDbSpline
70
4
71
3
72
16
73
12
40
0
40
0
40
0
40
0
40
0.0003234024746366
40
0.0003234024746366
40
0.282080396684608
40
0.282080396684608
40
0.564087672846331
40
0.564087672846331
40
0.999676597525353
40
0.999676597525353
40
1
40
1
40
1
40
1
41
1
10
53.7228255532625
20
-2.27442303660118
30
0
41
1
10
53.7228431394738
20
-2.27443094330667
30
0
41
1
10
53.7228607255774
20
-2.27443885023115
30
0
41
1
10
53.7382000012656
20
-2.28133514244016
30
0
41
1
10
53.7536112434707
20
-2.28808120566279
30
0
41
1
10
53.7846122205563
20
-2.30129205473295
30
0
41
1
10
53.8002038103746
20
-2.30775731459943
30
0
41
1
10
53.8400732534561
20
-2.3238413323391
30
0
41
1
10
53.8644631576176
20
-2.33326232211454
30
0
41
1
10
53.8890367141859
20
-2.34234508106795
30
0
41
1
10
53.8890549466885
20
-2.34235181962092
30
0
41
1
10
53.8890731791049
20
-2.3423585583831
30
0
0
SPLINE
5
1D1
100
AcDbEntity
8
1
62
256
6
ByLayer
370
13
48
1
60
0
100
AcDbSpline
70
4
71
3
72
16
73
12
40
0
40
0
40
0
40
0
40
0.0003234009625968
40
0.0003234009625968
40
0.281891295778052
40
0.281891295778052
40
0.563857518034444
40
0.563857518034444
40
0.999676599037414
40
0.999676599037414
40
1
40
1
40
1
40
1
41
1
10
53.8890724776759
20
-3.00764144161695
30
0
41
1
10
53.8890542452637
20
-3.00764818038004
30
0
41
1
10
53.8890360127654
20
-3.00765491893389
30
0
41
1
10
53.8731438796106
20
-3.01352889435881
30
0
41
1
10
53.8573395823257
20
-3.01954010187023
30
0
41
1
10
53.8258607502036
20
-3.03185759570329
30
0
41
1
10
53.8101848014628
20
-3.03816492575243
30
0
41
1
10
53.7704882686511
20
-3.05458510873143
30
0
41
1
10
53.7465753514895
20
-3.06489915036676
30
0
41
1
10
53.7228601099431
20
-3.07556114976595
30
0
41
1
10
53.7228425238483
20
-3.07556905669188
30
0
41
1
10
53.7228249376459
20
-3.07557696339885
30
0
0
SPLINE
5
1D2
100
AcDbEntity
8
1
62
256
6
ByLayer
370
13
48
1
60
0
100
AcDbSpline
70
4
71
3
72
10
73
6
40
0
40
0
40
0
40
0
40
0.584811321004001
40
0.584811321004001
40
1
40
1
40
1
40
1
41
1
10
59.7229218619212
20
-4.12872214811929
30
0
41
1
10
59.7671269207748
20
-4.12734480135501
30
0
41
1
10
59.8120128950401
20
-4.13051948482288
30
0
41
1
10
59.8856471034019
20
-4.14912344747563
30
0
41
1
10
59.9158168934823
20
-4.16100476964155
30
0
41
1
10
59.9429134307967
20
-4.17812582277134
30
0
0
SPLINE
5
1D3
100
AcDbEntity
8
1
62
256
6
ByLayer
370
13
48
1
60
0
100
AcDbSpline
70
4
71
3
72
10
73
6
40
0
40
0
40
0
40
0
40
0.584811321004001
40
0.584811321004001
40
1
40
1
40
1
40
1
41
1
10
59.7229218619212
20
-1.22127785188076
30
0
41
1
10
59.7671269207748
20
-1.22265519864504
30
0
41
1
10
59.8120128950401
20
-1.21948051517714
30
0
41
1
10
59.8856471034019
20
-1.20087655252442
30
0
41
1
10
59.9158168934823
20
-1.18899523035847
30
0
41
1
10
59.9429134307967
20
-1.17187417722872
30
0
0
SPLINE
5
1D4
100
AcDbEntity
8
1
62
256
6
ByLayer
370
13
48
1
60
0
100
AcDbSpline
70
4
71
2
72
6
73
3
40
0
40
0
40
0
40
1
40
1
40
1
41
1
10
53.6239816481906
20
-2.15695167628203
30
0
41
0.916194302198624
10
53.6501201860675
20
-2.23953871640032
30
0
41
1
10
53.7228255532625
20
-2.27442303660118
30
0
0
SPLINE
5
1D5
100
AcDbEntity
8
1
62
256
6
ByLayer
370
13
48
1
60
0
100
AcDbSpline
70
4
71
2
72
6
73
3
40
0
40
0
40
0
40
1
40
1
40
1
41
1
10
53.7228249376458
20
-3.07557696339885
30
0
41
0.916194302198624
10
53.6501195704508
20
-3.11046128359973
30
0
41
1
10
53.6239810325739
20
-3.19304832371802
30
0
0
SPLINE
5
1D6
100
AcDbEntity
8
1
62
256
6
ByLayer
370
13
48
1
60
0
100
AcDbSpline
70
4
71
3
72
8
73
4
40
0
40
0
40
0
40
0
40
1
40
1
40
1
40
1
41
1
10
59.9429134307958
20
-4.17812582277173
30
0
41
1
10
59.9523662605101
20
-4.20201705254559
30
0
41
1
10
59.9618537680905
20
-4.22619486866554
30
0
41
1
10
59.972244251906
20
-4.24998672863751
30
0
0
SPLINE
5
1D7
100
AcDbEntity
8
1
62
256
6
ByLayer
370
13
48
1
60
0
100
AcDbSpline
70
4
71
3
72
8
73
4
40
0
40
0
40
0
40
0
40
1
40
1
40
1
40
1
41
1
10
53.8890731791048
20
-2.3423585583831
30
0
41
1
10
53.8921756280066
20
-2.34349870388405
30
0
41
1
10
53.8952783994478
20
-2.34463877119828
30
0
41
1
10
53.8983814923706
20
-2.34577875981645
30
0
0
SPLINE
5
1D8
100
AcDbEntity
8
1
62
256
6
ByLayer
370
13
48
1
60
0
100
AcDbSpline
70
4
71
3
72
8
73
4
40
0
40
0
40
0
40
0
40
1
40
1
40
1
40
1
41
1
10
53.8983807874304
20
-3.00422124018365
30
0
41
1
10
53.8952776956559
20
-3.00536122879694
30
0
41
1
10
53.8921749253846
20
-3.00650129611108
30
0
41
1
10
53.8890724776757
20
-3.0076414416169
30
0
0
SPLINE
5
1D9
100
AcDbEntity
8
1
62
256
6
ByLayer
370
13
48
1
60
0
100
AcDbSpline
70
4
71
3
72
8
73
4
40
0
40
0
40
0
40
0
40
1
40
1
40
1
40
1
41
1
10
59.9429134307958
20
-1.17187417722829
30
0
41
1
10
59.9523662605101
20
-1.14798294745447
30
0
41
1
10
59.9618537680905
20
-1.12380513133451
30
0
41
1
10
59.972244251906
20
-1.10001327136254
30
0
0
SPLINE
5
1DA
100
AcDbEntity
8
1
62
256
6
ByLayer
370
13
48
1
60
0
100
AcDbSpline
70
4
71
2
72
6
73
3
40
0
40
0
40
0
40
1
40
1
40
1
41
1
10
53.4979577447373
20
-2.27442303660118
30
0
41
1
10
53.6103916489999
20
-2.27442303660118
30
0
41
1
10
53.7228255532625
20
-2.27442303660118
30
0
0
SPLINE
5
1DB
100
AcDbEntity
8
1
62
256
6
ByLayer
370
13
48
1
60
0
100
AcDbSpline
70
4
71
2
72
6
73
3
40
0
40
0
40
0
40
1
40
1
40
1
41
1
10
53.4979577447373
20
-2.27442303660118
30
0
41
0.916194302198624
10
53.4252523775422
20
-2.23953871640032
30
0
41
1
10
53.3991138396654
20
-2.15695167628203
30
0
0
SPLINE
5
1DC
100
AcDbEntity
8
1
62
256
6
ByLayer
370
13
48
1
60
0
100
AcDbSpline
70
4
71
2
72
6
73
3
40
0
40
0
40
0
40
1
40
1
40
1
41
1
10
53.4979577447373
20
-3.07557696339885
30
0
41
0.916194302198624
10
53.4252523775422
20
-3.11046128359973
30
0
41
1
10
53.3991138396654
20
-3.19304832371802
30
0
0
SPLINE
5
1DD
100
AcDbEntity
8
1
62
256
6
ByLayer
370
13
48
1
60
0
100
AcDbSpline
70
4
71
2
72
6
73
3
40
0
40
0
40
0
40
1
40
1
40
1
41
1
10
53.4979577447373
20
-3.07557696339885
30
0
41
1
10
53.6103913411916
20
-3.07557696339885
30
0
41
1
10
53.7228249376459
20
-3.07557696339885
30
0
0
SPLINE
5
1DE
100
AcDbEntity
8
1
62
256
6
ByLayer
370
13
48
1
60
0
100
AcDbSpline
70
4
71
3
72
12
73
8
40
0
40
0
40
0
40
0
40
0.222210269969675
40
0.222210269969675
40
0.98789629981278
40
0.98789629981278
40
1
40
1
40
1
40
1
41
1
10
59.9762578641567
20
-1.08497744445248
30
0
41
1
10
59.9780568600709
20
-1.08069893528415
30
0
41
1
10
59.9798523269257
20
-1.07641733011096
30
0
41
1
10
59.9878141103189
20
-1.057375914414
30
0
41
1
10
59.9939377359823
20
-1.04258321674678
30
0
41
1
10
60.0000844674869
20
-1.0275449788038
30
0
41
1
10
60.000180128062
20
-1.02731088149105
30
0
41
1
10
60.0002757733597
20
-1.02707678114223
30
0
0
SPLINE
5
1DF
100
AcDbEntity
8
1
62
256
6
ByLayer
370
13
48
1
60
0
100
AcDbSpline
70
4
71
3
72
12
73
8
40
0
40
0
40
0
40
0
40
0.222210270055733
40
0.222210270055733
40
0.987896300195374
40
0.987896300195374
40
1
40
1
40
1
40
1
41
1
10
59.9762578641567
20
-4.26502255554757
30
0
41
1
10
59.9780568600709
20
-4.2693010647159
30
0
41
1
10
59.9798523269257
20
-4.27358266988909
30
0
41
1
10
59.9878141103189
20
-4.29262408558606
30
0
41
1
10
59.9939377359823
20
-4.30741678325327
30
0
41
1
10
60.000084467484
20
-4.32245502118894
30
0
41
1
10
60.0001801280886
20
-4.32268911848689
30
0
41
1
10
60.000275773394
20
-4.32292321882599
30
0
0
SPLINE
5
1E0
100
AcDbEntity
8
1
62
256
6
ByLayer
370
13
48
1
60
0
100
AcDbSpline
70
4
71
3
72
8
73
4
40
0
40
0
40
0
40
0
40
1
40
1
40
1
40
1
41
1
10
59.9722442519074
20
-4.24998672863691
30
0
41
1
10
59.973599882656
20
-4.25499453451414
30
0
41
1
10
59.9749312509392
20
-4.2600086280554
30
0
41
1
10
59.9762578641507
20
-4.26502255554919
30
0
0
SPLINE
5
1E1
100
AcDbEntity
8
1
62
256
6
ByLayer
370
13
48
1
60
0
100
AcDbSpline
70
4
71
3
72
8
73
4
40
0
40
0
40
0
40
0
40
1
40
1
40
1
40
1
41
1
10
59.9722442519074
20
-1.10001327136314
30
0
41
1
10
59.973599882656
20
-1.09500546548588
30
0
41
1
10
59.9749312509392
20
-1.08999137194465
30
0
41
1
10
59.9762578641507
20
-1.08497744445086
30
0
0
SPLINE
5
1E2
100
AcDbEntity
8
1
62
256
6
ByLayer
370
13
48
1
60
0
100
AcDbSpline
70
4
71
3
72
8
73
4
40
0
40
0
40
0
40
0
40
1
40
1
40
1
40
1
41
1
10
59.1350345308899
20
-4.14428063551372
30
0
41
1
10
59.3310472934744
20
-4.14229245414631
30
0
41
1
10
59.5269821791393
20
-4.13482726131815
30
0
41
1
10
59.7229218619212
20
-4.12872214811929
30
0
0
SPLINE
5
1E3
100
AcDbEntity
8
1
62
256
6
ByLayer
370
13
48
1
60
0
100
AcDbSpline
70
4
71
3
72
8
73
4
40
0
40
0
40
0
40
0
40
1
40
1
40
1
40
1
41
1
10
59.1350345308899
20
-1.2057193644863
30
0
41
1
10
59.3310472934744
20
-1.20770754585374
30
0
41
1
10
59.5269821791393
20
-1.2151727386819
30
0
41
1
10
59.7229218619212
20
-1.22127785188076
30
0
0
SPLINE
5
1E4
100
AcDbEntity
8
1
62
256
6
ByLayer
370
13
48
1
60
0
100
AcDbSpline
70
4
71
2
72
6
73
3
40
0
40
0
40
0
40
1
40
1
40
1
41
1
10
53.6522783035128
20
-2.3423585583831
30
0
41
1
10
53.7706757413088
20
-2.3423585583831
30
0
41
1
10
53.8890731791048
20
-2.3423585583831
30
0
0
SPLINE
5
1E5
100
AcDbEntity
8
1
62
256
6
ByLayer
370
13
48
1
60
0
100
AcDbSpline
70
4
71
2
72
6
73
3
40
0
40
0
40
0
40
1
40
1
40
1
41
1
10
53.6522783035128
20
-2.3423585583831
30
0
41
0.999533107184472
10
53.5741769618959
20
-2.31099331578957
30
0
41
1
10
53.4979577447373
20
-2.27442303660118
30
0
0
SPLINE
5
1E6
100
AcDbEntity
8
1
62
256
6
ByLayer
370
13
48
1
60
0
100
AcDbSpline
70
4
71
3
72
8
73
4
40
0
40
0
40
0
40
0
40
1
40
1
40
1
40
1
41
1
10
54.0238912710649
20
-2.54311421018142
30
0
41
1
10
54.0204763080656
20
-2.63066597089244
30
0
41
1
10
54.0204762357743
20
-2.71933399742093
30
0
41
1
10
54.0238910536757
20
-2.80688578981864
30
0
0
SPLINE
5
1E7
100
AcDbEntity
8
1
62
256
6
ByLayer
370
13
48
1
60
0
100
AcDbSpline
70
4
71
2
72
6
73
3
40
0
40
0
40
0
40
1
40
1
40
1
41
1
10
53.6522783035128
20
-3.00764144161693
30
0
41
0.999533107184472
10
53.5741769618959
20
-3.03900668421044
30
0
41
1
10
53.4979577447373
20
-3.07557696339885
30
0
0
SPLINE
5
1E8
100
AcDbEntity
8
1
62
256
6
ByLayer
370
13
48
1
60
0
100
AcDbSpline
70
4
71
2
72
6
73
3
40
0
40
0
40
0
40
1
40
1
40
1
41
0.987111961357876
10
53.3639978396635
20
-3.19304832371802
30
0
41
0.992892304591772
10
53.3827927263445
20
-3.19304832371799
30
0
41
1
10
53.3991138396654
20
-3.19304832371802
30
0
0
SPLINE
5
1E9
100
AcDbEntity
8
1
62
256
6
ByLayer
370
13
48
1
60
0
100
AcDbSpline
70
4
71
2
72
6
73
3
40
0
40
0
40
0
40
1
40
1
40
1
41
1
10
53.6522783035128
20
-3.00764144161693
30
0
41
1
10
53.7706753905944
20
-3.00764144161693
30
0
41
1
10
53.8890724776759
20
-3.00764144161693
30
0
0
SPLINE
5
1EA
100
AcDbEntity
8
1
62
256
6
ByLayer
370
13
48
1
60
0
100
AcDbSpline
70
4
71
2
72
6
73
3
40
0
40
0
40
0
40
1
40
1
40
1
41
0.987111961357876
10
53.3639978396635
20
-2.15695167628207
30
0
41
0.992892304591772
10
53.3827927263445
20
-2.15695167628203
30
0
41
1
10
53.3991138396654
20
-2.15695167628203
30
0
0
SPLINE
5
1EB
100
AcDbEntity
8
1
62
256
6
ByLayer
370
13
48
1
60
0
100
AcDbSpline
70
4
71
2
72
6
73
3
40
0
40
0
40
0
40
1
40
1
40
1
41
1
10
53.7860245871508
20
-2.80688578981864
30
0
41
0.819152044288999
10
53.7860245871509
20
-2.95392937284265
30
0
41
1
10
53.6607948109093
20
-3.00422124018365
30
0
0
SPLINE
5
1EC
100
AcDbEntity
8
1
62
256
6
ByLayer
370
13
48
1
60
0
100
AcDbSpline
70
4
71
2
72
6
73
3
40
0
40
0
40
0
40
1
40
1
40
1
41
1
10
53.7860245871508
20
-2.80688578981864
30
0
41
1
10
53.9049578204133
20
-2.80688578981864
30
0
41
1
10
54.0238910536757
20
-2.80688578981864
30
0
0
SPLINE
5
1ED
100
AcDbEntity
8
1
62
256
6
ByLayer
370
13
48
1
60
0
100
AcDbSpline
70
4
71
2
72
6
73
3
40
0
40
0
40
0
40
1
40
1
40
1
41
1
10
53.7860245871508
20
-2.54311421018142
30
0
41
1
10
53.9049579291079
20
-2.54311421018142
30
0
41
1
10
54.023891271065
20
-2.54311421018142
30
0
0
SPLINE
5
1EE
100
AcDbEntity
8
1
62
256
6
ByLayer
370
13
48
1
60
0
100
AcDbSpline
70
4
71
2
72
6
73
3
40
0
40
0
40
0
40
1
40
1
40
1
41
1
10
53.7860245871508
20
-2.54311421018142
30
0
41
0.819152044288999
10
53.7860245871509
20
-2.3960706271574
30
0
41
1
10
53.6607948109093
20
-2.3457787598164
30
0
0
SPLINE
5
1EF
100
AcDbEntity
8
1
62
256
6
ByLayer
370
13
48
1
60
0
100
AcDbSpline
70
4
71
2
72
6
73
3
40
0
40
0
40
0
40
1
40
1
40
1
41
1
10
53.6607948109093
20
-2.3457787598164
30
0
41
1
10
53.656536557211
20
-2.34406865909975
30
0
41
1
10
53.6522783035128
20
-2.3423585583831
30
0
0
SPLINE
5
1F0
100
AcDbEntity
8
1
62
256
6
ByLayer
370
13
48
1
60
0
100
AcDbSpline
70
4
71
2
72
6
73
3
40
0
40
0
40
0
40
1
40
1
40
1
41
1
10
53.6607948109093
20
-3.00422124018365
30
0
41
1
10
53.656536557211
20
-3.0059313409003
30
0
41
1
10
53.6522783035128
20
-3.00764144161693
30
0
0
SPLINE
5
1F1
100
AcDbEntity
8
1
62
256
6
ByLayer
370
13
48
1
60
0
100
AcDbSpline
70
4
71
3
72
10
73
6
40
0
40
0
40
0
40
0
40
0.0277062621811719
40
0.0277062621811719
40
1
40
1
40
1
40
1
41
1
10
56.9737540913006
20
-1.39687242208348
30
0
41
1
10
56.982957552434
20
-1.39535053682059
30
0
41
1
10
56.9921671033025
20
-1.39386501113793
30
0
41
1
10
57.3247369993412
20
-1.3415996969338
30
0
41
1
10
57.6493640632669
20
-1.29917836461811
30
0
41
1
10
57.9737540913006
20
-1.25545587935022
30
0
0
SPLINE
5
1F2
100
AcDbEntity
8
1
62
256
6
ByLayer
370
13
48
1
60
0
100
AcDbSpline
70
4
71
3
72
10
73
6
40
0
40
0
40
0
40
0
40
0.0277062621811719
40
0.0277062621811719
40
1
40
1
40
1
40
1
41
1
10
56.9737540913006
20
-3.95312757791657
30
0
41
1
10
56.982957552434
20
-3.95464946317946
30
0
41
1
10
56.9921671033025
20
-3.95613498886209
30
0
41
1
10
57.3247369993412
20
-4.00840030306625
30
0
41
1
10
57.6493640632669
20
-4.05082163538191
30
0
41
1
10
57.9737540913006
20
-4.09454412064983
30
0
0
SPLINE
5
1F3
100
AcDbEntity
8
1
62
256
6
ByLayer
370
13
48
1
60
0
100
AcDbSpline
70
4
71
2
72
6
73
3
40
0
40
0
40
0
40
1
40
1
40
1
41
1
10
53.7860245871508
20
-2.67500000000001
30
0
41
1
10
53.7860245871508
20
-2.60905710509073
30
0
41
1
10
53.7860245871508
20
-2.54311421018142
30
0
0
SPLINE
5
1F4
100
AcDbEntity
8
1
62
256
6
ByLayer
370
13
48
1
60
0
100
AcDbSpline
70
4
71
3
72
10
73
6
40
0
40
0
40
0
40
0
40
0.931419946954144
40
0.931419946954144
40
1
40
1
40
1
40
1
41
1
10
58.5195
20
-4.15242791239768
30
0
41
1
10
58.7152925310123
20
-4.15207225684838
30
0
41
1
10
58.9085438810412
20
-4.1464522037401
30
0
41
1
10
59.1077128398514
20
-4.14453390452079
30
0
41
1
10
59.1213934636666
20
-4.14440560855437
30
0
41
1
10
59.1350345308899
20
-4.14428063551372
30
0
0
SPLINE
5
1F5
100
AcDbEntity
8
1
62
256
6
ByLayer
370
13
48
1
60
0
100
AcDbSpline
70
4
71
3
72
10
73
6
40
0
40
0
40
0
40
0
40
0.903960670209891
40
0.903960670209891
40
1
40
1
40
1
40
1
41
1
10
56.2235765839736
20
-3.84542460054726
30
0
41
1
10
56.4442936078568
20
-3.87729927438247
30
0
41
1
10
56.6730936844327
20
-3.90862795905514
30
0
41
1
10
56.9250664073008
20
-3.94589181179958
30
0
41
1
10
56.9494118712316
20
-3.9495048691436
30
0
41
1
10
56.9737540913005
20
-3.95312757791657
30
0
0
SPLINE
5
1F6
100
AcDbEntity
8
1
62
256
6
ByLayer
370
13
48
1
60
0
100
AcDbSpline
70
4
71
2
72
6
73
3
40
0
40
0
40
0
40
1
40
1
40
1
41
1
10
53.7860245871508
20
-2.67500000000001
30
0
41
1
10
53.7860245871508
20
-2.74094289490932
30
0
41
1
10
53.7860245871508
20
-2.80688578981864
30
0
0
SPLINE
5
1F7
100
AcDbEntity
8
1
62
256
6
ByLayer
370
13
48
1
60
0
100
AcDbSpline
70
4
71
3
72
10
73
6
40
0
40
0
40
0
40
0
40
0.903960670209891
40
0.903960670209891
40
1
40
1
40
1
40
1
41
1
10
56.2235765839736
20
-1.50457539945279
30
0
41
1
10
56.4442936078568
20
-1.47270072561756
30
0
41
1
10
56.6730936844327
20
-1.44137204094491
30
0
41
1
10
56.9250664073008
20
-1.40410818820044
30
0
41
1
10
56.9494118712316
20
-1.40049513085646
30
0
41
1
10
56.9737540913005
20
-1.39687242208348
30
0
0
SPLINE
5
1F8
100
AcDbEntity
8
1
62
256
6
ByLayer
370
13
48
1
60
0
100
AcDbSpline
70
4
71
3
72
10
73
6
40
0
40
0
40
0
40
0
40
0.931419946954144
40
0.931419946954144
40
1
40
1
40
1
40
1
41
1
10
58.5195
20
-1.19757208760237
30
0
41
1
10
58.7152925310123
20
-1.19792774315167
30
0
41
1
10
58.9085438810412
20
-1.20354779625993
30
0
41
1
10
59.1077128398514
20
-1.20546609547924
30
0
41
1
10
59.1213934636666
20
-1.20559439144569
30
0
41
1
10
59.1350345308899
20
-1.20571936448633
30
0
0
SPLINE
5
1F9
100
AcDbEntity
8
1
62
256
6
ByLayer
370
13
48
1
60
0
100
AcDbSpline
70
4
71
3
72
14
73
10
40
0
40
0
40
0
40
0
40
0.0002001723396691
40
0.0002001723396691
40
0.544817124375757
40
0.544817124375757
40
0.999799827660401
40
0.999799827660401
40
1
40
1
40
1
40
1
41
1
10
58.2235765839736
20
-1.22194528865103
30
0
41
1
10
58.2235963346731
20
-1.22194257581023
30
0
41
1
10
58.2236160854019
20
-1.22193986314949
30
0
41
1
10
58.277364212869
20
-1.2145574926333
30
0
41
1
10
58.331027796825
20
-1.20689037336044
30
0
41
1
10
58.429715913931
20
-1.19918446111654
30
0
41
1
10
58.474691741791
20
-1.19749226858713
30
0
41
1
10
58.5194606247576
20
-1.19757201651529
30
0
41
1
10
58.5194803124042
20
-1.19757205194043
30
0
41
1
10
58.5195
20
-1.19757208760237
30
0
0
SPLINE
5
1FA
100
AcDbEntity
8
1
62
256
6
ByLayer
370
13
48
1
60
0
100
AcDbSpline
70
4
71
3
72
14
73
10
40
0
40
0
40
0
40
0
40
0.0002001723396691
40
0.0002001723396691
40
0.544817124375757
40
0.544817124375757
40
0.999799827660401
40
0.999799827660401
40
1
40
1
40
1
40
1
41
1
10
58.2235765839736
20
-4.12805471134902
30
0
41
1
10
58.2235963346941
20
-4.12805742410981
30
0
41
1
10
58.2236160854019
20
-4.12806013685056
30
0
41
1
10
58.277364212869
20
-4.13544250736675
30
0
41
1
10
58.331027796825
20
-4.14310962663958
30
0
41
1
10
58.429715913931
20
-4.15081553888348
30
0
41
1
10
58.474691741791
20
-4.15250773141292
30
0
41
1
10
58.5194606247576
20
-4.15242798348476
30
0
41
1
10
58.5194803123958
20
-4.15242794778339
30
0
41
1
10
58.5195
20
-4.15242791239766
30
0
0
SPLINE
5
1FB
100
AcDbEntity
8
1
62
256
6
ByLayer
370
13
48
1
60
0
100
AcDbSpline
70
4
71
3
72
12
73
8
40
0
40
0
40
0
40
0
40
0.540730446954289
40
0.540730446954289
40
0.953322112631191
40
0.953322112631191
40
1
40
1
40
1
40
1
41
1
10
57.9737540913006
20
-4.09454412064983
30
0
41
1
10
58.0188962912315
20
-4.10003973694049
30
0
41
1
10
58.063947436825
20
-4.10634372316574
30
0
41
1
10
58.1433231581353
20
-4.11711430230147
30
0
41
1
10
58.1776596889687
20
-4.12176542651909
30
0
41
1
10
58.2158206583502
20
-4.12699039468066
30
0
41
1
10
58.2196989730812
20
-4.12752216178973
30
0
41
1
10
58.2235765839736
20
-4.12805471134902
30
0
0
SPLINE
5
1FC
100
AcDbEntity
8
1
62
256
6
ByLayer
370
13
48
1
60
0
100
AcDbSpline
70
4
71
3
72
8
73
4
40
0
40
0
40
0
40
0
40
1
40
1
40
1
40
1
41
1
10
58.2235765839736
20
-2.67500000000001
30
0
41
1
10
58.3222177226491
20
-2.67500000000001
30
0
41
1
10
58.4208588613245
20
-2.67500000000001
30
0
41
1
10
58.5195
20
-2.67500000000001
30
0
0
SPLINE
5
1FD
100
AcDbEntity
8
1
62
256
6
ByLayer
370
13
48
1
60
0
100
AcDbSpline
70
4
71
3
72
12
73
8
40
0
40
0
40
0
40
0
40
0.540730446954289
40
0.540730446954289
40
0.953322112631191
40
0.953322112631191
40
1
40
1
40
1
40
1
41
1
10
57.9737540913006
20
-1.25545587935022
30
0
41
1
10
58.0188962912315
20
-1.24996026305954
30
0
41
1
10
58.063947436825
20
-1.24365627683429
30
0
41
1
10
58.1433231581353
20
-1.23288569769858
30
0
41
1
10
58.1776596889687
20
-1.22823457348096
30
0
41
1
10
58.2158206583502
20
-1.22300960531939
30
0
41
1
10
58.2196989730812
20
-1.22247783821032
30
0
41
1
10
58.2235765839736
20
-1.22194528865103
30
0
0
SPLINE
5
1FE
100
AcDbEntity
8
1
62
256
6
ByLayer
370
13
48
1
60
0
100
AcDbSpline
70
4
71
2
72
6
73
3
40
0
40
0
40
0
40
1
40
1
40
1
41
0.980559232002924
10
53.4327967447418
20
-3.07557696339886
30
0
41
0.988560457804447
10
53.4688930530018
20
-3.07557696339885
30
0
41
1
10
53.4979577447373
20
-3.07557696339885
30
0
0
SPLINE
5
1FF
100
AcDbEntity
8
1
62
256
6
ByLayer
370
13
48
1
60
0
100
AcDbSpline
70
4
71
2
72
6
73
3
40
0
40
0
40
0
40
1
40
1
40
1
41
0.981129398986628
10
53.5806653035148
20
-3.00764144161694
30
0
41
0.988964974991371
10
53.6202161407842
20
-3.00764144161694
30
0
41
1
10
53.6522783035128
20
-3.00764144161693
30
0
0
SPLINE
5
200
100
AcDbEntity
8
1
62
256
6
ByLayer
370
13
48
1
60
0
100
AcDbSpline
70
4
71
2
72
6
73
3
40
0
40
0
40
0
40
1
40
1
40
1
41
0.981171512289559
10
53.5888998109255
20
-2.34577875981639
30
0
41
0.988994613314219
10
53.6285975512078
20
-2.34577875981637
30
0
41
1
10
53.6607948109093
20
-2.3457787598164
30
0
0
SPLINE
5
201
100
AcDbEntity
8
1
62
256
6
ByLayer
370
13
48
1
60
0
100
AcDbSpline
70
4
71
2
72
6
73
3
40
0
40
0
40
0
40
1
40
1
40
1
41
0.980539451562048
10
53.4327067447501
20
-2.2744230366012
30
0
41
0.988546313764353
10
53.4688567005645
20
-2.27442303660119
30
0
41
1
10
53.4979577447373
20
-2.27442303660118
30
0
0
SPLINE
5
202
100
AcDbEntity
8
1
62
256
6
ByLayer
370
13
48
1
60
0
100
AcDbSpline
70
4
71
2
72
6
73
3
40
0
40
0
40
0
40
1
40
1
40
1
41
0.981129398986628
10
53.5806653035148
20
-2.3423585583831
30
0
41
0.988964974991371
10
53.6202161407842
20
-2.3423585583831
30
0
41
1
10
53.6522783035128
20
-2.3423585583831
30
0
0
SPLINE
5
203
100
AcDbEntity
8
1
62
256
6
ByLayer
370
13
48
1
60
0
100
AcDbSpline
70
4
71
2
72
6
73
3
40
0
40
0
40
0
40
1
40
1
40
1
41
0.981783356868116
10
53.7102415871484
20
-2.54311421018139
30
0
41
0.989421609298606
10
53.751951150079
20
-2.5431142101814
30
0
41
1
10
53.7860245871508
20
-2.54311421018142
30
0
0
SPLINE
5
204
100
AcDbEntity
8
1
62
256
6
ByLayer
370
18
48
1
60
0
100
AcDbSpline
70
4
71
3
72
8
73
4
40
0
40
0
40
0
40
0
40
1
40
1
40
1
40
1
41
1
10
58.8014946002937
20
0.292912277220921
30
0
41
1
10
58.5842191907709
20
0.272883420471686
30
0
41
1
10
58.3597522052211
20
0.254688504168342
30
0
41
1
10
58.1364283337292
20
0.239019361849387
30
0
0
SPLINE
5
205
100
AcDbEntity
8
1
62
256
6
ByLayer
370
18
48
1
60
0
100
AcDbSpline
70
4
71
3
72
16
73
12
40
0
40
0
40
0
40
0
40
0.210113811526245
40
0.210113811526245
40
0.420118783208566
40
0.420118783208566
40
0.631580723999394
40
0.631580723999394
40
0.841940850168462
40
0.841940850168462
40
1
40
1
40
1
40
1
41
1
10
60.0042883949487
20
-0.0713289060304021
30
0
41
1
10
60.0044811057617
20
-0.0254111395829568
30
0
41
1
10
59.9967828860954
20
0.0211185955737392
30
0
41
1
10
59.9671175295509
20
0.107679498703419
30
0
41
1
10
59.9447524466944
20
0.148913165669995
30
0
41
1
10
59.888445222228
20
0.22080842500273
30
0
41
1
10
59.8536337555001
20
0.252398104796441
30
0
41
1
10
59.7767933730099
20
0.301052057387466
30
0
41
1
10
59.7337115713392
20
0.318868240681098
30
0
41
1
10
59.6560754222231
20
0.335876863126998
30
0
41
1
10
59.6213698383446
20
0.338741732162276
30
0
41
1
10
59.5871670660913
20
0.336926046118379
30
0
0
SPLINE
5
206
100
AcDbEntity
8
1
62
256
6
ByLayer
370
18
48
1
60
0
100
AcDbSpline
70
4
71
3
72
16
73
12
40
0
40
0
40
0
40
0
40
0.203997306331301
40
0.203997306331301
40
0.407770646706819
40
0.407770646706819
40
0.614879615558065
40
0.614879615558065
40
0.825469896972415
40
0.825469896972415
40
1
40
1
40
1
40
1
41
1
10
59.5871670660913
20
-5.68692604611843
30
0
41
1
10
59.6310543430127
20
-5.68925584311904
30
0
41
1
10
59.6758963449
20
-5.6838012295907
30
0
41
1
10
59.7599887275445
20
-5.65856058153642
30
0
41
1
10
59.800396894831
20
-5.63845845943726
30
0
41
1
10
59.8721906259509
20
-5.58634633947941
30
0
41
1
10
59.9044027145378
20
-5.5534438296086
30
0
41
1
10
59.9562418734156
20
-5.47914450246148
30
0
41
1
10
59.9763687602264
20
-5.43658592197187
30
0
41
1
10
59.9991626476429
20
-5.35563706564392
30
0
41
1
10
60.0044491523363
20
-5.31697522471862
30
0
41
1
10
60.0042883949487
20
-5.27867109396962
30
0
0
SPLINE
5
207
100
AcDbEntity
8
1
62
256
6
ByLayer
370
18
48
1
60
0
100
AcDbSpline
70
4
71
3
72
8
73
4
40
0
40
0
40
0
40
0
40
1
40
1
40
1
40
1
41
1
10
60.000275779525
20
-1.02707678372374
30
0
41
1
10
60.0002814186846
20
-1.02569785003067
30
0
41
1
10
60.0002875522354
20
-1.02431904647628
30
0
41
1
10
60.0002941807427
20
-1.02294040912662
30
0
0
SPLINE
5
208
100
AcDbEntity
8
1
62
256
6
ByLayer
370
18
48
1
60
0
100
AcDbSpline
70
4
71
3
72
8
73
4
40
0
40
0
40
0
40
0
40
1
40
1
40
1
40
1
41
1
10
56.0716378217011
20
0.146266974068112
30
0
41
1
10
56.0430480905264
20
0.146004353410063
30
0
41
1
10
56.0145834853097
20
0.142788765908449
30
0
41
1
10
55.9868975798566
20
0.13664553192342
30
0
0
SPLINE
5
209
100
AcDbEntity
8
1
62
256
6
ByLayer
370
18
48
1
60
0
100
AcDbSpline
70
4
71
3
72
8
73
4
40
0
40
0
40
0
40
0
40
1
40
1
40
1
40
1
41
1
10
60.0002941807468
20
-4.32705959087392
30
0
41
1
10
60.0002875522404
20
-4.32568095352454
30
0
41
1
10
60.0002814186851
20
-4.32430214997106
30
0
41
1
10
60.0002757795255
20
-4.32292321627858
30
0
0
SPLINE
5
20A
100
AcDbEntity
8
1
62
256
6
ByLayer
370
18
48
1
60
0
100
AcDbSpline
70
4
71
3
72
10
73
6
40
0
40
0
40
0
40
0
40
0.858584777727605
40
0.858584777727605
40
1
40
1
40
1
40
1
41
1
10
55.9868975798573
20
-5.48664553193856
30
0
41
1
10
55.9625920283412
20
-5.48125236571747
30
0
41
1
10
55.9359654859782
20
-5.47219680804255
30
0
41
1
10
55.9061021283406
20
-5.45740673763456
30
0
41
1
10
55.9018325632762
20
-5.45518238049766
30
0
41
1
10
55.8975914368446
20
-5.45286005866274
30
0
0
SPLINE
5
20B
100
AcDbEntity
8
1
62
256
6
ByLayer
370
18
48
1
60
0
100
AcDbSpline
70
4
71
3
72
8
73
4
40
0
40
0
40
0
40
0
40
1
40
1
40
1
40
1
41
1
10
58.1364283337292
20
-5.58901936184949
30
0
41
1
10
58.359752205221
20
-5.60468850416845
30
0
41
1
10
58.5842191907708
20
-5.62288342047171
30
0
41
1
10
58.8014946002937
20
-5.64291227722094
30
0
0
SPLINE
5
20C
100
AcDbEntity
8
1
62
256
6
ByLayer
370
18
48
1
60
0
100
AcDbSpline
70
4
71
3
72
14
73
10
40
0
40
0
40
0
40
0
40
0.293378665300578
40
0.293378665300578
40
0.586642161239459
40
0.586642161239459
40
0.825678920142814
40
0.825678920142814
40
1
40
1
40
1
40
1
41
1
10
57.9364283337291
20
0.224986699586992
30
0
41
1
10
57.7447161209203
20
0.211535535917307
30
0
41
1
10
57.552201562555
20
0.199564260215112
30
0
41
1
10
57.17353071936
20
0.179088273425805
30
0
41
1
10
56.9860785946322
20
0.170512376538511
30
0
41
1
10
56.6560337849083
20
0.158281935138063
30
0
41
1
10
56.5107699212903
20
0.153981514038122
30
0
41
1
10
56.2682871535137
20
0.148716311972549
30
0
41
1
10
56.1684041313844
20
0.147155853777122
30
0
41
1
10
56.0716378217012
20
0.146266974068169
30
0
0
SPLINE
5
20D
100
AcDbEntity
8
1
62
256
6
ByLayer
370
18
48
1
60
0
100
AcDbSpline
70
4
71
3
72
8
73
4
40
0
40
0
40
0
40
0
40
1
40
1
40
1
40
1
41
1
10
55.9868975798566
20
-5.48664553192347
30
0
41
1
10
56.0145834853097
20
-5.4927887659085
30
0
41
1
10
56.0430480905265
20
-5.49600435341017
30
0
41
1
10
56.0716378217012
20
-5.49626697406819
30
0
0
SPLINE
5
20E
100
AcDbEntity
8
1
62
256
6
ByLayer
370
18
48
1
60
0
100
AcDbSpline
70
4
71
3
72
8
73
4
40
0
40
0
40
0
40
0
40
1
40
1
40
1
40
1
41
1
10
55.8152478209054
20
0.0565215285371607
30
0
41
1
10
55.8427018986566
20
0.0723721477171466
30
0
41
1
10
55.8705227095992
20
0.0880379831267817
30
0
41
1
10
55.8975914368446
20
0.102860058662685
30
0
0
SPLINE
5
20F
100
AcDbEntity
8
1
62
256
6
ByLayer
370
18
48
1
60
0
100
AcDbSpline
70
4
71
2
72
6
73
3
40
0
40
0
40
0
40
1
40
1
40
1
41
1
10
53.0376938966108
20
0.0249999999999773
30
0
41
1
10
53.0729846280613
20
0.0249999999999773
30
0
41
1
10
53.1503724427435
20
0.0249999999999773
30
0
0
SPLINE
5
210
100
AcDbEntity
8
1
62
256
6
ByLayer
370
18
48
1
60
0
100
AcDbSpline
70
4
71
3
72
10
73
6
40
0
40
0
40
0
40
0
40
0.557511536136653
40
0.557511536136653
40
1
40
1
40
1
40
1
41
1
10
55.8975914368447
20
-5.45286005866282
30
0
41
1
10
55.8825230005822
20
-5.4446090057609
30
0
41
1
10
55.867243242515
20
-5.43610904698531
30
0
41
1
10
55.8397304309047
20
-5.42057859306266
30
0
41
1
10
55.8274642960357
20
-5.41357471374224
30
0
41
1
10
55.8152478209054
20
-5.40652152853718
30
0
0
SPLINE
5
211
100
AcDbEntity
8
1
62
256
6
ByLayer
370
18
48
1
60
0
100
AcDbSpline
70
4
71
3
72
8
73
4
40
0
40
0
40
0
40
0
40
1
40
1
40
1
40
1
41
1
10
60.0003004601807
20
-1.02154573295258
30
0
41
1
10
60.0002985088423
20
-1.02201068405026
30
0
41
1
10
60.0002964155792
20
-1.02247559650218
30
0
41
1
10
60.0002941804908
20
-1.0229404615811
30
0
0
SPLINE
5
212
100
AcDbEntity
8
1
62
256
6
ByLayer
370
18
48
1
60
0
100
AcDbSpline
70
4
71
3
72
10
73
6
40
0
40
0
40
0
40
0
40
0.858760852437928
40
0.858760852437928
40
1
40
1
40
1
40
1
41
1
10
55.8975914368446
20
0.102860058662685
30
0
41
1
10
55.9229199764033
20
0.116729256248135
30
0
41
1
10
55.949684435411
20
0.127107276360533
30
0
41
1
10
55.978710044546
20
0.134746194384235
30
0
41
1
10
55.9828306919772
20
0.135743128934479
30
0
41
1
10
55.9868975798598
20
0.136645531924131
30
0
0
SPLINE
5
213
100
AcDbEntity
8
1
62
256
6
ByLayer
370
18
48
1
60
0
100
AcDbSpline
70
4
71
3
72
12
73
8
40
0
40
0
40
0
40
0
40
0.223236979427623
40
0.223236979427623
40
0.515421340440797
40
0.515421340440797
40
1
40
1
40
1
40
1
41
1
10
56.0716378217012
20
-5.49626697406819
30
0
41
1
10
56.195705883471
20
-5.49740664326711
30
0
41
1
10
56.3249600298712
20
-5.49965258889659
30
0
41
1
10
56.6317292652914
20
-5.5073287320669
30
0
41
1
10
56.8129003102597
20
-5.51355946728594
30
0
41
1
10
57.3021442687769
20
-5.53469317266078
30
0
41
1
10
57.6209419682616
20
-5.55285113151135
30
0
41
1
10
57.9364283337283
20
-5.57498669958639
30
0
0
SPLINE
5
214
100
AcDbEntity
8
1
62
256
6
ByLayer
370
18
48
1
60
0
100
AcDbSpline
70
4
71
3
72
8
73
4
40
0
40
0
40
0
40
0
40
1
40
1
40
1
40
1
41
1
10
60.0002941804908
20
-4.32705953840983
30
0
41
1
10
60.0002964155792
20
-4.32752440349176
30
0
41
1
10
60.0002985088422
20
-4.3279893159467
30
0
41
1
10
60.0003004601806
20
-4.32845426704739
30
0
0
SPLINE
5
215
100
AcDbEntity
8
1
62
256
6
ByLayer
370
18
48
1
60
0
100
AcDbSpline
70
4
71
2
72
6
73
3
40
0
40
0
40
0
40
1
40
1
40
1
41
1
10
53.1503724427435
20
-5.37500000000003
30
0
41
1
10
53.0729846280613
20
-5.37500000000003
30
0
41
1
10
53.0376938966108
20
-5.37500000000003
30
0
0
LINE
5
70
100
AcDbEntity
8
80
62
256
6
ByLayer
370
18
48
1
60
0
100
AcDbLine
10
0
20
0
30
0
11
-5
21
0
31
0
39
0
210
0
220
0
230
1
0
LINE
5
71
100
AcDbEntity
8
81
62
256
6
ByLayer
370
18
48
1
60
0
100
AcDbLine
10
60
20
-6
30
0
11
65
21
-6
31
0
39
0
210
0
220
0
230
1
0
LINE
5
72
100
AcDbEntity
8
1
62
256
6
ByLayer
370
13
48
1
60
0
100
AcDbLine
10
34.4
20
-5.35
30
0
11
34.4
21
0
31
0
39
0
210
0
220
0
230
1
0
LINE
5
74
100
AcDbEntity
8
1
62
256
6
ByLayer
370
13
48
1
60
0
100
AcDbLine
10
43.389175
20
0
30
0
11
43.389175
21
-5.35
31
0
39
0
210
0
220
0
230
1
0
LINE
5
75
100
AcDbEntity
8
1
62
256
6
ByLayer
370
13
48
1
60
0
100
AcDbLine
10
48.389175
20
-5.35
30
0
11
48.389175
21
0
31
0
39
0
210
0
220
0
230
1
0
LINE
5
76
100
AcDbEntity
8
1
62
256
6
ByLayer
370
18
48
1
60
0
100
AcDbLine
10
43.389175
20
0
30
0
11
48.389175
21
0
31
0
39
0
210
0
220
0
230
1
0
LINE
5
77
100
AcDbEntity
8
1
62
256
6
ByLayer
370
18
48
1
60
0
100
AcDbLine
10
29.48124
20
0
30
0
11
0
21
0
31
0
39
0
210
0
220
0
230
1
0
LINE
5
78
100
AcDbEntity
8
1
62
256
6
ByLayer
370
18
48
1
60
0
100
AcDbLine
10
53.2895
20
-3.499704
30
0
11
52.727778
21
-5.35
31
0
39
0
210
0
220
0
230
1
0
LINE
5
79
100
AcDbEntity
8
1
62
256
6
ByLayer
370
18
48
1
60
0
100
AcDbLine
10
52.727778
20
0
30
0
11
53.2895
21
-1.850296
31
0
39
0
210
0
220
0
230
1
0
LINE
5
7A
100
AcDbEntity
8
1
62
256
6
ByLayer
370
18
48
1
60
0
100
AcDbLine
10
48.389175
20
0
30
0
11
52.727778
21
0
31
0
39
0
210
0
220
0
230
1
0
LINE
5
7B
100
AcDbEntity
8
1
62
256
6
ByLayer
370
18
48
1
60
0
100
AcDbLine
10
43.389175
20
-5.35
30
0
11
34.4
21
-5.35
31
0
39
0
210
0
220
0
230
1
0
LINE
5
7C
100
AcDbEntity
8
1
62
256
6
ByLayer
370
18
48
1
60
0
100
AcDbLine
10
29.48124
20
-5.35
30
0
11
0
21
-5.35
31
0
39
0
210
0
220
0
230
1
0
LINE
5
7D
100
AcDbEntity
8
1
62
256
6
ByLayer
370
18
48
1
60
0
100
AcDbLine
10
34.4
20
-5.35
30
0
11
29.48124
21
-5.35
31
0
39
0
210
0
220
0
230
1
0
LINE
5
7E
100
AcDbEntity
8
1
62
256
6
ByLayer
370
18
48
1
60
0
100
AcDbLine
10
52.727778
20
-5.35
30
0
11
48.389175
21
-5.35
31
0
39
0
210
0
220
0
230
1
0
LINE
5
7F
100
AcDbEntity
8
1
62
256
6
ByLayer
370
18
48
1
60
0
100
AcDbLine
10
29.48124
20
0
30
0
11
34.4
21
0
31
0
39
0
210
0
220
0
230
1
0
LINE
5
80
100
AcDbEntity
8
1
62
256
6
ByLayer
370
18
48
1
60
0
100
AcDbLine
10
0
20
0
30
0
11
0
21
-2.675
31
0
39
0
210
0
220
0
230
1
0
LINE
5
81
100
AcDbEntity
8
1
62
256
6
ByLayer
370
18
48
1
60
0
100
AcDbLine
10
48.389175
20
-5.35
30
0
11
43.389175
21
-5.35
31
0
39
0
210
0
220
0
230
1
0
LINE
5
82
100
AcDbEntity
8
1
62
256
6
ByLayer
370
18
48
1
60
0
100
AcDbLine
10
34.4
20
0
30
0
11
43.389175
21
0
31
0
39
0
210
0
220
0
230
1
0
LINE
5
83
100
AcDbEntity
8
1
62
256
6
ByLayer
370
18
48
1
60
0
100
AcDbLine
10
28.002278
20
-2.675
30
0
11
0
21
-2.675
31
0
39
0
210
0
220
0
230
1
0
LINE
5
84
100
AcDbEntity
8
1
62
256
6
ByLayer
370
18
48
1
60
0
100
AcDbLine
10
0
20
-2.675
30
0
11
0
21
-5.35
31
0
39
0
210
0
220
0
230
1
0
LINE
5
85
100
AcDbEntity
8
SK1
62
256
6
ByLayer
370
18
48
1
60
0
100
AcDbLine
10
-22.354787
20
-2.675
30
0
11
-90
21
-2.675
31
0
39
0
210
0
220
0
230
1
0
LINE
5
87
100
AcDbEntity
8
SK1
62
256
6
ByLayer
370
18
48
1
60
0
100
AcDbLine
10
-90
20
-5.35
30
0
11
-90
21
-2.675
31
0
39
0
210
0
220
0
230
1
0
LINE
5
88
100
AcDbEntity
8
SK1
62
256
6
ByLayer
370
18
48
1
60
0
100
AcDbLine
10
0
20
-2.675
30
0
11
0
21
-5.35
31
0
39
0
210
0
220
0
230
1
0
LINE
5
89
100
AcDbEntity
8
SK1
62
256
6
ByLayer
370
18
48
1
60
0
100
AcDbLine
10
0
20
-2.675
30
0
11
-18.3443
21
-2.675
31
0
39
0
210
0
220
0
230
1
0
LINE
5
8A
100
AcDbEntity
8
SK1
62
256
6
ByLayer
370
18
48
1
60
0
100
AcDbLine
10
0
20
-5.35
30
0
11
-90
21
-5.35
31
0
39
0
210
0
220
0
230
1
0
LINE
5
8B
100
AcDbEntity
8
SK1
62
256
6
ByLayer
370
18
48
1
60
0
100
AcDbLine
10
0
20
0
30
0
11
0
21
-2.675
31
0
39
0
210
0
220
0
230
1
0
LINE
5
8C
100
AcDbEntity
8
SK1
62
256
6
ByLayer
370
18
48
1
60
0
100
AcDbLine
10
-90
20
-2.675
30
0
11
-90
21
0
31
0
39
0
210
0
220
0
230
1
0
LINE
5
8D
100
AcDbEntity
8
SK1
62
256
6
ByLayer
370
18
48
1
60
0
100
AcDbLine
10
0
20
0
30
0
11
-90
21
0
31
0
39
0
210
0
220
0
230
1
0
LINE
5
8E
100
AcDbEntity
8
1
62
256
6
ByLayer
370
13
48
1
60
0
100
AcDbLine
10
48.561716
20
0
30
0
11
48.561716
21
0.025
31
0
39
0
210
0
220
0
230
1
0
LINE
5
8F
100
AcDbEntity
8
1
62
256
6
ByLayer
370
13
48
1
60
0
100
AcDbLine
10
48.561716
20
-5.375
30
0
11
48.561716
21
-5.35
31
0
39
0
210
0
220
0
230
1
0
LINE
5
90
100
AcDbEntity
8
1
62
256
6
ByLayer
370
13
48
1
60
0
100
AcDbLine
10
48.488698
20
-5.349999
30
0
11
48.488698
21
-5.375
31
0
39
0
210
0
220
0
230
1
0
LINE
5
91
100
AcDbEntity
8
1
62
256
6
ByLayer
370
13
48
1
60
0
100
AcDbLine
10
53.946601
20
-5.375
30
0
11
53.946601
21
-4.049722
31
0
39
0
210
0
220
0
230
1
0
LINE
5
92
100
AcDbEntity
8
1
62
256
6
ByLayer
370
13
48
1
60
0
100
AcDbLine
10
53.946601
20
-1.300282
30
0
11
53.946601
21
0.025
31
0
39
0
210
0
220
0
230
1
0
LINE
5
93
100
AcDbEntity
8
1
62
256
6
ByLayer
370
13
48
1
60
0
100
AcDbLine
10
55.789628
20
-0.441445
30
0
11
55.893329
21
-0.661527
31
0
39
0
210
0
220
0
230
1
0
LINE
5
94
100
AcDbEntity
8
1
62
256
6
ByLayer
370
13
48
1
60
0
100
AcDbLine
10
55.789628
20
-4.908555
30
0
11
55.893329
21
-4.688473
31
0
39
0
210
0
220
0
230
1
0
LINE
5
95
100
AcDbEntity
8
1
62
256
6
ByLayer
370
13
48
1
60
0
100
AcDbLine
10
57.936428
20
-0.405194
30
0
11
57.936428
21
0.224987
31
0
39
0
210
0
220
0
230
1
0
LINE
5
96
100
AcDbEntity
8
1
62
256
6
ByLayer
370
13
48
1
60
0
100
AcDbLine
10
57.936428
20
-4.944806
30
0
11
57.936428
21
-5.574987
31
0
39
0
210
0
220
0
230
1
0
LINE
5
97
100
AcDbEntity
8
1
62
256
6
ByLayer
370
13
48
1
60
0
100
AcDbLine
10
53.946601
20
-4.049722
30
0
11
53.942054
21
-3.87594
31
0
39
0
210
0
220
0
230
1
0
LINE
5
98
100
AcDbEntity
8
1
62
256
6
ByLayer
370
13
48
1
60
0
100
AcDbLine
10
54.541174
20
-4.026802
30
0
11
54.531942
21
-3.845107
31
0
39
0
210
0
220
0
230
1
0
LINE
5
99
100
AcDbEntity
8
1
62
256
6
ByLayer
370
13
48
1
60
0
100
AcDbLine
10
53.942053
20
-1.474064
30
0
11
53.946601
21
-1.300282
31
0
39
0
210
0
220
0
230
1
0
LINE
5
9A
100
AcDbEntity
8
1
62
256
6
ByLayer
370
13
48
1
60
0
100
AcDbLine
10
54.531936
20
-1.504899
30
0
11
54.541168
21
-1.323204
31
0
39
0
210
0
220
0
230
1
0
LINE
5
9B
100
AcDbEntity
8
1
62
256
6
ByLayer
370
13
48
1
60
0
100
AcDbLine
10
53.037703
20
-5.234154
30
0
11
53.037703
21
-5.375
31
0
39
0
210
0
220
0
230
1
0
LINE
5
9C
100
AcDbEntity
8
1
62
256
6
ByLayer
370
13
48
1
60
0
100
AcDbLine
10
53.037703
20
0.025
30
0
11
53.037703
21
-0.115846
31
0
39
0
210
0
220
0
230
1
0
LINE
5
9D
100
AcDbEntity
8
1
62
256
6
ByLayer
370
13
48
1
60
0
100
AcDbLine
10
55.789628
20
-4.908555
30
0
11
55.959047
21
-4.899915
31
0
39
0
210
0
220
0
230
1
0
LINE
5
9E
100
AcDbEntity
8
1
62
256
6
ByLayer
370
13
48
1
60
0
100
AcDbLine
10
55.789628
20
-0.441445
30
0
11
55.959047
21
-0.450085
31
0
39
0
210
0
220
0
230
1
0
LINE
5
9F
100
AcDbEntity
8
1
62
256
6
ByLayer
370
13
48
1
60
0
100
AcDbLine
10
53.946601
20
-4.049722
30
0
11
53.878197
21
-4.049722
31
0
39
0
210
0
220
0
230
1
0
LINE
5
A0
100
AcDbEntity
8
1
62
256
6
ByLayer
370
13
48
1
60
0
100
AcDbLine
10
53.878197
20
-4.049722
30
0
11
53.878197
21
-5.375
31
0
39
0
210
0
220
0
230
1
0
LINE
5
A1
100
AcDbEntity
8
1
62
256
6
ByLayer
370
13
48
1
60
0
100
AcDbLine
10
53.878197
20
-1.300282
30
0
11
53.946601
21
-1.300282
31
0
39
0
210
0
220
0
230
1
0
LINE
5
A2
100
AcDbEntity
8
1
62
256
6
ByLayer
370
13
48
1
60
0
100
AcDbLine
10
53.878197
20
0.025
30
0
11
53.878197
21
-1.300282
31
0
39
0
210
0
220
0
230
1
0
LINE
5
A3
100
AcDbEntity
8
1
62
256
6
ByLayer
370
13
48
1
60
0
100
AcDbLine
10
53.15056
20
-5.375
30
0
11
53.15056
21
-5.258917
31
0
39
0
210
0
220
0
230
1
0
LINE
5
A4
100
AcDbEntity
8
1
62
256
6
ByLayer
370
13
48
1
60
0
100
AcDbLine
10
53.15056
20
-5.258917
30
0
11
53.726163
21
-4.018613
31
0
39
0
210
0
220
0
230
1
0
LINE
5
A5
100
AcDbEntity
8
1
62
256
6
ByLayer
370
13
48
1
60
0
100
AcDbLine
10
53.726164
20
-1.331389
30
0
11
53.15056
21
-0.091083
31
0
39
0
210
0
220
0
230
1
0
LINE
5
A6
100
AcDbEntity
8
1
62
256
6
ByLayer
370
13
48
1
60
0
100
AcDbLine
10
53.15056
20
-0.091083
30
0
11
53.15056
21
0.025
31
0
39
0
210
0
220
0
230
1
0
LINE
5
A7
100
AcDbEntity
8
1
62
256
6
ByLayer
370
13
48
1
60
0
100
AcDbLine
10
53.036692
20
-0.133005
30
0
11
53.623441
21
-1.397327
31
0
39
0
210
0
220
0
230
1
0
LINE
5
A8
100
AcDbEntity
8
1
62
256
6
ByLayer
370
13
48
1
60
0
100
AcDbLine
10
53.62344
20
-3.952675
30
0
11
53.036692
21
-5.216995
31
0
39
0
210
0
220
0
230
1
0
LINE
5
A9
100
AcDbEntity
8
1
62
256
6
ByLayer
370
13
48
1
60
0
100
AcDbLine
10
53.399114
20
-2.156952
30
0
11
53.623982
21
-2.156952
31
0
39
0
210
0
220
0
230
1
0
LINE
5
AA
100
AcDbEntity
8
1
62
256
6
ByLayer
370
13
48
1
60
0
100
AcDbLine
10
53.399114
20
-3.193048
30
0
11
53.623981
21
-3.193048
31
0
39
0
210
0
220
0
230
1
0
LINE
5
AB
100
AcDbEntity
8
1
62
256
6
ByLayer
370
13
48
1
60
0
100
AcDbLine
10
58.920026
20
-0.40134
30
0
11
58.920026
21
0.30151
31
0
39
0
210
0
220
0
230
1
0
LINE
5
AC
100
AcDbEntity
8
1
62
256
6
ByLayer
370
13
48
1
60
0
100
AcDbLine
10
58.920026
20
-4.94866
30
0
11
58.920026
21
-5.65151
31
0
39
0
210
0
220
0
230
1
0
LINE
5
AD
100
AcDbEntity
8
1
62
256
6
ByLayer
370
13
48
1
60
0
100
AcDbLine
10
58.136428
20
-4.965986
30
0
11
58.136428
21
-5.589019
31
0
39
0
210
0
220
0
230
1
0
LINE
5
AE
100
AcDbEntity
8
1
62
256
6
ByLayer
370
13
48
1
60
0
100
AcDbLine
10
58.136428
20
-0.384014
30
0
11
58.136428
21
0.239019
31
0
39
0
210
0
220
0
230
1
0
LINE
5
AF
100
AcDbEntity
8
1
62
256
6
ByLayer
370
13
48
1
60
0
100
AcDbLine
10
58.801495
20
-5.642912
30
0
11
58.801495
21
-4.988124
31
0
39
0
210
0
220
0
230
1
0
LINE
5
B0
100
AcDbEntity
8
1
62
256
6
ByLayer
370
13
48
1
60
0
100
AcDbLine
10
58.801495
20
0.292912
30
0
11
58.801495
21
-0.361876
31
0
39
0
210
0
220
0
230
1
0
LINE
5
B1
100
AcDbEntity
8
1
62
256
6
ByLayer
370
13
48
1
60
0
100
AcDbLine
10
56.223577
20
-3.845425
30
0
11
56.223577
21
-2.675
31
0
39
0
210
0
220
0
230
1
0
LINE
5
B2
100
AcDbEntity
8
1
62
256
6
ByLayer
370
13
48
1
60
0
100
AcDbLine
10
55.253025
20
-3.64328
30
0
11
55.253025
21
-3.342506
31
0
39
0
210
0
220
0
230
1
0
LINE
5
B3
100
AcDbEntity
8
1
62
256
6
ByLayer
370
13
48
1
60
0
100
AcDbLine
10
55.253025
20
-1.70672
30
0
11
55.253025
21
-2.007499
31
0
39
0
210
0
220
0
230
1
0
LINE
5
B4
100
AcDbEntity
8
1
62
256
6
ByLayer
370
13
48
1
60
0
100
AcDbLine
10
56.223577
20
-1.504575
30
0
11
56.223577
21
-2.675
31
0
39
0
210
0
220
0
230
1
0
LINE
5
B5
100
AcDbEntity
8
1
62
256
6
ByLayer
370
13
48
1
60
0
100
AcDbLine
10
59.942913
20
-1.171874
30
0
11
59.942913
21
-4.178126
31
0
39
0
210
0
220
0
230
1
0
LINE
5
B6
100
AcDbEntity
8
1
62
256
6
ByLayer
370
13
48
1
60
0
100
AcDbLine
10
59.135035
20
-1.205719
30
0
11
59.135035
21
-4.144281
31
0
39
0
210
0
220
0
230
1
0
LINE
5
B7
100
AcDbEntity
8
1
62
256
6
ByLayer
370
13
48
1
60
0
100
AcDbLine
10
59.997739
20
-1.100013
30
0
11
59.972244
21
-1.100013
31
0
39
0
210
0
220
0
230
1
0
LINE
5
B8
100
AcDbEntity
8
1
62
256
6
ByLayer
370
13
48
1
60
0
100
AcDbLine
10
59.997739
20
-4.249987
30
0
11
59.997739
21
-1.100013
31
0
39
0
210
0
220
0
230
1
0
LINE
5
B9
100
AcDbEntity
8
1
62
256
6
ByLayer
370
13
48
1
60
0
100
AcDbLine
10
59.997739
20
-4.249987
30
0
11
59.972244
21
-4.249987
31
0
39
0
210
0
220
0
230
1
0
LINE
5
BA
100
AcDbEntity
8
1
62
256
6
ByLayer
370
13
48
1
60
0
100
AcDbLine
10
59.998246
20
-1.086265
30
0
11
60.000163
21
-1.054406
31
0
39
0
210
0
220
0
230
1
0
LINE
5
BB
100
AcDbEntity
8
1
62
256
6
ByLayer
370
13
48
1
60
0
100
AcDbLine
10
60.000029
20
-1.086265
30
0
11
59.998246
21
-1.086265
31
0
39
0
210
0
220
0
230
1
0
LINE
5
BC
100
AcDbEntity
8
1
62
256
6
ByLayer
370
13
48
1
60
0
100
AcDbLine
10
59.998246
20
-4.263735
30
0
11
60.000163
21
-4.295594
31
0
39
0
210
0
220
0
230
1
0
LINE
5
BD
100
AcDbEntity
8
1
62
256
6
ByLayer
370
13
48
1
60
0
100
AcDbLine
10
60.000029
20
-4.263735
30
0
11
59.998246
21
-4.263735
31
0
39
0
210
0
220
0
230
1
0
LINE
5
BE
100
AcDbEntity
8
1
62
256
6
ByLayer
370
13
48
1
60
0
100
AcDbLine
10
59.997739
20
-1.100013
30
0
11
60
21
-1.100013
31
0
39
0
210
0
220
0
230
1
0
LINE
5
BF
100
AcDbEntity
8
1
62
256
6
ByLayer
370
13
48
1
60
0
100
AcDbLine
10
59.997739
20
-4.249987
30
0
11
60
21
-4.249987
31
0
39
0
210
0
220
0
230
1
0
LINE
5
C0
100
AcDbEntity
8
1
62
256
6
ByLayer
370
13
48
1
60
0
100
AcDbLine
10
53.660795
20
-3.004221
30
0
11
53.898381
21
-3.004221
31
0
39
0
210
0
220
0
230
1
0
LINE
5
C1
100
AcDbEntity
8
1
62
256
6
ByLayer
370
13
48
1
60
0
100
AcDbLine
10
53.660795
20
-2.345779
30
0
11
53.898381
21
-2.345779
31
0
39
0
210
0
220
0
230
1
0
LINE
5
C2
100
AcDbEntity
8
1
62
256
6
ByLayer
370
13
48
1
60
0
100
AcDbLine
10
56.935756
20
-1.167083
30
0
11
56.973754
21
-1.396872
31
0
39
0
210
0
220
0
230
1
0
LINE
5
C3
100
AcDbEntity
8
1
62
256
6
ByLayer
370
13
48
1
60
0
100
AcDbLine
10
57.942862
20
-1.026258
30
0
11
57.973754
21
-1.255456
31
0
39
0
210
0
220
0
230
1
0
LINE
5
C4
100
AcDbEntity
8
1
62
256
6
ByLayer
370
13
48
1
60
0
100
AcDbLine
10
56.935756
20
-4.182917
30
0
11
56.973754
21
-3.953128
31
0
39
0
210
0
220
0
230
1
0
LINE
5
C5
100
AcDbEntity
8
1
62
256
6
ByLayer
370
13
48
1
60
0
100
AcDbLine
10
57.942862
20
-4.323742
30
0
11
57.973754
21
-4.094544
31
0
39
0
210
0
220
0
230
1
0
LINE
5
C6
100
AcDbEntity
8
1
62
256
6
ByLayer
370
13
48
1
60
0
100
AcDbLine
10
56.973754
20
-1.396872
30
0
11
56.973754
21
-3.953128
31
0
39
0
210
0
220
0
230
1
0
LINE
5
C7
100
AcDbEntity
8
1
62
256
6
ByLayer
370
13
48
1
60
0
100
AcDbLine
10
58.5195
20
-1.197572
30
0
11
58.5195
21
-2.675
31
0
39
0
210
0
220
0
230
1
0
LINE
5
C8
100
AcDbEntity
8
1
62
256
6
ByLayer
370
13
48
1
60
0
100
AcDbLine
10
57.973754
20
-1.255456
30
0
11
57.973754
21
-4.094544
31
0
39
0
210
0
220
0
230
1
0
LINE
5
C9
100
AcDbEntity
8
1
62
256
6
ByLayer
370
13
48
1
60
0
100
AcDbLine
10
58.5195
20
-4.152428
30
0
11
58.5195
21
-2.675
31
0
39
0
210
0
220
0
230
1
0
LINE
5
CA
100
AcDbEntity
8
1
62
256
6
ByLayer
370
13
48
1
60
0
100
AcDbLine
10
58.223577
20
-1.221945
30
0
11
58.223577
21
-2.675
31
0
39
0
210
0
220
0
230
1
0
LINE
5
CB
100
AcDbEntity
8
1
62
256
6
ByLayer
370
13
48
1
60
0
100
AcDbLine
10
58.223577
20
-4.128055
30
0
11
58.223577
21
-2.675
31
0
39
0
210
0
220
0
230
1
0
LINE
5
CC
100
AcDbEntity
8
1
62
256
6
ByLayer
370
13
48
1
60
0
100
AcDbLine
10
48.488698
20
0.025
30
0
11
48.488698
21
-1E-06
31
0
39
0
210
0
220
0
230
1
0
LINE
5
CD
100
AcDbEntity
8
1
62
256
6
ByLayer
370
18
48
1
60
0
100
AcDbLine
10
60
20
-4.249987
30
0
11
60
21
-1.100013
31
0
39
0
210
0
220
0
230
1
0
LINE
5
CE
100
AcDbEntity
8
1
62
256
6
ByLayer
370
18
48
1
60
0
100
AcDbLine
10
51.301097
20
-5.375
30
0
11
48.561716
21
-5.375
31
0
39
0
210
0
220
0
230
1
0
LINE
5
CF
100
AcDbEntity
8
1
62
256
6
ByLayer
370
18
48
1
60
0
100
AcDbLine
10
55.815248
20
-5.406522
30
0
11
55.808442
21
-5.402592
31
0
39
0
210
0
220
0
230
1
0
LINE
5
D0
100
AcDbEntity
8
1
62
256
6
ByLayer
370
18
48
1
60
0
100
AcDbLine
10
53.878197
20
-5.375
30
0
11
53.15056
21
-5.375
31
0
39
0
210
0
220
0
230
1
0
LINE
5
D1
100
AcDbEntity
8
1
62
256
6
ByLayer
370
18
48
1
60
0
100
AcDbLine
10
58.920026
20
-5.65151
30
0
11
59.587167
21
-5.686926
31
0
39
0
210
0
220
0
230
1
0
LINE
5
D2
100
AcDbEntity
8
1
62
256
6
ByLayer
370
18
48
1
60
0
100
AcDbLine
10
59.587167
20
0.336926
30
0
11
58.920026
21
0.30151
31
0
39
0
210
0
220
0
230
1
0
LINE
5
D3
100
AcDbEntity
8
1
62
256
6
ByLayer
370
18
48
1
60
0
100
AcDbLine
10
60.000029
20
-1.086265
30
0
11
60.000163
21
-1.054406
31
0
39
0
210
0
220
0
230
1
0
LINE
5
D4
100
AcDbEntity
8
1
62
256
6
ByLayer
370
18
48
1
60
0
100
AcDbLine
10
53.150184
20
0.025
30
0
11
53.878197
21
0.025
31
0
39
0
210
0
220
0
230
1
0
LINE
5
D5
100
AcDbEntity
8
1
62
256
6
ByLayer
370
18
48
1
60
0
100
AcDbLine
10
60.000163
20
-4.295594
30
0
11
60.000029
21
-4.263735
31
0
39
0
210
0
220
0
230
1
0
LINE
5
D6
100
AcDbEntity
8
1
62
256
6
ByLayer
370
18
48
1
60
0
100
AcDbLine
10
53.946601
20
-5.375
30
0
11
55.705211
21
-5.375
31
0
39
0
210
0
220
0
230
1
0
LINE
5
D7
100
AcDbEntity
8
1
62
256
6
ByLayer
370
18
48
1
60
0
100
AcDbLine
10
58.136428
20
0.239019
30
0
11
57.936428
21
0.224987
31
0
39
0
210
0
220
0
230
1
0
LINE
5
D8
100
AcDbEntity
8
1
62
256
6
ByLayer
370
18
48
1
60
0
100
AcDbLine
10
57.936428
20
-5.574987
30
0
11
58.136428
21
-5.589019
31
0
39
0
210
0
220
0
230
1
0
LINE
5
D9
100
AcDbEntity
8
1
62
256
6
ByLayer
370
18
48
1
60
0
100
AcDbLine
10
48.561716
20
0.025
30
0
11
48.488698
21
0.025
31
0
39
0
210
0
220
0
230
1
0
LINE
5
DA
100
AcDbEntity
8
1
62
256
6
ByLayer
370
18
48
1
60
0
100
AcDbLine
10
53.946601
20
0.025
30
0
11
53.878197
21
0.025
31
0
39
0
210
0
220
0
230
1
0
LINE
5
DB
100
AcDbEntity
8
1
62
256
6
ByLayer
370
18
48
1
60
0
100
AcDbLine
10
60.0003
20
-1.021546
30
0
11
60.004288
21
-0.071329
31
0
39
0
210
0
220
0
230
1
0
LINE
5
DC
100
AcDbEntity
8
1
62
256
6
ByLayer
370
18
48
1
60
0
100
AcDbLine
10
48.561716
20
0.025
30
0
11
51.301097
21
0.025
31
0
39
0
210
0
220
0
230
1
0
LINE
5
DD
100
AcDbEntity
8
1
62
256
6
ByLayer
370
18
48
1
60
0
100
AcDbLine
10
55.705211
20
0.025
30
0
11
53.946601
21
0.025
31
0
39
0
210
0
220
0
230
1
0
LINE
5
DE
100
AcDbEntity
8
1
62
256
6
ByLayer
370
18
48
1
60
0
100
AcDbLine
10
53.878197
20
-5.375
30
0
11
53.946601
21
-5.375
31
0
39
0
210
0
220
0
230
1
0
LINE
5
DF
100
AcDbEntity
8
1
62
256
6
ByLayer
370
18
48
1
60
0
100
AcDbLine
10
48.488698
20
-5.375
30
0
11
48.561716
21
-5.375
31
0
39
0
210
0
220
0
230
1
0
LINE
5
E0
100
AcDbEntity
8
1
62
256
6
ByLayer
370
18
48
1
60
0
100
AcDbLine
10
55.808442
20
0.052592
30
0
11
55.815248
21
0.056522
31
0
39
0
210
0
220
0
230
1
0
LINE
5
E1
100
AcDbEntity
8
1
62
256
6
ByLayer
370
18
48
1
60
0
100
AcDbLine
10
60.004288
20
-5.278671
30
0
11
60.0003
21
-4.328454
31
0
39
0
210
0
220
0
230
1
0
LINE
5
E2
100
AcDbEntity
8
SK2
62
256
6
ByLayer
370
13
48
1
60
0
100
AcDbLine
10
-99.6
20
-21.435263
30
0
11
-99.6
21
8.75
31
0
39
0
210
0
220
0
230
1
0
LINE
5
E4
100
AcDbEntity
8
SK2
62
256
6
ByLayer
370
13
48
1
60
0
100
AcDbLine
10
-92
20
-5.35
30
0
11
-101.6
21
-5.35
31
0
39
0
210
0
220
0
230
1
0
LINE
5
E5
100
AcDbEntity
8
SK2
62
256
6
ByLayer
370
13
48
1
60
0
100
AcDbLine
10
-92
20
0
30
0
11
-101.6
21
0
31
0
39
0
210
0
220
0
230
1
0
LINE
5
E6
100
AcDbEntity
8
SK2
62
256
6
ByLayer
370
18
48
1
60
0
100
AcDbLine
10
-99.6
20
-5.35
30
0
11
-99.182003
21
-8.524998
31
0
39
0
210
0
220
0
230
1
0
LINE
5
E7
100
AcDbEntity
8
SK2
62
256
6
ByLayer
370
18
48
1
60
0
100
AcDbLine
10
-99.6
20
-5.35
30
0
11
-100.017997
21
-8.525002
31
0
39
0
210
0
220
0
230
1
0
LINE
5
E8
100
AcDbEntity
8
SK2
62
256
6
ByLayer
370
18
48
1
60
0
100
AcDbLine
10
-99.182003
20
-8.524998
30
0
11
-100.017997
21
-8.525002
31
0
39
0
210
0
220
0
230
1
0
LINE
5
E9
100
AcDbEntity
8
SK2
62
256
6
ByLayer
370
18
48
1
60
0
100
AcDbLine
10
-99.6
20
0
30
0
11
-100.017997
21
3.174998
31
0
39
0
210
0
220
0
230
1
0
LINE
5
EA
100
AcDbEntity
8
SK2
62
256
6
ByLayer
370
18
48
1
60
0
100
AcDbLine
10
-99.6
20
0
30
0
11
-99.182003
21
3.175002
31
0
39
0
210
0
220
0
230
1
0
LINE
5
EB
100
AcDbEntity
8
SK2
62
256
6
ByLayer
370
18
48
1
60
0
100
AcDbLine
10
-100.017997
20
3.174998
30
0
11
-99.182003
21
3.175002
31
0
39
0
210
0
220
0
230
1
0
LINE
5
EC
100
AcDbEntity
8
2
62
256
6
ByLayer
370
18
48
1
60
0
100
AcDbLine
10
78.1
20
8.75
30
0
11
78.1
21
-14.75
31
0
39
0
210
0
220
0
230
1
0
LINE
5
EE
100
AcDbEntity
8
2
62
256
6
ByLayer
370
18
48
1
60
0
100
AcDbLine
10
62
20
-6
30
0
11
80.1
21
-6
31
0
39
0
210
0
220
0
230
1
0
LINE
5
EF
100
AcDbEntity
8
2
62
256
6
ByLayer
370
18
48
1
60
0
100
AcDbLine
10
62
20
0
30
0
11
80.1
21
0
31
0
39
0
210
0
220
0
230
1
0
LINE
5
F0
100
AcDbEntity
8
2
62
256
6
ByLayer
370
18
48
1
60
0
100
AcDbLine
10
78.1
20
-6
30
0
11
78.517997
21
-9.174998
31
0
39
0
210
0
220
0
230
1
0
LINE
5
F1
100
AcDbEntity
8
2
62
256
6
ByLayer
370
18
48
1
60
0
100
AcDbLine
10
78.1
20
-6
30
0
11
77.682003
21
-9.175002
31
0
39
0
210
0
220
0
230
1
0
LINE
5
F2
100
AcDbEntity
8
2
62
256
6
ByLayer
370
18
48
1
60
0
100
AcDbLine
10
78.517997
20
-9.174998
30
0
11
77.682003
21
-9.175002
31
0
39
0
210
0
220
0
230
1
0
LINE
5
F3
100
AcDbEntity
8
2
62
256
6
ByLayer
370
18
48
1
60
0
100
AcDbLine
10
78.1
20
0
30
0
11
77.682003
21
3.174998
31
0
39
0
210
0
220
0
230
1
0
LINE
5
F4
100
AcDbEntity
8
2
62
256
6
ByLayer
370
18
48
1
60
0
100
AcDbLine
10
78.1
20
0
30
0
11
78.517997
21
3.175002
31
0
39
0
210
0
220
0
230
1
0
LINE
5
F5
100
AcDbEntity
8
2
62
256
6
ByLayer
370
18
48
1
60
0
100
AcDbLine
10
77.682003
20
3.174998
30
0
11
78.517997
21
3.175002
31
0
39
0
210
0
220
0
230
1
0
MTEXT
5
216
100
AcDbEntity
8
SK6
62
256
6
ByLayer
370
18
48
1
60
0
100
AcDbMText
10
-46.625
20
-53.706269
30
0
210
0
220
0
230
1
1
\W0.7926;QD-NN2K60C25A
40
3.5
41
0
44
1.084337
50
0
71
7
72
5
7
iso_b_vert
0
MTEXT
5
21A
100
AcDbEntity
8
SK2
62
256
6
ByLayer
370
18
48
1
60
0
100
AcDbMText
10
-100.475
20
-20.560263
30
0
210
0
220
0
230
1
1
\W0.7451;5.4
40
3.5
41
0
44
1.084337
50
89.9999999999999
71
7
72
5
7
iso_b_vert
0
MTEXT
5
21B
100
AcDbEntity
8
2
62
256
6
ByLayer
370
18
48
1
60
0
100
AcDbMText
10
77.225
20
-2.884868
30
0
210
0
220
0
230
1
1
\W0.5404;6
40
3.5
41
0
44
1.084337
50
89.9999999999999
71
7
72
5
7
iso_b_vert
0
DIMENSION
5
229
100
AcDbEntity
8
SK2
62
256
6
ByLayer
370
13
48
1
60
0
100
AcDbDimension
2
DimnDraft3D1
10
60
20
22.937462
30
0
11
-17.961184
21
22.937462
31
0
70
32
71
5
72
1
41
1
210
0
220
0
230
1
3
Standard
100
AcDbAlignedDimension
13
-90
23
-3.35
33
0
14
60
24
2
34
0
50
0
100
AcDbRotatedDimension
1001
ACAD
1000
DSTYLE
1002
{
1070
   279
1070
     0
1070
   172
1070
     1
1070
   173
1070
     1
1070
   340
1005
217
1070
   271
1070
     1
1070
    77
1070
     1
1070
    73
1070
     0
1070
   171
1070
     3
1070
   274
1070
     4
1070
   177
1070
     2
1070
   176
1070
     2
1070
   178
1070
     7
1070
    78
1070
     8
1070
    41
1041
3.175
1070
   147
1041
1.75
1070
    42
1041
2.0
1070
    44
1041
2.0
1070
   140
1041
3.5
1070
   343
1005
22A
1070
   344
1005
22A
1002
}
0
DIMENSION
5
23E
100
AcDbEntity
8
2
62
256
6
ByLayer
370
13
48
1
60
0
100
AcDbDimension
2
DimnDraft3D2
10
0
20
-19.1
30
0
11
27.909211
21
-19.1
31
0
70
32
71
5
72
1
41
1
210
0
220
0
230
1
3
Standard
100
AcDbAlignedDimension
13
60
23
-2
33
0
14
0
24
-7.35
34
0
50
0
100
AcDbRotatedDimension
1001
ACAD
1000
DSTYLE
1002
{
1070
   279
1070
     0
1070
   172
1070
     1
1070
   173
1070
     1
1070
   340
1005
217
1070
   271
1070
     1
1070
    77
1070
     1
1070
    73
1070
     0
1070
   171
1070
     3
1070
   274
1070
     4
1070
   177
1070
     2
1070
   176
1070
     2
1070
   178
1070
     7
1070
    78
1070
     8
1070
    41
1041
3.175
1070
   147
1041
1.75
1070
    42
1041
2.0
1070
    44
1041
2.0
1070
   140
1041
3.5
1070
   343
1005
22A
1070
   344
1005
22A
1002
}
0
ENDSEC
0
SECTION
2
OBJECTS
0
DICTIONARY
5
2a8
330
0
100
AcDbDictionary
280
0
281
1
3
ACAD_GROUP
350
2a9
3
ACAD_MLINESTYLE
350
2aa
0
DICTIONARY
5
2a9
330
0
100
AcDbDictionary
280
0
281
1
0
DICTIONARY
5
2aa
330
0
100
AcDbDictionary
280
0
281
1
3
Standard
350
18
0
MLINESTYLE
5
18
330
2aa
100
AcDbMlineStyle
2
Standard
70
0
3

62
256
51
90
52
90
71
2
49
-0.5
62
256
6
ByLayer
49
0.5
62
256
6
ByLayer
0
RASTERVARIABLES
5
297
330

100
AcDbRasterVariables
90
0
70
1
71
1
72
1
0
ENDSEC
0
EOF
