0
SECTION
2
HEADER
9
$ACADVER
1
AC1015
9
$DWGCODEPAGE
3
ANSI_1252
9
$HANDSEED
5
1d2
9
$ANGBASE
50
0
9
$ANGDIR
70
0
9
$ATTMODE
70
1
9
$AUNITS
70
0
9
$AUPREC
70
0
9
$CECOLOR
62
256
9
$CELTSCALE
40
1
9
$CELTYPE
6
ByLayer
9
$CELWEIGHT
370
18
9
$CLAYER
8
0
9
$CMLJUST
70
0
9
$CMLSCALE
40
1
9
$CMLSTYLE
2
Standard
9
$DIMSTYLE
2
Standard
9
$TEXTSIZE
40
0.2
9
$TEXTSTYLE
7
Standard
9
$LUNITS
70
2
9
$LUPREC
70
4
9
$EXTNAMES
290
1
9
$INSUNITS
70
4
9
$LTSCALE
40
1
9
$LWDISPLAY
290
1
9
$PDMODE
70
0
9
$PDSIZE
40
0
9
$PLINEGEN
70
0
0
ENDSEC
0
SECTION
2
CLASSES
0
CLASS
1
RASTERVARIABLES
2
AcDbRasterVariables
3
ISM
90
0
280
0
281
0
0
ENDSEC
0
SECTION
2
TABLES
0
TABLE
2
VPORT
5
1c8
100
AcDbSymbolTable
0
VPORT
5
1
100
AcDbSymbolTableRecord
100
AcDbViewportTableRecord
2
*Active
70
0
10
0
20
0
11
1
21
1
12
-1
22
1
13
0
23
0
14
0.5
24
0.5
15
10
25
10
16
0
26
0
36
1
17
0
27
0
37
0
0
ENDTAB
0
TABLE
2
LTYPE
5
1c9
100
AcDbSymbolTable
0
LTYPE
5
14
100
AcDbSymbolTableRecord
100
AcDbLinetypeTableRecord
70
0
2
ByBlock
3

72
65
73
0
40
0
0
LTYPE
5
15
100
AcDbSymbolTableRecord
100
AcDbLinetypeTableRecord
70
0
2
ByLayer
3

72
65
73
0
40
0
0
LTYPE
5
16
100
AcDbSymbolTableRecord
100
AcDbLinetypeTableRecord
70
0
2
CONTINUOUS
3
Solid line
72
65
73
0
40
0
0
LTYPE
5
6A
100
AcDbSymbolTableRecord
100
AcDbLinetypeTableRecord
70
0
2
CENTER
3
____ _ ____ _ ____ _ ____
72
65
73
4
40
47.5
49
22
74
0
49
-8.5
74
0
49
8.5
74
0
49
-8.5
74
0
0
LTYPE
5
6B
100
AcDbSymbolTableRecord
100
AcDbLinetypeTableRecord
70
0
2
DASHED
3
__ __ __ __ __ __ __ __ __
72
65
73
2
40
25.72
49
12.86
74
0
49
-12.86
74
0
0
ENDTAB
0
TABLE
2
LAYER
5
1ca
100
AcDbSymbolTable
0
LAYER
5
10
100
AcDbSymbolTableRecord
100
AcDbLayerTableRecord
2
0
70
0
62
7
6
CONTINUOUS
290
1
370
-3
390
0
0
LAYER
5
6D
100
AcDbSymbolTableRecord
100
AcDbLayerTableRecord
2
80
70
0
62
-6
6
CONTINUOUS
290
1
370
-3
390
0
0
LAYER
5
6F
100
AcDbSymbolTableRecord
100
AcDbLayerTableRecord
2
81
70
0
62
-3
6
CONTINUOUS
290
1
370
-3
390
0
0
LAYER
5
71
100
AcDbSymbolTableRecord
100
AcDbLayerTableRecord
2
1
70
0
62
4
6
CONTINUOUS
290
1
370
-3
390
0
0
LAYER
5
133
100
AcDbSymbolTableRecord
100
AcDbLayerTableRecord
2
2
70
0
62
7
6
CONTINUOUS
290
1
370
-3
390
0
0
LAYER
5
1b5
100
AcDbSymbolTableRecord
100
AcDbLayerTableRecord
2
SK1
70
0
62
4
6
CONTINUOUS
290
1
370
-3
390
0
0
LAYER
5
1b6
100
AcDbSymbolTableRecord
100
AcDbLayerTableRecord
2
SK6
70
0
62
5
6
CONTINUOUS
290
1
370
-3
390
0
0
LAYER
5
1b7
100
AcDbSymbolTableRecord
100
AcDbLayerTableRecord
2
SK2
70
0
62
7
6
CONTINUOUS
290
1
370
-3
390
0
0
ENDTAB
0
TABLE
2
STYLE
5
1cb
100
AcDbSymbolTable
0
STYLE
5
11
100
AcDbSymbolTableRecord
100
AcDbTextStyleTableRecord
2
Standard
3
txt
70
0
71
0
40
0
41
1
42
0
50
0
0
STYLE
5
118
100
AcDbSymbolTableRecord
100
AcDbTextStyleTableRecord
2
iso_b_vert
3
simplex.shx
70
0
71
0
40
0
41
1
42
0
50
0
0
STYLE
5
119
100
AcDbSymbolTableRecord
100
AcDbTextStyleTableRecord
2
DWGDirectTextStyle
3
simplex
70
0
71
0
40
0
41
1
42
0
50
0
0
ENDTAB
0
TABLE
2
DIMSTYLE
5
1cc
100
AcDbSymbolTable
100
AcDbDimStyleTable
0
DIMSTYLE
105
27
100
AcDbSymbolTableRecord
100
AcDbDimStyleTableRecord
2
Standard
70
0
3
<>
41
0.18
42
0.0625
44
0.18
140
0.18
147
0.09
73
0
74
0
77
1
271
2
275
0
278
52
280
0
340
11
0
ENDTAB
0
TABLE
2
VIEW
5
1cd
100
AcDbSymbolTable
0
ENDTAB
0
TABLE
2
UCS
5
1ce
100
AcDbSymbolTable
0
ENDTAB
0
TABLE
2
APPID
5
1cf
100
AcDbSymbolTable
0
APPID
5
12
100
AcDbSymbolTableRecord
100
AcDbRegAppTableRecord
2
ACAD
70
0
0
ENDTAB
0
TABLE
2
BLOCK_RECORD
5
1d0
100
AcDbSymbolTable
0
BLOCK_RECORD
5
1F
100
AcDbSymbolTableRecord
100
AcDbBlockTableRecord
2
*Model_Space
340
0
70
0
0
BLOCK_RECORD
5
1B
100
AcDbSymbolTableRecord
100
AcDbBlockTableRecord
2
*Paper_Space
340
0
70
0
0
BLOCK_RECORD
5
23
100
AcDbSymbolTableRecord
100
AcDbBlockTableRecord
2
*Paper_Space0
340
0
70
0
0
BLOCK_RECORD
5
11B
100
AcDbSymbolTableRecord
100
AcDbBlockTableRecord
2
DimnDraft3D1
340
0
70
0
0
BLOCK_RECORD
5
12A
100
AcDbSymbolTableRecord
100
AcDbBlockTableRecord
2
_CLOSED
340
0
70
0
0
BLOCK_RECORD
5
131
100
AcDbSymbolTableRecord
100
AcDbBlockTableRecord
2
DimnDraft3D2
340
0
70
0
0
BLOCK_RECORD
5
140
100
AcDbSymbolTableRecord
100
AcDbBlockTableRecord
2
DimnDraft3D3
340
0
70
0
0
BLOCK_RECORD
5
14E
100
AcDbSymbolTableRecord
100
AcDbBlockTableRecord
2
DimnDraft3D4
340
0
70
0
0
ENDTAB
0
ENDSEC
0
SECTION
2
BLOCKS
0
BLOCK
5
20
100
AcDbEntity
8
0
100
AcDbBlockBegin
2
*Model_Space
70
0
10
0
20
0
30
0
3
*Model_Space
0
ENDBLK
5
21
100
AcDbEntity
8
0
100
AcDbBlockEnd
0
BLOCK
5
1C
100
AcDbEntity
8
0
100
AcDbBlockBegin
2
*Paper_Space
70
0
10
0
20
0
30
0
3
*Paper_Space
0
ENDBLK
5
1D
100
AcDbEntity
8
0
100
AcDbBlockEnd
0
BLOCK
5
24
100
AcDbEntity
8
0
100
AcDbBlockBegin
2
*Paper_Space0
70
0
10
0
20
0
30
0
3
*Paper_Space0
0
ENDBLK
5
25
100
AcDbEntity
8
0
100
AcDbBlockEnd
0
BLOCK
5
127
100
AcDbEntity
8
0
100
AcDbBlockBegin
2
DimnDraft3D1
70
0
10
0
20
0
30
0
3
DimnDraft3D1
0
MTEXT
5
11C
100
AcDbEntity
8
SK2
62
256
6
ByLayer
370
13
48
1
60
0
100
AcDbMText
10
-101.027907
20
-1.500658
30
0
210
0
220
0
230
1
1
\W0.6740;20
40
4.5
41
0
44
1.084337
50
90
71
7
72
5
7
iso_b_vert
0
LINE
5
11E
100
AcDbEntity
8
SK2
62
256
6
ByLayer
370
13
48
1
60
0
100
AcDbLine
10
-91.740407
20
10.0625
30
0
11
-103.077907
21
10.0625
31
0
39
0
210
0
220
0
230
1
0
LINE
5
11F
100
AcDbEntity
8
SK2
62
256
6
ByLayer
370
13
48
1
60
0
100
AcDbLine
10
-91.740407
20
-9.9375
30
0
11
-103.077907
21
-9.9375
31
0
39
0
210
0
220
0
230
1
0
LINE
5
120
100
AcDbEntity
8
SK2
62
256
6
ByLayer
370
13
48
1
60
0
100
AcDbLine
10
-99.902907
20
10.0625
30
0
11
-99.902907
21
-9.9375
31
0
39
0
210
0
220
0
230
1
0
LINE
5
121
100
AcDbEntity
8
SK2
62
256
6
ByLayer
370
13
48
1
60
0
100
AcDbLine
10
-99.902907
20
10.0625
30
0
11
-99.052169
21
6.887503
31
0
39
0
210
0
220
0
230
1
0
LINE
5
122
100
AcDbEntity
8
SK2
62
256
6
ByLayer
370
13
48
1
60
0
100
AcDbLine
10
-99.902907
20
10.0625
30
0
11
-100.753646
21
6.887497
31
0
39
0
210
0
220
0
230
1
0
LINE
5
123
100
AcDbEntity
8
SK2
62
256
6
ByLayer
370
13
48
1
60
0
100
AcDbLine
10
-99.052169
20
6.887503
30
0
11
-100.753646
21
6.887497
31
0
39
0
210
0
220
0
230
1
0
LINE
5
124
100
AcDbEntity
8
SK2
62
256
6
ByLayer
370
13
48
1
60
0
100
AcDbLine
10
-99.902907
20
-9.9375
30
0
11
-100.753646
21
-6.762503
31
0
39
0
210
0
220
0
230
1
0
LINE
5
125
100
AcDbEntity
8
SK2
62
256
6
ByLayer
370
13
48
1
60
0
100
AcDbLine
10
-99.902907
20
-9.9375
30
0
11
-99.052169
21
-6.762497
31
0
39
0
210
0
220
0
230
1
0
LINE
5
126
100
AcDbEntity
8
SK2
62
256
6
ByLayer
370
13
48
1
60
0
100
AcDbLine
10
-100.753646
20
-6.762503
30
0
11
-99.052169
21
-6.762497
31
0
39
0
210
0
220
0
230
1
0
ENDBLK
5
128
100
AcDbEntity
8
0
100
AcDbBlockEnd
0
BLOCK
5
12B
100
AcDbEntity
8
0
100
AcDbBlockBegin
2
_CLOSED
70
0
10
0
20
0
30
0
3
_CLOSED
0
LINE
5
12D
100
AcDbEntity
8
0
62
256
6
ByLayer
370
-2
48
1
60
0
100
AcDbLine
10
-1
20
0.166667
30
0
11
0
21
0
31
0
39
0
210
0
220
0
230
1
0
LINE
5
12E
100
AcDbEntity
8
0
62
256
6
ByLayer
370
-2
48
1
60
0
100
AcDbLine
10
0
20
0
30
0
11
-1
21
-0.166667
31
0
39
0
210
0
220
0
230
1
0
LINE
5
12F
100
AcDbEntity
8
0
62
256
6
ByLayer
370
-2
48
1
60
0
100
AcDbLine
10
-1
20
0.166667
30
0
11
-1
21
-0.166667
31
0
39
0
210
0
220
0
230
1
0
LINE
5
130
100
AcDbEntity
8
0
62
256
6
ByLayer
370
-2
48
1
60
0
100
AcDbLine
10
0
20
0
30
0
11
-1
21
0
31
0
39
0
210
0
220
0
230
1
0
ENDBLK
5
12C
100
AcDbEntity
8
0
100
AcDbBlockEnd
0
BLOCK
5
13D
100
AcDbEntity
8
0
100
AcDbBlockBegin
2
DimnDraft3D2
70
0
10
0
20
0
30
0
3
DimnDraft3D2
0
MTEXT
5
132
100
AcDbEntity
8
2
62
256
6
ByLayer
370
13
48
1
60
0
100
AcDbMText
10
51.572093
20
1.174342
30
0
210
0
220
0
230
1
1
\W0.6740;25
40
4.5
41
0
44
1.084337
50
90
71
7
72
5
7
iso_b_vert
0
LINE
5
134
100
AcDbEntity
8
2
62
256
6
ByLayer
370
13
48
1
60
0
100
AcDbLine
10
1.5875
20
-9.9375
30
0
11
55.872093
21
-9.9375
31
0
39
0
210
0
220
0
230
1
0
LINE
5
135
100
AcDbEntity
8
2
62
256
6
ByLayer
370
13
48
1
60
0
100
AcDbLine
10
37.784593
20
15.4125
30
0
11
55.872093
21
15.4125
31
0
39
0
210
0
220
0
230
1
0
LINE
5
136
100
AcDbEntity
8
2
62
256
6
ByLayer
370
13
48
1
60
0
100
AcDbLine
10
52.697093
20
-9.9375
30
0
11
52.697093
21
15.4125
31
0
39
0
210
0
220
0
230
1
0
LINE
5
137
100
AcDbEntity
8
2
62
256
6
ByLayer
370
13
48
1
60
0
100
AcDbLine
10
52.697093
20
-9.9375
30
0
11
51.846354
21
-6.762503
31
0
39
0
210
0
220
0
230
1
0
LINE
5
138
100
AcDbEntity
8
2
62
256
6
ByLayer
370
13
48
1
60
0
100
AcDbLine
10
52.697093
20
-9.9375
30
0
11
53.547831
21
-6.762497
31
0
39
0
210
0
220
0
230
1
0
LINE
5
139
100
AcDbEntity
8
2
62
256
6
ByLayer
370
13
48
1
60
0
100
AcDbLine
10
51.846354
20
-6.762503
30
0
11
53.547831
21
-6.762497
31
0
39
0
210
0
220
0
230
1
0
LINE
5
13A
100
AcDbEntity
8
2
62
256
6
ByLayer
370
13
48
1
60
0
100
AcDbLine
10
52.697093
20
15.4125
30
0
11
53.547831
21
12.237503
31
0
39
0
210
0
220
0
230
1
0
LINE
5
13B
100
AcDbEntity
8
2
62
256
6
ByLayer
370
13
48
1
60
0
100
AcDbLine
10
52.697093
20
15.4125
30
0
11
51.846354
21
12.237497
31
0
39
0
210
0
220
0
230
1
0
LINE
5
13C
100
AcDbEntity
8
2
62
256
6
ByLayer
370
13
48
1
60
0
100
AcDbLine
10
53.547831
20
12.237503
30
0
11
51.846354
21
12.237497
31
0
39
0
210
0
220
0
230
1
0
ENDBLK
5
13E
100
AcDbEntity
8
0
100
AcDbBlockEnd
0
BLOCK
5
14B
100
AcDbEntity
8
0
100
AcDbBlockBegin
2
DimnDraft3D3
70
0
10
0
20
0
30
0
3
DimnDraft3D3
0
MTEXT
5
141
100
AcDbEntity
8
SK2
62
256
6
ByLayer
370
13
48
1
60
0
100
AcDbMText
10
-29.660144
20
34.0375
30
0
210
0
220
0
230
1
1
\W0.6217;125
40
4.5
41
0
44
1.084337
50
0
71
7
72
5
7
iso_b_vert
0
LINE
5
142
100
AcDbEntity
8
SK2
62
256
6
ByLayer
370
13
48
1
60
0
100
AcDbLine
10
-90.152907
20
11.65
30
0
11
-90.152907
21
36.0875
31
0
39
0
210
0
220
0
230
1
0
LINE
5
143
100
AcDbEntity
8
SK2
62
256
6
ByLayer
370
13
48
1
60
0
100
AcDbLine
10
36.197093
20
17
30
0
11
36.197093
21
36.0875
31
0
39
0
210
0
220
0
230
1
0
LINE
5
144
100
AcDbEntity
8
SK2
62
256
6
ByLayer
370
13
48
1
60
0
100
AcDbLine
10
-90.152907
20
32.9125
30
0
11
36.197093
21
32.9125
31
0
39
0
210
0
220
0
230
1
0
LINE
5
145
100
AcDbEntity
8
SK2
62
256
6
ByLayer
370
13
48
1
60
0
100
AcDbLine
10
-90.152907
20
32.9125
30
0
11
-86.977911
21
33.763239
31
0
39
0
210
0
220
0
230
1
0
LINE
5
146
100
AcDbEntity
8
SK2
62
256
6
ByLayer
370
13
48
1
60
0
100
AcDbLine
10
-90.152907
20
32.9125
30
0
11
-86.977904
21
32.061761
31
0
39
0
210
0
220
0
230
1
0
LINE
5
147
100
AcDbEntity
8
SK2
62
256
6
ByLayer
370
13
48
1
60
0
100
AcDbLine
10
-86.977911
20
33.763239
30
0
11
-86.977904
21
32.061761
31
0
39
0
210
0
220
0
230
1
0
LINE
5
148
100
AcDbEntity
8
SK2
62
256
6
ByLayer
370
13
48
1
60
0
100
AcDbLine
10
36.197093
20
32.9125
30
0
11
33.022096
21
32.061761
31
0
39
0
210
0
220
0
230
1
0
LINE
5
149
100
AcDbEntity
8
SK2
62
256
6
ByLayer
370
13
48
1
60
0
100
AcDbLine
10
36.197093
20
32.9125
30
0
11
33.022089
21
33.763239
31
0
39
0
210
0
220
0
230
1
0
LINE
5
14A
100
AcDbEntity
8
SK2
62
256
6
ByLayer
370
13
48
1
60
0
100
AcDbLine
10
33.022096
20
32.061761
30
0
11
33.022089
21
33.763239
31
0
39
0
210
0
220
0
230
1
0
ENDBLK
5
14C
100
AcDbEntity
8
0
100
AcDbBlockEnd
0
BLOCK
5
159
100
AcDbEntity
8
0
100
AcDbBlockBegin
2
DimnDraft3D4
70
0
10
0
20
0
30
0
3
DimnDraft3D4
0
MTEXT
5
14F
100
AcDbEntity
8
2
62
256
6
ByLayer
370
13
48
1
60
0
100
AcDbMText
10
22.51693
20
20.603934
30
0
210
0
220
0
230
1
1
\W0.8292;95%%d0'
40
4.5
41
0
44
1.084337
50
47.5
71
7
72
5
7
iso_b_vert
0
LINE
5
150
100
AcDbEntity
8
2
62
256
6
ByLayer
370
13
48
1
60
0
100
AcDbLine
10
36.197093
20
17
30
0
11
36.197093
21
31.079368
31
0
39
0
210
0
220
0
230
1
0
LINE
5
151
100
AcDbEntity
8
2
62
256
6
ByLayer
370
13
48
1
60
0
100
AcDbLine
10
25.752704
20
14.57121
30
0
11
20.662042
21
14.125835
31
0
39
0
210
0
220
0
230
1
0
ARC
5
152
100
AcDbEntity
8
2
62
256
6
ByLayer
370
13
48
1
60
0
100
AcDbCircle
39
0
10
36.197093
20
15.484976
30
0
40
12.4193920057133
210
0
220
0
230
1
100
AcDbArc
50
90
51
185
0
LINE
5
153
100
AcDbEntity
8
2
62
256
6
ByLayer
370
13
48
1
60
0
100
AcDbLine
10
36.197093
20
27.904368
30
0
11
33.082551
21
26.853657
31
0
39
0
210
0
220
0
230
1
0
LINE
5
154
100
AcDbEntity
8
2
62
256
6
ByLayer
370
13
48
1
60
0
100
AcDbLine
10
36.197093
20
27.904368
30
0
11
32.974459
21
28.551698
31
0
39
0
210
0
220
0
230
1
0
LINE
5
155
100
AcDbEntity
8
2
62
256
6
ByLayer
370
13
48
1
60
0
100
AcDbLine
10
33.082551
20
26.853657
30
0
11
32.974459
21
28.551698
31
0
39
0
210
0
220
0
230
1
0
LINE
5
156
100
AcDbEntity
8
2
62
256
6
ByLayer
370
13
48
1
60
0
100
AcDbLine
10
23.82496
20
14.402555
30
0
11
22.899223
21
17.5565
31
0
39
0
210
0
220
0
230
1
0
LINE
5
157
100
AcDbEntity
8
2
62
256
6
ByLayer
370
13
48
1
60
0
100
AcDbLine
10
23.82496
20
14.402555
30
0
11
24.600222
21
17.596826
31
0
39
0
210
0
220
0
230
1
0
LINE
5
158
100
AcDbEntity
8
2
62
256
6
ByLayer
370
13
48
1
60
0
100
AcDbLine
10
22.899223
20
17.5565
30
0
11
24.600222
21
17.596826
31
0
39
0
210
0
220
0
230
1
0
ENDBLK
5
15A
100
AcDbEntity
8
0
100
AcDbBlockEnd
0
ENDSEC
0
SECTION
2
ENTITIES
0
ARC
5
C4
100
AcDbEntity
8
1
62
256
6
ByLayer
370
18
48
1
60
0
100
AcDbCircle
39
0
10
-14.878335
20
19.002148
30
0
40
10.200000000002
210
0
220
0
230
-1
100
AcDbArc
50
245.20205
51
297.290785
0
ELLIPSE
5
C5
100
AcDbEntity
8
1
62
256
6
ByLayer
370
18
48
1
60
0
100
AcDbEllipse
10
11.350052
20
1.2815
30
0
11
1.02937849432247
21
-1.22489996139538
31
0
210
0
220
0
230
1
40
0.146486
41
-1.55809177718712
42
-0.346369070844656
0
ELLIPSE
5
C6
100
AcDbEntity
8
1
62
256
6
ByLayer
370
18
48
1
60
0
100
AcDbEllipse
10
22.066093
20
-9.434541
30
0
11
1.22489996139538
21
-1.02937849432247
31
0
210
0
220
0
230
1
40
0.146486
41
-2.79522358274511
42
-1.58350087640266
0
ELLIPSE
5
C7
100
AcDbEntity
8
1
62
256
6
ByLayer
370
18
48
1
60
0
100
AcDbEllipse
10
19.453983
20
-7.53773
30
0
11
-2.26274169979697
21
2.26274169979693
31
0
210
0
220
0
230
1
40
0.989133
41
-3.05601124141578
42
-2.06287554126597
0
ELLIPSE
5
C8
100
AcDbEntity
8
1
62
256
6
ByLayer
370
18
48
1
60
0
100
AcDbEllipse
10
29.561696
20
-0.705457
30
0
11
1.45944804326552
21
-1.45944804326551
31
0
210
0
220
0
230
1
40
0.989133
41
0.278599723158022
42
0.353429173528844
0
ELLIPSE
5
C9
100
AcDbEntity
8
1
62
256
6
ByLayer
370
18
48
1
60
0
100
AcDbEllipse
10
29.540662
20
-0.726492
30
0
11
-1.31803626012213
21
1.31803626012211
31
0
210
0
220
0
230
1
40
0.989133
41
-0.0816769879928305
42
-0.0608876836540051
0
ELLIPSE
5
CA
100
AcDbEntity
8
1
62
256
6
ByLayer
370
18
48
1
60
0
100
AcDbEllipse
10
29.540662
20
-0.726492
30
0
11
-1.31803626012213
21
1.31803626012211
31
0
210
0
220
0
230
1
40
0.989133
41
-3.08072622104888
42
-2.78816348006095
0
ELLIPSE
5
CB
100
AcDbEntity
8
1
62
256
6
ByLayer
370
18
48
1
60
0
100
AcDbEllipse
10
30.133243
20
-0.13391
30
0
11
-1.41421356237311
21
1.41421356237308
31
0
210
0
220
0
230
1
40
0.989133
41
0.005555761204946
42
-2.78816348006095
0
ELLIPSE
5
CC
100
AcDbEntity
8
1
62
256
6
ByLayer
370
18
48
1
60
0
100
AcDbEllipse
10
3.094935
20
-5.655915
30
0
11
0.0194761873807182
21
2.07641195486632
31
0
210
0
220
0
230
-1
40
0.199715
41
2.95946989730815
42
-1.75291908307696
0
ELLIPSE
5
CD
100
AcDbEntity
8
1
62
256
6
ByLayer
370
18
48
1
60
0
100
AcDbEllipse
10
13.246863
20
-1.330609
30
0
11
-2.26274169979697
21
2.26274169979693
31
0
210
0
220
0
230
1
40
0.989133
41
-1.57079632679491
42
-0.0855814121740247
0
ELLIPSE
5
CE
100
AcDbEntity
8
1
62
256
6
ByLayer
370
18
48
1
60
0
100
AcDbEllipse
10
20.37367
20
-6.618043
30
0
11
1.13137084989809
21
-1.13137084989809
31
0
210
0
220
0
230
-1
40
0.957882
41
-1.5707963267949
42
-0.0855814121737464
0
ELLIPSE
5
CF
100
AcDbEntity
8
1
62
256
6
ByLayer
370
18
48
1
60
0
100
AcDbEllipse
10
31.249262
20
-1.491032
30
0
11
-0.181925806810119
21
0.083084299458365
31
0
210
0
220
0
230
1
40
0.137937
41
1.51939506885054
42
3.10182692399188
0
ELLIPSE
5
D0
100
AcDbEntity
8
1
62
256
6
ByLayer
370
18
48
1
60
0
100
AcDbEllipse
10
14.166549
20
-0.410923
30
0
11
1.1313708498987
21
-1.1313708498987
31
0
210
0
220
0
230
-1
40
0.957882
41
-3.05601124141566
42
-1.5707963267949
0
ELLIPSE
5
D1
100
AcDbEntity
8
1
62
256
6
ByLayer
370
18
48
1
60
0
100
AcDbEllipse
10
0
20
-11.544497
30
0
11
-9.83969118753542E-17
21
1.60699659230457
31
0
210
0
220
0
230
-1
40
0.995646
41
0
42
1.30899693899594
0
ELLIPSE
5
D2
100
AcDbEntity
8
1
62
256
6
ByLayer
370
18
48
1
60
0
100
AcDbEllipse
10
26.725895
20
5.941303
30
0
11
-2.12132034355966
21
2.12132034355963
31
0
210
0
220
0
230
1
40
0.989133
41
0.950010041742872
42
2.19158261184688
0
ELLIPSE
5
D3
100
AcDbEntity
8
1
62
256
6
ByLayer
370
18
48
1
60
0
100
AcDbEllipse
10
29.277545
20
7.758624
30
0
11
-1.83847763108504
21
1.83847763108501
31
0
210
0
220
0
230
1
40
0.989133
41
2.11620049128499E-05
42
0.493031354393804
0
ELLIPSE
5
D4
100
AcDbEntity
8
1
62
256
6
ByLayer
370
18
48
1
60
0
100
AcDbEllipse
10
28.289564
20
8.2393
30
0
11
-1.83847763108504
21
1.83847763108501
31
0
210
0
220
0
230
1
40
0.989133
41
2.9860674406971
42
-3.14158788426587
0
ELLIPSE
5
D5
100
AcDbEntity
8
1
62
256
6
ByLayer
370
18
48
1
60
0
100
AcDbEllipse
10
28.866739
20
8.245335
30
0
11
1.66170093578839
21
-1.66170093578838
31
0
210
0
220
0
230
1
40
0.989133
41
-0.468596844492945
42
0.0698759775085646
0
ELLIPSE
5
D6
100
AcDbEntity
8
1
62
256
6
ByLayer
370
18
48
1
60
0
100
AcDbEllipse
10
28.076615
20
7.292023
30
0
11
2.01525432638167
21
-2.01525432638165
31
0
210
0
220
0
230
1
40
0.989133
41
2.4437522498638
42
2.66092909491061
0
ELLIPSE
5
D7
100
AcDbEntity
8
1
62
256
6
ByLayer
370
18
48
1
60
0
100
AcDbEllipse
10
28.076615
20
7.292023
30
0
11
2.01525432638167
21
-2.01525432638165
31
0
210
0
220
0
230
1
40
0.989133
41
0.480698431742208
42
0.702665923445518
0
ELLIPSE
5
D8
100
AcDbEntity
8
1
62
256
6
ByLayer
370
18
48
1
60
0
100
AcDbEllipse
10
28.268945
20
7.484352
30
0
11
-1.96222131779268
21
1.96222131779265
31
0
210
0
220
0
230
1
40
0.989133
41
-2.72792414239653
42
-2.35757724362257
0
ELLIPSE
5
D9
100
AcDbEntity
8
1
62
256
6
ByLayer
370
18
48
1
60
0
100
AcDbEllipse
10
28.268945
20
7.484352
30
0
11
-1.96222131779268
21
1.96222131779265
31
0
210
0
220
0
230
1
40
0.989133
41
-0.745479471488381
42
-0.413699139240088
0
ELLIPSE
5
DA
100
AcDbEntity
8
1
62
256
6
ByLayer
370
18
48
1
60
0
100
AcDbEllipse
10
23.88901
20
-2.863621
30
0
11
2.8284271247462
21
-2.82842712474618
31
0
210
0
220
0
230
1
40
0.989133
41
-1.31812918228846
42
-2.24484073350127E-16
0
ELLIPSE
5
DB
100
AcDbEntity
8
1
62
256
6
ByLayer
370
18
48
1
60
0
100
AcDbEllipse
10
23.88901
20
-2.863621
30
0
11
2.8284271247462
21
-2.82842712474618
31
0
210
0
220
0
230
1
40
0.989133
41
0
42
0.790861354621183
0
ELLIPSE
5
DC
100
AcDbEntity
8
1
62
256
6
ByLayer
370
18
48
1
60
0
100
AcDbEllipse
10
23.88901
20
-2.863621
30
0
11
2.8284271247462
21
-2.82842712474618
31
0
210
0
220
0
230
1
40
0.989133
41
0.790861385157303
42
-1.99376774477646
0
ELLIPSE
5
DD
100
AcDbEntity
8
1
62
256
6
ByLayer
370
18
48
1
60
0
100
AcDbEllipse
10
23.448732
20
-3.303898
30
0
11
1.09955104474509
21
-1.09955104474508
31
0
210
0
220
0
230
1
40
0.989133
41
0.102361921095303
42
0.790861299489182
0
ELLIPSE
5
DE
100
AcDbEntity
8
1
62
256
6
ByLayer
370
18
48
1
60
0
100
AcDbEllipse
10
23.448732
20
-3.303898
30
0
11
1.09955104474509
21
-1.09955104474508
31
0
210
0
220
0
230
1
40
0.989133
41
0.790861299489185
42
2.91094522731087
0
ELLIPSE
5
DF
100
AcDbEntity
8
1
62
256
6
ByLayer
370
18
48
1
60
0
100
AcDbEllipse
10
23.552694
20
-3.199937
30
0
11
-1.09955104474509
21
1.09955104474507
31
0
210
0
220
0
230
1
40
0.989133
41
-0.489692967582597
42
-0.181902247709735
0
ELLIPSE
5
E0
100
AcDbEntity
8
1
62
256
6
ByLayer
370
18
48
1
60
0
100
AcDbEllipse
10
31.137164
20
-0.234111
30
0
11
0.561266007566825
21
-0.56126600756682
31
0
210
0
220
0
230
1
40
0.989133
41
-1.39626340159546
42
2.51007119735497E-07
0
ELLIPSE
5
E1
100
AcDbEntity
8
1
62
256
6
ByLayer
370
18
48
1
60
0
100
AcDbEllipse
10
20.550481
20
10.352572
30
0
11
0.561266007566825
21
-0.56126600756682
31
0
210
0
220
0
230
1
40
0.989133
41
3.14159240258267
42
-1.95902288093228
0
ELLIPSE
5
E2
100
AcDbEntity
8
1
62
256
6
ByLayer
370
18
48
1
60
0
100
AcDbEllipse
10
28.866724
20
8.082131
30
0
11
-1.82433549546131
21
1.82433549546128
31
0
210
0
220
0
230
1
40
0.989133
41
-3.00388796071761
42
-2.07898351349519
0
ELLIPSE
5
E3
100
AcDbEntity
8
1
62
256
6
ByLayer
370
18
48
1
60
0
100
AcDbEllipse
10
28.866724
20
8.082131
30
0
11
-1.82433549546131
21
1.82433549546128
31
0
210
0
220
0
230
1
40
0.989133
41
-0.776498752177996
42
-0.137675419862895
0
ELLIPSE
5
E4
100
AcDbEntity
8
1
62
256
6
ByLayer
370
18
48
1
60
0
100
AcDbEllipse
10
28.201639
20
12.826874
30
0
11
-1.41421356237311
21
1.41421356237308
31
0
210
0
220
0
230
1
40
0.989133
41
-0.698131700797722
42
-0.349065850398867
0
ELLIPSE
5
E5
100
AcDbEntity
8
1
62
256
6
ByLayer
370
18
48
1
60
0
100
AcDbEllipse
10
21.045599
20
10.847689
30
0
11
-0.561266007566827
21
0.561266007566818
31
0
210
0
220
0
230
1
40
0.989133
41
-0.34906585039888
42
1.39626340159548
0
ELLIPSE
5
E6
100
AcDbEntity
8
1
62
256
6
ByLayer
370
18
48
1
60
0
100
AcDbEllipse
10
35.407644
20
14.623051
30
0
11
-0.561266007566827
21
0.561266007566818
31
0
210
0
220
0
230
1
40
0.989133
41
-2.44346095279208
42
-0.698131700797741
0
ELLIPSE
5
E7
100
AcDbEntity
8
1
62
256
6
ByLayer
370
18
48
1
60
0
100
AcDbEllipse
10
31.632282
20
0.261006
30
0
11
-0.561266007566827
21
0.561266007566818
31
0
210
0
220
0
230
1
40
0.989133
41
1.74532925199432
42
-2.79252680319091
0
ELLIPSE
5
E8
100
AcDbEntity
8
1
62
256
6
ByLayer
370
18
48
1
60
0
100
AcDbEllipse
10
29.361841
20
8.577249
30
0
11
1.8243354954613
21
-1.82433549546128
31
0
210
0
220
0
230
1
40
0.989133
41
0
42
6.28318530717959
0
ELLIPSE
5
E9
100
AcDbEntity
8
1
62
256
6
ByLayer
370
18
48
1
60
0
100
AcDbEllipse
10
26.272418
20
5.487825
30
0
11
-1.41421356237311
21
1.41421356237308
31
0
210
0
220
0
230
1
40
0.989133
41
1.39626340159546
42
1.74532925199433
0
ELLIPSE
5
EA
100
AcDbEntity
8
1
62
256
6
ByLayer
370
18
48
1
60
0
100
AcDbEllipse
10
33.611467
20
7.417047
30
0
11
-1.41421356237311
21
1.41421356237308
31
0
210
0
220
0
230
1
40
0.989133
41
-2.79252680319092
42
-2.44346095279206
0
ELLIPSE
5
EB
100
AcDbEntity
8
1
62
256
6
ByLayer
370
18
48
1
60
0
100
AcDbEllipse
10
29.240986
20
8.456393
30
0
11
1.66170093578839
21
-1.66170093578838
31
0
210
0
220
0
230
1
40
0.989133
41
1.53667921765542
42
2.27686519795218
0
ELLIPSE
5
EC
100
AcDbEntity
8
1
62
256
6
ByLayer
370
18
48
1
60
0
100
AcDbEllipse
10
29.240986
20
8.456393
30
0
11
1.66170093578839
21
-1.66170093578838
31
0
210
0
220
0
230
1
40
0.989133
41
-1.60491343593438
42
-0.864727455637606
0
ELLIPSE
5
ED
100
AcDbEntity
8
1
62
256
6
ByLayer
370
18
48
1
60
0
100
AcDbEllipse
10
29.292967
20
8.508374
30
0
11
-1.30814754519512
21
1.3081475451951
31
0
210
0
220
0
230
1
40
0.989133
41
-1.57813422542793
42
-0.891506666144039
0
ELLIPSE
5
EE
100
AcDbEntity
8
1
62
256
6
ByLayer
370
18
48
1
60
0
100
AcDbEllipse
10
29.292967
20
8.508374
30
0
11
-1.30814754519512
21
1.3081475451951
31
0
210
0
220
0
230
1
40
0.989133
41
1.56345842816185
42
2.25008598744575
0
ELLIPSE
5
EF
100
AcDbEntity
8
1
62
256
6
ByLayer
370
18
48
1
60
0
100
AcDbEllipse
10
28.798976
20
8.748712
30
0
11
-1.48492424049176
21
1.48492424049174
31
0
210
0
220
0
230
1
40
0.989133
41
2.4992781443342
42
-1.8273263823164
0
ELLIPSE
5
F0
100
AcDbEntity
8
1
62
256
6
ByLayer
370
18
48
1
60
0
100
AcDbEllipse
10
29.786957
20
8.268036
30
0
11
-1.48492424049176
21
1.48492424049174
31
0
210
0
220
0
230
1
40
0.989133
41
-0.642314509255595
42
1.31426627127339
0
ELLIPSE
5
F1
100
AcDbEntity
8
1
62
256
6
ByLayer
370
18
48
1
60
0
100
AcDbEllipse
10
28.746995
20
8.696732
30
0
11
1.83847763108503
21
-1.83847763108502
31
0
210
0
220
0
230
1
40
0.989133
41
-0.666210145521801
42
1.33816190753962
0
ELLIPSE
5
F2
100
AcDbEntity
8
1
62
256
6
ByLayer
370
18
48
1
60
0
100
AcDbEllipse
10
29.734977
20
8.216055
30
0
11
1.83847763108503
21
-1.83847763108502
31
0
210
0
220
0
230
1
40
0.989133
41
2.47538250806797
42
-1.80343074605017
0
ELLIPSE
5
F3
100
AcDbEntity
8
1
62
256
6
ByLayer
370
18
48
1
60
0
100
AcDbEllipse
10
23.96854
20
-2.78409
30
0
11
1.36287119209428
21
-1.36287119209427
31
0
210
0
220
0
230
1
40
0.989133
41
0
42
6.28318530717959
0
ELLIPSE
5
F4
100
AcDbEntity
8
1
62
256
6
ByLayer
370
18
48
1
60
0
100
AcDbEllipse
10
23.552694
20
-3.199937
30
0
11
-1.09955104474509
21
1.09955104474507
31
0
210
0
220
0
230
1
40
0.989133
41
-1.53689051877921
42
-0.93275037279279
0
ELLIPSE
5
F5
100
AcDbEntity
8
1
62
256
6
ByLayer
370
18
48
1
60
0
100
AcDbEllipse
10
23.946189
20
-2.806442
30
0
11
-1.09955104474509
21
1.09955104474507
31
0
210
0
220
0
230
1
40
0.989133
41
-1.97994792398938
42
-1.5368905187792
0
ELLIPSE
5
F6
100
AcDbEntity
8
1
62
256
6
ByLayer
370
18
48
1
60
0
100
AcDbEllipse
10
23.946189
20
-2.806442
30
0
11
-1.09955104474509
21
1.09955104474507
31
0
210
0
220
0
230
1
40
0.989133
41
-3.02714547518598
42
-2.5840880699758
0
ELLIPSE
5
F7
100
AcDbEntity
8
1
62
256
6
ByLayer
370
18
48
1
60
0
100
AcDbEllipse
10
23.946189
20
-2.806442
30
0
11
-1.09955104474509
21
1.09955104474507
31
0
210
0
220
0
230
1
40
0.989133
41
1.16164472960042
42
1.60470213481059
0
ELLIPSE
5
F8
100
AcDbEntity
8
1
62
256
6
ByLayer
370
18
48
1
60
0
100
AcDbEllipse
10
23.96854
20
-2.78409
30
0
11
2.28749043713849
21
-2.28749043713847
31
0
210
0
220
0
230
1
40
0.989133
41
0
42
6.28318530717959
0
ELLIPSE
5
F9
100
AcDbEntity
8
1
62
256
6
ByLayer
370
18
48
1
60
0
100
AcDbEllipse
10
23.946189
20
-2.806442
30
0
11
-1.09955104474509
21
1.09955104474507
31
0
210
0
220
0
230
1
40
0.989133
41
-0.932750372792785
42
-0.489692967582593
0
ELLIPSE
5
FA
100
AcDbEntity
8
1
62
256
6
ByLayer
370
18
48
1
60
0
100
AcDbEllipse
10
23.552694
20
-3.199937
30
0
11
-1.09955104474509
21
1.09955104474507
31
0
210
0
220
0
230
1
40
0.989133
41
-2.5840880699758
42
-1.97994792398939
0
ELLIPSE
5
FB
100
AcDbEntity
8
1
62
256
6
ByLayer
370
18
48
1
60
0
100
AcDbEllipse
10
23.946189
20
-2.806442
30
0
11
-1.09955104474509
21
1.09955104474507
31
0
210
0
220
0
230
1
40
0.989133
41
0.114447178403802
42
0.557504583614012
0
ELLIPSE
5
FC
100
AcDbEntity
8
1
62
256
6
ByLayer
370
18
48
1
60
0
100
AcDbEllipse
10
23.946189
20
-2.806442
30
0
11
-1.09955104474509
21
1.09955104474507
31
0
210
0
220
0
230
1
40
0.989133
41
2.208842280797
42
2.65189968600719
0
POINT
5
6C
100
AcDbEntity
8
80
62
256
6
ByLayer
370
18
48
1
60
0
100
AcDbPoint
10
0
20
0
30
0
39
0
210
0
220
0
230
1
50
360
0
POINT
5
6E
100
AcDbEntity
8
81
62
256
6
ByLayer
370
18
48
1
60
0
100
AcDbPoint
10
34.847093
20
15.0625
30
0
39
0
210
0
220
0
230
1
50
360
0
POINT
5
70
100
AcDbEntity
8
1
62
256
6
ByLayer
370
18
48
1
60
0
100
AcDbPoint
10
-90.152907
20
-9.9375
30
0
39
0
210
0
220
0
230
1
50
360
0
SPLINE
5
FD
100
AcDbEntity
8
1
62
256
6
ByLayer
370
18
48
1
60
0
100
AcDbSpline
70
4
71
1
72
4
73
2
40
0
40
0
40
1
40
1
41
1
10
29.8942776038783
20
-0.338791154129439
30
0
41
1
10
29.9214788990275
20
-0.359250214235715
30
0
0
SPLINE
5
FE
100
AcDbEntity
8
1
62
256
6
ByLayer
370
18
48
1
60
0
100
AcDbSpline
70
4
71
3
72
16
73
12
40
0
40
0
40
0
40
0
40
0.0789796654331076
40
0.0789796654331076
40
0.539489832716557
40
0.539489832716557
40
0.654617374537419
40
0.654617374537419
40
0.769744916358281
40
0.769744916358281
40
1
40
1
40
1
40
1
41
1
10
29.5718667847117
20
6.05580509995519
30
0
41
1
10
29.5872624166965
20
6.06236745898281
30
0
41
1
10
29.602362538986
20
6.06899713952569
30
0
41
1
10
29.7032061070982
20
6.11452143829177
30
0
41
1
10
29.779759024128
20
6.15592374427462
30
0
41
1
10
29.8488713660215
20
6.19582264391642
30
0
41
1
10
29.8613586412999
20
6.20317368883727
30
0
41
1
10
29.8830416210991
20
6.21595149506641
30
0
41
1
10
29.8921870784663
20
6.22134563454935
30
0
41
1
10
29.9126956792144
20
6.2329246102787
30
0
41
1
10
29.9173697746607
20
6.23453059941426
30
0
41
1
10
29.9103865255674
20
6.22754735032089
30
0
0
SPLINE
5
FF
100
AcDbEntity
8
1
62
256
6
ByLayer
370
18
48
1
60
0
100
AcDbSpline
70
4
71
3
72
20
73
16
40
0
40
0
40
0
40
0
40
0.0724811084247226
40
0.0724811084247226
40
0.197294392107103
40
0.197294392107103
40
0.322107675789483
40
0.322107675789483
40
0.571734243154242
40
0.571734243154242
40
0.696547526836622
40
0.696547526836622
40
0.821360810519001
40
0.821360810519001
40
1
40
1
40
1
40
1
41
1
10
28.1387751185344
20
10.2137685250409
30
0
41
1
10
28.1057487332256
20
10.204797655855
30
0
41
1
10
28.0728435825133
20
10.195162273444
30
0
41
1
10
27.9836546264508
20
10.1670772101335
30
0
41
1
10
27.9276338183375
20
10.1472913734709
30
0
41
1
10
27.8165124156319
20
10.1034950273248
30
0
41
1
10
27.7612609469232
20
10.0793969635563
30
0
41
1
10
27.5995731147934
20
10.0017226039061
30
0
41
1
10
27.4964167984138
20
9.94254355436377
30
0
41
1
10
27.3486789765802
20
9.84256751447242
30
0
41
1
10
27.3006032191843
20
9.80736801476135
30
0
41
1
10
27.2068535194881
20
9.73311731517947
30
0
41
1
10
27.1611401338425
20
9.69400057369126
30
0
41
1
10
27.0547689263951
20
9.59574401679461
30
0
41
1
10
26.9957443130865
20
9.53495459853838
30
0
41
1
10
26.9402710471622
20
9.47123805382006
30
0
0
SPLINE
5
100
100
AcDbEntity
8
1
62
256
6
ByLayer
370
18
48
1
60
0
100
AcDbSpline
70
4
71
3
72
10
73
6
40
0
40
0
40
0
40
0
40
0.830301152981324
40
0.830301152981324
40
1
40
1
40
1
40
1
41
1
10
30.8867407797202
20
7.05131822343481
30
0
41
1
10
30.9298026842111
20
7.16091854744738
30
0
41
1
10
30.9647625841231
20
7.27400709453826
30
0
41
1
10
30.9967867023771
20
7.41457618866204
30
0
41
1
10
31.0018477354075
20
7.43848999028276
30
0
41
1
10
31.0065371556183
20
7.46245199377299
30
0
0
SPLINE
5
101
100
AcDbEntity
8
1
62
256
6
ByLayer
370
18
48
1
60
0
100
AcDbSpline
70
4
71
3
72
8
73
4
40
0
40
0
40
0
40
0
40
1
40
1
40
1
40
1
41
1
10
30.4469787472555
20
6.27743216890468
30
0
41
1
10
30.4956080280358
20
6.36790672514286
30
0
41
1
10
30.5433035054972
20
6.45618707027282
30
0
41
1
10
30.5897636186341
20
6.54156460913808
30
0
0
SPLINE
5
102
100
AcDbEntity
8
1
62
256
6
ByLayer
370
18
48
1
60
0
100
AcDbSpline
70
4
71
3
72
8
73
4
40
0
40
0
40
0
40
0
40
1
40
1
40
1
40
1
41
1
10
29.9237698517014
20
-0.359085117704268
30
0
41
1
10
29.9441613123342
20
-0.372784237554441
30
0
41
1
10
29.9647803307513
20
-0.385946683059359
30
0
41
1
10
29.9856244493682
20
-0.398578250278376
30
0
0
SPLINE
5
103
100
AcDbEntity
8
1
62
256
6
ByLayer
370
18
48
1
60
0
100
AcDbSpline
70
4
71
3
72
8
73
4
40
0
40
0
40
0
40
0
40
1
40
1
40
1
40
1
41
1
10
30.5964626436436
20
9.79267216900786
30
0
41
1
10
30.7111289008619
20
9.87611412137596
30
0
41
1
10
30.8257521116908
20
9.95931558664827
30
0
41
1
10
30.9403539381566
20
10.0423985299871
30
0
0
SPLINE
5
104
100
AcDbEntity
8
1
62
256
6
ByLayer
370
18
48
1
60
0
100
AcDbSpline
70
4
71
3
72
8
73
4
40
0
40
0
40
0
40
0
40
1
40
1
40
1
40
1
41
1
10
29.1080942282968
20
6.67983908859156
30
0
41
1
10
29.0947787185174
20
6.49561486779135
30
0
41
1
10
29.0816037706209
20
6.31153416556066
30
0
41
1
10
29.0684980372029
20
6.12752442342833
30
0
0
SPLINE
5
105
100
AcDbEntity
8
1
62
256
6
ByLayer
370
18
48
1
60
0
100
AcDbSpline
70
4
71
3
72
8
73
4
40
0
40
0
40
0
40
0
40
1
40
1
40
1
40
1
41
1
10
30.8867407797202
20
7.05131822343481
30
0
41
1
10
30.814612666881
20
6.92594638420445
30
0
41
1
10
30.7317454918719
20
6.80963371668906
30
0
41
1
10
30.6391421828574
20
6.70244652323305
30
0
0
SPLINE
5
106
100
AcDbEntity
8
1
62
256
6
ByLayer
370
18
48
1
60
0
100
AcDbSpline
70
4
71
3
72
8
73
4
40
0
40
0
40
0
40
0
40
1
40
1
40
1
40
1
41
1
10
27.5416178133336
20
6.87038814399489
30
0
41
1
10
27.6908955194398
20
6.98814696697409
30
0
41
1
10
27.8401782688729
20
7.10600797085061
30
0
41
1
10
27.9894707487775
20
7.22407614590503
30
0
0
SPLINE
5
107
100
AcDbEntity
8
1
62
256
6
ByLayer
370
18
48
1
60
0
100
AcDbSpline
70
4
71
3
72
20
73
16
40
0
40
0
40
0
40
0
40
0.25
40
0.25
40
0.499999999999999
40
0.499999999999999
40
0.625
40
0.625
40
0.750000000000001
40
0.750000000000001
40
0.812500000000001
40
0.812500000000001
40
0.875000000000002
40
0.875000000000002
40
1
40
1
40
1
40
1
41
1
10
30.6391421828577
20
6.70244652323339
30
0
41
1
10
30.5699449583261
20
6.62235158525095
30
0
41
1
10
30.4965926134926
20
6.54925388889279
30
0
41
1
10
30.3436521536896
20
6.41701157569719
30
0
41
1
10
30.2639654505529
20
6.35783365849594
30
0
41
1
10
30.1424843142131
20
6.28056596019621
30
0
41
1
10
30.1017963573697
20
6.25683547646204
30
0
41
1
10
30.022639893113
20
6.21451254978379
30
0
41
1
10
29.9837988152942
20
6.19574393644277
30
0
41
1
10
29.9306074978546
20
6.1725451282108
30
0
41
1
10
29.9136898032271
20
6.16561474641952
30
0
41
1
10
29.8823656897242
20
6.15362935046983
30
0
41
1
10
29.8679576664069
20
6.1485831840732
30
0
41
1
10
29.8321961744235
20
6.13745038330779
30
0
41
1
10
29.818225760006
20
6.13538658476068
30
0
41
1
10
29.8241681445446
20
6.14132896929925
30
0
0
SPLINE
5
108
100
AcDbEntity
8
1
62
256
6
ByLayer
370
18
48
1
60
0
100
AcDbSpline
70
4
71
3
72
8
73
4
40
0
40
0
40
0
40
0
40
1
40
1
40
1
40
1
41
1
10
29.4134737142873
20
10.7852622505536
30
0
41
1
10
29.4350438605098
20
10.6359283880617
30
0
41
1
10
29.4565284512174
20
10.4865072244353
30
0
41
1
10
29.4778391641244
20
10.3369092263213
30
0
0
SPLINE
5
109
100
AcDbEntity
8
1
62
256
6
ByLayer
370
18
48
1
60
0
100
AcDbSpline
70
4
71
3
72
16
73
12
40
0
40
0
40
0
40
0
40
0.250000000000001
40
0.250000000000001
40
0.500000000000001
40
0.500000000000001
40
0.750000000000002
40
0.750000000000002
40
0.875000000000001
40
0.875000000000001
40
1
40
1
40
1
40
1
41
1
10
30.5897636186335
20
6.54156460913759
30
0
41
1
10
30.6248804166457
20
6.59185457217106
30
0
41
1
10
30.6576914088641
20
6.64231405225704
30
0
41
1
10
30.7188370433838
20
6.74224531262573
30
0
41
1
10
30.7471404644839
20
6.79173611530098
30
0
41
1
10
30.7979857225744
20
6.88467659036144
30
0
41
1
10
30.8209755384149
20
6.9289884022993
30
0
41
1
10
30.8500416157677
20
6.98488191108021
30
0
41
1
10
30.8588324418542
20
7.00173347062855
30
0
41
1
10
30.8744783879344
20
7.03072209801505
30
0
41
1
10
30.8812774572742
20
7.04272549146555
30
0
41
1
10
30.8867407797202
20
7.05131822343481
30
0
0
SPLINE
5
10A
100
AcDbEntity
8
1
62
256
6
ByLayer
370
18
48
1
60
0
100
AcDbSpline
70
4
71
3
72
10
73
6
40
0
40
0
40
0
40
0
40
0.5
40
0.5
40
1
40
1
40
1
40
1
41
1
10
24.7062956216701
20
-1.22960872809676
30
0
41
1
10
24.6167367373911
20
-1.23822743452021
30
0
41
1
10
24.5261541303898
20
-1.24667502594187
30
0
41
1
10
24.345352570138
20
-1.26284672215314
30
0
41
1
10
24.2550597593648
20
-1.27057875588079
30
0
41
1
10
24.1648949885886
20
-1.2778912039503
30
0
0
SPLINE
5
10B
100
AcDbEntity
8
1
62
256
6
ByLayer
370
18
48
1
60
0
100
AcDbSpline
70
4
71
3
72
8
73
4
40
0
40
0
40
0
40
0
40
1
40
1
40
1
40
1
41
1
10
24.9958916966202
20
-1.68219096280274
30
0
41
1
10
24.8953731495744
20
-1.52926622264658
30
0
41
1
10
24.7994449106413
20
-1.37871808395195
30
0
41
1
10
24.7062956216701
20
-1.22960872809676
30
0
0
SPLINE
5
10C
100
AcDbEntity
8
1
62
256
6
ByLayer
370
18
48
1
60
0
100
AcDbSpline
70
4
71
3
72
10
73
6
40
0
40
0
40
0
40
0
40
0.5
40
0.5
40
1
40
1
40
1
40
1
41
1
10
22.4377158545415
20
-2.44880519457223
30
0
41
1
10
22.40027279952
20
-2.52841691857577
30
0
41
1
10
22.3631895558253
20
-2.60777949314519
30
0
41
1
10
22.2911040919785
20
-2.76290613847809
30
0
41
1
10
22.2558979591896
20
-2.83910002261476
30
0
41
1
10
22.2213269723715
20
-2.91425422917035
30
0
0
SPLINE
5
10D
100
AcDbEntity
8
1
62
256
6
ByLayer
370
18
48
1
60
0
100
AcDbSpline
70
4
71
3
72
10
73
6
40
0
40
0
40
0
40
0
40
0.5
40
0.5
40
1
40
1
40
1
40
1
41
1
10
22.9696286995079
20
-1.34922614449403
30
0
41
1
10
22.9297193041959
20
-1.42983501332671
30
0
41
1
10
22.8896883235815
20
-1.51098737936857
30
0
41
1
10
22.809304938496
20
-1.67472890492849
30
0
41
1
10
22.7692090234918
20
-1.75680084550487
30
0
41
1
10
22.7296293666969
20
-1.83828562973306
30
0
0
SPLINE
5
10E
100
AcDbEntity
8
1
62
256
6
ByLayer
370
18
48
1
60
0
100
AcDbSpline
70
4
71
3
72
10
73
6
40
0
40
0
40
0
40
0
40
0.5
40
0.5
40
1
40
1
40
1
40
1
41
1
10
25.6946608166959
20
-2.6750193963758
30
0
41
1
10
25.6425576037913
20
-2.60530181744065
30
0
41
1
10
25.5899835882385
20
-2.53425672440253
30
0
41
1
10
25.485365726235
20
-2.39109479484586
30
0
41
1
10
25.4332785312062
20
-2.31892207964143
30
0
41
1
10
25.3814542911049
20
-2.24604761231075
30
0
0
SPLINE
5
10F
100
AcDbEntity
8
1
62
256
6
ByLayer
370
18
48
1
60
0
100
AcDbSpline
70
4
71
3
72
10
73
6
40
0
40
0
40
0
40
0
40
0.5
40
0.5
40
1
40
1
40
1
40
1
41
1
10
23.2096921673972
20
-4.35966489744939
30
0
41
1
10
23.2939883556495
20
-4.35630888705273
30
0
41
1
10
23.3798272672225
20
-4.35260499105934
30
0
41
1
10
23.5526416454561
20
-4.34442047686622
30
0
41
1
10
23.6396848655859
20
-4.339938033782
30
0
41
1
10
23.7274823498378
20
-4.33499287223677
30
0
0
SPLINE
5
110
100
AcDbEntity
8
1
62
256
6
ByLayer
370
18
48
1
60
0
100
AcDbSpline
70
4
71
3
72
8
73
4
40
0
40
0
40
0
40
0
40
1
40
1
40
1
40
1
41
1
10
23.4874188819485
20
-1.3245541192814
30
0
41
1
10
23.3089753080324
20
-1.33460488904143
30
0
41
1
10
23.1372641254611
20
-1.34255222193585
30
0
41
1
10
22.9696286995079
20
-1.34922614449405
30
0
0
SPLINE
5
111
100
AcDbEntity
8
1
62
256
6
ByLayer
370
18
48
1
60
0
100
AcDbSpline
70
4
71
3
72
8
73
4
40
0
40
0
40
0
40
0
40
1
40
1
40
1
40
1
41
1
10
22.8964856418062
20
-3.93069311338434
30
0
41
1
10
23.0018155689443
20
-4.07880647344828
30
0
41
1
10
23.1060772297602
20
-4.22102119026002
30
0
41
1
10
23.2096921673972
20
-4.35966489744939
30
0
0
SPLINE
5
112
100
AcDbEntity
8
1
62
256
6
ByLayer
370
18
48
1
60
0
100
AcDbSpline
70
4
71
3
72
8
73
4
40
0
40
0
40
0
40
0
40
1
40
1
40
1
40
1
41
1
10
24.4049584564779
20
-4.28832995690567
30
0
41
1
10
24.5882134104863
20
-4.27346780705346
30
0
41
1
10
24.7682580149405
20
-4.25718705227612
30
0
41
1
10
24.9463590895595
20
-4.24004748105213
30
0
0
SPLINE
5
113
100
AcDbEntity
8
1
62
256
6
ByLayer
370
18
48
1
60
0
100
AcDbSpline
70
4
71
3
72
10
73
6
40
0
40
0
40
0
40
0
40
0.5
40
0.5
40
1
40
1
40
1
40
1
41
1
10
22.2213269723715
20
-2.91425422917035
30
0
41
1
10
22.2681674892493
20
-2.98923450413233
30
0
41
1
10
22.3159978093739
20
-3.06502329259868
30
0
41
1
10
22.4126284893591
20
-3.21617240417348
30
0
41
1
10
22.4614660937446
20
-3.29159471002137
30
0
41
1
10
22.5109230473215
20
-3.3668364638763
30
0
0
SPLINE
5
114
100
AcDbEntity
8
1
62
256
6
ByLayer
370
18
48
1
60
0
100
AcDbSpline
70
4
71
3
72
10
73
6
40
0
40
0
40
0
40
0
40
0.5
40
0.5
40
1
40
1
40
1
40
1
41
1
10
25.1627479717295
20
-3.77459844645398
30
0
41
1
10
25.1253049167081
20
-3.85421017045752
30
0
41
1
10
25.0882216730133
20
-3.93357274502694
30
0
41
1
10
25.0161362091665
20
-4.08869939035984
30
0
41
1
10
24.9809300763776
20
-4.16489327449654
30
0
41
1
10
24.9463590895595
20
-4.24004748105213
30
0
0
SPLINE
5
115
100
AcDbEntity
8
1
62
256
6
ByLayer
370
18
48
1
60
0
100
AcDbSpline
70
4
71
3
72
10
73
6
40
0
40
0
40
0
40
0
40
0.5
40
0.5
40
1
40
1
40
1
40
1
41
1
10
25.6946608166959
20
-2.6750193963758
30
0
41
1
10
25.6547514213839
20
-2.75562826520849
30
0
41
1
10
25.6147204407695
20
-2.83678063125035
30
0
41
1
10
25.534337055684
20
-3.00052215681026
30
0
41
1
10
25.4942411406798
20
-3.08259409738665
30
0
41
1
10
25.4546614838849
20
-3.16407888161487
30
0
0
SPLINE
5
116
100
AcDbEntity
8
1
62
256
6
ByLayer
370
18
48
1
60
0
100
AcDbSpline
70
4
71
3
72
8
73
4
40
0
40
0
40
0
40
0
40
1
40
1
40
1
40
1
41
1
10
29.8952720232405
20
-0.33949905228269
30
0
41
1
10
29.9047029238763
20
-0.346128801718805
30
0
41
1
10
29.9142034824947
20
-0.352658366788574
30
0
41
1
10
29.9237698517014
20
-0.359085117704268
30
0
0
LINE
5
72
100
AcDbEntity
8
1
62
256
6
ByLayer
370
18
48
1
60
0
100
AcDbLine
10
28.341233
20
0.749095
30
0
11
29.892545
21
-0.341449
31
0
39
0
210
0
220
0
230
1
0
LINE
5
73
100
AcDbEntity
8
1
62
256
6
ByLayer
370
18
48
1
60
0
100
AcDbLine
10
31.69843
20
-0.795377
30
0
11
32.193548
21
-0.30026
31
0
39
0
210
0
220
0
230
1
0
LINE
5
74
100
AcDbEntity
8
1
62
256
6
ByLayer
370
18
48
1
60
0
100
AcDbLine
10
30.52844
20
6.583634
30
0
11
30.533619
21
6.588814
31
0
39
0
210
0
220
0
230
1
0
LINE
5
75
100
AcDbEntity
8
1
62
256
6
ByLayer
370
18
48
1
60
0
100
AcDbLine
10
20.484333
20
11.408955
30
0
11
19.989215
21
10.913838
31
0
39
0
210
0
220
0
230
1
0
LINE
5
76
100
AcDbEntity
8
1
62
256
6
ByLayer
370
18
48
1
60
0
100
AcDbLine
10
30.128042
20
6.400823
30
0
11
30.585473
21
6.858254
31
0
39
0
210
0
220
0
230
1
0
LINE
5
77
100
AcDbEntity
8
1
62
256
6
ByLayer
370
18
48
1
60
0
100
AcDbLine
10
27.896499
20
10.054533
30
0
11
27.439068
21
9.597101
31
0
39
0
210
0
220
0
230
1
0
LINE
5
78
100
AcDbEntity
8
1
62
256
6
ByLayer
370
18
48
1
60
0
100
AcDbLine
10
21.060583
20
-0.035194
30
0
11
21.017277
21
-0.078499
31
0
39
0
210
0
220
0
230
1
0
LINE
5
79
100
AcDbEntity
8
1
62
256
6
ByLayer
370
18
48
1
60
0
100
AcDbLine
10
26.674131
20
-5.735354
30
0
11
26.717437
21
-5.692048
31
0
39
0
210
0
220
0
230
1
0
LINE
5
7A
100
AcDbEntity
8
1
62
256
6
ByLayer
370
18
48
1
60
0
100
AcDbLine
10
27.050798
20
9.589607
30
0
11
26.955357
21
9.494167
31
0
39
0
210
0
220
0
230
1
0
LINE
5
7B
100
AcDbEntity
8
1
62
256
6
ByLayer
370
18
48
1
60
0
100
AcDbLine
10
31.228469
20
-1.511824
30
0
11
31.487083
21
-0.94555
31
0
39
0
210
0
220
0
230
1
0
LINE
5
7C
100
AcDbEntity
8
1
62
256
6
ByLayer
370
18
48
1
60
0
100
AcDbLine
10
18.139652
20
-14.075181
30
0
11
14.475918
21
-16.156437
31
0
39
0
210
0
220
0
230
1
0
LINE
5
7D
100
AcDbEntity
8
1
62
256
6
ByLayer
370
18
48
1
60
0
100
AcDbLine
10
32.840758
20
0.986581
30
0
11
31.94421
21
-0.976549
31
0
39
0
210
0
220
0
230
1
0
LINE
5
7E
100
AcDbEntity
8
1
62
256
6
ByLayer
370
18
48
1
60
0
100
AcDbLine
10
35.780393
20
6.592683
30
0
11
35.44423
21
6.623915
31
0
39
0
210
0
220
0
230
1
0
LINE
5
7F
100
AcDbEntity
8
1
62
256
6
ByLayer
370
18
48
1
60
0
100
AcDbLine
10
15.485015
20
0.907543
30
0
11
19.923669
21
-3.531111
31
0
39
0
210
0
220
0
230
1
0
LINE
5
80
100
AcDbEntity
8
1
62
256
6
ByLayer
370
18
48
1
60
0
100
AcDbLine
10
15.250246
20
0.672774
30
0
11
15.485015
21
0.907543
31
0
39
0
210
0
220
0
230
1
0
LINE
5
81
100
AcDbEntity
8
1
62
256
6
ByLayer
370
18
48
1
60
0
100
AcDbLine
10
31.860817
20
-0.632996
30
0
11
31.430588
21
-1.575048
31
0
39
0
210
0
220
0
230
1
0
LINE
5
82
100
AcDbEntity
8
1
62
256
6
ByLayer
370
18
48
1
60
0
100
AcDbLine
10
28.319717
20
0.703123
30
0
11
28.333384
21
0.693516
31
0
39
0
210
0
220
0
230
1
0
LINE
5
83
100
AcDbEntity
8
1
62
256
6
ByLayer
370
18
48
1
60
0
100
AcDbLine
10
3.068271
20
-16.836554
30
0
11
5.495101
21
-16.836554
31
0
39
0
210
0
220
0
230
1
0
LINE
5
84
100
AcDbEntity
8
1
62
256
6
ByLayer
370
18
48
1
60
0
100
AcDbLine
10
5.495101
20
-5.57736
30
0
11
5.495101
21
-16.836554
31
0
39
0
210
0
220
0
230
1
0
LINE
5
85
100
AcDbEntity
8
1
62
256
6
ByLayer
370
18
48
1
60
0
100
AcDbLine
10
2.246258
20
9.9375
30
0
11
10.201568
21
9.9375
31
0
39
0
210
0
220
0
230
1
0
LINE
5
86
100
AcDbEntity
8
1
62
256
6
ByLayer
370
18
48
1
60
0
100
AcDbLine
10
19.156415
20
9.742665
30
0
11
20.382334
21
10.309066
31
0
39
0
210
0
220
0
230
1
0
LINE
5
87
100
AcDbEntity
8
1
62
256
6
ByLayer
370
18
48
1
60
0
100
AcDbLine
10
15.733086
20
-14.666117
30
0
11
14.47591
21
-16.156442
31
0
39
0
210
0
220
0
230
1
0
LINE
5
88
100
AcDbEntity
8
1
62
256
6
ByLayer
370
18
48
1
60
0
100
AcDbLine
10
21.899754
20
-9.60088
30
0
11
18.139652
21
-14.075181
31
0
39
0
210
0
220
0
230
1
0
LINE
5
89
100
AcDbEntity
8
1
62
256
6
ByLayer
370
18
48
1
60
0
100
AcDbLine
10
2.246258
20
9.9375
30
0
11
2.683575
21
-6.028164
31
0
39
0
210
0
220
0
230
1
0
LINE
5
8A
100
AcDbEntity
8
1
62
256
6
ByLayer
370
18
48
1
60
0
100
AcDbLine
10
13.278678
20
-16.836554
30
0
11
5.495101
21
-16.836554
31
0
39
0
210
0
220
0
230
1
0
LINE
5
8B
100
AcDbEntity
8
1
62
256
6
ByLayer
370
18
48
1
60
0
100
AcDbLine
10
1.545481
20
9.9375
30
0
11
1.545481
21
-11.128575
31
0
39
0
210
0
220
0
230
1
0
LINE
5
8C
100
AcDbEntity
8
1
62
256
6
ByLayer
370
18
48
1
60
0
100
AcDbLine
10
18.139652
20
-14.075181
30
0
11
35.838379
21
-4.021067
31
0
39
0
210
0
220
0
230
1
0
LINE
5
8D
100
AcDbEntity
8
1
62
256
6
ByLayer
370
18
48
1
60
0
100
AcDbLine
10
20.382334
20
10.309066
30
0
11
23.785201
21
5.468446
31
0
39
0
210
0
220
0
230
1
0
LINE
5
8E
100
AcDbEntity
8
1
62
256
6
ByLayer
370
18
48
1
60
0
100
AcDbLine
10
26.253038
20
3.000608
30
0
11
28.71128
21
1.27251
31
0
39
0
210
0
220
0
230
1
0
LINE
5
8F
100
AcDbEntity
8
1
62
256
6
ByLayer
370
18
48
1
60
0
100
AcDbLine
10
0
20
-9.9375
30
0
11
0
21
9.9375
31
0
39
0
210
0
220
0
230
1
0
LINE
5
90
100
AcDbEntity
8
1
62
256
6
ByLayer
370
18
48
1
60
0
100
AcDbLine
10
0
20
9.9375
30
0
11
1.545481
21
9.9375
31
0
39
0
210
0
220
0
230
1
0
LINE
5
91
100
AcDbEntity
8
1
62
256
6
ByLayer
370
18
48
1
60
0
100
AcDbLine
10
3.150889
20
-7.69869
30
0
11
5.495101
21
-5.57736
31
0
39
0
210
0
220
0
230
1
0
LINE
5
92
100
AcDbEntity
8
1
62
256
6
ByLayer
370
18
48
1
60
0
100
AcDbLine
10
31.94421
20
-0.976549
30
0
11
31.430588
21
-1.575048
31
0
39
0
210
0
220
0
230
1
0
LINE
5
93
100
AcDbEntity
8
1
62
256
6
ByLayer
370
18
48
1
60
0
100
AcDbLine
10
1.545481
20
9.9375
30
0
11
2.246258
21
9.9375
31
0
39
0
210
0
220
0
230
1
0
LINE
5
94
100
AcDbEntity
8
1
62
256
6
ByLayer
370
18
48
1
60
0
100
AcDbLine
10
21.593533
20
-7.65264
30
0
11
15.733086
21
-14.666117
31
0
39
0
210
0
220
0
230
1
0
LINE
5
95
100
AcDbEntity
8
1
62
256
6
ByLayer
370
18
48
1
60
0
100
AcDbLine
10
35.838379
20
-4.021067
30
0
11
35.780393
21
6.592683
31
0
39
0
210
0
220
0
230
1
0
LINE
5
96
100
AcDbEntity
8
1
62
256
6
ByLayer
370
18
48
1
60
0
100
AcDbLine
10
1.545481
20
-11.128575
30
0
11
3.068271
21
-16.836554
31
0
39
0
210
0
220
0
230
1
0
LINE
5
97
100
AcDbEntity
8
1
62
256
6
ByLayer
370
18
48
1
60
0
100
AcDbLine
10
2.683575
20
-6.028164
30
0
11
11.183713
21
1.115162
31
0
39
0
210
0
220
0
230
1
0
LINE
5
98
100
AcDbEntity
8
1
62
256
6
ByLayer
370
18
48
1
60
0
100
AcDbLine
10
5.495101
20
-5.57736
30
0
11
6.118476
21
-5.051507
31
0
39
0
210
0
220
0
230
1
0
LINE
5
99
100
AcDbEntity
8
1
62
256
6
ByLayer
370
18
48
1
60
0
100
AcDbLine
10
13.131952
20
0.80894
30
0
11
6.118476
21
-5.051507
31
0
39
0
210
0
220
0
230
1
0
LINE
5
9A
100
AcDbEntity
8
1
62
256
6
ByLayer
370
18
48
1
60
0
100
AcDbLine
10
14.47591
20
-16.156442
30
0
11
13.278678
21
-16.836554
31
0
39
0
210
0
220
0
230
1
0
LINE
5
9B
100
AcDbEntity
8
1
62
256
6
ByLayer
370
18
48
1
60
0
100
AcDbLine
10
15.733086
20
-14.666117
30
0
11
6.118476
21
-5.051507
31
0
39
0
210
0
220
0
230
1
0
LINE
5
9C
100
AcDbEntity
8
1
62
256
6
ByLayer
370
18
48
1
60
0
100
AcDbLine
10
15.250269
20
0.672797
30
0
11
21.457389
21
-5.534324
31
0
39
0
210
0
220
0
230
1
0
LINE
5
9D
100
AcDbEntity
8
SK1
62
256
6
ByLayer
370
18
48
1
60
0
100
AcDbLine
10
-90.152907
20
9.9375
30
0
11
0
21
9.9375
31
0
39
0
210
0
220
0
230
1
0
LINE
5
9F
100
AcDbEntity
8
SK1
62
256
6
ByLayer
370
18
48
1
60
0
100
AcDbLine
10
0
20
-9.9375
30
0
11
0
21
9.9375
31
0
39
0
210
0
220
0
230
1
0
LINE
5
A0
100
AcDbEntity
8
SK1
62
256
6
ByLayer
370
18
48
1
60
0
100
AcDbLine
10
-90.152907
20
-9.9375
30
0
11
0
21
-9.9375
31
0
39
0
210
0
220
0
230
1
0
LINE
5
A1
100
AcDbEntity
8
SK1
62
256
6
ByLayer
370
18
48
1
60
0
100
AcDbLine
10
-90.152907
20
9.9375
30
0
11
-90.152907
21
-9.9375
31
0
39
0
210
0
220
0
230
1
0
LINE
5
A2
100
AcDbEntity
8
1
62
256
6
ByLayer
370
18
48
1
60
0
100
AcDbLine
10
27.541618
20
6.870388
30
0
11
27.501519
21
6.83029
31
0
39
0
210
0
220
0
230
1
0
LINE
5
A3
100
AcDbEntity
8
1
62
256
6
ByLayer
370
18
48
1
60
0
100
AcDbLine
10
28.984391
20
6.043418
30
0
11
29.068498
21
6.127524
31
0
39
0
210
0
220
0
230
1
0
LINE
5
A4
100
AcDbEntity
8
1
62
256
6
ByLayer
370
18
48
1
60
0
100
AcDbLine
10
24.725426
20
-4.259756
30
0
11
24.769253
21
-4.168093
31
0
39
0
210
0
220
0
230
1
0
LINE
5
A5
100
AcDbEntity
8
1
62
256
6
ByLayer
370
18
48
1
60
0
100
AcDbLine
10
22.777681
20
-1.739831
30
0
11
23.093924
21
-1.718049
31
0
39
0
210
0
220
0
230
1
0
LINE
5
A6
100
AcDbEntity
8
1
62
256
6
ByLayer
370
18
48
1
60
0
100
AcDbLine
10
24.396166
20
4.102725
30
0
11
24.649248
21
4.355807
31
0
39
0
210
0
220
0
230
1
0
LINE
5
A7
100
AcDbEntity
8
1
62
256
6
ByLayer
370
18
48
1
60
0
100
AcDbLine
10
25.1404
20
3.864656
30
0
11
24.887317
21
3.611574
31
0
39
0
210
0
220
0
230
1
0
LINE
5
A8
100
AcDbEntity
8
1
62
256
6
ByLayer
370
18
48
1
60
0
100
AcDbLine
10
20.401403
20
10.398419
30
0
11
20.251684
21
10.248701
31
0
39
0
210
0
220
0
230
1
0
LINE
5
A9
100
AcDbEntity
8
1
62
256
6
ByLayer
370
18
48
1
60
0
100
AcDbLine
10
28.349309
20
0.765676
30
0
11
30.687895
21
-0.878307
31
0
39
0
210
0
220
0
230
1
0
LINE
5
AA
100
AcDbEntity
8
1
62
256
6
ByLayer
370
18
48
1
60
0
100
AcDbLine
10
29.895272
20
-0.339499
30
0
11
29.906072
21
-0.328699
31
0
39
0
210
0
220
0
230
1
0
LINE
5
AB
100
AcDbEntity
8
1
62
256
6
ByLayer
370
18
48
1
60
0
100
AcDbLine
10
28.342583
20
0.752013
30
0
11
29.895272
21
-0.339499
31
0
39
0
210
0
220
0
230
1
0
LINE
5
AC
100
AcDbEntity
8
1
62
256
6
ByLayer
370
18
48
1
60
0
100
AcDbLine
10
29.892545
20
-0.341449
30
0
11
29.895272
21
-0.339499
31
0
39
0
210
0
220
0
230
1
0
LINE
5
AD
100
AcDbEntity
8
1
62
256
6
ByLayer
370
18
48
1
60
0
100
AcDbLine
10
29.920682
20
-0.360791
30
0
11
29.92377
21
-0.359085
31
0
39
0
210
0
220
0
230
1
0
LINE
5
AE
100
AcDbEntity
8
80
62
256
6
ByLayer
370
18
48
1
60
0
100
AcDbLine
10
0
20
0
30
0
11
-5
21
0
31
0
39
0
210
0
220
0
230
1
0
LINE
5
AF
100
AcDbEntity
8
81
62
256
6
ByLayer
370
18
48
1
60
0
100
AcDbLine
10
34.847093
20
15.0625
30
0
11
44.847093
21
15.0625
31
0
39
0
210
0
220
0
230
1
0
LINE
5
B0
100
AcDbEntity
8
1
62
256
6
ByLayer
370
18
48
1
60
0
100
AcDbLine
10
35.334543
20
15.40986
30
0
11
28.017449
21
14.809385
31
0
39
0
210
0
220
0
230
1
0
LINE
5
B1
100
AcDbEntity
8
1
62
256
6
ByLayer
370
18
48
1
60
0
100
AcDbLine
10
25.1404
20
3.864656
30
0
11
31.183012
21
-0.383189
31
0
39
0
210
0
220
0
230
1
0
LINE
5
B2
100
AcDbEntity
8
1
62
256
6
ByLayer
370
18
48
1
60
0
100
AcDbLine
10
35.593978
20
7.232857
30
0
11
36.194453
21
14.549951
31
0
39
0
210
0
220
0
230
1
0
LINE
5
B3
100
AcDbEntity
8
1
62
256
6
ByLayer
370
18
48
1
60
0
100
AcDbLine
10
20.708059
20
11.564985
30
0
11
27.351146
21
14.634234
31
0
39
0
210
0
220
0
230
1
0
LINE
5
B4
100
AcDbEntity
8
1
62
256
6
ByLayer
370
18
48
1
60
0
100
AcDbLine
10
30.687895
20
-0.878307
30
0
11
31.183012
21
-0.383189
31
0
39
0
210
0
220
0
230
1
0
LINE
5
B5
100
AcDbEntity
8
1
62
256
6
ByLayer
370
18
48
1
60
0
100
AcDbLine
10
35.418826
20
6.566554
30
0
11
32.349577
21
-0.076533
31
0
39
0
210
0
220
0
230
1
0
LINE
5
B6
100
AcDbEntity
8
1
62
256
6
ByLayer
370
18
48
1
60
0
100
AcDbLine
10
24.649248
20
4.355807
30
0
11
20.401403
21
10.398419
31
0
39
0
210
0
220
0
230
1
0
LINE
5
B7
100
AcDbEntity
8
1
62
256
6
ByLayer
370
18
48
1
60
0
100
AcDbLine
10
29.910387
20
6.227547
30
0
11
29.824168
21
6.141329
31
0
39
0
210
0
220
0
230
1
0
LINE
5
B8
100
AcDbEntity
8
1
62
256
6
ByLayer
370
18
48
1
60
0
100
AcDbLine
10
23.7714
20
-1.671386
30
0
11
24.164895
21
-1.277891
31
0
39
0
210
0
220
0
230
1
0
LINE
5
B9
100
AcDbEntity
8
1
62
256
6
ByLayer
370
18
48
1
60
0
100
AcDbLine
10
24.987959
20
-2.639542
30
0
11
25.289361
21
-3.080319
31
0
39
0
210
0
220
0
230
1
0
LINE
5
BA
100
AcDbEntity
8
1
62
256
6
ByLayer
370
18
48
1
60
0
100
AcDbLine
10
24.706296
20
-1.229609
30
0
11
24.300996
21
-1.634909
31
0
39
0
210
0
220
0
230
1
0
LINE
5
BB
100
AcDbEntity
8
1
62
256
6
ByLayer
370
18
48
1
60
0
100
AcDbLine
10
25.061167
20
-3.557574
30
0
11
25.454661
21
-3.164079
31
0
39
0
210
0
220
0
230
1
0
LINE
5
BC
100
AcDbEntity
8
1
62
256
6
ByLayer
370
18
48
1
60
0
100
AcDbLine
10
24.995892
20
-1.682191
30
0
11
24.602397
21
-2.075686
31
0
39
0
210
0
220
0
230
1
0
LINE
5
BD
100
AcDbEntity
8
1
62
256
6
ByLayer
370
18
48
1
60
0
100
AcDbLine
10
23.487419
20
-1.324554
30
0
11
23.093924
21
-1.718049
31
0
39
0
210
0
220
0
230
1
0
LINE
5
BE
100
AcDbEntity
8
1
62
256
6
ByLayer
370
18
48
1
60
0
100
AcDbLine
10
24.300996
20
-1.634909
30
0
11
24.602397
21
-2.075686
31
0
39
0
210
0
220
0
230
1
0
LINE
5
BF
100
AcDbEntity
8
1
62
256
6
ByLayer
370
18
48
1
60
0
100
AcDbLine
10
24.987959
20
-2.639542
30
0
11
25.381454
21
-2.246048
31
0
39
0
210
0
220
0
230
1
0
LINE
5
C0
100
AcDbEntity
8
1
62
256
6
ByLayer
370
18
48
1
60
0
100
AcDbLine
10
25.061167
20
-3.557574
30
0
11
25.289361
21
-3.080319
31
0
39
0
210
0
220
0
230
1
0
LINE
5
C1
100
AcDbEntity
8
1
62
256
6
ByLayer
370
18
48
1
60
0
100
AcDbLine
10
25.162748
20
-3.774598
30
0
11
24.769253
21
-4.168093
31
0
39
0
210
0
220
0
230
1
0
LINE
5
C2
100
AcDbEntity
8
1
62
256
6
ByLayer
370
18
48
1
60
0
100
AcDbLine
10
23.7714
20
-1.671386
30
0
11
24.300996
21
-1.634909
31
0
39
0
210
0
220
0
230
1
0
LINE
5
C3
100
AcDbEntity
8
1
62
256
6
ByLayer
370
18
48
1
60
0
100
AcDbLine
10
25.694661
20
-2.675019
30
0
11
25.289361
21
-3.080319
31
0
39
0
210
0
220
0
230
1
0
MTEXT
5
117
100
AcDbEntity
8
SK6
62
256
6
ByLayer
370
13
48
1
60
0
100
AcDbMText
10
-66.272707
20
-34.999425
30
0
210
0
220
0
230
1
1
\W0.7963;PWLNR 2020K 08HP
40
3.5
41
0
44
1.084337
50
0
71
7
72
5
7
iso_b_vert
0
DIMENSION
5
129
100
AcDbEntity
8
SK2
62
256
6
ByLayer
370
13
48
1
60
0
100
AcDbDimension
2
DimnDraft3D1
10
-99.902907
20
-9.9375
30
0
11
-99.902907
21
0.0625
31
0
70
32
71
5
72
1
41
1
210
0
220
0
230
1
3
Standard
100
AcDbAlignedDimension
13
-91.740407
23
10.0625
33
0
14
-91.740407
24
-9.9375
34
0
50
90
100
AcDbRotatedDimension
1001
ACAD
1000
DSTYLE
1002
{
1070
    74
1070
     0
1070
   279
1070
     0
1070
   172
1070
     1
1070
   173
1070
     1
1070
   340
1005
118
1070
   271
1070
     1
1070
   272
1070
     2
1070
    77
1070
     1
1070
    73
1070
     0
1070
   171
1070
     3
1070
   274
1070
     4
1070
   177
1070
   150
1070
   176
1070
     9
1070
   178
1070
    43
1070
    78
1070
     8
1070
    48
1040
-0.005
1070
    41
1041
3.175
1070
   147
1041
2.25
1070
    42
1041
1.5875
1070
    44
1041
3.175
1070
   140
1041
4.5
1070
   343
1005
12A
1070
   344
1005
12A
1002
}
0
DIMENSION
5
13F
100
AcDbEntity
8
2
62
256
6
ByLayer
370
13
48
1
60
0
100
AcDbDimension
2
DimnDraft3D2
10
52.697093
20
15.4125
30
0
11
52.697093
21
2.7375
31
0
70
32
71
5
72
1
41
1
210
0
220
0
230
1
3
Standard
100
AcDbAlignedDimension
13
1.5875
23
-9.9375
33
0
14
37.784593
24
15.4125
34
0
50
90
100
AcDbRotatedDimension
1001
ACAD
1000
DSTYLE
1002
{
1070
    74
1070
     0
1070
   279
1070
     0
1070
   172
1070
     1
1070
   173
1070
     1
1070
   340
1005
118
1070
   271
1070
     1
1070
   272
1070
     2
1070
    77
1070
     1
1070
    73
1070
     0
1070
   171
1070
     3
1070
   274
1070
     4
1070
   177
1070
   150
1070
   176
1070
     9
1070
   178
1070
    43
1070
    78
1070
     8
1070
    48
1040
-0.005
1070
    41
1041
3.175
1070
   147
1041
2.25
1070
    42
1041
1.5875
1070
    44
1041
3.175
1070
   140
1041
4.5
1070
   343
1005
12A
1070
   344
1005
12A
1002
}
0
DIMENSION
5
14D
100
AcDbEntity
8
SK2
62
256
6
ByLayer
370
13
48
1
60
0
100
AcDbDimension
2
DimnDraft3D3
10
36.197093
20
32.9125
30
0
11
-26.977907
21
32.9125
31
0
70
32
71
5
72
1
41
1
210
0
220
0
230
1
3
Standard
100
AcDbAlignedDimension
13
-90.152907
23
11.65
33
0
14
36.197093
24
17
34
0
50
0
100
AcDbRotatedDimension
1001
ACAD
1000
DSTYLE
1002
{
1070
   279
1070
     0
1070
   172
1070
     1
1070
   173
1070
     1
1070
   340
1005
118
1070
   271
1070
     1
1070
   272
1070
     2
1070
    77
1070
     1
1070
    73
1070
     0
1070
   171
1070
     3
1070
   274
1070
     4
1070
   177
1070
   150
1070
   176
1070
     9
1070
   178
1070
    43
1070
    78
1070
     8
1070
    48
1040
-0.005
1070
    41
1041
3.175
1070
   147
1041
2.25
1070
    42
1041
1.5875
1070
    44
1041
3.175
1070
   140
1041
4.5
1070
   343
1005
12A
1070
   344
1005
12A
1002
}
0
DIMENSION
5
15B
100
AcDbEntity
8
2
62
256
6
ByLayer
370
13
48
1
60
0
100
AcDbDimension
2
DimnDraft3D4
10
27.334163
20
14.70957
30
0
11
23.722808
21
26.915552
31
0
70
34
71
5
72
1
41
1
210
0
220
0
230
1
3
Standard
100
AcDb2LineAngularDimension
13
36.197093
23
15.4125
33
0
14
36.197093
24
13.825
34
0
15
35.334163
25
15.40948
35
0
16
27.040556
26
23.875396
36
0
40
0
0
ENDSEC
0
SECTION
2
OBJECTS
0
DICTIONARY
5
1c5
330
0
100
AcDbDictionary
280
0
281
1
3
ACAD_GROUP
350
1c6
3
ACAD_MLINESTYLE
350
1c7
0
DICTIONARY
5
1c6
330
0
100
AcDbDictionary
280
0
281
1
0
DICTIONARY
5
1c7
330
0
100
AcDbDictionary
280
0
281
1
3
Standard
350
18
0
MLINESTYLE
5
18
330
1c7
100
AcDbMlineStyle
2
Standard
70
0
3

62
256
51
90
52
90
71
2
49
-0.5
62
256
6
ByLayer
49
0.5
62
256
6
ByLayer
0
RASTERVARIABLES
5
1b4
330

100
AcDbRasterVariables
90
0
70
1
71
1
72
1
0
ENDSEC
0
EOF
