0
SECTION
2
HEADER
9
$ACADVER
1
AC1015
9
$DWGCODEPAGE
3
ANSI_1252
9
$HANDSEED
5
1d3
9
$ANGBASE
50
0
9
$ANGDIR
70
0
9
$ATTMODE
70
1
9
$AUNITS
70
0
9
$AUPREC
70
0
9
$CECOLOR
62
256
9
$CELTSCALE
40
1
9
$CELTYPE
6
ByLayer
9
$CELWEIGHT
370
18
9
$CLAYER
8
0
9
$CMLJUST
70
0
9
$CMLSCALE
40
1
9
$CMLSTYLE
2
Standard
9
$DIMSTYLE
2
Standard
9
$TEXTSIZE
40
0.2
9
$TEXTSTYLE
7
Standard
9
$LUNITS
70
2
9
$LUPREC
70
4
9
$EXTNAMES
290
1
9
$INSUNITS
70
4
9
$LTSCALE
40
1
9
$LWDISPLAY
290
1
9
$PDMODE
70
0
9
$PDSIZE
40
0
9
$PLINEGEN
70
0
0
ENDSEC
0
SECTION
2
CLASSES
0
CLASS
1
RASTERVARIABLES
2
AcDbRasterVariables
3
ISM
90
0
280
0
281
0
0
ENDSEC
0
SECTION
2
TABLES
0
TABLE
2
VPORT
5
1c9
100
AcDbSymbolTable
0
VPORT
5
1
100
AcDbSymbolTableRecord
100
AcDbViewportTableRecord
2
*Active
70
0
10
0
20
0
11
1
21
1
12
-1
22
1
13
0
23
0
14
0.5
24
0.5
15
10
25
10
16
0
26
0
36
1
17
0
27
0
37
0
0
ENDTAB
0
TABLE
2
LTYPE
5
1ca
100
AcDbSymbolTable
0
LTYPE
5
14
100
AcDbSymbolTableRecord
100
AcDbLinetypeTableRecord
70
0
2
ByBlock
3

72
65
73
0
40
0
0
LTYPE
5
15
100
AcDbSymbolTableRecord
100
AcDbLinetypeTableRecord
70
0
2
ByLayer
3

72
65
73
0
40
0
0
LTYPE
5
16
100
AcDbSymbolTableRecord
100
AcDbLinetypeTableRecord
70
0
2
CONTINUOUS
3
Solid line
72
65
73
0
40
0
0
LTYPE
5
6A
100
AcDbSymbolTableRecord
100
AcDbLinetypeTableRecord
70
0
2
CENTER
3
____ _ ____ _ ____ _ ____
72
65
73
4
40
47.5
49
22
74
0
49
-8.5
74
0
49
8.5
74
0
49
-8.5
74
0
0
LTYPE
5
6B
100
AcDbSymbolTableRecord
100
AcDbLinetypeTableRecord
70
0
2
DASHED
3
__ __ __ __ __ __ __ __ __
72
65
73
2
40
25.72
49
12.86
74
0
49
-12.86
74
0
0
ENDTAB
0
TABLE
2
LAYER
5
1cb
100
AcDbSymbolTable
0
LAYER
5
10
100
AcDbSymbolTableRecord
100
AcDbLayerTableRecord
2
0
70
0
62
7
6
CONTINUOUS
290
1
370
-3
390
0
0
LAYER
5
6D
100
AcDbSymbolTableRecord
100
AcDbLayerTableRecord
2
80
70
0
62
-6
6
CONTINUOUS
290
1
370
-3
390
0
0
LAYER
5
6F
100
AcDbSymbolTableRecord
100
AcDbLayerTableRecord
2
81
70
0
62
-3
6
CONTINUOUS
290
1
370
-3
390
0
0
LAYER
5
71
100
AcDbSymbolTableRecord
100
AcDbLayerTableRecord
2
1
70
0
62
4
6
CONTINUOUS
290
1
370
-3
390
0
0
LAYER
5
134
100
AcDbSymbolTableRecord
100
AcDbLayerTableRecord
2
2
70
0
62
7
6
CONTINUOUS
290
1
370
-3
390
0
0
LAYER
5
1b6
100
AcDbSymbolTableRecord
100
AcDbLayerTableRecord
2
SK1
70
0
62
4
6
CONTINUOUS
290
1
370
-3
390
0
0
LAYER
5
1b7
100
AcDbSymbolTableRecord
100
AcDbLayerTableRecord
2
SK6
70
0
62
5
6
CONTINUOUS
290
1
370
-3
390
0
0
LAYER
5
1b8
100
AcDbSymbolTableRecord
100
AcDbLayerTableRecord
2
SK2
70
0
62
7
6
CONTINUOUS
290
1
370
-3
390
0
0
ENDTAB
0
TABLE
2
STYLE
5
1cc
100
AcDbSymbolTable
0
STYLE
5
11
100
AcDbSymbolTableRecord
100
AcDbTextStyleTableRecord
2
Standard
3
txt
70
0
71
0
40
0
41
1
42
0
50
0
0
STYLE
5
119
100
AcDbSymbolTableRecord
100
AcDbTextStyleTableRecord
2
iso_b_vert
3
simplex.shx
70
0
71
0
40
0
41
1
42
0
50
0
0
STYLE
5
11A
100
AcDbSymbolTableRecord
100
AcDbTextStyleTableRecord
2
DWGDirectTextStyle
3
simplex
70
0
71
0
40
0
41
1
42
0
50
0
0
ENDTAB
0
TABLE
2
DIMSTYLE
5
1cd
100
AcDbSymbolTable
100
AcDbDimStyleTable
0
DIMSTYLE
105
27
100
AcDbSymbolTableRecord
100
AcDbDimStyleTableRecord
2
Standard
70
0
3
<>
41
0.18
42
0.0625
44
0.18
140
0.18
147
0.09
73
0
74
0
77
1
271
2
275
0
278
52
280
0
340
11
0
ENDTAB
0
TABLE
2
VIEW
5
1ce
100
AcDbSymbolTable
0
ENDTAB
0
TABLE
2
UCS
5
1cf
100
AcDbSymbolTable
0
ENDTAB
0
TABLE
2
APPID
5
1d0
100
AcDbSymbolTable
0
APPID
5
12
100
AcDbSymbolTableRecord
100
AcDbRegAppTableRecord
2
ACAD
70
0
0
ENDTAB
0
TABLE
2
BLOCK_RECORD
5
1d1
100
AcDbSymbolTable
0
BLOCK_RECORD
5
1F
100
AcDbSymbolTableRecord
100
AcDbBlockTableRecord
2
*Model_Space
340
0
70
0
0
BLOCK_RECORD
5
1B
100
AcDbSymbolTableRecord
100
AcDbBlockTableRecord
2
*Paper_Space
340
0
70
0
0
BLOCK_RECORD
5
23
100
AcDbSymbolTableRecord
100
AcDbBlockTableRecord
2
*Paper_Space0
340
0
70
0
0
BLOCK_RECORD
5
11C
100
AcDbSymbolTableRecord
100
AcDbBlockTableRecord
2
DimnDraft3D1
340
0
70
0
0
BLOCK_RECORD
5
12B
100
AcDbSymbolTableRecord
100
AcDbBlockTableRecord
2
_CLOSED
340
0
70
0
0
BLOCK_RECORD
5
132
100
AcDbSymbolTableRecord
100
AcDbBlockTableRecord
2
DimnDraft3D2
340
0
70
0
0
BLOCK_RECORD
5
141
100
AcDbSymbolTableRecord
100
AcDbBlockTableRecord
2
DimnDraft3D3
340
0
70
0
0
BLOCK_RECORD
5
14F
100
AcDbSymbolTableRecord
100
AcDbBlockTableRecord
2
DimnDraft3D4
340
0
70
0
0
ENDTAB
0
ENDSEC
0
SECTION
2
BLOCKS
0
BLOCK
5
20
100
AcDbEntity
8
0
100
AcDbBlockBegin
2
*Model_Space
70
0
10
0
20
0
30
0
3
*Model_Space
0
ENDBLK
5
21
100
AcDbEntity
8
0
100
AcDbBlockEnd
0
BLOCK
5
1C
100
AcDbEntity
8
0
100
AcDbBlockBegin
2
*Paper_Space
70
0
10
0
20
0
30
0
3
*Paper_Space
0
ENDBLK
5
1D
100
AcDbEntity
8
0
100
AcDbBlockEnd
0
BLOCK
5
24
100
AcDbEntity
8
0
100
AcDbBlockBegin
2
*Paper_Space0
70
0
10
0
20
0
30
0
3
*Paper_Space0
0
ENDBLK
5
25
100
AcDbEntity
8
0
100
AcDbBlockEnd
0
BLOCK
5
128
100
AcDbEntity
8
0
100
AcDbBlockBegin
2
DimnDraft3D1
70
0
10
0
20
0
30
0
3
DimnDraft3D1
0
MTEXT
5
11D
100
AcDbEntity
8
SK2
62
256
6
ByLayer
370
13
48
1
60
0
100
AcDbMText
10
-101.027907
20
-1.625658
30
0
210
0
220
0
230
1
1
\W0.6740;20
40
4.5
41
0
44
1.084337
50
90
71
7
72
5
7
iso_b_vert
0
LINE
5
11F
100
AcDbEntity
8
SK2
62
256
6
ByLayer
370
13
48
1
60
0
100
AcDbLine
10
-91.740407
20
-10.0625
30
0
11
-103.077907
21
-10.0625
31
0
39
0
210
0
220
0
230
1
0
LINE
5
120
100
AcDbEntity
8
SK2
62
256
6
ByLayer
370
13
48
1
60
0
100
AcDbLine
10
-91.740407
20
9.9375
30
0
11
-103.077907
21
9.9375
31
0
39
0
210
0
220
0
230
1
0
LINE
5
121
100
AcDbEntity
8
SK2
62
256
6
ByLayer
370
13
48
1
60
0
100
AcDbLine
10
-99.902907
20
-10.0625
30
0
11
-99.902907
21
9.9375
31
0
39
0
210
0
220
0
230
1
0
LINE
5
122
100
AcDbEntity
8
SK2
62
256
6
ByLayer
370
13
48
1
60
0
100
AcDbLine
10
-99.902907
20
-10.0625
30
0
11
-100.753646
21
-6.887503
31
0
39
0
210
0
220
0
230
1
0
LINE
5
123
100
AcDbEntity
8
SK2
62
256
6
ByLayer
370
13
48
1
60
0
100
AcDbLine
10
-99.902907
20
-10.0625
30
0
11
-99.052169
21
-6.887497
31
0
39
0
210
0
220
0
230
1
0
LINE
5
124
100
AcDbEntity
8
SK2
62
256
6
ByLayer
370
13
48
1
60
0
100
AcDbLine
10
-100.753646
20
-6.887503
30
0
11
-99.052169
21
-6.887497
31
0
39
0
210
0
220
0
230
1
0
LINE
5
125
100
AcDbEntity
8
SK2
62
256
6
ByLayer
370
13
48
1
60
0
100
AcDbLine
10
-99.902907
20
9.9375
30
0
11
-99.052169
21
6.762503
31
0
39
0
210
0
220
0
230
1
0
LINE
5
126
100
AcDbEntity
8
SK2
62
256
6
ByLayer
370
13
48
1
60
0
100
AcDbLine
10
-99.902907
20
9.9375
30
0
11
-100.753646
21
6.762497
31
0
39
0
210
0
220
0
230
1
0
LINE
5
127
100
AcDbEntity
8
SK2
62
256
6
ByLayer
370
13
48
1
60
0
100
AcDbLine
10
-99.052169
20
6.762503
30
0
11
-100.753646
21
6.762497
31
0
39
0
210
0
220
0
230
1
0
ENDBLK
5
129
100
AcDbEntity
8
0
100
AcDbBlockEnd
0
BLOCK
5
12C
100
AcDbEntity
8
0
100
AcDbBlockBegin
2
_CLOSED
70
0
10
0
20
0
30
0
3
_CLOSED
0
LINE
5
12E
100
AcDbEntity
8
0
62
256
6
ByLayer
370
-2
48
1
60
0
100
AcDbLine
10
-1
20
0.166667
30
0
11
0
21
0
31
0
39
0
210
0
220
0
230
1
0
LINE
5
12F
100
AcDbEntity
8
0
62
256
6
ByLayer
370
-2
48
1
60
0
100
AcDbLine
10
0
20
0
30
0
11
-1
21
-0.166667
31
0
39
0
210
0
220
0
230
1
0
LINE
5
130
100
AcDbEntity
8
0
62
256
6
ByLayer
370
-2
48
1
60
0
100
AcDbLine
10
-1
20
0.166667
30
0
11
-1
21
-0.166667
31
0
39
0
210
0
220
0
230
1
0
LINE
5
131
100
AcDbEntity
8
0
62
256
6
ByLayer
370
-2
48
1
60
0
100
AcDbLine
10
0
20
0
30
0
11
-1
21
0
31
0
39
0
210
0
220
0
230
1
0
ENDBLK
5
12D
100
AcDbEntity
8
0
100
AcDbBlockEnd
0
BLOCK
5
13E
100
AcDbEntity
8
0
100
AcDbBlockBegin
2
DimnDraft3D2
70
0
10
0
20
0
30
0
3
DimnDraft3D2
0
MTEXT
5
133
100
AcDbEntity
8
2
62
256
6
ByLayer
370
13
48
1
60
0
100
AcDbMText
10
51.572093
20
-4.300658
30
0
210
0
220
0
230
1
1
\W0.6740;25
40
4.5
41
0
44
1.084337
50
90
71
7
72
5
7
iso_b_vert
0
LINE
5
135
100
AcDbEntity
8
2
62
256
6
ByLayer
370
13
48
1
60
0
100
AcDbLine
10
37.784593
20
-15.4125
30
0
11
55.872093
21
-15.4125
31
0
39
0
210
0
220
0
230
1
0
LINE
5
136
100
AcDbEntity
8
2
62
256
6
ByLayer
370
13
48
1
60
0
100
AcDbLine
10
11.789068
20
9.9375
30
0
11
55.872093
21
9.9375
31
0
39
0
210
0
220
0
230
1
0
LINE
5
137
100
AcDbEntity
8
2
62
256
6
ByLayer
370
13
48
1
60
0
100
AcDbLine
10
52.697093
20
-15.4125
30
0
11
52.697093
21
9.9375
31
0
39
0
210
0
220
0
230
1
0
LINE
5
138
100
AcDbEntity
8
2
62
256
6
ByLayer
370
13
48
1
60
0
100
AcDbLine
10
52.697093
20
-15.4125
30
0
11
51.846354
21
-12.237503
31
0
39
0
210
0
220
0
230
1
0
LINE
5
139
100
AcDbEntity
8
2
62
256
6
ByLayer
370
13
48
1
60
0
100
AcDbLine
10
52.697093
20
-15.4125
30
0
11
53.547831
21
-12.237497
31
0
39
0
210
0
220
0
230
1
0
LINE
5
13A
100
AcDbEntity
8
2
62
256
6
ByLayer
370
13
48
1
60
0
100
AcDbLine
10
51.846354
20
-12.237503
30
0
11
53.547831
21
-12.237497
31
0
39
0
210
0
220
0
230
1
0
LINE
5
13B
100
AcDbEntity
8
2
62
256
6
ByLayer
370
13
48
1
60
0
100
AcDbLine
10
52.697093
20
9.9375
30
0
11
53.547831
21
6.762503
31
0
39
0
210
0
220
0
230
1
0
LINE
5
13C
100
AcDbEntity
8
2
62
256
6
ByLayer
370
13
48
1
60
0
100
AcDbLine
10
52.697093
20
9.9375
30
0
11
51.846354
21
6.762497
31
0
39
0
210
0
220
0
230
1
0
LINE
5
13D
100
AcDbEntity
8
2
62
256
6
ByLayer
370
13
48
1
60
0
100
AcDbLine
10
53.547831
20
6.762503
30
0
11
51.846354
21
6.762497
31
0
39
0
210
0
220
0
230
1
0
ENDBLK
5
13F
100
AcDbEntity
8
0
100
AcDbBlockEnd
0
BLOCK
5
14C
100
AcDbEntity
8
0
100
AcDbBlockBegin
2
DimnDraft3D3
70
0
10
0
20
0
30
0
3
DimnDraft3D3
0
MTEXT
5
142
100
AcDbEntity
8
SK2
62
256
6
ByLayer
370
13
48
1
60
0
100
AcDbMText
10
-29.660144
20
-40.7875
30
0
210
0
220
0
230
1
1
\W0.6217;125
40
4.5
41
0
44
1.084337
50
0
71
7
72
5
7
iso_b_vert
0
LINE
5
143
100
AcDbEntity
8
SK2
62
256
6
ByLayer
370
13
48
1
60
0
100
AcDbLine
10
-90.152907
20
-11.65
30
0
11
-90.152907
21
-45.0875
31
0
39
0
210
0
220
0
230
1
0
LINE
5
144
100
AcDbEntity
8
SK2
62
256
6
ByLayer
370
13
48
1
60
0
100
AcDbLine
10
36.197093
20
-17
30
0
11
36.197093
21
-45.0875
31
0
39
0
210
0
220
0
230
1
0
LINE
5
145
100
AcDbEntity
8
SK2
62
256
6
ByLayer
370
13
48
1
60
0
100
AcDbLine
10
-90.152907
20
-41.9125
30
0
11
36.197093
21
-41.9125
31
0
39
0
210
0
220
0
230
1
0
LINE
5
146
100
AcDbEntity
8
SK2
62
256
6
ByLayer
370
13
48
1
60
0
100
AcDbLine
10
-90.152907
20
-41.9125
30
0
11
-86.977911
21
-41.061761
31
0
39
0
210
0
220
0
230
1
0
LINE
5
147
100
AcDbEntity
8
SK2
62
256
6
ByLayer
370
13
48
1
60
0
100
AcDbLine
10
-90.152907
20
-41.9125
30
0
11
-86.977904
21
-42.763239
31
0
39
0
210
0
220
0
230
1
0
LINE
5
148
100
AcDbEntity
8
SK2
62
256
6
ByLayer
370
13
48
1
60
0
100
AcDbLine
10
-86.977911
20
-41.061761
30
0
11
-86.977904
21
-42.763239
31
0
39
0
210
0
220
0
230
1
0
LINE
5
149
100
AcDbEntity
8
SK2
62
256
6
ByLayer
370
13
48
1
60
0
100
AcDbLine
10
36.197093
20
-41.9125
30
0
11
33.022096
21
-42.763239
31
0
39
0
210
0
220
0
230
1
0
LINE
5
14A
100
AcDbEntity
8
SK2
62
256
6
ByLayer
370
13
48
1
60
0
100
AcDbLine
10
36.197093
20
-41.9125
30
0
11
33.022089
21
-41.061761
31
0
39
0
210
0
220
0
230
1
0
LINE
5
14B
100
AcDbEntity
8
SK2
62
256
6
ByLayer
370
13
48
1
60
0
100
AcDbLine
10
33.022096
20
-42.763239
30
0
11
33.022089
21
-41.061761
31
0
39
0
210
0
220
0
230
1
0
ENDBLK
5
14D
100
AcDbEntity
8
0
100
AcDbBlockEnd
0
BLOCK
5
15A
100
AcDbEntity
8
0
100
AcDbBlockBegin
2
DimnDraft3D4
70
0
10
0
20
0
30
0
3
DimnDraft3D4
0
MTEXT
5
150
100
AcDbEntity
8
2
62
256
6
ByLayer
370
13
48
1
60
0
100
AcDbMText
10
17.540308
20
-25.164168
30
0
210
0
220
0
230
1
1
\W0.8292;95%%d0'
40
4.5
41
0
44
1.084337
50
312.5
71
7
72
5
7
iso_b_vert
0
LINE
5
151
100
AcDbEntity
8
2
62
256
6
ByLayer
370
13
48
1
60
0
100
AcDbLine
10
25.783146
20
-14.573874
30
0
11
11.69629
21
-13.341434
31
0
39
0
210
0
220
0
230
1
0
LINE
5
152
100
AcDbEntity
8
2
62
256
6
ByLayer
370
13
48
1
60
0
100
AcDbLine
10
36.197093
20
-17
30
0
11
36.197093
21
-40.079368
31
0
39
0
210
0
220
0
230
1
0
ARC
5
153
100
AcDbEntity
8
2
62
256
6
ByLayer
370
13
48
1
60
0
100
AcDbCircle
39
0
10
36.197093
20
-15.484976
30
0
40
21.4193920057133
210
0
220
0
230
1
100
AcDbArc
50
175
51
270
0
LINE
5
154
100
AcDbEntity
8
2
62
256
6
ByLayer
370
13
48
1
60
0
100
AcDbLine
10
14.859208
20
-13.618153
30
0
11
15.549311
21
-16.831892
31
0
39
0
210
0
220
0
230
1
0
LINE
5
155
100
AcDbEntity
8
2
62
256
6
ByLayer
370
13
48
1
60
0
100
AcDbLine
10
14.859208
20
-13.618153
30
0
11
13.849983
21
-16.74639
31
0
39
0
210
0
220
0
230
1
0
LINE
5
156
100
AcDbEntity
8
2
62
256
6
ByLayer
370
13
48
1
60
0
100
AcDbLine
10
15.549311
20
-16.831892
30
0
11
13.849983
21
-16.74639
31
0
39
0
210
0
220
0
230
1
0
LINE
5
157
100
AcDbEntity
8
2
62
256
6
ByLayer
370
13
48
1
60
0
100
AcDbLine
10
36.197093
20
-36.904368
30
0
11
32.992806
21
-37.637109
31
0
39
0
210
0
220
0
230
1
0
LINE
5
158
100
AcDbEntity
8
2
62
256
6
ByLayer
370
13
48
1
60
0
100
AcDbLine
10
36.197093
20
-36.904368
30
0
11
33.055723
21
-35.936795
31
0
39
0
210
0
220
0
230
1
0
LINE
5
159
100
AcDbEntity
8
2
62
256
6
ByLayer
370
13
48
1
60
0
100
AcDbLine
10
32.992806
20
-37.637109
30
0
11
33.055723
21
-35.936795
31
0
39
0
210
0
220
0
230
1
0
ENDBLK
5
15B
100
AcDbEntity
8
0
100
AcDbBlockEnd
0
ENDSEC
0
SECTION
2
ENTITIES
0
ARC
5
C3
100
AcDbEntity
8
1
62
256
6
ByLayer
370
18
48
1
60
0
100
AcDbCircle
39
0
10
-14.878335
20
-19.002148
30
0
40
10.1999999999996
210
0
220
0
230
-1
100
AcDbArc
50
62.709215
51
114.79795
0
ELLIPSE
5
C4
100
AcDbEntity
8
1
62
256
6
ByLayer
370
18
48
1
60
0
100
AcDbEllipse
10
0
20
11.544497
30
0
11
-9.83969118753469E-17
21
1.60699659230445
31
0
210
0
220
0
230
-1
40
0.995646
41
1.83259571459377
42
3.14159265358979
0
ELLIPSE
5
C5
100
AcDbEntity
8
1
62
256
6
ByLayer
370
18
48
1
60
0
100
AcDbEllipse
10
30.13187
20
0.148517
30
0
11
-1.41421356237309
21
-1.4142135623731
31
0
210
0
220
0
230
1
40
0.989133
41
2.78816348006094
42
0.000978492078852907
0
ELLIPSE
5
C6
100
AcDbEntity
8
1
62
256
6
ByLayer
370
18
48
1
60
0
100
AcDbEllipse
10
22.066093
20
9.434541
30
0
11
-1.22489996139539
21
-1.02937849432246
31
0
210
0
220
0
230
1
40
0.146486
41
-1.55809177718712
42
-0.346369070844654
0
ELLIPSE
5
C7
100
AcDbEntity
8
1
62
256
6
ByLayer
370
18
48
1
60
0
100
AcDbEllipse
10
3.094935
20
5.655915
30
0
11
0.0194761873804464
21
-2.07641195486447
31
0
210
0
220
0
230
-1
40
0.199715
41
1.75291908307621
42
-2.95946989730808
0
ELLIPSE
5
C8
100
AcDbEntity
8
1
62
256
6
ByLayer
370
18
48
1
60
0
100
AcDbEllipse
10
26.725895
20
-5.941303
30
0
11
2.12132034355963
21
2.12132034355966
31
0
210
0
220
0
230
1
40
0.989133
41
0.950010041742901
42
2.19158261184691
0
ELLIPSE
5
C9
100
AcDbEntity
8
1
62
256
6
ByLayer
370
18
48
1
60
0
100
AcDbEllipse
10
20.37367
20
6.618043
30
0
11
1.13137084989936
21
1.13137084989936
31
0
210
0
220
0
230
-1
40
0.957882
41
0.0855814121746284
42
1.5707963267949
0
ELLIPSE
5
CA
100
AcDbEntity
8
1
62
256
6
ByLayer
370
18
48
1
60
0
100
AcDbEllipse
10
19.453983
20
7.53773
30
0
11
2.26274169979694
21
2.26274169979697
31
0
210
0
220
0
230
1
40
0.989133
41
-1.07871711232384
42
-0.0855814121740211
0
ELLIPSE
5
CB
100
AcDbEntity
8
1
62
256
6
ByLayer
370
18
48
1
60
0
100
AcDbEllipse
10
29.560323
20
0.720064
30
0
11
-1.45944804326551
21
-1.45944804326552
31
0
210
0
220
0
230
1
40
0.989133
41
2.78816348006094
42
2.86302131662752
0
ELLIPSE
5
CC
100
AcDbEntity
8
1
62
256
6
ByLayer
370
18
48
1
60
0
100
AcDbEllipse
10
31.247888
20
1.505639
30
0
11
0.18192580681012
21
0.0830842994583635
31
0
210
0
220
0
230
1
40
0.137937
41
0.0397657295971363
42
1.62219758473925
0
ELLIPSE
5
CD
100
AcDbEntity
8
1
62
256
6
ByLayer
370
18
48
1
60
0
100
AcDbEllipse
10
11.350052
20
-1.2815
30
0
11
-1.02937849432246
21
-1.22489996139539
31
0
210
0
220
0
230
1
40
0.146486
41
-2.79522358274511
42
-1.58350087640266
0
ELLIPSE
5
CE
100
AcDbEntity
8
1
62
256
6
ByLayer
370
18
48
1
60
0
100
AcDbEllipse
10
14.166549
20
0.410923
30
0
11
1.13137084989836
21
1.13137084989836
31
0
210
0
220
0
230
-1
40
0.957882
41
1.5707963267949
42
3.05601124141583
0
ELLIPSE
5
CF
100
AcDbEntity
8
1
62
256
6
ByLayer
370
18
48
1
60
0
100
AcDbEllipse
10
13.246863
20
1.330609
30
0
11
2.26274169979694
21
2.26274169979697
31
0
210
0
220
0
230
1
40
0.989133
41
-3.05601124141578
42
-1.57079632679491
0
ELLIPSE
5
D0
100
AcDbEntity
8
1
62
256
6
ByLayer
370
18
48
1
60
0
100
AcDbEllipse
10
29.539288
20
0.741098
30
0
11
1.31803626012211
21
1.31803626012213
31
0
210
0
220
0
230
1
40
0.989133
41
-0.353429173528857
42
-0.0608978892449853
0
ELLIPSE
5
D1
100
AcDbEntity
8
1
62
256
6
ByLayer
370
18
48
1
60
0
100
AcDbEllipse
10
29.539288
20
0.741098
30
0
11
1.31803626012211
21
1.31803626012213
31
0
210
0
220
0
230
1
40
0.989133
41
-3.08071124463303
42
-3.05276853233417
0
ELLIPSE
5
D2
100
AcDbEntity
8
1
62
256
6
ByLayer
370
18
48
1
60
0
100
AcDbEllipse
10
29.277545
20
-7.758624
30
0
11
1.83847763108501
21
1.83847763108503
31
0
210
0
220
0
230
1
40
0.989133
41
2.64856166443569
42
3.14157185772729
0
ELLIPSE
5
D3
100
AcDbEntity
8
1
62
256
6
ByLayer
370
18
48
1
60
0
100
AcDbEllipse
10
28.289564
20
-8.2393
30
0
11
1.83847763108501
21
1.83847763108503
31
0
210
0
220
0
230
1
40
0.989133
41
-4.76932394613584E-06
42
0.155525212892661
0
ELLIPSE
5
D4
100
AcDbEntity
8
1
62
256
6
ByLayer
370
18
48
1
60
0
100
AcDbEllipse
10
28.866739
20
-8.245335
30
0
11
-1.66170093578838
21
-1.66170093578839
31
0
210
0
220
0
230
1
40
0.989133
41
-3.14158564550817
42
-2.67299568510761
0
ELLIPSE
5
D5
100
AcDbEntity
8
1
62
256
6
ByLayer
370
18
48
1
60
0
100
AcDbEllipse
10
28.076615
20
-7.292023
30
0
11
-2.01525432638166
21
-2.01525432638166
31
0
210
0
220
0
230
1
40
0.989133
41
2.43977859210785
42
2.66089438684505
0
ELLIPSE
5
D6
100
AcDbEntity
8
1
62
256
6
ByLayer
370
18
48
1
60
0
100
AcDbEllipse
10
28.076615
20
-7.292023
30
0
11
-2.01525432638166
21
-2.01525432638166
31
0
210
0
220
0
230
1
40
0.989133
41
0.480663723676692
42
0.726531064550556
0
ELLIPSE
5
D7
100
AcDbEntity
8
1
62
256
6
ByLayer
370
18
48
1
60
0
100
AcDbEllipse
10
28.268945
20
-7.484352
30
0
11
1.96222131779266
21
1.96222131779268
31
0
210
0
220
0
230
1
40
0.989133
41
-2.72789371514172
42
-2.41020956325283
0
ELLIPSE
5
D8
100
AcDbEntity
8
1
62
256
6
ByLayer
370
18
48
1
60
0
100
AcDbEllipse
10
28.268945
20
-7.484352
30
0
11
1.96222131779266
21
1.96222131779268
31
0
210
0
220
0
230
1
40
0.989133
41
-0.780415074387606
42
-0.41366871198533
0
ELLIPSE
5
D9
100
AcDbEntity
8
1
62
256
6
ByLayer
370
18
48
1
60
0
100
AcDbEllipse
10
23.88901
20
2.863621
30
0
11
-2.82842712474619
21
-2.8284271247462
31
0
210
0
220
0
230
1
40
0.989133
41
-1.14782489359936
42
-2.24484073350127E-16
0
ELLIPSE
5
DA
100
AcDbEntity
8
1
62
256
6
ByLayer
370
18
48
1
60
0
100
AcDbEllipse
10
23.88901
20
2.863621
30
0
11
-2.82842712474619
21
-2.8284271247462
31
0
210
0
220
0
230
1
40
0.989133
41
0
42
2.35073128370055
0
ELLIPSE
5
DB
100
AcDbEntity
8
1
62
256
6
ByLayer
370
18
48
1
60
0
100
AcDbEllipse
10
23.88901
20
2.863621
30
0
11
-2.82842712474619
21
-2.8284271247462
31
0
210
0
220
0
230
1
40
0.989133
41
2.35073131423667
42
-1.82346345610483
0
ELLIPSE
5
DC
100
AcDbEntity
8
1
62
256
6
ByLayer
370
18
48
1
60
0
100
AcDbEllipse
10
23.448732
20
3.303898
30
0
11
-1.09955104474508
21
-1.09955104474508
31
0
210
0
220
0
230
1
40
0.989133
41
0.230646881014491
42
2.35073081154258
0
ELLIPSE
5
DD
100
AcDbEntity
8
1
62
256
6
ByLayer
370
18
48
1
60
0
100
AcDbEllipse
10
23.448732
20
3.303898
30
0
11
-1.09955104474508
21
-1.09955104474508
31
0
210
0
220
0
230
1
40
0.989133
41
2.35073145809448
42
3.03795473757105
0
ELLIPSE
5
DE
100
AcDbEntity
8
1
62
256
6
ByLayer
370
18
48
1
60
0
100
AcDbEllipse
10
23.552694
20
3.199937
30
0
11
1.09955104474507
21
1.09955104474509
31
0
210
0
220
0
230
1
40
0.989133
41
-0.114447178403815
42
9.18791027592765E-06
0
ELLIPSE
5
DF
100
AcDbEntity
8
1
62
256
6
ByLayer
370
18
48
1
60
0
100
AcDbEllipse
10
23.552694
20
3.199937
30
0
11
1.09955104474507
21
1.09955104474509
31
0
210
0
220
0
230
1
40
0.989133
41
-2.95969040588009
42
-2.65189968600723
0
ELLIPSE
5
E0
100
AcDbEntity
8
1
62
256
6
ByLayer
370
18
48
1
60
0
100
AcDbEllipse
10
20.550481
20
-10.352572
30
0
11
-0.561266007566821
21
-0.561266007566823
31
0
210
0
220
0
230
1
40
0.989133
41
-1.18256999174797
42
2.98529523459626E-08
0
ELLIPSE
5
E1
100
AcDbEntity
8
1
62
256
6
ByLayer
370
18
48
1
60
0
100
AcDbEllipse
10
31.137164
20
0.234111
30
0
11
-0.561266007566821
21
-0.561266007566823
31
0
210
0
220
0
230
1
40
0.989133
41
3.14159240258265
42
-1.74532925199436
0
ELLIPSE
5
E2
100
AcDbEntity
8
1
62
256
6
ByLayer
370
18
48
1
60
0
100
AcDbEllipse
10
28.866724
20
-8.082131
30
0
11
1.82433549546128
21
1.8243354954613
31
0
210
0
220
0
230
1
40
0.989133
41
-3.00391695197088
42
-2.3650936211137
0
ELLIPSE
5
E3
100
AcDbEntity
8
1
62
256
6
ByLayer
370
18
48
1
60
0
100
AcDbEllipse
10
28.866724
20
-8.082131
30
0
11
1.82433549546128
21
1.8243354954613
31
0
210
0
220
0
230
1
40
0.989133
41
-1.06260924921898
42
-0.137704802889872
0
ELLIPSE
5
E4
100
AcDbEntity
8
1
62
256
6
ByLayer
370
18
48
1
60
0
100
AcDbEllipse
10
33.611467
20
-7.417047
30
0
11
1.41421356237309
21
1.4142135623731
31
0
210
0
220
0
230
1
40
0.989133
41
-0.698131700797737
42
-0.349065850398875
0
ELLIPSE
5
E5
100
AcDbEntity
8
1
62
256
6
ByLayer
370
18
48
1
60
0
100
AcDbEllipse
10
31.632282
20
-0.261006
30
0
11
0.561266007566819
21
0.561266007566826
31
0
210
0
220
0
230
1
40
0.989133
41
-0.349065850398877
42
1.39626340159545
0
ELLIPSE
5
E6
100
AcDbEntity
8
1
62
256
6
ByLayer
370
18
48
1
60
0
100
AcDbEllipse
10
35.407644
20
-14.623051
30
0
11
0.561266007566819
21
0.561266007566826
31
0
210
0
220
0
230
1
40
0.989133
41
-2.44346095279208
42
-0.698131700797755
0
ELLIPSE
5
E7
100
AcDbEntity
8
1
62
256
6
ByLayer
370
18
48
1
60
0
100
AcDbEllipse
10
21.045599
20
-10.847689
30
0
11
0.561266007566819
21
0.561266007566826
31
0
210
0
220
0
230
1
40
0.989133
41
1.74532925199435
42
-2.79252680319094
0
ELLIPSE
5
E8
100
AcDbEntity
8
1
62
256
6
ByLayer
370
18
48
1
60
0
100
AcDbEllipse
10
29.361841
20
-8.577249
30
0
11
-1.82433549546129
21
-1.8243354954613
31
0
210
0
220
0
230
1
40
0.989133
41
0
42
6.28318530717959
0
ELLIPSE
5
E9
100
AcDbEntity
8
1
62
256
6
ByLayer
370
18
48
1
60
0
100
AcDbEllipse
10
26.272418
20
-5.487825
30
0
11
1.41421356237309
21
1.4142135623731
31
0
210
0
220
0
230
1
40
0.989133
41
1.39626340159547
42
1.74532925199433
0
ELLIPSE
5
EA
100
AcDbEntity
8
1
62
256
6
ByLayer
370
18
48
1
60
0
100
AcDbEllipse
10
28.201639
20
-12.826874
30
0
11
1.41421356237309
21
1.4142135623731
31
0
210
0
220
0
230
1
40
0.989133
41
-2.79252680319093
42
-2.44346095279206
0
ELLIPSE
5
EB
100
AcDbEntity
8
1
62
256
6
ByLayer
370
18
48
1
60
0
100
AcDbEllipse
10
29.786957
20
-8.268036
30
0
11
1.48492424049174
21
1.48492424049176
31
0
210
0
220
0
230
1
40
0.989133
41
1.82732638231637
42
-2.49927814433422
0
ELLIPSE
5
EC
100
AcDbEntity
8
1
62
256
6
ByLayer
370
18
48
1
60
0
100
AcDbEllipse
10
28.798976
20
-8.748712
30
0
11
1.48492424049174
21
1.48492424049176
31
0
210
0
220
0
230
1
40
0.989133
41
-1.31426627127342
42
0.642314509255564
0
ELLIPSE
5
ED
100
AcDbEntity
8
1
62
256
6
ByLayer
370
18
48
1
60
0
100
AcDbEllipse
10
29.734977
20
-8.216055
30
0
11
-1.83847763108502
21
-1.83847763108503
31
0
210
0
220
0
230
1
40
0.989133
41
-1.33816190753964
42
0.666210145521792
0
ELLIPSE
5
EE
100
AcDbEntity
8
1
62
256
6
ByLayer
370
18
48
1
60
0
100
AcDbEllipse
10
28.746995
20
-8.696732
30
0
11
-1.83847763108502
21
-1.83847763108503
31
0
210
0
220
0
230
1
40
0.989133
41
1.80343074605014
42
-2.47538250806801
0
ELLIPSE
5
EF
100
AcDbEntity
8
1
62
256
6
ByLayer
370
18
48
1
60
0
100
AcDbEllipse
10
29.240986
20
-8.456393
30
0
11
-1.66170093578838
21
-1.66170093578839
31
0
210
0
220
0
230
1
40
0.989133
41
0.864727455637581
42
1.60491343593436
0
ELLIPSE
5
F0
100
AcDbEntity
8
1
62
256
6
ByLayer
370
18
48
1
60
0
100
AcDbEllipse
10
29.240986
20
-8.456393
30
0
11
-1.66170093578838
21
-1.66170093578839
31
0
210
0
220
0
230
1
40
0.989133
41
-2.27686519795221
42
-1.53667921765544
0
ELLIPSE
5
F1
100
AcDbEntity
8
1
62
256
6
ByLayer
370
18
48
1
60
0
100
AcDbEllipse
10
29.292967
20
-8.508374
30
0
11
1.30814754519511
21
1.30814754519512
31
0
210
0
220
0
230
1
40
0.989133
41
-2.25008598744577
42
-1.56345842816188
0
ELLIPSE
5
F2
100
AcDbEntity
8
1
62
256
6
ByLayer
370
18
48
1
60
0
100
AcDbEllipse
10
29.292967
20
-8.508374
30
0
11
1.30814754519511
21
1.30814754519512
31
0
210
0
220
0
230
1
40
0.989133
41
0.891506666144022
42
1.57813422542792
0
ELLIPSE
5
F3
100
AcDbEntity
8
1
62
256
6
ByLayer
370
18
48
1
60
0
100
AcDbEllipse
10
23.552694
20
3.199937
30
0
11
1.09955104474507
21
1.09955104474509
31
0
210
0
220
0
230
1
40
0.989133
41
-1.16164472960042
42
-0.557504583614038
0
ELLIPSE
5
F4
100
AcDbEntity
8
1
62
256
6
ByLayer
370
18
48
1
60
0
100
AcDbEllipse
10
23.946189
20
2.806442
30
0
11
1.09955104474507
21
1.09955104474509
31
0
210
0
220
0
230
1
40
0.989133
41
-0.557504583614038
42
-0.114447178403823
0
ELLIPSE
5
F5
100
AcDbEntity
8
1
62
256
6
ByLayer
370
18
48
1
60
0
100
AcDbEllipse
10
23.946189
20
2.806442
30
0
11
1.09955104474507
21
1.09955104474509
31
0
210
0
220
0
230
1
40
0.989133
41
-2.65189968600721
42
-2.20884228079703
0
ELLIPSE
5
F6
100
AcDbEntity
8
1
62
256
6
ByLayer
370
18
48
1
60
0
100
AcDbEllipse
10
23.96854
20
2.78409
30
0
11
-2.28749043713848
21
-2.28749043713849
31
0
210
0
220
0
230
1
40
0.989133
41
0
42
6.28318530717959
0
ELLIPSE
5
F7
100
AcDbEntity
8
1
62
256
6
ByLayer
370
18
48
1
60
0
100
AcDbEllipse
10
23.96854
20
2.78409
30
0
11
-1.36287119209427
21
-1.36287119209428
31
0
210
0
220
0
230
1
40
0.989133
41
0
42
6.28318530717959
0
ELLIPSE
5
F8
100
AcDbEntity
8
1
62
256
6
ByLayer
370
18
48
1
60
0
100
AcDbEllipse
10
23.552694
20
3.199937
30
0
11
1.09955104474507
21
1.09955104474509
31
0
210
0
220
0
230
1
40
0.989133
41
-2.20884228079704
42
-1.60470213481063
0
ELLIPSE
5
F9
100
AcDbEntity
8
1
62
256
6
ByLayer
370
18
48
1
60
0
100
AcDbEllipse
10
23.946189
20
2.806442
30
0
11
1.09955104474507
21
1.09955104474509
31
0
210
0
220
0
230
1
40
0.989133
41
2.58408806997577
42
3.02714547518596
0
ELLIPSE
5
FA
100
AcDbEntity
8
1
62
256
6
ByLayer
370
18
48
1
60
0
100
AcDbEllipse
10
23.946189
20
2.806442
30
0
11
1.09955104474507
21
1.09955104474509
31
0
210
0
220
0
230
1
40
0.989133
41
1.53689051877916
42
1.97994792398935
0
ELLIPSE
5
FB
100
AcDbEntity
8
1
62
256
6
ByLayer
370
18
48
1
60
0
100
AcDbEllipse
10
23.946189
20
2.806442
30
0
11
1.09955104474507
21
1.09955104474509
31
0
210
0
220
0
230
1
40
0.989133
41
0.489692967582572
42
0.932750372792759
0
ELLIPSE
5
FC
100
AcDbEntity
8
1
62
256
6
ByLayer
370
18
48
1
60
0
100
AcDbEllipse
10
23.946189
20
2.806442
30
0
11
1.09955104474507
21
1.09955104474509
31
0
210
0
220
0
230
1
40
0.989133
41
-1.60470213481061
42
-1.16164472960042
0
POINT
5
6C
100
AcDbEntity
8
80
62
256
6
ByLayer
370
18
48
1
60
0
100
AcDbPoint
10
0
20
0
30
0
39
0
210
0
220
0
230
1
50
360
0
POINT
5
6E
100
AcDbEntity
8
81
62
256
6
ByLayer
370
18
48
1
60
0
100
AcDbPoint
10
34.847093
20
-15.0625
30
0
39
0
210
0
220
0
230
1
50
360
0
SPLINE
5
FD
100
AcDbEntity
8
1
62
256
6
ByLayer
370
18
48
1
60
0
100
AcDbSpline
70
4
71
2
72
6
73
3
40
0
40
0
40
0
40
1
40
1
40
1
41
1
10
29.9207227999569
20
0.360760994327535
30
0
41
1
10
29.9063908511077
20
0.351402222309389
30
0
41
1
10
29.89267684053
20
0.341141186124844
30
0
0
SPLINE
5
FE
100
AcDbEntity
8
1
62
256
6
ByLayer
370
18
48
1
60
0
100
AcDbSpline
70
4
71
1
72
4
73
2
40
0
40
0
40
1
40
1
41
1
10
30.521471657878
20
-6.58706591411655
30
0
41
1
10
30.5662503117965
20
-6.62675125464179
30
0
0
SPLINE
5
FF
100
AcDbEntity
8
1
62
256
6
ByLayer
370
18
48
1
60
0
100
AcDbSpline
70
4
71
3
72
16
73
12
40
0
40
0
40
0
40
0
40
0.214938371827425
40
0.214938371827425
40
0.429876743654851
40
0.429876743654851
40
0.644815115482276
40
0.644815115482276
40
0.859753487309702
40
0.859753487309702
40
1
40
1
40
1
40
1
41
1
10
29.9103865255656
20
-6.22754735031953
30
0
41
1
10
29.9173911293085
20
-6.23455195406245
30
0
41
1
10
29.9129578122317
20
-6.23306512475622
30
0
41
1
10
29.8854168754132
20
-6.21753063262219
30
0
41
1
10
29.863170784128
20
-6.20408123518863
30
0
41
1
10
29.8074384480919
20
-6.17189977955121
30
0
41
1
10
29.7738572970666
20
-6.15312818669892
30
0
41
1
10
29.7003906584368
20
-6.11483263316848
30
0
41
1
10
29.6601797468465
20
-6.09509902082652
30
0
41
1
10
29.5891136859028
20
-6.06301537694736
30
0
41
1
10
29.5597644558593
20
-6.05044449540151
30
0
41
1
10
29.5295031107385
20
-6.03823176216304
30
0
0
SPLINE
5
100
100
AcDbEntity
8
1
62
256
6
ByLayer
370
18
48
1
60
0
100
AcDbSpline
70
4
71
3
72
12
73
8
40
0
40
0
40
0
40
0
40
0.14052399350212
40
0.14052399350212
40
0.57026199675106
40
0.57026199675106
40
1
40
1
40
1
40
1
41
1
10
31.0037091689874
20
-7.4482130133153
30
0
41
1
10
30.9998785715223
20
-7.42926052823503
30
0
41
1
10
30.9958186939306
20
-7.41035697741745
30
0
41
1
10
30.9784142739854
20
-7.33384206352025
30
0
41
1
10
30.9631491546625
20
-7.27663991254016
30
0
41
1
10
30.9282332771412
20
-7.1631660884284
30
0
41
1
10
30.9084817576752
20
-7.10665293880285
30
0
41
1
10
30.8867407797203
20
-7.05131822343478
30
0
0
SPLINE
5
101
100
AcDbEntity
8
1
62
256
6
ByLayer
370
18
48
1
60
0
100
AcDbSpline
70
4
71
3
72
18
73
14
40
0
40
0
40
0
40
0
40
0.170925354699031
40
0.170925354699031
40
0.41662968593732
40
0.41662968593732
40
0.539481851556464
40
0.539481851556464
40
0.662334017175608
40
0.662334017175608
40
0.908038348413896
40
0.908038348413896
40
1
40
1
40
1
40
1
41
1
10
26.9451583195195
20
-9.47682050244458
30
0
41
1
10
26.9997649613895
20
-9.5391280860423
30
0
41
1
10
27.057508746837
20
-9.59831482910417
30
0
41
1
10
27.2049778298461
20
-9.73443605467267
30
0
41
1
10
27.297906829278
20
-9.80813451946736
30
0
41
1
10
27.4463974688363
20
-9.90873169052955
30
0
41
1
10
27.4976090835702
20
-9.94069259624484
30
0
41
1
10
27.6013802341291
20
-10.0002258132598
30
0
41
1
10
27.6540953254489
20
-10.0279219515169
30
0
41
1
10
27.8146173636469
20
-10.1050151069315
30
0
41
1
10
27.9247995121954
20
-10.148433530215
30
0
41
1
10
28.0802654680002
20
-10.1975393287785
30
0
41
1
10
28.1230998889126
20
-10.2098266900448
30
0
41
1
10
28.1661712122019
20
-10.2210184953232
30
0
0
SPLINE
5
102
100
AcDbEntity
8
1
62
256
6
ByLayer
370
18
48
1
60
0
100
AcDbSpline
70
4
71
3
72
8
73
4
40
0
40
0
40
0
40
0
40
1
40
1
40
1
40
1
41
1
10
30.5897636186352
20
-6.54156460913998
30
0
41
1
10
30.5403304254365
20
-6.45072358253466
30
0
41
1
10
30.4896273448165
20
-6.35683428973113
30
0
41
1
10
30.4379929670929
20
-6.26070949050885
30
0
0
SPLINE
5
103
100
AcDbEntity
8
1
62
256
6
ByLayer
370
18
48
1
60
0
100
AcDbSpline
70
4
71
3
72
8
73
4
40
0
40
0
40
0
40
0
40
1
40
1
40
1
40
1
41
1
10
29.9938301365315
20
0.403516406276822
30
0
41
1
10
29.9701725656883
20
0.389377716892909
30
0
41
1
10
29.9468182712789
20
0.374569200371582
30
0
41
1
10
29.923769851702
20
0.359085117704495
30
0
0
SPLINE
5
104
100
AcDbEntity
8
1
62
256
6
ByLayer
370
18
48
1
60
0
100
AcDbSpline
70
4
71
3
72
8
73
4
40
0
40
0
40
0
40
0
40
1
40
1
40
1
40
1
41
1
10
29.068498037203
20
-6.1275244234283
30
0
41
1
10
29.0816037706209
20
-6.31153416556066
30
0
41
1
10
29.0947787185175
20
-6.49561486779135
30
0
41
1
10
29.1080942282969
20
-6.67983908859154
30
0
0
SPLINE
5
105
100
AcDbEntity
8
1
62
256
6
ByLayer
370
18
48
1
60
0
100
AcDbSpline
70
4
71
3
72
8
73
4
40
0
40
0
40
0
40
0
40
1
40
1
40
1
40
1
41
1
10
30.9403539381567
20
-10.0423985299871
30
0
41
1
10
30.8257521116909
20
-9.95931558664827
30
0
41
1
10
30.711128900862
20
-9.87611412137596
30
0
41
1
10
30.5964626436437
20
-9.79267216900783
30
0
0
SPLINE
5
106
100
AcDbEntity
8
1
62
256
6
ByLayer
370
18
48
1
60
0
100
AcDbSpline
70
4
71
3
72
8
73
4
40
0
40
0
40
0
40
0
40
1
40
1
40
1
40
1
41
1
10
29.4778391641244
20
-10.3369092263213
30
0
41
1
10
29.4565284512175
20
-10.4865072244353
30
0
41
1
10
29.4350438605098
20
-10.6359283880617
30
0
41
1
10
29.4134737142874
20
-10.7852622505536
30
0
0
SPLINE
5
107
100
AcDbEntity
8
1
62
256
6
ByLayer
370
18
48
1
60
0
100
AcDbSpline
70
4
71
3
72
22
73
18
40
0
40
0
40
0
40
0
40
0.062499999999999
40
0.062499999999999
40
0.124999999999998
40
0.124999999999998
40
0.187499999999997
40
0.187499999999997
40
0.249999999999996
40
0.249999999999996
40
0.374999999999997
40
0.374999999999997
40
0.499999999999998
40
0.499999999999998
40
0.749999999999999
40
0.749999999999999
40
1
40
1
40
1
40
1
41
1
10
29.8241681445458
20
-6.14132896929971
30
0
41
1
10
29.8211922851245
20
-6.13835310987849
30
0
41
1
10
29.8229653357478
20
-6.1373328412852
30
0
41
1
10
29.8343692433773
20
-6.13870035082965
30
0
41
1
10
29.8439238964027
20
-6.1411094215124
30
0
41
1
10
29.8676305783097
20
-6.14847341817503
30
0
41
1
10
29.8820249527011
20
-6.15350665728079
30
0
41
1
10
29.9132506935742
20
-6.16543923996198
30
0
41
1
10
29.9301296931623
20
-6.17234536979188
30
0
41
1
10
29.9832353608925
20
-6.19548129532038
30
0
41
1
10
30.0221104305182
20
-6.21425510857523
30
0
41
1
10
30.1007696360241
20
-6.25626136857648
30
0
41
1
10
30.1408448993459
20
-6.27959321747392
30
0
41
1
10
30.2613194097903
20
-6.35601568960922
30
0
41
1
10
30.3423747670406
20
-6.41596577525428
30
0
41
1
10
30.4964967681602
20
-6.5491128241363
30
0
41
1
10
30.5700384056478
20
-6.62245974937755
30
0
41
1
10
30.6391421828677
20
-6.70244652324499
30
0
0
SPLINE
5
108
100
AcDbEntity
8
1
62
256
6
ByLayer
370
18
48
1
60
0
100
AcDbSpline
70
4
71
3
72
14
73
10
40
0
40
0
40
0
40
0
40
0.25
40
0.25
40
0.5
40
0.5
40
0.75
40
0.75
40
1
40
1
40
1
40
1
41
1
10
30.8867407797203
20
-7.05131822343481
30
0
41
1
10
30.8758168870282
20
-7.03413708816575
30
0
41
1
10
30.8596665394289
20
-7.00339092532798
30
0
41
1
10
30.8209199479123
20
-6.92888103056049
30
0
41
1
10
30.7978485033335
20
-6.88441933064922
30
0
41
1
10
30.7470479130535
20
-6.79157340444141
30
0
41
1
10
30.7191049288484
20
-6.74270317295259
30
0
41
1
10
30.6580074777137
20
-6.64281074825334
30
0
41
1
10
30.6248472833507
20
-6.59180712273732
30
0
41
1
10
30.5897636186352
20
-6.54156460913998
30
0
0
SPLINE
5
109
100
AcDbEntity
8
1
62
256
6
ByLayer
370
18
48
1
60
0
100
AcDbSpline
70
4
71
3
72
8
73
4
40
0
40
0
40
0
40
0
40
1
40
1
40
1
40
1
41
1
10
30.6391421828677
20
-6.70244652324499
30
0
41
1
10
30.7317579404706
20
-6.80964812579077
30
0
41
1
10
30.8146223699913
20
-6.92596324998306
30
0
41
1
10
30.8867407797202
20
-7.05131822343481
30
0
0
SPLINE
5
10A
100
AcDbEntity
8
1
62
256
6
ByLayer
370
18
48
1
60
0
100
AcDbSpline
70
4
71
3
72
8
73
4
40
0
40
0
40
0
40
0
40
1
40
1
40
1
40
1
41
1
10
27.9894707487776
20
-7.22407614590503
30
0
41
1
10
27.840178268873
20
-7.10600797085061
30
0
41
1
10
27.6908955194399
20
-6.98814696697409
30
0
41
1
10
27.5416178133337
20
-6.87038814399489
30
0
0
SPLINE
5
10B
100
AcDbEntity
8
1
62
256
6
ByLayer
370
18
48
1
60
0
100
AcDbSpline
70
4
71
3
72
10
73
6
40
0
40
0
40
0
40
0
40
0.5
40
0.5
40
1
40
1
40
1
40
1
41
1
10
24.9463590895595
20
4.2400474810521
30
0
41
1
10
24.8568002052805
20
4.24866618747555
30
0
41
1
10
24.7662175982791
20
4.25711377889718
30
0
41
1
10
24.5854160380275
20
4.27328547510845
30
0
41
1
10
24.4951232272542
20
4.28101750883613
30
0
41
1
10
24.404958456478
20
4.28832995690564
30
0
0
SPLINE
5
10C
100
AcDbEntity
8
1
62
256
6
ByLayer
370
18
48
1
60
0
100
AcDbSpline
70
4
71
3
72
10
73
6
40
0
40
0
40
0
40
0
40
0.5
40
0.5
40
1
40
1
40
1
40
1
41
1
10
22.969628699508
20
1.34922614449403
30
0
41
1
10
22.9297193041959
20
1.42983501332668
30
0
41
1
10
22.8896883235817
20
1.51098737936854
30
0
41
1
10
22.8093049384961
20
1.67472890492849
30
0
41
1
10
22.7692090234919
20
1.75680084550487
30
0
41
1
10
22.729629366697
20
1.83828562973306
30
0
0
SPLINE
5
10D
100
AcDbEntity
8
1
62
256
6
ByLayer
370
18
48
1
60
0
100
AcDbSpline
70
4
71
3
72
10
73
6
40
0
40
0
40
0
40
0
40
0.5
40
0.5
40
1
40
1
40
1
40
1
41
1
10
22.4377158545416
20
2.44880519457217
30
0
41
1
10
22.4002727995202
20
2.52841691857574
30
0
41
1
10
22.3631895558254
20
2.60777949314516
30
0
41
1
10
22.2911040919786
20
2.76290613847806
30
0
41
1
10
22.2558979591897
20
2.83910002261473
30
0
41
1
10
22.2213269723716
20
2.91425422917033
30
0
0
SPLINE
5
10E
100
AcDbEntity
8
1
62
256
6
ByLayer
370
18
48
1
60
0
100
AcDbSpline
70
4
71
3
72
10
73
6
40
0
40
0
40
0
40
0
40
0.5
40
0.5
40
1
40
1
40
1
40
1
41
1
10
24.7062956216702
20
1.22960872809674
30
0
41
1
10
24.753136138548
20
1.30458900305871
30
0
41
1
10
24.8009664586726
20
1.38037779152506
30
0
41
1
10
24.8975971386578
20
1.53152690309989
30
0
41
1
10
24.9464347430433
20
1.60694920894775
30
0
41
1
10
24.9958916966202
20
1.68219096280271
30
0
0
SPLINE
5
10F
100
AcDbEntity
8
1
62
256
6
ByLayer
370
18
48
1
60
0
100
AcDbSpline
70
4
71
3
72
10
73
6
40
0
40
0
40
0
40
0
40
0.5
40
0.5
40
1
40
1
40
1
40
1
41
1
10
23.2096921673973
20
4.35966489744936
30
0
41
1
10
23.1575889544927
20
4.28994731851421
30
0
41
1
10
23.1050149389399
20
4.21890222547609
30
0
41
1
10
23.0003970769365
20
4.07574029591945
30
0
41
1
10
22.9483098819076
20
4.00356758071499
30
0
41
1
10
22.8964856418064
20
3.93069311338431
30
0
0
SPLINE
5
110
100
AcDbEntity
8
1
62
256
6
ByLayer
370
18
48
1
60
0
100
AcDbSpline
70
4
71
3
72
10
73
6
40
0
40
0
40
0
40
0
40
0.5
40
0.5
40
1
40
1
40
1
40
1
41
1
10
25.1627479717296
20
3.77459844645395
30
0
41
1
10
25.1253049167081
20
3.85421017045752
30
0
41
1
10
25.0882216730133
20
3.93357274502694
30
0
41
1
10
25.0161362091666
20
4.08869939035981
30
0
41
1
10
24.9809300763777
20
4.16489327449651
30
0
41
1
10
24.9463590895595
20
4.2400474810521
30
0
0
SPLINE
5
111
100
AcDbEntity
8
1
62
256
6
ByLayer
370
18
48
1
60
0
100
AcDbSpline
70
4
71
3
72
8
73
4
40
0
40
0
40
0
40
0
40
1
40
1
40
1
40
1
41
1
10
24.1648949885887
20
1.27789120395028
30
0
41
1
10
24.348149942597
20
1.26302905409807
30
0
41
1
10
24.5281945470513
20
1.24674829932076
30
0
41
1
10
24.7062956216702
20
1.22960872809674
30
0
0
SPLINE
5
112
100
AcDbEntity
8
1
62
256
6
ByLayer
370
18
48
1
60
0
100
AcDbSpline
70
4
71
3
72
10
73
6
40
0
40
0
40
0
40
0
40
0.5
40
0.5
40
1
40
1
40
1
40
1
41
1
10
25.6946608166959
20
2.67501939637577
30
0
41
1
10
25.6547514213839
20
2.75562826520846
30
0
41
1
10
25.6147204407696
20
2.83678063125029
30
0
41
1
10
25.5343370556841
20
3.00052215681021
30
0
41
1
10
25.4942411406798
20
3.08259409738662
30
0
41
1
10
25.454661483885
20
3.16407888161481
30
0
0
SPLINE
5
113
100
AcDbEntity
8
1
62
256
6
ByLayer
370
18
48
1
60
0
100
AcDbSpline
70
4
71
3
72
8
73
4
40
0
40
0
40
0
40
0
40
1
40
1
40
1
40
1
41
1
10
22.5109230473216
20
3.3668364638763
30
0
41
1
10
22.4104045002758
20
3.21391172372015
30
0
41
1
10
22.3144762613428
20
3.06336358502551
30
0
41
1
10
22.2213269723716
20
2.91425422917033
30
0
0
SPLINE
5
114
100
AcDbEntity
8
1
62
256
6
ByLayer
370
18
48
1
60
0
100
AcDbSpline
70
4
71
3
72
8
73
4
40
0
40
0
40
0
40
0
40
1
40
1
40
1
40
1
41
1
10
25.381454291105
20
2.24604761231075
30
0
41
1
10
25.486784218243
20
2.39416097237469
30
0
41
1
10
25.5910458790589
20
2.5363756891864
30
0
41
1
10
25.6946608166959
20
2.67501939637577
30
0
0
SPLINE
5
115
100
AcDbEntity
8
1
62
256
6
ByLayer
370
18
48
1
60
0
100
AcDbSpline
70
4
71
3
72
8
73
4
40
0
40
0
40
0
40
0
40
1
40
1
40
1
40
1
41
1
10
23.7274823498379
20
4.33499287223674
30
0
41
1
10
23.5490387759218
20
4.34504364199674
30
0
41
1
10
23.3773275933505
20
4.35299097489116
30
0
41
1
10
23.2096921673973
20
4.35966489744936
30
0
0
SPLINE
5
116
100
AcDbEntity
8
1
62
256
6
ByLayer
370
18
48
1
60
0
100
AcDbSpline
70
4
71
3
72
10
73
6
40
0
40
0
40
0
40
0
40
0.5
40
0.5
40
1
40
1
40
1
40
1
41
1
10
22.969628699508
20
1.34922614449403
30
0
41
1
10
23.0539248877602
20
1.34587013409737
30
0
41
1
10
23.1397637993333
20
1.34216623810397
30
0
41
1
10
23.3125781775668
20
1.33398172391085
30
0
41
1
10
23.3996213976966
20
1.32949928082661
30
0
41
1
10
23.4874188819485
20
1.32455411928137
30
0
0
SPLINE
5
117
100
AcDbEntity
8
1
62
256
6
ByLayer
370
18
48
1
60
0
100
AcDbSpline
70
4
71
3
72
8
73
4
40
0
40
0
40
0
40
0
40
1
40
1
40
1
40
1
41
1
10
29.923769851702
20
0.359085117704524
30
0
41
1
10
29.9142034824951
20
0.352658366788717
30
0
41
1
10
29.9047029238765
20
0.346128801718834
30
0
41
1
10
29.8952720232405
20
0.339499052282633
30
0
0
LINE
5
70
100
AcDbEntity
8
1
62
256
6
ByLayer
370
18
48
1
60
0
100
AcDbLine
10
29.892545
20
0.341449
30
0
11
28.345527
21
-0.746076
31
0
39
0
210
0
220
0
230
1
0
LINE
5
72
100
AcDbEntity
8
1
62
256
6
ByLayer
370
18
48
1
60
0
100
AcDbLine
10
21.017277
20
0.078499
30
0
11
21.060583
21
0.035194
31
0
39
0
210
0
220
0
230
1
0
LINE
5
73
100
AcDbEntity
8
1
62
256
6
ByLayer
370
18
48
1
60
0
100
AcDbLine
10
27.439068
20
-9.597101
30
0
11
27.896499
21
-10.054533
31
0
39
0
210
0
220
0
230
1
0
LINE
5
74
100
AcDbEntity
8
1
62
256
6
ByLayer
370
18
48
1
60
0
100
AcDbLine
10
26.717437
20
5.692048
30
0
11
26.674131
21
5.735354
31
0
39
0
210
0
220
0
230
1
0
LINE
5
75
100
AcDbEntity
8
1
62
256
6
ByLayer
370
18
48
1
60
0
100
AcDbLine
10
32.193548
20
0.30026
30
0
11
31.69843
21
0.795377
31
0
39
0
210
0
220
0
230
1
0
LINE
5
76
100
AcDbEntity
8
1
62
256
6
ByLayer
370
18
48
1
60
0
100
AcDbLine
10
19.989215
20
-10.913838
30
0
11
20.484333
21
-11.408955
31
0
39
0
210
0
220
0
230
1
0
LINE
5
77
100
AcDbEntity
8
1
62
256
6
ByLayer
370
18
48
1
60
0
100
AcDbLine
10
30.532952
20
-6.588146
30
0
11
30.52844
21
-6.583634
31
0
39
0
210
0
220
0
230
1
0
LINE
5
78
100
AcDbEntity
8
1
62
256
6
ByLayer
370
18
48
1
60
0
100
AcDbLine
10
26.955354
20
-9.494163
30
0
11
27.050914
21
-9.589723
31
0
39
0
210
0
220
0
230
1
0
LINE
5
79
100
AcDbEntity
8
1
62
256
6
ByLayer
370
18
48
1
60
0
100
AcDbLine
10
30.585473
20
-6.858254
30
0
11
30.128042
21
-6.400823
31
0
39
0
210
0
220
0
230
1
0
LINE
5
7A
100
AcDbEntity
8
SK1
62
256
6
ByLayer
370
18
48
1
60
0
100
AcDbLine
10
-90.152907
20
-9.9375
30
0
11
0
21
-9.9375
31
0
39
0
210
0
220
0
230
1
0
LINE
5
7C
100
AcDbEntity
8
SK1
62
256
6
ByLayer
370
18
48
1
60
0
100
AcDbLine
10
-90.152907
20
9.9375
30
0
11
-90.152907
21
-9.9375
31
0
39
0
210
0
220
0
230
1
0
LINE
5
7D
100
AcDbEntity
8
SK1
62
256
6
ByLayer
370
18
48
1
60
0
100
AcDbLine
10
-90.152907
20
9.9375
30
0
11
0
21
9.9375
31
0
39
0
210
0
220
0
230
1
0
LINE
5
7E
100
AcDbEntity
8
SK1
62
256
6
ByLayer
370
18
48
1
60
0
100
AcDbLine
10
0
20
-9.9375
30
0
11
0
21
9.9375
31
0
39
0
210
0
220
0
230
1
0
LINE
5
7F
100
AcDbEntity
8
1
62
256
6
ByLayer
370
18
48
1
60
0
100
AcDbLine
10
0
20
-9.9375
30
0
11
0
21
9.9375
31
0
39
0
210
0
220
0
230
1
0
LINE
5
80
100
AcDbEntity
8
1
62
256
6
ByLayer
370
18
48
1
60
0
100
AcDbLine
10
18.139652
20
14.075181
30
0
11
21.899754
21
9.60088
31
0
39
0
210
0
220
0
230
1
0
LINE
5
81
100
AcDbEntity
8
1
62
256
6
ByLayer
370
18
48
1
60
0
100
AcDbLine
10
2.683575
20
6.028164
30
0
11
2.246258
21
-9.9375
31
0
39
0
210
0
220
0
230
1
0
LINE
5
82
100
AcDbEntity
8
1
62
256
6
ByLayer
370
18
48
1
60
0
100
AcDbLine
10
13.131952
20
-0.80894
30
0
11
6.118476
21
5.051507
31
0
39
0
210
0
220
0
230
1
0
LINE
5
83
100
AcDbEntity
8
1
62
256
6
ByLayer
370
18
48
1
60
0
100
AcDbLine
10
11.183713
20
-1.115162
30
0
11
2.683575
21
6.028164
31
0
39
0
210
0
220
0
230
1
0
LINE
5
84
100
AcDbEntity
8
1
62
256
6
ByLayer
370
18
48
1
60
0
100
AcDbLine
10
6.118476
20
5.051507
30
0
11
5.495101
21
5.57736
31
0
39
0
210
0
220
0
230
1
0
LINE
5
85
100
AcDbEntity
8
1
62
256
6
ByLayer
370
18
48
1
60
0
100
AcDbLine
10
31.493906
20
0.94221
30
0
11
31.227096
21
1.526431
31
0
39
0
210
0
220
0
230
1
0
LINE
5
86
100
AcDbEntity
8
1
62
256
6
ByLayer
370
18
48
1
60
0
100
AcDbLine
10
1.545481
20
11.128575
30
0
11
1.545481
21
-9.9375
31
0
39
0
210
0
220
0
230
1
0
LINE
5
87
100
AcDbEntity
8
1
62
256
6
ByLayer
370
18
48
1
60
0
100
AcDbLine
10
18.139652
20
14.075181
30
0
11
35.838379
21
4.021067
31
0
39
0
210
0
220
0
230
1
0
LINE
5
88
100
AcDbEntity
8
1
62
256
6
ByLayer
370
18
48
1
60
0
100
AcDbLine
10
26.253038
20
-3.000608
30
0
11
28.719025
21
-1.267065
31
0
39
0
210
0
220
0
230
1
0
LINE
5
89
100
AcDbEntity
8
1
62
256
6
ByLayer
370
18
48
1
60
0
100
AcDbLine
10
18.139652
20
14.075181
30
0
11
14.475918
21
16.156437
31
0
39
0
210
0
220
0
230
1
0
LINE
5
8A
100
AcDbEntity
8
1
62
256
6
ByLayer
370
18
48
1
60
0
100
AcDbLine
10
13.278678
20
16.836554
30
0
11
5.495101
21
16.836554
31
0
39
0
210
0
220
0
230
1
0
LINE
5
8B
100
AcDbEntity
8
1
62
256
6
ByLayer
370
18
48
1
60
0
100
AcDbLine
10
14.47591
20
16.156442
30
0
11
15.733086
21
14.666117
31
0
39
0
210
0
220
0
230
1
0
LINE
5
8C
100
AcDbEntity
8
1
62
256
6
ByLayer
370
18
48
1
60
0
100
AcDbLine
10
5.495101
20
5.57736
30
0
11
3.150889
21
7.69869
31
0
39
0
210
0
220
0
230
1
0
LINE
5
8D
100
AcDbEntity
8
1
62
256
6
ByLayer
370
18
48
1
60
0
100
AcDbLine
10
1.545481
20
11.128575
30
0
11
3.068271
21
16.836554
31
0
39
0
210
0
220
0
230
1
0
LINE
5
8E
100
AcDbEntity
8
1
62
256
6
ByLayer
370
18
48
1
60
0
100
AcDbLine
10
1.545481
20
-9.9375
30
0
11
2.246258
21
-9.9375
31
0
39
0
210
0
220
0
230
1
0
LINE
5
8F
100
AcDbEntity
8
1
62
256
6
ByLayer
370
18
48
1
60
0
100
AcDbLine
10
5.495101
20
16.836554
30
0
11
5.495101
21
5.57736
31
0
39
0
210
0
220
0
230
1
0
LINE
5
90
100
AcDbEntity
8
1
62
256
6
ByLayer
370
18
48
1
60
0
100
AcDbLine
10
31.942837
20
0.991156
30
0
11
33.300079
21
-1.980734
31
0
39
0
210
0
220
0
230
1
0
LINE
5
91
100
AcDbEntity
8
1
62
256
6
ByLayer
370
18
48
1
60
0
100
AcDbLine
10
35.780393
20
-6.592683
30
0
11
35.444231
21
-6.623915
31
0
39
0
210
0
220
0
230
1
0
LINE
5
92
100
AcDbEntity
8
1
62
256
6
ByLayer
370
18
48
1
60
0
100
AcDbLine
10
3.068271
20
16.836554
30
0
11
5.495101
21
16.836554
31
0
39
0
210
0
220
0
230
1
0
LINE
5
93
100
AcDbEntity
8
1
62
256
6
ByLayer
370
18
48
1
60
0
100
AcDbLine
10
31.429214
20
1.589655
30
0
11
31.870567
21
0.623246
31
0
39
0
210
0
220
0
230
1
0
LINE
5
94
100
AcDbEntity
8
1
62
256
6
ByLayer
370
18
48
1
60
0
100
AcDbLine
10
2.246258
20
-9.9375
30
0
11
10.201568
21
-9.9375
31
0
39
0
210
0
220
0
230
1
0
LINE
5
95
100
AcDbEntity
8
1
62
256
6
ByLayer
370
18
48
1
60
0
100
AcDbLine
10
6.118476
20
5.051507
30
0
11
15.733086
21
14.666117
31
0
39
0
210
0
220
0
230
1
0
LINE
5
96
100
AcDbEntity
8
1
62
256
6
ByLayer
370
18
48
1
60
0
100
AcDbLine
10
28.342097
20
-0.687391
30
0
11
28.323728
21
-0.700304
31
0
39
0
210
0
220
0
230
1
0
LINE
5
97
100
AcDbEntity
8
1
62
256
6
ByLayer
370
18
48
1
60
0
100
AcDbLine
10
14.47591
20
16.156442
30
0
11
13.278678
21
16.836554
31
0
39
0
210
0
220
0
230
1
0
LINE
5
98
100
AcDbEntity
8
1
62
256
6
ByLayer
370
18
48
1
60
0
100
AcDbLine
10
31.429214
20
1.589655
30
0
11
31.942837
21
0.991156
31
0
39
0
210
0
220
0
230
1
0
LINE
5
99
100
AcDbEntity
8
1
62
256
6
ByLayer
370
18
48
1
60
0
100
AcDbLine
10
20.382334
20
-10.309066
30
0
11
19.156415
21
-9.742665
31
0
39
0
210
0
220
0
230
1
0
LINE
5
9A
100
AcDbEntity
8
1
62
256
6
ByLayer
370
18
48
1
60
0
100
AcDbLine
10
19.923669
20
3.531111
30
0
11
15.485015
21
-0.907543
31
0
39
0
210
0
220
0
230
1
0
LINE
5
9B
100
AcDbEntity
8
1
62
256
6
ByLayer
370
18
48
1
60
0
100
AcDbLine
10
1.545481
20
-9.9375
30
0
11
0
21
-9.9375
31
0
39
0
210
0
220
0
230
1
0
LINE
5
9C
100
AcDbEntity
8
1
62
256
6
ByLayer
370
18
48
1
60
0
100
AcDbLine
10
21.593533
20
7.65264
30
0
11
15.733086
21
14.666117
31
0
39
0
210
0
220
0
230
1
0
LINE
5
9D
100
AcDbEntity
8
1
62
256
6
ByLayer
370
18
48
1
60
0
100
AcDbLine
10
21.457389
20
5.534324
30
0
11
15.250269
21
-0.672797
31
0
39
0
210
0
220
0
230
1
0
LINE
5
9E
100
AcDbEntity
8
1
62
256
6
ByLayer
370
18
48
1
60
0
100
AcDbLine
10
35.838379
20
4.021067
30
0
11
35.780393
21
-6.592683
31
0
39
0
210
0
220
0
230
1
0
LINE
5
9F
100
AcDbEntity
8
1
62
256
6
ByLayer
370
18
48
1
60
0
100
AcDbLine
10
20.382334
20
-10.309066
30
0
11
23.785201
21
-5.468446
31
0
39
0
210
0
220
0
230
1
0
LINE
5
A0
100
AcDbEntity
8
1
62
256
6
ByLayer
370
18
48
1
60
0
100
AcDbLine
10
15.485015
20
-0.907543
30
0
11
15.250246
21
-0.672774
31
0
39
0
210
0
220
0
230
1
0
LINE
5
A1
100
AcDbEntity
8
1
62
256
6
ByLayer
370
18
48
1
60
0
100
AcDbLine
10
27.501519
20
-6.83029
30
0
11
27.541618
21
-6.870388
31
0
39
0
210
0
220
0
230
1
0
LINE
5
A2
100
AcDbEntity
8
1
62
256
6
ByLayer
370
18
48
1
60
0
100
AcDbLine
10
29.068498
20
-6.127524
30
0
11
28.984391
21
-6.043418
31
0
39
0
210
0
220
0
230
1
0
LINE
5
A3
100
AcDbEntity
8
1
62
256
6
ByLayer
370
18
48
1
60
0
100
AcDbLine
10
24.725073
20
4.260494
30
0
11
24.769253
21
4.168093
31
0
39
0
210
0
220
0
230
1
0
LINE
5
A4
100
AcDbEntity
8
1
62
256
6
ByLayer
370
18
48
1
60
0
100
AcDbLine
10
23.093924
20
1.718049
30
0
11
22.777681
21
1.739831
31
0
39
0
210
0
220
0
230
1
0
LINE
5
A5
100
AcDbEntity
8
1
62
256
6
ByLayer
370
18
48
1
60
0
100
AcDbLine
10
24.887317
20
-3.611574
30
0
11
25.1404
21
-3.864656
31
0
39
0
210
0
220
0
230
1
0
LINE
5
A6
100
AcDbEntity
8
1
62
256
6
ByLayer
370
18
48
1
60
0
100
AcDbLine
10
24.649248
20
-4.355807
30
0
11
24.396166
21
-4.102725
31
0
39
0
210
0
220
0
230
1
0
LINE
5
A7
100
AcDbEntity
8
1
62
256
6
ByLayer
370
18
48
1
60
0
100
AcDbLine
10
20.251684
20
-10.248701
30
0
11
20.401403
21
-10.398419
31
0
39
0
210
0
220
0
230
1
0
LINE
5
A8
100
AcDbEntity
8
1
62
256
6
ByLayer
370
18
48
1
60
0
100
AcDbLine
10
28.353747
20
-0.762556
30
0
11
30.687895
21
0.878307
31
0
39
0
210
0
220
0
230
1
0
LINE
5
A9
100
AcDbEntity
8
1
62
256
6
ByLayer
370
18
48
1
60
0
100
AcDbLine
10
29.895272
20
0.339499
30
0
11
28.346958
21
-0.748937
31
0
39
0
210
0
220
0
230
1
0
LINE
5
AA
100
AcDbEntity
8
1
62
256
6
ByLayer
370
18
48
1
60
0
100
AcDbLine
10
29.906072
20
0.328699
30
0
11
29.895272
21
0.339499
31
0
39
0
210
0
220
0
230
1
0
LINE
5
AB
100
AcDbEntity
8
1
62
256
6
ByLayer
370
18
48
1
60
0
100
AcDbLine
10
29.895272
20
0.339499
30
0
11
29.892545
21
0.341449
31
0
39
0
210
0
220
0
230
1
0
LINE
5
AC
100
AcDbEntity
8
1
62
256
6
ByLayer
370
18
48
1
60
0
100
AcDbLine
10
29.92377
20
0.359085
30
0
11
29.920707
21
0.360808
31
0
39
0
210
0
220
0
230
1
0
LINE
5
AD
100
AcDbEntity
8
80
62
256
6
ByLayer
370
18
48
1
60
0
100
AcDbLine
10
0
20
0
30
0
11
-5
21
0
31
0
39
0
210
0
220
0
230
1
0
LINE
5
AE
100
AcDbEntity
8
81
62
256
6
ByLayer
370
18
48
1
60
0
100
AcDbLine
10
34.847093
20
-15.0625
30
0
11
44.847093
21
-15.0625
31
0
39
0
210
0
220
0
230
1
0
LINE
5
AF
100
AcDbEntity
8
1
62
256
6
ByLayer
370
18
48
1
60
0
100
AcDbLine
10
25.1404
20
-3.864656
30
0
11
31.183012
21
0.383189
31
0
39
0
210
0
220
0
230
1
0
LINE
5
B0
100
AcDbEntity
8
1
62
256
6
ByLayer
370
18
48
1
60
0
100
AcDbLine
10
36.194453
20
-14.549951
30
0
11
35.593978
21
-7.232857
31
0
39
0
210
0
220
0
230
1
0
LINE
5
B1
100
AcDbEntity
8
1
62
256
6
ByLayer
370
18
48
1
60
0
100
AcDbLine
10
27.351146
20
-14.634234
30
0
11
20.708059
21
-11.564985
31
0
39
0
210
0
220
0
230
1
0
LINE
5
B2
100
AcDbEntity
8
1
62
256
6
ByLayer
370
18
48
1
60
0
100
AcDbLine
10
24.649248
20
-4.355807
30
0
11
20.401403
21
-10.398419
31
0
39
0
210
0
220
0
230
1
0
LINE
5
B3
100
AcDbEntity
8
1
62
256
6
ByLayer
370
18
48
1
60
0
100
AcDbLine
10
28.017449
20
-14.809385
30
0
11
35.334543
21
-15.40986
31
0
39
0
210
0
220
0
230
1
0
LINE
5
B4
100
AcDbEntity
8
1
62
256
6
ByLayer
370
18
48
1
60
0
100
AcDbLine
10
32.349577
20
0.076533
30
0
11
35.418826
21
-6.566554
31
0
39
0
210
0
220
0
230
1
0
LINE
5
B5
100
AcDbEntity
8
1
62
256
6
ByLayer
370
18
48
1
60
0
100
AcDbLine
10
31.183012
20
0.383189
30
0
11
30.687895
21
0.878307
31
0
39
0
210
0
220
0
230
1
0
LINE
5
B6
100
AcDbEntity
8
1
62
256
6
ByLayer
370
18
48
1
60
0
100
AcDbLine
10
29.824168
20
-6.141329
30
0
11
29.910387
21
-6.227547
31
0
39
0
210
0
220
0
230
1
0
LINE
5
B7
100
AcDbEntity
8
1
62
256
6
ByLayer
370
18
48
1
60
0
100
AcDbLine
10
23.093924
20
1.718049
30
0
11
23.487419
21
1.324554
31
0
39
0
210
0
220
0
230
1
0
LINE
5
B8
100
AcDbEntity
8
1
62
256
6
ByLayer
370
18
48
1
60
0
100
AcDbLine
10
25.061167
20
3.557574
30
0
11
25.454661
21
3.164079
31
0
39
0
210
0
220
0
230
1
0
LINE
5
B9
100
AcDbEntity
8
1
62
256
6
ByLayer
370
18
48
1
60
0
100
AcDbLine
10
24.602397
20
2.075686
30
0
11
24.300996
21
1.634909
31
0
39
0
210
0
220
0
230
1
0
LINE
5
BA
100
AcDbEntity
8
1
62
256
6
ByLayer
370
18
48
1
60
0
100
AcDbLine
10
25.162748
20
3.774598
30
0
11
24.769253
21
4.168093
31
0
39
0
210
0
220
0
230
1
0
LINE
5
BB
100
AcDbEntity
8
1
62
256
6
ByLayer
370
18
48
1
60
0
100
AcDbLine
10
24.602397
20
2.075686
30
0
11
24.995892
21
1.682191
31
0
39
0
210
0
220
0
230
1
0
LINE
5
BC
100
AcDbEntity
8
1
62
256
6
ByLayer
370
18
48
1
60
0
100
AcDbLine
10
24.706296
20
1.229609
30
0
11
24.300996
21
1.634909
31
0
39
0
210
0
220
0
230
1
0
LINE
5
BD
100
AcDbEntity
8
1
62
256
6
ByLayer
370
18
48
1
60
0
100
AcDbLine
10
25.061167
20
3.557574
30
0
11
25.289361
21
3.080319
31
0
39
0
210
0
220
0
230
1
0
LINE
5
BE
100
AcDbEntity
8
1
62
256
6
ByLayer
370
18
48
1
60
0
100
AcDbLine
10
25.381454
20
2.246048
30
0
11
24.987959
21
2.639542
31
0
39
0
210
0
220
0
230
1
0
LINE
5
BF
100
AcDbEntity
8
1
62
256
6
ByLayer
370
18
48
1
60
0
100
AcDbLine
10
24.164895
20
1.277891
30
0
11
23.7714
21
1.671386
31
0
39
0
210
0
220
0
230
1
0
LINE
5
C0
100
AcDbEntity
8
1
62
256
6
ByLayer
370
18
48
1
60
0
100
AcDbLine
10
25.289361
20
3.080319
30
0
11
24.987959
21
2.639542
31
0
39
0
210
0
220
0
230
1
0
LINE
5
C1
100
AcDbEntity
8
1
62
256
6
ByLayer
370
18
48
1
60
0
100
AcDbLine
10
24.300996
20
1.634909
30
0
11
23.7714
21
1.671386
31
0
39
0
210
0
220
0
230
1
0
LINE
5
C2
100
AcDbEntity
8
1
62
256
6
ByLayer
370
18
48
1
60
0
100
AcDbLine
10
25.694661
20
2.675019
30
0
11
25.289361
21
3.080319
31
0
39
0
210
0
220
0
230
1
0
MTEXT
5
118
100
AcDbEntity
8
SK6
62
256
6
ByLayer
370
13
48
1
60
0
100
AcDbMText
10
-67.736705
20
18.923222
30
0
210
0
220
0
230
1
1
\W0.7990;PWLNL 2020K 08HP
40
3.5
41
0
44
1.084337
50
0
71
7
72
5
7
iso_b_vert
0
DIMENSION
5
12A
100
AcDbEntity
8
SK2
62
256
6
ByLayer
370
13
48
1
60
0
100
AcDbDimension
2
DimnDraft3D1
10
-99.902907
20
9.9375
30
0
11
-99.902907
21
-0.0625
31
0
70
32
71
5
72
1
41
1
210
0
220
0
230
1
3
Standard
100
AcDbAlignedDimension
13
-91.740407
23
-10.0625
33
0
14
-91.740407
24
9.9375
34
0
50
90
100
AcDbRotatedDimension
1001
ACAD
1000
DSTYLE
1002
{
1070
    74
1070
     0
1070
   279
1070
     0
1070
   172
1070
     1
1070
   173
1070
     1
1070
   340
1005
119
1070
   271
1070
     1
1070
   272
1070
     2
1070
    77
1070
     1
1070
    73
1070
     0
1070
   171
1070
     3
1070
   274
1070
     4
1070
   177
1070
   150
1070
   176
1070
     9
1070
   178
1070
    43
1070
    78
1070
     8
1070
    48
1040
-0.005
1070
    41
1041
3.175
1070
   147
1041
2.25
1070
    42
1041
1.5875
1070
    44
1041
3.175
1070
   140
1041
4.5
1070
   343
1005
12B
1070
   344
1005
12B
1002
}
0
DIMENSION
5
140
100
AcDbEntity
8
2
62
256
6
ByLayer
370
13
48
1
60
0
100
AcDbDimension
2
DimnDraft3D2
10
52.697093
20
9.9375
30
0
11
52.697093
21
-2.7375
31
0
70
32
71
5
72
1
41
1
210
0
220
0
230
1
3
Standard
100
AcDbAlignedDimension
13
37.784593
23
-15.4125
33
0
14
11.789068
24
9.9375
34
0
50
90
100
AcDbRotatedDimension
1001
ACAD
1000
DSTYLE
1002
{
1070
    74
1070
     0
1070
   279
1070
     0
1070
   172
1070
     1
1070
   173
1070
     1
1070
   340
1005
119
1070
   271
1070
     1
1070
   272
1070
     2
1070
    77
1070
     1
1070
    73
1070
     0
1070
   171
1070
     3
1070
   274
1070
     4
1070
   177
1070
   150
1070
   176
1070
     9
1070
   178
1070
    43
1070
    78
1070
     8
1070
    48
1040
-0.005
1070
    41
1041
3.175
1070
   147
1041
2.25
1070
    42
1041
1.5875
1070
    44
1041
3.175
1070
   140
1041
4.5
1070
   343
1005
12B
1070
   344
1005
12B
1002
}
0
DIMENSION
5
14E
100
AcDbEntity
8
SK2
62
256
6
ByLayer
370
13
48
1
60
0
100
AcDbDimension
2
DimnDraft3D3
10
36.197093
20
-41.9125
30
0
11
-26.977907
21
-41.9125
31
0
70
32
71
5
72
1
41
1
210
0
220
0
230
1
3
Standard
100
AcDbAlignedDimension
13
-90.152907
23
-11.65
33
0
14
36.197093
24
-17
34
0
50
0
100
AcDbRotatedDimension
1001
ACAD
1000
DSTYLE
1002
{
1070
   279
1070
     0
1070
   172
1070
     1
1070
   173
1070
     1
1070
   340
1005
119
1070
   271
1070
     1
1070
   272
1070
     2
1070
    77
1070
     1
1070
    73
1070
     0
1070
   171
1070
     3
1070
   274
1070
     4
1070
   177
1070
   150
1070
   176
1070
     9
1070
   178
1070
    43
1070
    78
1070
     8
1070
    48
1040
-0.005
1070
    41
1041
3.175
1070
   147
1041
2.25
1070
    42
1041
1.5875
1070
    44
1041
3.175
1070
   140
1041
4.5
1070
   343
1005
12B
1070
   344
1005
12B
1002
}
0
DIMENSION
5
15C
100
AcDbEntity
8
2
62
256
6
ByLayer
370
13
48
1
60
0
100
AcDbDimension
2
DimnDraft3D4
10
36.197093
20
-13.825
30
0
11
23.722808
21
-26.915552
31
0
70
34
71
5
72
1
41
1
210
0
220
0
230
1
3
Standard
100
AcDb2LineAngularDimension
13
35.334163
23
-15.40948
33
0
14
27.364605
24
-14.712234
34
0
15
36.197093
25
-15.4125
35
0
16
20.40506
26
-29.955708
36
0
40
0
0
ENDSEC
0
SECTION
2
OBJECTS
0
DICTIONARY
5
1c6
330
0
100
AcDbDictionary
280
0
281
1
3
ACAD_GROUP
350
1c7
3
ACAD_MLINESTYLE
350
1c8
0
DICTIONARY
5
1c7
330
0
100
AcDbDictionary
280
0
281
1
0
DICTIONARY
5
1c8
330
0
100
AcDbDictionary
280
0
281
1
3
Standard
350
18
0
MLINESTYLE
5
18
330
1c8
100
AcDbMlineStyle
2
Standard
70
0
3

62
256
51
90
52
90
71
2
49
-0.5
62
256
6
ByLayer
49
0.5
62
256
6
ByLayer
0
RASTERVARIABLES
5
1b5
330

100
AcDbRasterVariables
90
0
70
1
71
1
72
1
0
ENDSEC
0
EOF
