0
SECTION
2
HEADER
9
$ACADVER
1
AC1015
9
$DWGCODEPAGE
3
ANSI_1252
9
$HANDSEED
5
1b6
9
$ANGBASE
50
0
9
$ANGDIR
70
0
9
$ATTMODE
70
1
9
$AUNITS
70
0
9
$AUPREC
70
0
9
$CECOLOR
62
256
9
$CELTSCALE
40
1
9
$CELTYPE
6
ByLayer
9
$CELWEIGHT
370
18
9
$CLAYER
8
0
9
$CMLJUST
70
0
9
$CMLSCALE
40
1
9
$CMLSTYLE
2
Standard
9
$DIMSTYLE
2
Standard
9
$TEXTSIZE
40
0.2
9
$TEXTSTYLE
7
Standard
9
$LUNITS
70
2
9
$LUPREC
70
4
9
$EXTNAMES
290
1
9
$INSUNITS
70
4
9
$LTSCALE
40
1
9
$LWDISPLAY
290
1
9
$PDMODE
70
0
9
$PDSIZE
40
0
9
$PLINEGEN
70
0
0
ENDSEC
0
SECTION
2
CLASSES
0
CLASS
1
RASTERVARIABLES
2
AcDbRasterVariables
3
ISM
90
0
280
0
281
0
0
ENDSEC
0
SECTION
2
TABLES
0
TABLE
2
VPORT
5
1ac
100
AcDbSymbolTable
0
VPORT
5
1
100
AcDbSymbolTableRecord
100
AcDbViewportTableRecord
2
*Active
70
0
10
0
20
0
11
1
21
1
12
-1
22
1
13
0
23
0
14
0.5
24
0.5
15
10
25
10
16
0
26
0
36
1
17
0
27
0
37
0
0
ENDTAB
0
TABLE
2
LTYPE
5
1ad
100
AcDbSymbolTable
0
LTYPE
5
14
100
AcDbSymbolTableRecord
100
AcDbLinetypeTableRecord
70
0
2
ByBlock
3

72
65
73
0
40
0
0
LTYPE
5
15
100
AcDbSymbolTableRecord
100
AcDbLinetypeTableRecord
70
0
2
ByLayer
3

72
65
73
0
40
0
0
LTYPE
5
16
100
AcDbSymbolTableRecord
100
AcDbLinetypeTableRecord
70
0
2
CONTINUOUS
3
Solid line
72
65
73
0
40
0
0
LTYPE
5
6A
100
AcDbSymbolTableRecord
100
AcDbLinetypeTableRecord
70
0
2
CENTER
3
____ _ ____ _ ____ _ ____
72
65
73
4
40
47.5
49
22
74
0
49
-8.5
74
0
49
8.5
74
0
49
-8.5
74
0
0
LTYPE
5
6B
100
AcDbSymbolTableRecord
100
AcDbLinetypeTableRecord
70
0
2
DASHED
3
__ __ __ __ __ __ __ __ __
72
65
73
2
40
25.72
49
12.86
74
0
49
-12.86
74
0
0
ENDTAB
0
TABLE
2
LAYER
5
1ae
100
AcDbSymbolTable
0
LAYER
5
10
100
AcDbSymbolTableRecord
100
AcDbLayerTableRecord
2
0
70
0
62
7
6
CONTINUOUS
290
1
370
-3
390
0
0
LAYER
5
6D
100
AcDbSymbolTableRecord
100
AcDbLayerTableRecord
2
80
70
0
62
-6
6
CONTINUOUS
290
1
370
-3
390
0
0
LAYER
5
6F
100
AcDbSymbolTableRecord
100
AcDbLayerTableRecord
2
81
70
0
62
-3
6
CONTINUOUS
290
1
370
-3
390
0
0
LAYER
5
71
100
AcDbSymbolTableRecord
100
AcDbLayerTableRecord
2
1
70
0
62
4
6
CONTINUOUS
290
1
370
-3
390
0
0
LAYER
5
118
100
AcDbSymbolTableRecord
100
AcDbLayerTableRecord
2
2
70
0
62
7
6
CONTINUOUS
290
1
370
-3
390
0
0
LAYER
5
199
100
AcDbSymbolTableRecord
100
AcDbLayerTableRecord
2
SK1
70
0
62
4
6
CONTINUOUS
290
1
370
-3
390
0
0
LAYER
5
19a
100
AcDbSymbolTableRecord
100
AcDbLayerTableRecord
2
SK6
70
0
62
5
6
CONTINUOUS
290
1
370
-3
390
0
0
LAYER
5
19b
100
AcDbSymbolTableRecord
100
AcDbLayerTableRecord
2
SK2
70
0
62
7
6
CONTINUOUS
290
1
370
-3
390
0
0
ENDTAB
0
TABLE
2
STYLE
5
1af
100
AcDbSymbolTable
0
STYLE
5
11
100
AcDbSymbolTableRecord
100
AcDbTextStyleTableRecord
2
Standard
3
txt
70
0
71
0
40
0
41
1
42
0
50
0
0
STYLE
5
FD
100
AcDbSymbolTableRecord
100
AcDbTextStyleTableRecord
2
iso_b_vert
3
simplex.shx
70
0
71
0
40
0
41
1
42
0
50
0
0
STYLE
5
FE
100
AcDbSymbolTableRecord
100
AcDbTextStyleTableRecord
2
DWGDirectTextStyle
3
simplex
70
0
71
0
40
0
41
1
42
0
50
0
0
ENDTAB
0
TABLE
2
DIMSTYLE
5
1b0
100
AcDbSymbolTable
100
AcDbDimStyleTable
0
DIMSTYLE
105
27
100
AcDbSymbolTableRecord
100
AcDbDimStyleTableRecord
2
Standard
70
0
3
<>
41
0.18
42
0.0625
44
0.18
140
0.18
147
0.09
73
0
74
0
77
1
271
2
275
0
278
52
280
0
340
11
0
ENDTAB
0
TABLE
2
VIEW
5
1b1
100
AcDbSymbolTable
0
ENDTAB
0
TABLE
2
UCS
5
1b2
100
AcDbSymbolTable
0
ENDTAB
0
TABLE
2
APPID
5
1b3
100
AcDbSymbolTable
0
APPID
5
12
100
AcDbSymbolTableRecord
100
AcDbRegAppTableRecord
2
ACAD
70
0
0
ENDTAB
0
TABLE
2
BLOCK_RECORD
5
1b4
100
AcDbSymbolTable
0
BLOCK_RECORD
5
1F
100
AcDbSymbolTableRecord
100
AcDbBlockTableRecord
2
*Model_Space
340
0
70
0
0
BLOCK_RECORD
5
1B
100
AcDbSymbolTableRecord
100
AcDbBlockTableRecord
2
*Paper_Space
340
0
70
0
0
BLOCK_RECORD
5
23
100
AcDbSymbolTableRecord
100
AcDbBlockTableRecord
2
*Paper_Space0
340
0
70
0
0
BLOCK_RECORD
5
100
100
AcDbSymbolTableRecord
100
AcDbBlockTableRecord
2
DimnDraft3D1
340
0
70
0
0
BLOCK_RECORD
5
10F
100
AcDbSymbolTableRecord
100
AcDbBlockTableRecord
2
_CLOSED
340
0
70
0
0
BLOCK_RECORD
5
116
100
AcDbSymbolTableRecord
100
AcDbBlockTableRecord
2
DimnDraft3D2
340
0
70
0
0
BLOCK_RECORD
5
125
100
AcDbSymbolTableRecord
100
AcDbBlockTableRecord
2
DimnDraft3D3
340
0
70
0
0
BLOCK_RECORD
5
133
100
AcDbSymbolTableRecord
100
AcDbBlockTableRecord
2
DimnDraft3D4
340
0
70
0
0
ENDTAB
0
ENDSEC
0
SECTION
2
BLOCKS
0
BLOCK
5
20
100
AcDbEntity
8
0
100
AcDbBlockBegin
2
*Model_Space
70
0
10
0
20
0
30
0
3
*Model_Space
0
ENDBLK
5
21
100
AcDbEntity
8
0
100
AcDbBlockEnd
0
BLOCK
5
1C
100
AcDbEntity
8
0
100
AcDbBlockBegin
2
*Paper_Space
70
0
10
0
20
0
30
0
3
*Paper_Space
0
ENDBLK
5
1D
100
AcDbEntity
8
0
100
AcDbBlockEnd
0
BLOCK
5
24
100
AcDbEntity
8
0
100
AcDbBlockBegin
2
*Paper_Space0
70
0
10
0
20
0
30
0
3
*Paper_Space0
0
ENDBLK
5
25
100
AcDbEntity
8
0
100
AcDbBlockEnd
0
BLOCK
5
10C
100
AcDbEntity
8
0
100
AcDbBlockBegin
2
DimnDraft3D1
70
0
10
0
20
0
30
0
3
DimnDraft3D1
0
MTEXT
5
101
100
AcDbEntity
8
SK2
62
256
6
ByLayer
370
13
48
1
60
0
100
AcDbMText
10
-94.654525
20
-1.500658
30
0
210
0
220
0
230
1
1
\W0.6740;20
40
4.5
41
0
44
1.084337
50
90
71
7
72
5
7
iso_b_vert
0
LINE
5
103
100
AcDbEntity
8
SK2
62
256
6
ByLayer
370
13
48
1
60
0
100
AcDbLine
10
-85.367025
20
10.0625
30
0
11
-96.704525
21
10.0625
31
0
39
0
210
0
220
0
230
1
0
LINE
5
104
100
AcDbEntity
8
SK2
62
256
6
ByLayer
370
13
48
1
60
0
100
AcDbLine
10
-85.367025
20
-9.9375
30
0
11
-96.704525
21
-9.9375
31
0
39
0
210
0
220
0
230
1
0
LINE
5
105
100
AcDbEntity
8
SK2
62
256
6
ByLayer
370
13
48
1
60
0
100
AcDbLine
10
-93.529525
20
10.0625
30
0
11
-93.529525
21
-9.9375
31
0
39
0
210
0
220
0
230
1
0
LINE
5
106
100
AcDbEntity
8
SK2
62
256
6
ByLayer
370
13
48
1
60
0
100
AcDbLine
10
-93.529525
20
10.0625
30
0
11
-92.678787
21
6.887503
31
0
39
0
210
0
220
0
230
1
0
LINE
5
107
100
AcDbEntity
8
SK2
62
256
6
ByLayer
370
13
48
1
60
0
100
AcDbLine
10
-93.529525
20
10.0625
30
0
11
-94.380264
21
6.887497
31
0
39
0
210
0
220
0
230
1
0
LINE
5
108
100
AcDbEntity
8
SK2
62
256
6
ByLayer
370
13
48
1
60
0
100
AcDbLine
10
-92.678787
20
6.887503
30
0
11
-94.380264
21
6.887497
31
0
39
0
210
0
220
0
230
1
0
LINE
5
109
100
AcDbEntity
8
SK2
62
256
6
ByLayer
370
13
48
1
60
0
100
AcDbLine
10
-93.529525
20
-9.9375
30
0
11
-94.380264
21
-6.762503
31
0
39
0
210
0
220
0
230
1
0
LINE
5
10A
100
AcDbEntity
8
SK2
62
256
6
ByLayer
370
13
48
1
60
0
100
AcDbLine
10
-93.529525
20
-9.9375
30
0
11
-92.678787
21
-6.762497
31
0
39
0
210
0
220
0
230
1
0
LINE
5
10B
100
AcDbEntity
8
SK2
62
256
6
ByLayer
370
13
48
1
60
0
100
AcDbLine
10
-94.380264
20
-6.762503
30
0
11
-92.678787
21
-6.762497
31
0
39
0
210
0
220
0
230
1
0
ENDBLK
5
10D
100
AcDbEntity
8
0
100
AcDbBlockEnd
0
BLOCK
5
110
100
AcDbEntity
8
0
100
AcDbBlockBegin
2
_CLOSED
70
0
10
0
20
0
30
0
3
_CLOSED
0
LINE
5
112
100
AcDbEntity
8
0
62
256
6
ByLayer
370
-2
48
1
60
0
100
AcDbLine
10
-1
20
0.166667
30
0
11
0
21
0
31
0
39
0
210
0
220
0
230
1
0
LINE
5
113
100
AcDbEntity
8
0
62
256
6
ByLayer
370
-2
48
1
60
0
100
AcDbLine
10
0
20
0
30
0
11
-1
21
-0.166667
31
0
39
0
210
0
220
0
230
1
0
LINE
5
114
100
AcDbEntity
8
0
62
256
6
ByLayer
370
-2
48
1
60
0
100
AcDbLine
10
-1
20
0.166667
30
0
11
-1
21
-0.166667
31
0
39
0
210
0
220
0
230
1
0
LINE
5
115
100
AcDbEntity
8
0
62
256
6
ByLayer
370
-2
48
1
60
0
100
AcDbLine
10
0
20
0
30
0
11
-1
21
0
31
0
39
0
210
0
220
0
230
1
0
ENDBLK
5
111
100
AcDbEntity
8
0
100
AcDbBlockEnd
0
BLOCK
5
122
100
AcDbEntity
8
0
100
AcDbBlockBegin
2
DimnDraft3D2
70
0
10
0
20
0
30
0
3
DimnDraft3D2
0
MTEXT
5
117
100
AcDbEntity
8
2
62
256
6
ByLayer
370
13
48
1
60
0
100
AcDbMText
10
57.945475
20
1.174342
30
0
210
0
220
0
230
1
1
\W0.6740;25
40
4.5
41
0
44
1.084337
50
90
71
7
72
5
7
iso_b_vert
0
LINE
5
119
100
AcDbEntity
8
2
62
256
6
ByLayer
370
13
48
1
60
0
100
AcDbLine
10
1.5875
20
-9.9375
30
0
11
62.245475
21
-9.9375
31
0
39
0
210
0
220
0
230
1
0
LINE
5
11A
100
AcDbEntity
8
2
62
256
6
ByLayer
370
13
48
1
60
0
100
AcDbLine
10
44.157975
20
15.4125
30
0
11
62.245475
21
15.4125
31
0
39
0
210
0
220
0
230
1
0
LINE
5
11B
100
AcDbEntity
8
2
62
256
6
ByLayer
370
13
48
1
60
0
100
AcDbLine
10
59.070475
20
-9.9375
30
0
11
59.070475
21
15.4125
31
0
39
0
210
0
220
0
230
1
0
LINE
5
11C
100
AcDbEntity
8
2
62
256
6
ByLayer
370
13
48
1
60
0
100
AcDbLine
10
59.070475
20
-9.9375
30
0
11
58.219736
21
-6.762503
31
0
39
0
210
0
220
0
230
1
0
LINE
5
11D
100
AcDbEntity
8
2
62
256
6
ByLayer
370
13
48
1
60
0
100
AcDbLine
10
59.070475
20
-9.9375
30
0
11
59.921213
21
-6.762497
31
0
39
0
210
0
220
0
230
1
0
LINE
5
11E
100
AcDbEntity
8
2
62
256
6
ByLayer
370
13
48
1
60
0
100
AcDbLine
10
58.219736
20
-6.762503
30
0
11
59.921213
21
-6.762497
31
0
39
0
210
0
220
0
230
1
0
LINE
5
11F
100
AcDbEntity
8
2
62
256
6
ByLayer
370
13
48
1
60
0
100
AcDbLine
10
59.070475
20
15.4125
30
0
11
59.921213
21
12.237503
31
0
39
0
210
0
220
0
230
1
0
LINE
5
120
100
AcDbEntity
8
2
62
256
6
ByLayer
370
13
48
1
60
0
100
AcDbLine
10
59.070475
20
15.4125
30
0
11
58.219736
21
12.237497
31
0
39
0
210
0
220
0
230
1
0
LINE
5
121
100
AcDbEntity
8
2
62
256
6
ByLayer
370
13
48
1
60
0
100
AcDbLine
10
59.921213
20
12.237503
30
0
11
58.219736
21
12.237497
31
0
39
0
210
0
220
0
230
1
0
ENDBLK
5
123
100
AcDbEntity
8
0
100
AcDbBlockEnd
0
BLOCK
5
130
100
AcDbEntity
8
0
100
AcDbBlockBegin
2
DimnDraft3D3
70
0
10
0
20
0
30
0
3
DimnDraft3D3
0
MTEXT
5
126
100
AcDbEntity
8
SK2
62
256
6
ByLayer
370
13
48
1
60
0
100
AcDbMText
10
-23.286762
20
34.0375
30
0
210
0
220
0
230
1
1
\W0.6217;125
40
4.5
41
0
44
1.084337
50
0
71
7
72
5
7
iso_b_vert
0
LINE
5
127
100
AcDbEntity
8
SK2
62
256
6
ByLayer
370
13
48
1
60
0
100
AcDbLine
10
-83.779525
20
11.65
30
0
11
-83.779525
21
36.0875
31
0
39
0
210
0
220
0
230
1
0
LINE
5
128
100
AcDbEntity
8
SK2
62
256
6
ByLayer
370
13
48
1
60
0
100
AcDbLine
10
42.570475
20
17
30
0
11
42.570475
21
36.0875
31
0
39
0
210
0
220
0
230
1
0
LINE
5
129
100
AcDbEntity
8
SK2
62
256
6
ByLayer
370
13
48
1
60
0
100
AcDbLine
10
-83.779525
20
32.9125
30
0
11
42.570475
21
32.9125
31
0
39
0
210
0
220
0
230
1
0
LINE
5
12A
100
AcDbEntity
8
SK2
62
256
6
ByLayer
370
13
48
1
60
0
100
AcDbLine
10
-83.779525
20
32.9125
30
0
11
-80.604528
21
33.763239
31
0
39
0
210
0
220
0
230
1
0
LINE
5
12B
100
AcDbEntity
8
SK2
62
256
6
ByLayer
370
13
48
1
60
0
100
AcDbLine
10
-83.779525
20
32.9125
30
0
11
-80.604522
21
32.061761
31
0
39
0
210
0
220
0
230
1
0
LINE
5
12C
100
AcDbEntity
8
SK2
62
256
6
ByLayer
370
13
48
1
60
0
100
AcDbLine
10
-80.604528
20
33.763239
30
0
11
-80.604522
21
32.061761
31
0
39
0
210
0
220
0
230
1
0
LINE
5
12D
100
AcDbEntity
8
SK2
62
256
6
ByLayer
370
13
48
1
60
0
100
AcDbLine
10
42.570475
20
32.9125
30
0
11
39.395478
21
32.061761
31
0
39
0
210
0
220
0
230
1
0
LINE
5
12E
100
AcDbEntity
8
SK2
62
256
6
ByLayer
370
13
48
1
60
0
100
AcDbLine
10
42.570475
20
32.9125
30
0
11
39.395472
21
33.763239
31
0
39
0
210
0
220
0
230
1
0
LINE
5
12F
100
AcDbEntity
8
SK2
62
256
6
ByLayer
370
13
48
1
60
0
100
AcDbLine
10
39.395478
20
32.061761
30
0
11
39.395472
21
33.763239
31
0
39
0
210
0
220
0
230
1
0
ENDBLK
5
131
100
AcDbEntity
8
0
100
AcDbBlockEnd
0
BLOCK
5
13D
100
AcDbEntity
8
0
100
AcDbBlockBegin
2
DimnDraft3D4
70
0
10
0
20
0
30
0
3
DimnDraft3D4
0
MTEXT
5
134
100
AcDbEntity
8
2
62
256
6
ByLayer
370
13
48
1
60
0
100
AcDbMText
10
28.966492
20
20.826582
30
0
210
0
220
0
230
1
1
\W0.8292;93%%d0'
40
4.5
41
0
44
1.084337
50
46.5000000000001
71
7
72
5
7
iso_b_vert
0
LINE
5
135
100
AcDbEntity
8
2
62
256
6
ByLayer
370
13
48
1
60
0
100
AcDbLine
10
42.570475
20
17
30
0
11
42.570475
21
31.070593
31
0
39
0
210
0
220
0
230
1
0
ARC
5
136
100
AcDbEntity
8
2
62
256
6
ByLayer
370
13
48
1
60
0
100
AcDbCircle
39
0
10
42.570475
20
15.455188
30
0
40
12.4404046845569
210
0
220
0
230
1
100
AcDbArc
50
90
51
183
0
LINE
5
137
100
AcDbEntity
8
2
62
256
6
ByLayer
370
13
48
1
60
0
100
AcDbLine
10
42.570475
20
27.895593
30
0
11
39.455822
21
26.845213
31
0
39
0
210
0
220
0
230
1
0
LINE
5
138
100
AcDbEntity
8
2
62
256
6
ByLayer
370
13
48
1
60
0
100
AcDbLine
10
42.570475
20
27.895593
30
0
11
39.34791
21
28.543264
31
0
39
0
210
0
220
0
230
1
0
LINE
5
139
100
AcDbEntity
8
2
62
256
6
ByLayer
370
13
48
1
60
0
100
AcDbLine
10
39.455822
20
26.845213
30
0
11
39.34791
21
28.543264
31
0
39
0
210
0
220
0
230
1
0
LINE
5
13A
100
AcDbEntity
8
2
62
256
6
ByLayer
370
13
48
1
60
0
100
AcDbLine
10
30.147119
20
14.804107
30
0
11
29.331679
21
17.988353
31
0
39
0
210
0
220
0
230
1
0
LINE
5
13B
100
AcDbEntity
8
2
62
256
6
ByLayer
370
13
48
1
60
0
100
AcDbLine
10
30.147119
20
14.804107
30
0
11
31.033051
21
17.969471
31
0
39
0
210
0
220
0
230
1
0
LINE
5
13C
100
AcDbEntity
8
2
62
256
6
ByLayer
370
13
48
1
60
0
100
AcDbLine
10
29.331679
20
17.988353
30
0
11
31.033051
21
17.969471
31
0
39
0
210
0
220
0
230
1
0
ENDBLK
5
13E
100
AcDbEntity
8
0
100
AcDbBlockEnd
0
ENDSEC
0
SECTION
2
ENTITIES
0
ARC
5
B7
100
AcDbEntity
8
1
62
256
6
ByLayer
370
18
48
1
60
0
100
AcDbCircle
39
0
10
0
20
11.5375
30
0
40
1.60000000000093
210
0
220
0
230
-1
100
AcDbArc
50
195
51
270
0
ELLIPSE
5
B8
100
AcDbEntity
8
1
62
256
6
ByLayer
370
18
48
1
60
0
100
AcDbEllipse
10
4.277835
20
-2.055967
30
0
11
0.00305344646603192
21
-1.82432671939646
31
0
210
0
220
0
230
-1
40
0.227011
41
-0.0918467142053741
42
1.4789496125893
0
ELLIPSE
5
B9
100
AcDbEntity
8
1
62
256
6
ByLayer
370
18
48
1
60
0
100
AcDbEllipse
10
15.241971
20
0.572967
30
0
11
-1.14941937356909
21
2.98644188017514
31
0
210
0
220
0
230
1
40
0.970308
41
-0.485096809059108
42
0.14576219729637
0
ELLIPSE
5
BA
100
AcDbEntity
8
1
62
256
6
ByLayer
370
18
48
1
60
0
100
AcDbEllipse
10
14.045016
20
3.504752
30
0
11
0.791618447673255
21
-1.39044605551722
31
0
210
0
220
0
230
1
40
0.239306
41
-1.60698645703946
42
-0.0361901302445516
0
ELLIPSE
5
BB
100
AcDbEntity
8
1
62
256
6
ByLayer
370
18
48
1
60
0
100
AcDbEllipse
10
17.493844
20
1.439666
30
0
11
0.64604633837709
21
-1.46408520807182
31
0
210
0
220
0
230
-1
40
0.919112
41
3.04010084483775
42
-1.78748633571429
0
ELLIPSE
5
BC
100
AcDbEntity
8
1
62
256
6
ByLayer
370
18
48
1
60
0
100
AcDbEllipse
10
16.381834
20
4.864936
30
0
11
0.509115203999972
21
-1.32279218710078
31
0
210
0
220
0
230
1
40
0.970308
41
3.14075366325425
42
-1.00044114584907
0
ELLIPSE
5
BD
100
AcDbEntity
8
1
62
256
6
ByLayer
370
18
48
1
60
0
100
AcDbEllipse
10
23.524834
20
8.730942
30
0
11
0.718387108480666
21
-1.86652617510947
31
0
210
0
220
0
230
1
40
0.970308
41
-2.83699902482634
42
-2.44723829202886
0
ELLIPSE
5
BE
100
AcDbEntity
8
1
62
256
6
ByLayer
370
18
48
1
60
0
100
AcDbEllipse
10
22.313909
20
-5.380863
30
0
11
0.646046338362436
21
-1.4640852080706
31
0
210
0
220
0
230
-1
40
0.919112
41
-1.78748633572401
42
-1.09200896270261
0
ELLIPSE
5
BF
100
AcDbEntity
8
1
62
256
6
ByLayer
370
18
48
1
60
0
100
AcDbEllipse
10
15.603138
20
0.711972
30
0
11
0.574709686784531
21
-1.49322094008758
31
0
210
0
220
0
230
1
40
0.970308
41
3.14159035646692
42
-2.99583045629344
0
ELLIPSE
5
C0
100
AcDbEntity
8
1
62
256
6
ByLayer
370
18
48
1
60
0
100
AcDbEllipse
10
25.400174
20
10.249715
30
0
11
0.718387108480664
21
-1.86652617510947
31
0
210
0
220
0
230
1
40
0.970308
41
3.05642554955576
42
-2.83699902482636
0
ELLIPSE
5
C1
100
AcDbEntity
8
1
62
256
6
ByLayer
370
18
48
1
60
0
100
AcDbEllipse
10
16.381834
20
4.864936
30
0
11
0.509115203999972
21
-1.32279218710078
31
0
210
0
220
0
230
1
40
0.970308
41
-0.282314104473691
42
-0.000838990335546274
0
ELLIPSE
5
C2
100
AcDbEntity
8
1
62
256
6
ByLayer
370
18
48
1
60
0
100
AcDbEllipse
10
39.588544
20
-0.29588
30
0
11
-3.66377425325147
21
9.51928349305827
31
0
210
0
220
0
230
1
40
0.970308
41
0.712082438896195
42
0.957835558176225
0
ELLIPSE
5
C3
100
AcDbEntity
8
1
62
256
6
ByLayer
370
18
48
1
60
0
100
AcDbEllipse
10
15.241971
20
0.572967
30
0
11
-1.14941937356909
21
2.98644188017514
31
0
210
0
220
0
230
1
40
0.970308
41
-1.0598771637929
42
-0.797658441263656
0
ELLIPSE
5
C4
100
AcDbEntity
8
1
62
256
6
ByLayer
370
18
48
1
60
0
100
AcDbEllipse
10
0
20
-9.944481
30
0
11
1.59999999999975
21
1.61702248813153E-15
31
0
210
0
220
0
230
-1
40
0.004363
41
-1.5707963267949
42
-0.261799387798695
0
ELLIPSE
5
C5
100
AcDbEntity
8
1
62
256
6
ByLayer
370
18
48
1
60
0
100
AcDbEllipse
10
22.323928
20
-0.017666
30
0
11
1.077580662721
21
-2.79978926266421
31
0
210
0
220
0
230
1
40
0.970308
41
-0.336894032137914
42
-2.52676728699947E-16
0
ELLIPSE
5
C6
100
AcDbEntity
8
1
62
256
6
ByLayer
370
18
48
1
60
0
100
AcDbEllipse
10
22.323928
20
-0.017666
30
0
11
1.077580662721
21
-2.79978926266421
31
0
210
0
220
0
230
1
40
0.970308
41
0
42
1.21338377703316
0
ELLIPSE
5
C7
100
AcDbEntity
8
1
62
256
6
ByLayer
370
18
48
1
60
0
100
AcDbEllipse
10
22.323928
20
-0.017666
30
0
11
1.077580662721
21
-2.79978926266421
31
0
210
0
220
0
230
1
40
0.970308
41
1.21338402670166
42
-2.29449853268992
0
ELLIPSE
5
C8
100
AcDbEntity
8
1
62
256
6
ByLayer
370
18
48
1
60
0
100
AcDbEllipse
10
22.496611
20
0.048796
30
0
11
0.802797593727143
21
-2.08584300068483
31
0
210
0
220
0
230
1
40
0.970308
41
-0.726843950871964
42
-2.52772718339824E-16
0
ELLIPSE
5
C9
100
AcDbEntity
8
1
62
256
6
ByLayer
370
18
48
1
60
0
100
AcDbEllipse
10
22.496611
20
0.048796
30
0
11
0.802797593727143
21
-2.08584300068483
31
0
210
0
220
0
230
1
40
0.970308
41
0
42
1.21338402175877
0
ELLIPSE
5
CA
100
AcDbEntity
8
1
62
256
6
ByLayer
370
18
48
1
60
0
100
AcDbEllipse
10
22.496611
20
0.048796
30
0
11
0.802797593727143
21
-2.08584300068483
31
0
210
0
220
0
230
1
40
0.970308
41
1.2133837707501
42
-1.90474523876691
0
ELLIPSE
5
CB
100
AcDbEntity
8
1
62
256
6
ByLayer
370
18
48
1
60
0
100
AcDbEllipse
10
21.503402
20
-0.333469
30
0
11
0.46515565274123
21
-1.20857569838338
31
0
210
0
220
0
230
1
40
0.970308
41
0.414535818763325
42
1.21338354363058
0
ELLIPSE
5
CC
100
AcDbEntity
8
1
62
256
6
ByLayer
370
18
48
1
60
0
100
AcDbEllipse
10
21.503402
20
-0.333469
30
0
11
0.46515565274123
21
-1.20857569838338
31
0
210
0
220
0
230
1
40
0.970308
41
1.21338354363058
42
2.72704179027789
0
ELLIPSE
5
CD
100
AcDbEntity
8
1
62
256
6
ByLayer
370
18
48
1
60
0
100
AcDbEllipse
10
28.766609
20
9.618408
30
0
11
0.684263720827834
21
-1.77786618179177
31
0
210
0
220
0
230
1
40
0.970308
41
0.316851950614175
42
0.557674786378575
0
ELLIPSE
5
CE
100
AcDbEntity
8
1
62
256
6
ByLayer
370
18
48
1
60
0
100
AcDbEllipse
10
28.766609
20
9.618408
30
0
11
0.684263720827834
21
-1.77786618179177
31
0
210
0
220
0
230
1
40
0.970308
41
2.61208007551764
42
2.8248248416643
0
ELLIPSE
5
CF
100
AcDbEntity
8
1
62
256
6
ByLayer
370
18
48
1
60
0
100
AcDbEllipse
10
29.762122
20
9.727336
30
0
11
0.682467753056632
21
-1.773199866354
31
0
210
0
220
0
230
1
40
0.970308
41
2.62256687326821
42
-2.27583414562187
0
ELLIPSE
5
D0
100
AcDbEntity
8
1
62
256
6
ByLayer
370
18
48
1
60
0
100
AcDbEllipse
10
29.294768
20
10.09591
30
0
11
0.682467753056632
21
-1.773199866354
31
0
210
0
220
0
230
1
40
0.970308
41
-0.331164208357315
42
1.6169052284069
0
ELLIPSE
5
D1
100
AcDbEntity
8
1
62
256
6
ByLayer
370
18
48
1
60
0
100
AcDbEllipse
10
28.348607
20
9.457528
30
0
11
-0.664508075344629
21
1.72653671197625
31
0
210
0
220
0
230
1
40
0.970308
41
-0.476319463285976
42
-0.424394751935056
0
ELLIPSE
5
D2
100
AcDbEntity
8
1
62
256
6
ByLayer
370
18
48
1
60
0
100
AcDbEllipse
10
29.841644
20
10.032167
30
0
11
0.684263720827834
21
-1.77786618179177
31
0
210
0
220
0
230
1
40
0.970308
41
0
42
6.28318530717959
0
ELLIPSE
5
D3
100
AcDbEntity
8
1
62
256
6
ByLayer
370
18
48
1
60
0
100
AcDbEllipse
10
16.811042
20
5.028824
30
0
11
0.285109883678264
21
-0.740777575746571
31
0
210
0
220
0
230
1
40
0.970308
41
-2.83699902482634
42
-0.306271609434566
0
ELLIPSE
5
D4
100
AcDbEntity
8
1
62
256
6
ByLayer
370
18
48
1
60
0
100
AcDbEllipse
10
28.350076
20
13.917017
30
0
11
0.285109883678264
21
-0.740777575746569
31
0
210
0
220
0
230
1
40
0.970308
41
2.83532104415523
42
-2.83699902482635
0
ELLIPSE
5
D5
100
AcDbEntity
8
1
62
256
6
ByLayer
370
18
48
1
60
0
100
AcDbEllipse
10
41.797211
20
14.621751
30
0
11
0.285109883678264
21
-0.740777575746571
31
0
210
0
220
0
230
1
40
0.970308
41
0.304593628763472
42
2.83532104415521
0
ELLIPSE
5
D6
100
AcDbEntity
8
1
62
256
6
ByLayer
370
18
48
1
60
0
100
AcDbEllipse
10
31.333212
20
6.147317
30
0
11
0.285109883678264
21
-0.740777575746569
31
0
210
0
220
0
230
1
40
0.970308
41
-0.306271609434564
42
0.304593628763422
0
ELLIPSE
5
D7
100
AcDbEntity
8
1
62
256
6
ByLayer
370
18
48
1
60
0
100
AcDbEllipse
10
17.886077
20
5.442583
30
0
11
0.285109883678264
21
-0.740777575746571
31
0
210
0
220
0
230
1
40
0.970308
41
-2.83699902482635
42
-0.306271609434566
0
ELLIPSE
5
D8
100
AcDbEntity
8
1
62
256
6
ByLayer
370
18
48
1
60
0
100
AcDbEllipse
10
16.255234
20
4.814849
30
0
11
0.215516132544199
21
-0.55995785253284
31
0
210
0
220
0
230
1
40
0.970308
41
-1.14734028000255
42
-0.306271609434597
0
ELLIPSE
5
D9
100
AcDbEntity
8
1
62
256
6
ByLayer
370
18
48
1
60
0
100
AcDbEllipse
10
16.164942
20
4.780098
30
0
11
0.547602368462222
21
-0.348568008102857
31
0
210
0
220
0
230
-1
40
0.766688
41
1.66293125598235
42
2.08722629306384
0
ELLIPSE
5
DA
100
AcDbEntity
8
1
62
256
6
ByLayer
370
18
48
1
60
0
100
AcDbEllipse
10
16.255234
20
4.814849
30
0
11
0.215516132544199
21
-0.55995785253284
31
0
210
0
220
0
230
1
40
0.970308
41
-2.83699902482633
42
-1.99593035425851
0
ELLIPSE
5
DB
100
AcDbEntity
8
1
62
256
6
ByLayer
370
18
48
1
60
0
100
AcDbEllipse
10
16.164942
20
4.780098
30
0
11
0.173144000844418
21
0.625721048913229
31
0
210
0
220
0
230
-1
40
0.766768
41
-2.08632777827944
42
-1.6620327412085
0
ELLIPSE
5
DC
100
AcDbEntity
8
1
62
256
6
ByLayer
370
18
48
1
60
0
100
AcDbEllipse
10
29.596164
20
9.937687
30
0
11
-0.529810492504502
21
1.37656305414323
31
0
210
0
220
0
230
1
40
0.970308
41
1.78064809608718
42
2.45882400558791
0
ELLIPSE
5
DD
100
AcDbEntity
8
1
62
256
6
ByLayer
370
18
48
1
60
0
100
AcDbEllipse
10
29.528445
20
9.911623
30
0
11
0.637568558776591
21
-1.65654198040965
31
0
210
0
220
0
230
1
40
0.970308
41
1.76554580745033
42
2.47392629422477
0
ELLIPSE
5
DE
100
AcDbEntity
8
1
62
256
6
ByLayer
370
18
48
1
60
0
100
AcDbEllipse
10
29.82984
20
9.7534
30
0
11
-0.574709686784544
21
1.49322094008757
31
0
210
0
220
0
230
1
40
0.970308
41
-0.505010538660529
42
1.60288998674583
0
ELLIPSE
5
DF
100
AcDbEntity
8
1
62
256
6
ByLayer
370
18
48
1
60
0
100
AcDbEllipse
10
29.596164
20
9.937687
30
0
11
-0.529810492504502
21
1.37656305414323
31
0
210
0
220
0
230
1
40
0.970308
41
-1.36094455750261
42
-0.68276864800186
0
ELLIPSE
5
E0
100
AcDbEntity
8
1
62
256
6
ByLayer
370
18
48
1
60
0
100
AcDbEllipse
10
29.362487
20
10.121974
30
0
11
-0.574709686784544
21
1.49322094008757
31
0
210
0
220
0
230
1
40
0.970308
41
2.63658211492927
42
-1.53870266684396
0
ELLIPSE
5
E1
100
AcDbEntity
8
1
62
256
6
ByLayer
370
18
48
1
60
0
100
AcDbEllipse
10
21.706558
20
-0.255278
30
0
11
-0.46515565274124
21
1.20857569838338
31
0
210
0
220
0
230
1
40
0.970308
41
-2.37252134789774
42
-1.76558695999992
0
ELLIPSE
5
E2
100
AcDbEntity
8
1
62
256
6
ByLayer
370
18
48
1
60
0
100
AcDbEllipse
10
21.706558
20
-0.255278
30
0
11
-0.46515565274124
21
1.20857569838338
31
0
210
0
220
0
230
1
40
0.970308
41
-1.32532379670116
42
-0.718389408803345
0
ELLIPSE
5
E3
100
AcDbEntity
8
1
62
256
6
ByLayer
370
18
48
1
60
0
100
AcDbEllipse
10
22.496611
20
0.048796
30
0
11
0.598916072165763
21
-1.55611440154516
31
0
210
0
220
0
230
1
40
0.970308
41
0
42
6.28318530717959
0
ELLIPSE
5
E4
100
AcDbEntity
8
1
62
256
6
ByLayer
370
18
48
1
60
0
100
AcDbEllipse
10
22.448079
20
0.030117
30
0
11
-0.46515565274124
21
1.20857569838338
31
0
210
0
220
0
230
1
40
0.970308
41
0.328808142393269
42
0.769071305692028
0
ELLIPSE
5
E5
100
AcDbEntity
8
1
62
256
6
ByLayer
370
18
48
1
60
0
100
AcDbEllipse
10
22.448079
20
0.030117
30
0
11
-0.46515565274124
21
1.20857569838338
31
0
210
0
220
0
230
1
40
0.970308
41
-1.76558695999993
42
-1.32532379670116
0
ELLIPSE
5
E6
100
AcDbEntity
8
1
62
256
6
ByLayer
370
18
48
1
60
0
100
AcDbEllipse
10
22.448079
20
0.030117
30
0
11
-0.46515565274124
21
1.20857569838338
31
0
210
0
220
0
230
1
40
0.970308
41
2.42320324478648
42
2.86346640808523
0
ELLIPSE
5
E7
100
AcDbEntity
8
1
62
256
6
ByLayer
370
18
48
1
60
0
100
AcDbEllipse
10
22.448079
20
0.030117
30
0
11
-0.46515565274124
21
1.20857569838338
31
0
210
0
220
0
230
1
40
0.970308
41
-2.81278451119854
42
-2.37252134789775
0
ELLIPSE
5
E8
100
AcDbEntity
8
1
62
256
6
ByLayer
370
18
48
1
60
0
100
AcDbEllipse
10
22.448079
20
0.030117
30
0
11
-0.46515565274124
21
1.20857569838338
31
0
210
0
220
0
230
1
40
0.970308
41
1.37600569358988
42
1.81626885688864
0
ELLIPSE
5
E9
100
AcDbEntity
8
1
62
256
6
ByLayer
370
18
48
1
60
0
100
AcDbEllipse
10
22.448079
20
0.030117
30
0
11
-0.46515565274124
21
1.20857569838338
31
0
210
0
220
0
230
1
40
0.970308
41
-0.718389408803337
42
-0.278126245504549
0
POINT
5
6C
100
AcDbEntity
8
80
62
256
6
ByLayer
370
18
48
1
60
0
100
AcDbPoint
10
0
20
0
30
0
39
0
210
0
220
0
230
1
50
360
0
POINT
5
6E
100
AcDbEntity
8
81
62
256
6
ByLayer
370
18
48
1
60
0
100
AcDbPoint
10
41.220475
20
15.0625
30
0
39
0
210
0
220
0
230
1
50
360
0
POINT
5
70
100
AcDbEntity
8
1
62
256
6
ByLayer
370
18
48
1
60
0
100
AcDbPoint
10
-83.779525
20
-9.9375
30
0
39
0
210
0
220
0
230
1
50
360
0
SPLINE
5
EA
100
AcDbEntity
8
1
62
256
6
ByLayer
370
18
48
1
60
0
100
AcDbSpline
70
4
71
3
72
8
73
4
40
0
40
0
40
0
40
0
40
1
40
1
40
1
40
1
41
1
10
24.7042652331981
20
12.1244585466044
30
0
41
1
10
24.7324366757343
20
12.1337616962498
30
0
41
1
10
24.7606080018454
20
12.1430647516455
30
0
41
1
10
24.7887792111486
20
12.152367712482
30
0
0
SPLINE
5
EB
100
AcDbEntity
8
1
62
256
6
ByLayer
370
18
48
1
60
0
100
AcDbSpline
70
4
71
3
72
14
73
10
40
0
40
0
40
0
40
0
40
0.25
40
0.25
40
0.5
40
0.5
40
0.75
40
0.75
40
1
40
1
40
1
40
1
41
1
10
15.5763730026289
20
3.73491603180779
30
0
41
1
10
15.6436938989267
20
3.68409352913352
30
0
41
1
10
15.7159468561015
20
3.63947528719939
30
0
41
1
10
15.8652126967683
20
3.56454045734009
30
0
41
1
10
15.9428325819619
20
3.53376079523414
30
0
41
1
10
16.1037335471567
20
3.48604263580785
30
0
41
1
10
16.1846736874189
20
3.46979087249616
30
0
41
1
10
16.3478214453633
20
3.45200554261132
30
0
41
1
10
16.4305586102669
20
3.45051890001696
30
0
41
1
10
16.5132340053459
20
3.45689103099815
30
0
0
SPLINE
5
EC
100
AcDbEntity
8
1
62
256
6
ByLayer
370
18
48
1
60
0
100
AcDbSpline
70
4
71
3
72
8
73
4
40
0
40
0
40
0
40
0
40
1
40
1
40
1
40
1
41
1
10
28.4001429094029
20
9.14812638041579
30
0
41
1
10
28.3574329628722
20
9.12657660457904
30
0
41
1
10
28.3147241999457
20
9.10503374444716
30
0
41
1
10
28.2720164255595
20
9.08349664984536
30
0
0
SPLINE
5
ED
100
AcDbEntity
8
1
62
256
6
ByLayer
370
18
48
1
60
0
100
AcDbSpline
70
4
71
3
72
8
73
4
40
0
40
0
40
0
40
0
40
1
40
1
40
1
40
1
41
1
10
29.0825394132133
20
8.34609939510335
30
0
41
1
10
29.1098360079774
20
8.41250948714674
30
0
41
1
10
29.1371419248816
20
8.47892687058322
30
0
41
1
10
29.1644605227825
20
8.54535416545457
30
0
0
SPLINE
5
EE
100
AcDbEntity
8
1
62
256
6
ByLayer
370
18
48
1
60
0
100
AcDbSpline
70
4
71
3
72
8
73
4
40
0
40
0
40
0
40
0
40
1
40
1
40
1
40
1
41
1
10
30.9820335280186
20
10.839141856583
30
0
41
1
10
30.9187682064662
20
10.8018802763399
30
0
41
1
10
30.8554885855365
20
10.7645891453367
30
0
41
1
10
30.7921842313058
20
10.7272468533188
30
0
0
SPLINE
5
EF
100
AcDbEntity
8
1
62
256
6
ByLayer
370
18
48
1
60
0
100
AcDbSpline
70
4
71
3
72
8
73
4
40
0
40
0
40
0
40
0
40
1
40
1
40
1
40
1
41
1
10
30.0278666179262
20
11.33001906828
30
0
41
1
10
30.0262818925799
20
11.4185355495861
30
0
41
1
10
30.0246478421573
20
11.5070202639602
30
0
41
1
10
30.0229853125042
20
11.5954866103878
30
0
0
SPLINE
5
F0
100
AcDbEntity
8
1
62
256
6
ByLayer
370
18
48
1
60
0
100
AcDbSpline
70
4
71
3
72
10
73
6
40
0
40
0
40
0
40
0
40
0.5
40
0.5
40
1
40
1
40
1
40
1
41
1
10
21.6291626646969
20
1.02820109235435
30
0
41
1
10
21.6755904326075
20
1.08837773413202
30
0
41
1
10
21.722972917853
20
1.14902941883969
30
0
41
1
10
21.817392496275
20
1.26866534955479
30
0
41
1
10
21.8646763560771
20
1.32797491031442
30
0
41
1
10
21.912016391775
20
1.38689889181498
30
0
0
SPLINE
5
F1
100
AcDbEntity
8
1
62
256
6
ByLayer
370
18
48
1
60
0
100
AcDbSpline
70
4
71
3
72
10
73
6
40
0
40
0
40
0
40
0
40
0.5
40
0.5
40
1
40
1
40
1
40
1
41
1
10
21.6156959263292
20
-1.10611091937952
30
0
41
1
10
21.6818559625096
20
-1.11820886717752
30
0
41
1
10
21.7495373170623
20
-1.1302759647071
30
0
41
1
10
21.8865595450712
20
-1.15392445870378
30
0
41
1
10
21.955969308069
20
-1.16551926559688
30
0
41
1
10
22.0264454022401
20
-1.17684182032212
30
0
0
SPLINE
5
F2
100
AcDbEntity
8
1
62
256
6
ByLayer
370
18
48
1
60
0
100
AcDbSpline
70
4
71
3
72
10
73
6
40
0
40
0
40
0
40
0
40
0.5
40
0.5
40
1
40
1
40
1
40
1
41
1
10
21.0582272856164
20
0.242431806921644
30
0
41
1
10
21.0814698054413
20
0.172804798984487
30
0
41
1
10
21.1055998785793
20
0.102359106876463
30
0
41
1
10
21.1553447121751
20
-0.0382809303955298
30
0
41
1
10
21.1809827447061
20
-0.108549834213562
30
0
41
1
10
21.2075292519906
20
-0.178758085514062
30
0
0
SPLINE
5
F3
100
AcDbEntity
8
1
62
256
6
ByLayer
370
18
48
1
60
0
100
AcDbSpline
70
4
71
3
72
10
73
6
40
0
40
0
40
0
40
0
40
0.5
40
0.5
40
1
40
1
40
1
40
1
41
1
10
23.3232741386462
20
1.18282325040712
30
0
41
1
10
23.2475544600437
20
1.19124189063939
30
0
41
1
10
23.1712609551394
20
1.19999435059705
30
0
41
1
10
23.0197554938071
20
1.21806854928127
30
0
41
1
10
22.9444616215165
20
1.22739868487366
30
0
41
1
10
22.8697122276527
20
1.23707653541473
30
0
0
SPLINE
5
F4
100
AcDbEntity
8
1
62
256
6
ByLayer
370
18
48
1
60
0
100
AcDbSpline
70
4
71
3
72
10
73
6
40
0
40
0
40
0
40
0
40
0.5
40
0.5
40
1
40
1
40
1
40
1
41
1
10
23.5978890522809
20
-0.524417275354637
30
0
41
1
10
23.6443168201915
20
-0.464240633576963
30
0
41
1
10
23.691699305437
20
-0.403588948869299
30
0
41
1
10
23.786118883859
20
-0.283953018154193
30
0
41
1
10
23.8334027436612
20
-0.224643457394564
30
0
41
1
10
23.880742779359
20
-0.165719475894036
30
0
0
SPLINE
5
F5
100
AcDbEntity
8
1
62
256
6
ByLayer
370
18
48
1
60
0
100
AcDbSpline
70
4
71
3
72
8
73
4
40
0
40
0
40
0
40
0
40
1
40
1
40
1
40
1
41
1
10
23.0269536732005
20
-1.31018656078734
30
0
41
1
10
23.1028877452736
20
-1.19930614759139
30
0
41
1
10
23.1833040734848
20
-1.08423896827088
30
0
41
1
10
23.2669949651944
20
-0.967966377263707
30
0
0
SPLINE
5
F6
100
AcDbEntity
8
1
62
256
6
ByLayer
370
18
48
1
60
0
100
AcDbSpline
70
4
71
3
72
8
73
4
40
0
40
0
40
0
40
0
40
1
40
1
40
1
40
1
41
1
10
21.4235815248723
20
-0.701398642878786
30
0
41
1
10
21.4862207207837
20
-0.84074946565795
30
0
41
1
10
21.5504711803446
20
-0.974978649116281
30
0
41
1
10
21.6156959263292
20
-1.10611091937952
30
0
0
SPLINE
5
F7
100
AcDbEntity
8
1
62
256
6
ByLayer
370
18
48
1
60
0
100
AcDbSpline
70
4
71
3
72
8
73
4
40
0
40
0
40
0
40
0
40
1
40
1
40
1
40
1
41
1
10
22.3227658676859
20
1.31616799087237
30
0
41
1
10
22.1795279209628
20
1.33918032589997
30
0
41
1
10
22.0435708765588
20
1.36284299067898
30
0
41
1
10
21.912016391775
20
1.38689889181495
30
0
0
SPLINE
5
F8
100
AcDbEntity
8
1
62
256
6
ByLayer
370
18
48
1
60
0
100
AcDbSpline
70
4
71
3
72
8
73
4
40
0
40
0
40
0
40
0
40
1
40
1
40
1
40
1
41
1
10
23.4725761050204
20
0.761633357971391
30
0
41
1
10
23.4186221048614
20
0.904326931978176
30
0
41
1
10
23.3694902216045
20
1.04437494104963
30
0
41
1
10
23.3232741386462
20
1.18282325040712
30
0
0
SPLINE
5
F9
100
AcDbEntity
8
1
62
256
6
ByLayer
370
18
48
1
60
0
100
AcDbSpline
70
4
71
3
72
8
73
4
40
0
40
0
40
0
40
0
40
1
40
1
40
1
40
1
41
1
10
22.5733917622069
20
-1.25593327577974
30
0
41
1
10
22.7253149046823
20
-1.27560285957978
30
0
41
1
10
22.8763905253903
20
-1.29344669874564
30
0
41
1
10
23.0269536732005
20
-1.31018656078734
30
0
0
SPLINE
5
FA
100
AcDbEntity
8
1
62
256
6
ByLayer
370
18
48
1
60
0
100
AcDbSpline
70
4
71
3
72
8
73
4
40
0
40
0
40
0
40
0
40
1
40
1
40
1
40
1
41
1
10
21.0582272856164
20
0.242431806921644
30
0
41
1
10
21.13416135769
20
0.353312220118255
30
0
41
1
10
21.2145776859017
20
0.468379399439442
30
0
41
1
10
21.2982685776118
20
0.58465199044727
30
0
0
SPLINE
5
FB
100
AcDbEntity
8
1
62
256
6
ByLayer
370
18
48
1
60
0
100
AcDbSpline
70
4
71
3
72
10
73
6
40
0
40
0
40
0
40
0
40
0.5
40
0.5
40
1
40
1
40
1
40
1
41
1
10
23.880742779359
20
-0.165719475894036
30
0
41
1
10
23.847940617112
20
-0.099771775522612
30
0
41
1
10
23.8151983936223
20
-0.0326407209864783
30
0
41
1
10
23.7509703267032
20
0.102425020973015
30
0
41
1
10
23.7194481848796
20
0.17042925349034
30
0
41
1
10
23.6886283779021
20
0.238992800606695
30
0
0
LINE
5
72
100
AcDbEntity
8
1
62
256
6
ByLayer
370
18
48
1
60
0
100
AcDbLine
10
28.064966
20
14.657794
30
0
11
27.061538
21
14.271596
31
0
39
0
210
0
220
0
230
1
0
LINE
5
73
100
AcDbEntity
8
1
62
256
6
ByLayer
370
18
48
1
60
0
100
AcDbLine
10
16.907984
20
2.928595
30
0
11
15.028428
21
2.205193
31
0
39
0
210
0
220
0
230
1
0
LINE
5
74
100
AcDbEntity
8
1
62
256
6
ByLayer
370
18
48
1
60
0
100
AcDbLine
10
30.613685
20
5.019876
30
0
11
31.618322
21
5.40654
31
0
39
0
210
0
220
0
230
1
0
LINE
5
75
100
AcDbEntity
8
1
62
256
6
ByLayer
370
18
48
1
60
0
100
AcDbLine
10
29.560769
20
8.162421
30
0
11
29.977236
21
8.32271
31
0
39
0
210
0
220
0
230
1
0
LINE
5
76
100
AcDbEntity
8
1
62
256
6
ByLayer
370
18
48
1
60
0
100
AcDbLine
10
29.079654
20
11.500536
30
0
11
28.37969
21
11.231135
31
0
39
0
210
0
220
0
230
1
0
LINE
5
77
100
AcDbEntity
8
1
62
256
6
ByLayer
370
18
48
1
60
0
100
AcDbLine
10
21.246347
20
2.782123
30
0
11
21.085887
21
2.720366
31
0
39
0
210
0
220
0
230
1
0
LINE
5
78
100
AcDbEntity
8
1
62
256
6
ByLayer
370
18
48
1
60
0
100
AcDbLine
10
23.241048
20
-2.879213
30
0
11
23.401508
21
-2.817455
31
0
39
0
210
0
220
0
230
1
0
LINE
5
79
100
AcDbEntity
8
1
62
256
6
ByLayer
370
18
48
1
60
0
100
AcDbLine
10
6.928633
20
-2.808582
30
0
11
6.928633
21
-10.030335
31
0
39
0
210
0
220
0
230
1
0
LINE
5
7A
100
AcDbEntity
8
1
62
256
6
ByLayer
370
18
48
1
60
0
100
AcDbLine
10
3.516363
20
13.245432
30
0
11
1.971996
21
12.715165
31
0
39
0
210
0
220
0
230
1
0
LINE
5
7B
100
AcDbEntity
8
1
62
256
6
ByLayer
370
18
48
1
60
0
100
AcDbLine
10
1.545481
20
11.12339
30
0
11
1.545481
21
-9.942674
31
0
39
0
210
0
220
0
230
1
0
LINE
5
7C
100
AcDbEntity
8
1
62
256
6
ByLayer
370
18
48
1
60
0
100
AcDbLine
10
1.545481
20
11.12339
30
0
11
1.971996
21
12.715165
31
0
39
0
210
0
220
0
230
1
0
LINE
5
7D
100
AcDbEntity
8
1
62
256
6
ByLayer
370
18
48
1
60
0
100
AcDbLine
10
19.697645
20
-10.016091
30
0
11
12.29488
21
-10.030335
31
0
39
0
210
0
220
0
230
1
0
LINE
5
7E
100
AcDbEntity
8
1
62
256
6
ByLayer
370
18
48
1
60
0
100
AcDbLine
10
23.805888
20
-5.528353
30
0
11
19.697645
21
-10.016091
31
0
39
0
210
0
220
0
230
1
0
LINE
5
7F
100
AcDbEntity
8
1
62
256
6
ByLayer
370
18
48
1
60
0
100
AcDbLine
10
29.436541
20
5.192459
30
0
11
19.755098
21
4.641652
31
0
39
0
210
0
220
0
230
1
0
LINE
5
80
100
AcDbEntity
8
1
62
256
6
ByLayer
370
18
48
1
60
0
100
AcDbLine
10
16.714783
20
2.836056
30
0
11
14.824077
21
2.108362
31
0
39
0
210
0
220
0
230
1
0
LINE
5
81
100
AcDbEntity
8
1
62
256
6
ByLayer
370
18
48
1
60
0
100
AcDbLine
10
18.669134
20
2.334344
30
0
11
23.489199
21
-4.486185
31
0
39
0
210
0
220
0
230
1
0
LINE
5
82
100
AcDbEntity
8
1
62
256
6
ByLayer
370
18
48
1
60
0
100
AcDbLine
10
3.516363
20
13.245432
30
0
11
3.865718
21
-2.22398
31
0
39
0
210
0
220
0
230
1
0
LINE
5
83
100
AcDbEntity
8
1
62
256
6
ByLayer
370
18
48
1
60
0
100
AcDbLine
10
3.516363
20
13.245432
30
0
11
26.983316
21
14.475283
31
0
39
0
210
0
220
0
230
1
0
LINE
5
84
100
AcDbEntity
8
1
62
256
6
ByLayer
370
18
48
1
60
0
100
AcDbLine
10
6.928633
20
-2.808582
30
0
11
8.513173
21
-1.92455
31
0
39
0
210
0
220
0
230
1
0
LINE
5
85
100
AcDbEntity
8
1
62
256
6
ByLayer
370
18
48
1
60
0
100
AcDbLine
10
4.31886
20
-3.872541
30
0
11
6.928633
21
-2.808582
31
0
39
0
210
0
220
0
230
1
0
LINE
5
86
100
AcDbEntity
8
1
62
256
6
ByLayer
370
18
48
1
60
0
100
AcDbLine
10
6.928633
20
-10.030335
30
0
11
12.29488
21
-10.030335
31
0
39
0
210
0
220
0
230
1
0
LINE
5
87
100
AcDbEntity
8
1
62
256
6
ByLayer
370
18
48
1
60
0
100
AcDbLine
10
27.149157
20
14.043344
30
0
11
26.983316
21
14.475283
31
0
39
0
210
0
220
0
230
1
0
LINE
5
88
100
AcDbEntity
8
1
62
256
6
ByLayer
370
18
48
1
60
0
100
AcDbLine
10
1.545481
20
-9.942674
30
0
11
6.928633
21
-10.030335
31
0
39
0
210
0
220
0
230
1
0
LINE
5
89
100
AcDbEntity
8
1
62
256
6
ByLayer
370
18
48
1
60
0
100
AcDbLine
10
16.714783
20
2.836056
30
0
11
8.513173
21
-1.92455
31
0
39
0
210
0
220
0
230
1
0
LINE
5
8A
100
AcDbEntity
8
1
62
256
6
ByLayer
370
18
48
1
60
0
100
AcDbLine
10
0
20
-9.9375
30
0
11
0
21
9.9375
31
0
39
0
210
0
220
0
230
1
0
LINE
5
8B
100
AcDbEntity
8
1
62
256
6
ByLayer
370
18
48
1
60
0
100
AcDbLine
10
15.873795
20
6.188142
30
0
11
18.869999
21
7.338345
31
0
39
0
210
0
220
0
230
1
0
LINE
5
8C
100
AcDbEntity
8
1
62
256
6
ByLayer
370
18
48
1
60
0
100
AcDbLine
10
23.473473
20
-4.463816
30
0
11
29.92571
21
2.272687
31
0
39
0
210
0
220
0
230
1
0
LINE
5
8D
100
AcDbEntity
8
1
62
256
6
ByLayer
370
18
48
1
60
0
100
AcDbLine
10
17.808501
20
6.855201
30
0
11
15.498921
21
5.968583
31
0
39
0
210
0
220
0
230
1
0
LINE
5
8E
100
AcDbEntity
8
1
62
256
6
ByLayer
370
18
48
1
60
0
100
AcDbLine
10
19.755098
20
4.641652
30
0
11
16.889872
21
3.54173
31
0
39
0
210
0
220
0
230
1
0
LINE
5
8F
100
AcDbEntity
8
1
62
256
6
ByLayer
370
18
48
1
60
0
100
AcDbLine
10
14.824077
20
2.108362
30
0
11
4.31886
21
-3.872541
31
0
39
0
210
0
220
0
230
1
0
LINE
5
90
100
AcDbEntity
8
1
62
256
6
ByLayer
370
18
48
1
60
0
100
AcDbLine
10
22.296354
20
10.302498
30
0
11
24.171694
21
11.821272
31
0
39
0
210
0
220
0
230
1
0
LINE
5
91
100
AcDbEntity
8
1
62
256
6
ByLayer
370
18
48
1
60
0
100
AcDbLine
10
3.865718
20
-2.22398
30
0
11
13.683849
21
3.365747
31
0
39
0
210
0
220
0
230
1
0
LINE
5
92
100
AcDbEntity
8
1
62
256
6
ByLayer
370
18
48
1
60
0
100
AcDbLine
10
30.779728
20
4.587373
30
0
11
30.525498
21
5.249526
31
0
39
0
210
0
220
0
230
1
0
LINE
5
93
100
AcDbEntity
8
1
62
256
6
ByLayer
370
18
48
1
60
0
100
AcDbLine
10
16.495712
20
3.462886
30
0
11
18.778821
21
4.339341
31
0
39
0
210
0
220
0
230
1
0
LINE
5
94
100
AcDbEntity
8
1
62
256
6
ByLayer
370
18
48
1
60
0
100
AcDbLine
10
12.29488
20
-10.030335
30
0
11
8.513173
21
-1.92455
31
0
39
0
210
0
220
0
230
1
0
LINE
5
95
100
AcDbEntity
8
SK1
62
256
6
ByLayer
370
18
48
1
60
0
100
AcDbLine
10
-83.779525
20
9.9375
30
0
11
0
21
9.9375
31
0
39
0
210
0
220
0
230
1
0
LINE
5
97
100
AcDbEntity
8
SK1
62
256
6
ByLayer
370
18
48
1
60
0
100
AcDbLine
10
-83.779525
20
-9.9375
30
0
11
0
21
-9.9375
31
0
39
0
210
0
220
0
230
1
0
LINE
5
98
100
AcDbEntity
8
SK1
62
256
6
ByLayer
370
18
48
1
60
0
100
AcDbLine
10
-83.779525
20
9.9375
30
0
11
-83.779525
21
-9.9375
31
0
39
0
210
0
220
0
230
1
0
LINE
5
99
100
AcDbEntity
8
SK1
62
256
6
ByLayer
370
18
48
1
60
0
100
AcDbLine
10
0
20
-9.9375
30
0
11
0
21
9.9375
31
0
39
0
210
0
220
0
230
1
0
LINE
5
9A
100
AcDbEntity
8
1
62
256
6
ByLayer
370
18
48
1
60
0
100
AcDbLine
10
22.322766
20
1.316168
30
0
11
21.652385
21
1.058152
31
0
39
0
210
0
220
0
230
1
0
LINE
5
9B
100
AcDbEntity
8
1
62
256
6
ByLayer
370
18
48
1
60
0
100
AcDbLine
10
22.525475
20
-1.253362
30
0
11
22.521218
21
-1.259068
31
0
39
0
210
0
220
0
230
1
0
LINE
5
9C
100
AcDbEntity
8
1
62
256
6
ByLayer
370
18
48
1
60
0
100
AcDbLine
10
16.10743
20
5.371274
30
0
11
15.88669
21
5.286316
31
0
39
0
210
0
220
0
230
1
0
LINE
5
9D
100
AcDbEntity
8
1
62
256
6
ByLayer
370
18
48
1
60
0
100
AcDbLine
10
16.518332
20
4.303123
30
0
11
16.296903
21
4.217899
31
0
39
0
210
0
220
0
230
1
0
LINE
5
9E
100
AcDbEntity
8
1
62
256
6
ByLayer
370
18
48
1
60
0
100
AcDbLine
10
16.752193
20
4.24176
30
0
11
16.296903
21
4.217899
31
0
39
0
210
0
220
0
230
1
0
LINE
5
9F
100
AcDbEntity
8
1
62
256
6
ByLayer
370
18
48
1
60
0
100
AcDbLine
10
15.88669
20
5.286316
30
0
11
16.235892
21
5.569123
31
0
39
0
210
0
220
0
230
1
0
LINE
5
A0
100
AcDbEntity
8
1
62
256
6
ByLayer
370
18
48
1
60
0
100
AcDbLine
10
30.600437
20
5.054356
30
0
11
31.388337
21
5.357602
31
0
39
0
210
0
220
0
230
1
0
LINE
5
A1
100
AcDbEntity
8
1
62
256
6
ByLayer
370
18
48
1
60
0
100
AcDbLine
10
18.997537
20
4.350809
30
0
11
16.866166
21
4.239109
31
0
39
0
210
0
220
0
230
1
0
LINE
5
A2
100
AcDbEntity
8
1
62
256
6
ByLayer
370
18
48
1
60
0
100
AcDbLine
10
27.074623
20
14.237482
30
0
11
27.862523
21
14.540728
31
0
39
0
210
0
220
0
230
1
0
LINE
5
A3
100
AcDbEntity
8
1
62
256
6
ByLayer
370
18
48
1
60
0
100
AcDbLine
10
16.323489
20
5.652535
30
0
11
17.98612
21
6.999044
31
0
39
0
210
0
220
0
230
1
0
LINE
5
A4
100
AcDbEntity
8
80
62
256
6
ByLayer
370
18
48
1
60
0
100
AcDbLine
10
0
20
0
30
0
11
-5
21
0
31
0
39
0
210
0
220
0
230
1
0
LINE
5
A5
100
AcDbEntity
8
81
62
256
6
ByLayer
370
18
48
1
60
0
100
AcDbLine
10
41.220475
20
15.0625
30
0
11
51.220475
21
15.0625
31
0
39
0
210
0
220
0
230
1
0
LINE
5
A6
100
AcDbEntity
8
1
62
256
6
ByLayer
370
18
48
1
60
0
100
AcDbLine
10
31.388337
20
5.357602
30
0
11
17.941202
21
4.652868
31
0
39
0
210
0
220
0
230
1
0
LINE
5
A7
100
AcDbEntity
8
1
62
256
6
ByLayer
370
18
48
1
60
0
100
AcDbLine
10
42.284764
20
13.99804
30
0
11
31.820765
21
5.523606
31
0
39
0
210
0
220
0
230
1
0
LINE
5
A8
100
AcDbEntity
8
1
62
256
6
ByLayer
370
18
48
1
60
0
100
AcDbLine
10
17.398524
20
6.066294
30
0
11
27.862523
21
14.540728
31
0
39
0
210
0
220
0
230
1
0
LINE
5
A9
100
AcDbEntity
8
1
62
256
6
ByLayer
370
18
48
1
60
0
100
AcDbLine
10
16.323489
20
5.652535
30
0
11
17.398524
21
6.066294
31
0
39
0
210
0
220
0
230
1
0
LINE
5
AA
100
AcDbEntity
8
1
62
256
6
ByLayer
370
18
48
1
60
0
100
AcDbLine
10
16.866166
20
4.239109
30
0
11
17.941202
21
4.652868
31
0
39
0
210
0
220
0
230
1
0
LINE
5
AB
100
AcDbEntity
8
1
62
256
6
ByLayer
370
18
48
1
60
0
100
AcDbLine
10
28.294951
20
14.706732
30
0
11
41.742086
21
15.411466
31
0
39
0
210
0
220
0
230
1
0
LINE
5
AC
100
AcDbEntity
8
1
62
256
6
ByLayer
370
18
48
1
60
0
100
AcDbLine
10
23.597889
20
-0.524417
30
0
11
22.856369
21
-0.809813
31
0
39
0
210
0
220
0
230
1
0
LINE
5
AD
100
AcDbEntity
8
1
62
256
6
ByLayer
370
18
48
1
60
0
100
AcDbLine
10
22.128192
20
0.951681
30
0
11
22.560347
21
0.889189
31
0
39
0
210
0
220
0
230
1
0
LINE
5
AE
100
AcDbEntity
8
1
62
256
6
ByLayer
370
18
48
1
60
0
100
AcDbLine
10
23.880743
20
-0.165719
30
0
11
23.117816
21
-0.459354
31
0
39
0
210
0
220
0
230
1
0
LINE
5
AF
100
AcDbEntity
8
1
62
256
6
ByLayer
370
18
48
1
60
0
100
AcDbLine
10
23.472576
20
0.761633
30
0
11
22.731056
21
0.476238
31
0
39
0
210
0
220
0
230
1
0
LINE
5
B0
100
AcDbEntity
8
1
62
256
6
ByLayer
370
18
48
1
60
0
100
AcDbLine
10
23.117816
20
-0.459354
30
0
11
22.856369
21
-0.809813
31
0
39
0
210
0
220
0
230
1
0
LINE
5
B1
100
AcDbEntity
8
1
62
256
6
ByLayer
370
18
48
1
60
0
100
AcDbLine
10
23.323274
20
1.182823
30
0
11
22.560347
21
0.889189
31
0
39
0
210
0
220
0
230
1
0
LINE
5
B2
100
AcDbEntity
8
1
62
256
6
ByLayer
370
18
48
1
60
0
100
AcDbLine
10
22.947108
20
-0.046403
30
0
11
23.117816
21
-0.459354
31
0
39
0
210
0
220
0
230
1
0
LINE
5
B3
100
AcDbEntity
8
1
62
256
6
ByLayer
370
18
48
1
60
0
100
AcDbLine
10
22.947108
20
-0.046403
30
0
11
23.688628
21
0.238993
31
0
39
0
210
0
220
0
230
1
0
LINE
5
B4
100
AcDbEntity
8
1
62
256
6
ByLayer
370
18
48
1
60
0
100
AcDbLine
10
22.128192
20
0.951681
30
0
11
22.869712
21
1.237077
31
0
39
0
210
0
220
0
230
1
0
LINE
5
B5
100
AcDbEntity
8
1
62
256
6
ByLayer
370
18
48
1
60
0
100
AcDbLine
10
22.560347
20
0.889189
30
0
11
22.731056
21
0.476238
31
0
39
0
210
0
220
0
230
1
0
LINE
5
B6
100
AcDbEntity
8
1
62
256
6
ByLayer
370
18
48
1
60
0
100
AcDbLine
10
22.525475
20
-1.253362
30
0
11
23.266995
21
-0.967966
31
0
39
0
210
0
220
0
230
1
0
MTEXT
5
FC
100
AcDbEntity
8
SK6
62
256
6
ByLayer
370
13
48
1
60
0
100
AcDbMText
10
-59.899325
20
-34.999425
30
0
210
0
220
0
230
1
1
\W0.7748;PVJNR 2020K 16HP
40
3.5
41
0
44
1.084337
50
0
71
7
72
5
7
iso_b_vert
0
DIMENSION
5
10E
100
AcDbEntity
8
SK2
62
256
6
ByLayer
370
13
48
1
60
0
100
AcDbDimension
2
DimnDraft3D1
10
-93.529525
20
-9.9375
30
0
11
-93.529525
21
0.0625
31
0
70
32
71
5
72
1
41
1
210
0
220
0
230
1
3
Standard
100
AcDbAlignedDimension
13
-85.367025
23
10.0625
33
0
14
-85.367025
24
-9.9375
34
0
50
90
100
AcDbRotatedDimension
1001
ACAD
1000
DSTYLE
1002
{
1070
    74
1070
     0
1070
   279
1070
     0
1070
   172
1070
     1
1070
   173
1070
     1
1070
   340
1005
FD
1070
   271
1070
     1
1070
   272
1070
     2
1070
    77
1070
     1
1070
    73
1070
     0
1070
   171
1070
     3
1070
   274
1070
     4
1070
   177
1070
   150
1070
   176
1070
     9
1070
   178
1070
    43
1070
    78
1070
     8
1070
    48
1040
-0.005
1070
    41
1041
3.175
1070
   147
1041
2.25
1070
    42
1041
1.5875
1070
    44
1041
3.175
1070
   140
1041
4.5
1070
   343
1005
10F
1070
   344
1005
10F
1002
}
0
DIMENSION
5
124
100
AcDbEntity
8
2
62
256
6
ByLayer
370
13
48
1
60
0
100
AcDbDimension
2
DimnDraft3D2
10
59.070475
20
15.4125
30
0
11
59.070475
21
2.7375
31
0
70
32
71
5
72
1
41
1
210
0
220
0
230
1
3
Standard
100
AcDbAlignedDimension
13
1.5875
23
-9.9375
33
0
14
44.157975
24
15.4125
34
0
50
90
100
AcDbRotatedDimension
1001
ACAD
1000
DSTYLE
1002
{
1070
    74
1070
     0
1070
   279
1070
     0
1070
   172
1070
     1
1070
   173
1070
     1
1070
   340
1005
FD
1070
   271
1070
     1
1070
   272
1070
     2
1070
    77
1070
     1
1070
    73
1070
     0
1070
   171
1070
     3
1070
   274
1070
     4
1070
   177
1070
   150
1070
   176
1070
     9
1070
   178
1070
    43
1070
    78
1070
     8
1070
    48
1040
-0.005
1070
    41
1041
3.175
1070
   147
1041
2.25
1070
    42
1041
1.5875
1070
    44
1041
3.175
1070
   140
1041
4.5
1070
   343
1005
10F
1070
   344
1005
10F
1002
}
0
DIMENSION
5
132
100
AcDbEntity
8
SK2
62
256
6
ByLayer
370
13
48
1
60
0
100
AcDbDimension
2
DimnDraft3D3
10
42.570475
20
32.9125
30
0
11
-20.604525
21
32.9125
31
0
70
32
71
5
72
1
41
1
210
0
220
0
230
1
3
Standard
100
AcDbAlignedDimension
13
-83.779525
23
11.65
33
0
14
42.570475
24
17
34
0
50
0
100
AcDbRotatedDimension
1001
ACAD
1000
DSTYLE
1002
{
1070
   279
1070
     0
1070
   172
1070
     1
1070
   173
1070
     1
1070
   340
1005
FD
1070
   271
1070
     1
1070
   272
1070
     2
1070
    77
1070
     1
1070
    73
1070
     0
1070
   171
1070
     3
1070
   274
1070
     4
1070
   177
1070
   150
1070
   176
1070
     9
1070
   178
1070
    43
1070
    78
1070
     8
1070
    48
1040
-0.005
1070
    41
1041
3.175
1070
   147
1041
2.25
1070
    42
1041
1.5875
1070
    44
1041
3.175
1070
   140
1041
4.5
1070
   343
1005
10F
1070
   344
1005
10F
1002
}
0
DIMENSION
5
13F
100
AcDbEntity
8
2
62
256
6
ByLayer
370
13
48
1
60
0
100
AcDbDimension
2
DimnDraft3D4
10
25.735183
20
14.572888
30
0
11
30.282339
21
27.116193
31
0
70
34
71
5
72
1
41
1
210
0
220
0
230
1
3
Standard
100
AcDb2LineAngularDimension
13
42.570475
23
15.4125
33
0
14
42.570475
24
13.825
34
0
15
41.735183
25
15.411412
35
0
16
33.546524
26
24.018597
36
0
40
0
0
ENDSEC
0
SECTION
2
OBJECTS
0
DICTIONARY
5
1a9
330
0
100
AcDbDictionary
280
0
281
1
3
ACAD_GROUP
350
1aa
3
ACAD_MLINESTYLE
350
1ab
0
DICTIONARY
5
1aa
330
0
100
AcDbDictionary
280
0
281
1
0
DICTIONARY
5
1ab
330
0
100
AcDbDictionary
280
0
281
1
3
Standard
350
18
0
MLINESTYLE
5
18
330
1ab
100
AcDbMlineStyle
2
Standard
70
0
3

62
256
51
90
52
90
71
2
49
-0.5
62
256
6
ByLayer
49
0.5
62
256
6
ByLayer
0
RASTERVARIABLES
5
198
330

100
AcDbRasterVariables
90
0
70
1
71
1
72
1
0
ENDSEC
0
EOF
