0
SECTION
2
HEADER
9
$ACADVER
1
AC1015
9
$DWGCODEPAGE
3
ANSI_1252
9
$HANDSEED
5
1ad
9
$ANGBASE
50
0
9
$ANGDIR
70
0
9
$ATTMODE
70
1
9
$AUNITS
70
0
9
$AUPREC
70
0
9
$CECOLOR
62
256
9
$CELTSCALE
40
1
9
$CELTYPE
6
ByLayer
9
$CELWEIGHT
370
18
9
$CLAYER
8
0
9
$CMLJUST
70
0
9
$CMLSCALE
40
1
9
$CMLSTYLE
2
Standard
9
$DIMSTYLE
2
Standard
9
$TEXTSIZE
40
0.2
9
$TEXTSTYLE
7
Standard
9
$LUNITS
70
2
9
$LUPREC
70
4
9
$EXTNAMES
290
1
9
$INSUNITS
70
4
9
$LTSCALE
40
1
9
$LWDISPLAY
290
1
9
$PDMODE
70
0
9
$PDSIZE
40
0
9
$PLINEGEN
70
0
0
ENDSEC
0
SECTION
2
CLASSES
0
CLASS
1
RASTERVARIABLES
2
AcDbRasterVariables
3
ISM
90
0
280
0
281
0
0
ENDSEC
0
SECTION
2
TABLES
0
TABLE
2
VPORT
5
1a3
100
AcDbSymbolTable
0
VPORT
5
1
100
AcDbSymbolTableRecord
100
AcDbViewportTableRecord
2
*Active
70
0
10
0
20
0
11
1
21
1
12
-1
22
1
13
0
23
0
14
0.5
24
0.5
15
10
25
10
16
0
26
0
36
1
17
0
27
0
37
0
0
ENDTAB
0
TABLE
2
LTYPE
5
1a4
100
AcDbSymbolTable
0
LTYPE
5
14
100
AcDbSymbolTableRecord
100
AcDbLinetypeTableRecord
70
0
2
ByBlock
3

72
65
73
0
40
0
0
LTYPE
5
15
100
AcDbSymbolTableRecord
100
AcDbLinetypeTableRecord
70
0
2
ByLayer
3

72
65
73
0
40
0
0
LTYPE
5
16
100
AcDbSymbolTableRecord
100
AcDbLinetypeTableRecord
70
0
2
CONTINUOUS
3
Solid line
72
65
73
0
40
0
0
LTYPE
5
6A
100
AcDbSymbolTableRecord
100
AcDbLinetypeTableRecord
70
0
2
CENTER
3
____ _ ____ _ ____ _ ____
72
65
73
4
40
47.5
49
22
74
0
49
-8.5
74
0
49
8.5
74
0
49
-8.5
74
0
0
LTYPE
5
6B
100
AcDbSymbolTableRecord
100
AcDbLinetypeTableRecord
70
0
2
DASHED
3
__ __ __ __ __ __ __ __ __
72
65
73
2
40
25.72
49
12.86
74
0
49
-12.86
74
0
0
ENDTAB
0
TABLE
2
LAYER
5
1a5
100
AcDbSymbolTable
0
LAYER
5
10
100
AcDbSymbolTableRecord
100
AcDbLayerTableRecord
2
0
70
0
62
7
6
CONTINUOUS
290
1
370
-3
390
0
0
LAYER
5
6D
100
AcDbSymbolTableRecord
100
AcDbLayerTableRecord
2
80
70
0
62
-6
6
CONTINUOUS
290
1
370
-3
390
0
0
LAYER
5
6F
100
AcDbSymbolTableRecord
100
AcDbLayerTableRecord
2
81
70
0
62
-3
6
CONTINUOUS
290
1
370
-3
390
0
0
LAYER
5
71
100
AcDbSymbolTableRecord
100
AcDbLayerTableRecord
2
1
70
0
62
4
6
CONTINUOUS
290
1
370
-3
390
0
0
LAYER
5
10F
100
AcDbSymbolTableRecord
100
AcDbLayerTableRecord
2
2
70
0
62
7
6
CONTINUOUS
290
1
370
-3
390
0
0
LAYER
5
190
100
AcDbSymbolTableRecord
100
AcDbLayerTableRecord
2
SK1
70
0
62
4
6
CONTINUOUS
290
1
370
-3
390
0
0
LAYER
5
191
100
AcDbSymbolTableRecord
100
AcDbLayerTableRecord
2
SK6
70
0
62
5
6
CONTINUOUS
290
1
370
-3
390
0
0
LAYER
5
192
100
AcDbSymbolTableRecord
100
AcDbLayerTableRecord
2
SK2
70
0
62
7
6
CONTINUOUS
290
1
370
-3
390
0
0
ENDTAB
0
TABLE
2
STYLE
5
1a6
100
AcDbSymbolTable
0
STYLE
5
11
100
AcDbSymbolTableRecord
100
AcDbTextStyleTableRecord
2
Standard
3
txt
70
0
71
0
40
0
41
1
42
0
50
0
0
STYLE
5
F4
100
AcDbSymbolTableRecord
100
AcDbTextStyleTableRecord
2
iso_b_vert
3
simplex.shx
70
0
71
0
40
0
41
1
42
0
50
0
0
STYLE
5
F5
100
AcDbSymbolTableRecord
100
AcDbTextStyleTableRecord
2
DWGDirectTextStyle
3
simplex
70
0
71
0
40
0
41
1
42
0
50
0
0
ENDTAB
0
TABLE
2
DIMSTYLE
5
1a7
100
AcDbSymbolTable
100
AcDbDimStyleTable
0
DIMSTYLE
105
27
100
AcDbSymbolTableRecord
100
AcDbDimStyleTableRecord
2
Standard
70
0
3
<>
41
0.18
42
0.0625
44
0.18
140
0.18
147
0.09
73
0
74
0
77
1
271
2
275
0
278
52
280
0
340
11
0
ENDTAB
0
TABLE
2
VIEW
5
1a8
100
AcDbSymbolTable
0
ENDTAB
0
TABLE
2
UCS
5
1a9
100
AcDbSymbolTable
0
ENDTAB
0
TABLE
2
APPID
5
1aa
100
AcDbSymbolTable
0
APPID
5
12
100
AcDbSymbolTableRecord
100
AcDbRegAppTableRecord
2
ACAD
70
0
0
ENDTAB
0
TABLE
2
BLOCK_RECORD
5
1ab
100
AcDbSymbolTable
0
BLOCK_RECORD
5
1F
100
AcDbSymbolTableRecord
100
AcDbBlockTableRecord
2
*Model_Space
340
0
70
0
0
BLOCK_RECORD
5
1B
100
AcDbSymbolTableRecord
100
AcDbBlockTableRecord
2
*Paper_Space
340
0
70
0
0
BLOCK_RECORD
5
23
100
AcDbSymbolTableRecord
100
AcDbBlockTableRecord
2
*Paper_Space0
340
0
70
0
0
BLOCK_RECORD
5
F7
100
AcDbSymbolTableRecord
100
AcDbBlockTableRecord
2
DimnDraft3D1
340
0
70
0
0
BLOCK_RECORD
5
106
100
AcDbSymbolTableRecord
100
AcDbBlockTableRecord
2
_CLOSED
340
0
70
0
0
BLOCK_RECORD
5
10D
100
AcDbSymbolTableRecord
100
AcDbBlockTableRecord
2
DimnDraft3D2
340
0
70
0
0
BLOCK_RECORD
5
11C
100
AcDbSymbolTableRecord
100
AcDbBlockTableRecord
2
DimnDraft3D3
340
0
70
0
0
BLOCK_RECORD
5
12A
100
AcDbSymbolTableRecord
100
AcDbBlockTableRecord
2
DimnDraft3D4
340
0
70
0
0
ENDTAB
0
ENDSEC
0
SECTION
2
BLOCKS
0
BLOCK
5
20
100
AcDbEntity
8
0
100
AcDbBlockBegin
2
*Model_Space
70
0
10
0
20
0
30
0
3
*Model_Space
0
ENDBLK
5
21
100
AcDbEntity
8
0
100
AcDbBlockEnd
0
BLOCK
5
1C
100
AcDbEntity
8
0
100
AcDbBlockBegin
2
*Paper_Space
70
0
10
0
20
0
30
0
3
*Paper_Space
0
ENDBLK
5
1D
100
AcDbEntity
8
0
100
AcDbBlockEnd
0
BLOCK
5
24
100
AcDbEntity
8
0
100
AcDbBlockBegin
2
*Paper_Space0
70
0
10
0
20
0
30
0
3
*Paper_Space0
0
ENDBLK
5
25
100
AcDbEntity
8
0
100
AcDbBlockEnd
0
BLOCK
5
103
100
AcDbEntity
8
0
100
AcDbBlockBegin
2
DimnDraft3D1
70
0
10
0
20
0
30
0
3
DimnDraft3D1
0
MTEXT
5
F8
100
AcDbEntity
8
SK2
62
256
6
ByLayer
370
13
48
1
60
0
100
AcDbMText
10
-129.859498
20
-1.500658
30
0
210
0
220
0
230
1
1
\W0.6740;25
40
4.5
41
0
44
1.084337
50
90
71
7
72
5
7
iso_b_vert
0
LINE
5
FA
100
AcDbEntity
8
SK2
62
256
6
ByLayer
370
13
48
1
60
0
100
AcDbLine
10
-120.571998
20
12.5625
30
0
11
-131.909498
21
12.5625
31
0
39
0
210
0
220
0
230
1
0
LINE
5
FB
100
AcDbEntity
8
SK2
62
256
6
ByLayer
370
13
48
1
60
0
100
AcDbLine
10
-120.571998
20
-12.4375
30
0
11
-131.909498
21
-12.4375
31
0
39
0
210
0
220
0
230
1
0
LINE
5
FC
100
AcDbEntity
8
SK2
62
256
6
ByLayer
370
13
48
1
60
0
100
AcDbLine
10
-128.734498
20
12.5625
30
0
11
-128.734498
21
-12.4375
31
0
39
0
210
0
220
0
230
1
0
LINE
5
FD
100
AcDbEntity
8
SK2
62
256
6
ByLayer
370
13
48
1
60
0
100
AcDbLine
10
-128.734498
20
12.5625
30
0
11
-127.883759
21
9.387503
31
0
39
0
210
0
220
0
230
1
0
LINE
5
FE
100
AcDbEntity
8
SK2
62
256
6
ByLayer
370
13
48
1
60
0
100
AcDbLine
10
-128.734498
20
12.5625
30
0
11
-129.585236
21
9.387497
31
0
39
0
210
0
220
0
230
1
0
LINE
5
FF
100
AcDbEntity
8
SK2
62
256
6
ByLayer
370
13
48
1
60
0
100
AcDbLine
10
-127.883759
20
9.387503
30
0
11
-129.585236
21
9.387497
31
0
39
0
210
0
220
0
230
1
0
LINE
5
100
100
AcDbEntity
8
SK2
62
256
6
ByLayer
370
13
48
1
60
0
100
AcDbLine
10
-128.734498
20
-12.4375
30
0
11
-129.585236
21
-9.262503
31
0
39
0
210
0
220
0
230
1
0
LINE
5
101
100
AcDbEntity
8
SK2
62
256
6
ByLayer
370
13
48
1
60
0
100
AcDbLine
10
-128.734498
20
-12.4375
30
0
11
-127.883759
21
-9.262497
31
0
39
0
210
0
220
0
230
1
0
LINE
5
102
100
AcDbEntity
8
SK2
62
256
6
ByLayer
370
13
48
1
60
0
100
AcDbLine
10
-129.585236
20
-9.262503
30
0
11
-127.883759
21
-9.262497
31
0
39
0
210
0
220
0
230
1
0
ENDBLK
5
104
100
AcDbEntity
8
0
100
AcDbBlockEnd
0
BLOCK
5
107
100
AcDbEntity
8
0
100
AcDbBlockBegin
2
_CLOSED
70
0
10
0
20
0
30
0
3
_CLOSED
0
LINE
5
109
100
AcDbEntity
8
0
62
256
6
ByLayer
370
-2
48
1
60
0
100
AcDbLine
10
-1
20
0.166667
30
0
11
0
21
0
31
0
39
0
210
0
220
0
230
1
0
LINE
5
10A
100
AcDbEntity
8
0
62
256
6
ByLayer
370
-2
48
1
60
0
100
AcDbLine
10
0
20
0
30
0
11
-1
21
-0.166667
31
0
39
0
210
0
220
0
230
1
0
LINE
5
10B
100
AcDbEntity
8
0
62
256
6
ByLayer
370
-2
48
1
60
0
100
AcDbLine
10
-1
20
0.166667
30
0
11
-1
21
-0.166667
31
0
39
0
210
0
220
0
230
1
0
LINE
5
10C
100
AcDbEntity
8
0
62
256
6
ByLayer
370
-2
48
1
60
0
100
AcDbLine
10
0
20
0
30
0
11
-1
21
0
31
0
39
0
210
0
220
0
230
1
0
ENDBLK
5
108
100
AcDbEntity
8
0
100
AcDbBlockEnd
0
BLOCK
5
119
100
AcDbEntity
8
0
100
AcDbBlockBegin
2
DimnDraft3D2
70
0
10
0
20
0
30
0
3
DimnDraft3D2
0
MTEXT
5
10E
100
AcDbEntity
8
2
62
256
6
ByLayer
370
13
48
1
60
0
100
AcDbMText
10
47.740502
20
-2.825658
30
0
210
0
220
0
230
1
1
\W0.6740;22
40
4.5
41
0
44
1.084337
50
90
71
7
72
5
7
iso_b_vert
0
LINE
5
110
100
AcDbEntity
8
2
62
256
6
ByLayer
370
13
48
1
60
0
100
AcDbLine
10
1.5875
20
-12.4375
30
0
11
52.040502
21
-12.4375
31
0
39
0
210
0
220
0
230
1
0
LINE
5
111
100
AcDbEntity
8
2
62
256
6
ByLayer
370
13
48
1
60
0
100
AcDbLine
10
33.953002
20
9.9125
30
0
11
52.040502
21
9.9125
31
0
39
0
210
0
220
0
230
1
0
LINE
5
112
100
AcDbEntity
8
2
62
256
6
ByLayer
370
13
48
1
60
0
100
AcDbLine
10
48.865502
20
-12.4375
30
0
11
48.865502
21
9.9125
31
0
39
0
210
0
220
0
230
1
0
LINE
5
113
100
AcDbEntity
8
2
62
256
6
ByLayer
370
13
48
1
60
0
100
AcDbLine
10
48.865502
20
-12.4375
30
0
11
48.014764
21
-9.262503
31
0
39
0
210
0
220
0
230
1
0
LINE
5
114
100
AcDbEntity
8
2
62
256
6
ByLayer
370
13
48
1
60
0
100
AcDbLine
10
48.865502
20
-12.4375
30
0
11
49.716241
21
-9.262497
31
0
39
0
210
0
220
0
230
1
0
LINE
5
115
100
AcDbEntity
8
2
62
256
6
ByLayer
370
13
48
1
60
0
100
AcDbLine
10
48.014764
20
-9.262503
30
0
11
49.716241
21
-9.262497
31
0
39
0
210
0
220
0
230
1
0
LINE
5
116
100
AcDbEntity
8
2
62
256
6
ByLayer
370
13
48
1
60
0
100
AcDbLine
10
48.865502
20
9.9125
30
0
11
49.716241
21
6.737503
31
0
39
0
210
0
220
0
230
1
0
LINE
5
117
100
AcDbEntity
8
2
62
256
6
ByLayer
370
13
48
1
60
0
100
AcDbLine
10
48.865502
20
9.9125
30
0
11
48.014764
21
6.737497
31
0
39
0
210
0
220
0
230
1
0
LINE
5
118
100
AcDbEntity
8
2
62
256
6
ByLayer
370
13
48
1
60
0
100
AcDbLine
10
49.716241
20
6.737503
30
0
11
48.014764
21
6.737497
31
0
39
0
210
0
220
0
230
1
0
ENDBLK
5
11A
100
AcDbEntity
8
0
100
AcDbBlockEnd
0
BLOCK
5
127
100
AcDbEntity
8
0
100
AcDbBlockBegin
2
DimnDraft3D3
70
0
10
0
20
0
30
0
3
DimnDraft3D3
0
MTEXT
5
11D
100
AcDbEntity
8
SK2
62
256
6
ByLayer
370
13
48
1
60
0
100
AcDbMText
10
-45.991735
20
36.890575
30
0
210
0
220
0
230
1
1
\W0.6217;150
40
4.5
41
0
44
1.084337
50
0
71
7
72
5
7
iso_b_vert
0
LINE
5
11E
100
AcDbEntity
8
SK2
62
256
6
ByLayer
370
13
48
1
60
0
100
AcDbLine
10
-118.984498
20
14.15
30
0
11
-118.984498
21
38.940575
31
0
39
0
210
0
220
0
230
1
0
LINE
5
11F
100
AcDbEntity
8
SK2
62
256
6
ByLayer
370
13
48
1
60
0
100
AcDbLine
10
32.365502
20
11.5
30
0
11
32.365502
21
38.940575
31
0
39
0
210
0
220
0
230
1
0
LINE
5
120
100
AcDbEntity
8
SK2
62
256
6
ByLayer
370
13
48
1
60
0
100
AcDbLine
10
-118.984498
20
35.765575
30
0
11
32.365502
21
35.765575
31
0
39
0
210
0
220
0
230
1
0
LINE
5
121
100
AcDbEntity
8
SK2
62
256
6
ByLayer
370
13
48
1
60
0
100
AcDbLine
10
-118.984498
20
35.765575
30
0
11
-115.809501
21
36.616314
31
0
39
0
210
0
220
0
230
1
0
LINE
5
122
100
AcDbEntity
8
SK2
62
256
6
ByLayer
370
13
48
1
60
0
100
AcDbLine
10
-118.984498
20
35.765575
30
0
11
-115.809495
21
34.914836
31
0
39
0
210
0
220
0
230
1
0
LINE
5
123
100
AcDbEntity
8
SK2
62
256
6
ByLayer
370
13
48
1
60
0
100
AcDbLine
10
-115.809501
20
36.616314
30
0
11
-115.809495
21
34.914836
31
0
39
0
210
0
220
0
230
1
0
LINE
5
124
100
AcDbEntity
8
SK2
62
256
6
ByLayer
370
13
48
1
60
0
100
AcDbLine
10
32.365502
20
35.765575
30
0
11
29.190505
21
34.914836
31
0
39
0
210
0
220
0
230
1
0
LINE
5
125
100
AcDbEntity
8
SK2
62
256
6
ByLayer
370
13
48
1
60
0
100
AcDbLine
10
32.365502
20
35.765575
30
0
11
29.190499
21
36.616314
31
0
39
0
210
0
220
0
230
1
0
LINE
5
126
100
AcDbEntity
8
SK2
62
256
6
ByLayer
370
13
48
1
60
0
100
AcDbLine
10
29.190505
20
34.914836
30
0
11
29.190499
21
36.616314
31
0
39
0
210
0
220
0
230
1
0
ENDBLK
5
128
100
AcDbEntity
8
0
100
AcDbBlockEnd
0
BLOCK
5
134
100
AcDbEntity
8
0
100
AcDbBlockBegin
2
DimnDraft3D4
70
0
10
0
20
0
30
0
3
DimnDraft3D4
0
MTEXT
5
12B
100
AcDbEntity
8
2
62
256
6
ByLayer
370
13
48
1
60
0
100
AcDbMText
10
17.901176
20
23.693786
30
0
210
0
220
0
230
1
1
\W0.8292;60%%d0'
40
4.5
41
0
44
1.084337
50
30
71
7
72
5
7
iso_b_vert
0
LINE
5
12C
100
AcDbEntity
8
2
62
256
6
ByLayer
370
13
48
1
60
0
100
AcDbLine
10
32.365502
20
11.5
30
0
11
32.365502
21
31.084662
31
0
39
0
210
0
220
0
230
1
0
ARC
5
12D
100
AcDbEntity
8
2
62
256
6
ByLayer
370
13
48
1
60
0
100
AcDbCircle
39
0
10
32.365502
20
9.577022
30
0
40
18.3326397256323
210
0
220
0
230
1
100
AcDbArc
50
90
51
150
0
LINE
5
12E
100
AcDbEntity
8
2
62
256
6
ByLayer
370
13
48
1
60
0
100
AcDbLine
10
32.365502
20
27.909662
30
0
11
29.230198
21
26.922633
31
0
39
0
210
0
220
0
230
1
0
LINE
5
12F
100
AcDbEntity
8
2
62
256
6
ByLayer
370
13
48
1
60
0
100
AcDbLine
10
32.365502
20
27.909662
30
0
11
29.156728
21
28.622523
31
0
39
0
210
0
220
0
230
1
0
LINE
5
130
100
AcDbEntity
8
2
62
256
6
ByLayer
370
13
48
1
60
0
100
AcDbLine
10
29.230198
20
26.922633
30
0
11
29.156728
21
28.622523
31
0
39
0
210
0
220
0
230
1
0
LINE
5
131
100
AcDbEntity
8
2
62
256
6
ByLayer
370
13
48
1
60
0
100
AcDbLine
10
16.488971
20
18.743342
30
0
11
17.475998
21
21.878647
31
0
39
0
210
0
220
0
230
1
0
LINE
5
132
100
AcDbEntity
8
2
62
256
6
ByLayer
370
13
48
1
60
0
100
AcDbLine
10
16.488971
20
18.743342
30
0
11
18.911418
21
20.965086
31
0
39
0
210
0
220
0
230
1
0
LINE
5
133
100
AcDbEntity
8
2
62
256
6
ByLayer
370
13
48
1
60
0
100
AcDbLine
10
17.475998
20
21.878647
30
0
11
18.911418
21
20.965086
31
0
39
0
210
0
220
0
230
1
0
ENDBLK
5
135
100
AcDbEntity
8
0
100
AcDbBlockEnd
0
ENDSEC
0
SECTION
2
ENTITIES
0
ARC
5
AE
100
AcDbEntity
8
1
62
256
6
ByLayer
370
18
48
1
60
0
100
AcDbCircle
39
0
10
0
20
14.0375
30
0
40
1.59999999999996
210
0
220
0
230
-1
100
AcDbArc
50
195
51
270
0
ELLIPSE
5
AF
100
AcDbEntity
8
1
62
256
6
ByLayer
370
18
48
1
60
0
100
AcDbEllipse
10
15.106485
20
-1.476819
30
0
11
0.703775606770562
21
-2.62652632159546
31
0
210
0
220
0
230
1
40
0.989133
41
0.281574154364265
42
0.913034419558604
0
ELLIPSE
5
B0
100
AcDbEntity
8
1
62
256
6
ByLayer
370
18
48
1
60
0
100
AcDbEllipse
10
15.084935
20
-1.482593
30
0
11
-0.664955378264667
21
2.48164725645
31
0
210
0
220
0
230
1
40
0.989133
41
-2.98254037894903
42
-2.22855823403119
0
ELLIPSE
5
B1
100
AcDbEntity
8
1
62
256
6
ByLayer
370
18
48
1
60
0
100
AcDbEllipse
10
0
20
-12.444481
30
0
11
1.59999999999995
21
1.61702248813173E-15
31
0
210
0
220
0
230
-1
40
0.004363
41
-1.5707963267949
42
-0.261799387798664
0
ELLIPSE
5
B2
100
AcDbEntity
8
1
62
256
6
ByLayer
370
18
48
1
60
0
100
AcDbEllipse
10
16.150046
20
-1.197198
30
0
11
0.681644259572617
21
-2.54393100941278
31
0
210
0
220
0
230
1
40
0.989133
41
-2.22855823403119
42
0.913034419558598
0
ELLIPSE
5
B3
100
AcDbEntity
8
1
62
256
6
ByLayer
370
18
48
1
60
0
100
AcDbEllipse
10
17.455297
20
-2.473531
30
0
11
-0.138697340464113
21
0.0571230929500662
31
0
210
0
220
0
230
1
40
0.089883
41
1.45370639463257
42
3.0361388315507
0
ELLIPSE
5
B4
100
AcDbEntity
8
1
62
256
6
ByLayer
370
18
48
1
60
0
100
AcDbEllipse
10
16.763154
20
8.616443
30
0
11
-0.698811421776785
21
2.60799973098049
31
0
210
0
220
0
230
1
40
0.989133
41
1.31446014751729
42
1.64935630595667
0
ELLIPSE
5
B5
100
AcDbEntity
8
1
62
256
6
ByLayer
370
18
48
1
60
0
100
AcDbEllipse
10
16.730667
20
12.612211
30
0
11
-0.698811421776785
21
2.60799973098049
31
0
210
0
220
0
230
1
40
0.989133
41
0.979563989077915
42
1.31446014751729
0
ELLIPSE
5
B6
100
AcDbEntity
8
1
62
256
6
ByLayer
370
18
48
1
60
0
100
AcDbEllipse
10
19.087368
20
9.024045
30
0
11
-0.718222850159473
21
2.68044416795217
31
0
210
0
220
0
230
1
40
0.989133
41
-2.7265929747747
42
-2.36851174375153
0
ELLIPSE
5
B7
100
AcDbEntity
8
1
62
256
6
ByLayer
370
18
48
1
60
0
100
AcDbEllipse
10
19.087368
20
9.024045
30
0
11
-0.718222850159473
21
2.68044416795217
31
0
210
0
220
0
230
1
40
0.989133
41
-0.764224556949611
42
-0.414991410983644
0
ELLIPSE
5
B8
100
AcDbEntity
8
1
62
256
6
ByLayer
370
18
48
1
60
0
100
AcDbEllipse
10
19.966372
20
8.691123
30
0
11
-0.672929517266533
21
2.51140714835158
31
0
210
0
220
0
230
1
40
0.989133
41
-2.61521823491591E-06
42
0.397108112912765
0
ELLIPSE
5
B9
100
AcDbEntity
8
1
62
256
6
ByLayer
370
18
48
1
60
0
100
AcDbEllipse
10
19.62141
20
9.735591
30
0
11
-0.672929517266533
21
2.51140714835158
31
0
210
0
220
0
230
1
40
0.989133
41
2.78936731112345
42
-3.14158775909852
0
ELLIPSE
5
BA
100
AcDbEntity
8
1
62
256
6
ByLayer
370
18
48
1
60
0
100
AcDbEllipse
10
20.240274
20
9.353906
30
0
11
0.608224755990901
21
-2.26992569177932
31
0
210
0
220
0
230
1
40
0.989133
41
-0.709228362397214
42
-0.677859577252282
0
ELLIPSE
5
BB
100
AcDbEntity
8
1
62
256
6
ByLayer
370
18
48
1
60
0
100
AcDbEllipse
10
20.031885
20
9.298068
30
0
11
0.608224755990901
21
-2.26992569177932
31
0
210
0
220
0
230
1
40
0.989133
41
-0.339439479697361
42
-0.208276817418991
0
ELLIPSE
5
BC
100
AcDbEntity
8
1
62
256
6
ByLayer
370
18
48
1
60
0
100
AcDbEllipse
10
18.828191
20
8.954599
30
0
11
0.737634278542155
21
-2.75288860492385
31
0
210
0
220
0
230
1
40
0.989133
41
2.46650622409501
42
2.66020862132217
0
ELLIPSE
5
BD
100
AcDbEntity
8
1
62
256
6
ByLayer
370
18
48
1
60
0
100
AcDbEllipse
10
18.828191
20
8.954599
30
0
11
0.737634278542155
21
-2.75288860492385
31
0
210
0
220
0
230
1
40
0.989133
41
0.481362341111428
42
0.740111313474798
0
ELLIPSE
5
BE
100
AcDbEntity
8
1
62
256
6
ByLayer
370
18
48
1
60
0
100
AcDbEllipse
10
7.958275
20
5.276196
30
0
11
0.402463615134403
21
-1.5020146598795
31
0
210
0
220
0
230
1
40
0.989133
41
0.163660189174698
42
1.3117160188737
0
ELLIPSE
5
BF
100
AcDbEntity
8
1
62
256
6
ByLayer
370
18
48
1
60
0
100
AcDbEllipse
10
7.958275
20
5.276196
30
0
11
0.402463615134403
21
-1.5020146598795
31
0
210
0
220
0
230
1
40
0.989133
41
1.3117160188737
42
2.91088464181118
0
ELLIPSE
5
C0
100
AcDbEntity
8
1
62
256
6
ByLayer
370
18
48
1
60
0
100
AcDbEllipse
10
14.482391
20
-0.389091
30
0
11
0.205437617050119
21
-0.766703624616953
31
0
210
0
220
0
230
1
40
0.989133
41
-1.82713250607251
42
-1.83589366869896E-06
0
ELLIPSE
5
C1
100
AcDbEntity
8
1
62
256
6
ByLayer
370
18
48
1
60
0
100
AcDbEllipse
10
14.326015
20
18.844311
30
0
11
0.205437617050118
21
-0.766703624616952
31
0
210
0
220
0
230
1
40
0.989133
41
-3.14156227505831
42
-1.82713250607251
0
ELLIPSE
5
C2
100
AcDbEntity
8
1
62
256
6
ByLayer
370
18
48
1
60
0
100
AcDbEllipse
10
19.903953
20
9.242848
30
0
11
-0.667235498274278
21
2.49015678017322
31
0
210
0
220
0
230
1
40
0.989133
41
-3.00385070332065
42
-2.2006829003705
0
ELLIPSE
5
C3
100
AcDbEntity
8
1
62
256
6
ByLayer
370
18
48
1
60
0
100
AcDbEllipse
10
19.903953
20
9.242848
30
0
11
-0.667235498274278
21
2.49015678017322
31
0
210
0
220
0
230
1
40
0.989133
41
-0.892209641538552
42
-0.137736351839154
0
ELLIPSE
5
C4
100
AcDbEntity
8
1
62
256
6
ByLayer
370
18
48
1
60
0
100
AcDbEllipse
10
15.00236
20
19.025538
30
0
11
0.205437617050118
21
-0.766703624616952
31
0
210
0
220
0
230
1
40
0.989133
41
2.3616576987139
42
-1.82713250607249
0
ELLIPSE
5
C5
100
AcDbEntity
8
1
62
256
6
ByLayer
370
18
48
1
60
0
100
AcDbEllipse
10
20.580298
20
9.424074
30
0
11
-0.667235498274278
21
2.49015678017322
31
0
210
0
220
0
230
1
40
0.989133
41
0
42
6.28318530717959
0
ELLIPSE
5
C6
100
AcDbEntity
8
1
62
256
6
ByLayer
370
18
48
1
60
0
100
AcDbEllipse
10
15.158737
20
-0.207864
30
0
11
0.205437617050119
21
-0.766703624616953
31
0
210
0
220
0
230
1
40
0.989133
41
-1.82713250607251
42
0.267262596320723
0
ELLIPSE
5
C7
100
AcDbEntity
8
1
62
256
6
ByLayer
370
18
48
1
60
0
100
AcDbEllipse
10
31.579797
20
9.45455
30
0
11
0.205437617050118
21
-0.766703624616952
31
0
210
0
220
0
230
1
40
0.989133
41
0.267262596320647
42
2.36165769871392
0
ELLIPSE
5
C8
100
AcDbEntity
8
1
62
256
6
ByLayer
370
18
48
1
60
0
100
AcDbEllipse
10
20.418756
20
9.380789
30
0
11
0.608224755990901
21
-2.26992569177932
31
0
210
0
220
0
230
1
40
0.989133
41
-1.88306623086191
42
-1.14288025056514
0
ELLIPSE
5
C9
100
AcDbEntity
8
1
62
256
6
ByLayer
370
18
48
1
60
0
100
AcDbEllipse
10
20.489764
20
9.399816
30
0
11
-0.478815233439649
21
1.78696277863478
31
0
210
0
220
0
230
1
40
0.989133
41
-1.85628702035546
42
-1.16965946107158
0
ELLIPSE
5
CA
100
AcDbEntity
8
1
62
256
6
ByLayer
370
18
48
1
60
0
100
AcDbEllipse
10
20.317283
20
9.92205
30
0
11
-0.543519994715278
21
2.02844423520705
31
0
210
0
220
0
230
1
40
0.989133
41
2.22112534940666
42
-2.10547917724392
0
ELLIPSE
5
CB
100
AcDbEntity
8
1
62
256
6
ByLayer
370
18
48
1
60
0
100
AcDbEllipse
10
20.662245
20
8.877582
30
0
11
-0.543519994715278
21
2.02844423520705
31
0
210
0
220
0
230
1
40
0.989133
41
-0.920467304183127
42
1.03611347634586
0
ELLIPSE
5
CC
100
AcDbEntity
8
1
62
256
6
ByLayer
370
18
48
1
60
0
100
AcDbEllipse
10
20.246275
20
9.903024
30
0
11
0.672929517266527
21
-2.51140714835158
31
0
210
0
220
0
230
1
40
0.989133
41
-0.944362940449337
42
1.06000911261209
0
ELLIPSE
5
CD
100
AcDbEntity
8
1
62
256
6
ByLayer
370
18
48
1
60
0
100
AcDbEllipse
10
20.591237
20
8.858555
30
0
11
0.672929517266527
21
-2.51140714835158
31
0
210
0
220
0
230
1
40
0.989133
41
2.19722971314045
42
-2.0815835409777
0
ELLIPSE
5
CE
100
AcDbEntity
8
1
62
256
6
ByLayer
370
18
48
1
60
0
100
AcDbEllipse
10
20.418756
20
9.380789
30
0
11
0.608224755990901
21
-2.26992569177932
31
0
210
0
220
0
230
1
40
0.989133
41
1.25852642272789
42
1.99871240302466
0
ELLIPSE
5
CF
100
AcDbEntity
8
1
62
256
6
ByLayer
370
18
48
1
60
0
100
AcDbEllipse
10
20.489764
20
9.399816
30
0
11
-0.478815233439649
21
1.78696277863478
31
0
210
0
220
0
230
1
40
0.989133
41
1.28530563323433
42
1.97193319251822
0
ELLIPSE
5
D0
100
AcDbEntity
8
1
62
256
6
ByLayer
370
18
48
1
60
0
100
AcDbEllipse
10
8.10029
20
5.314248
30
0
11
-0.402463615134407
21
1.50201465987951
31
0
210
0
220
0
230
1
40
0.989133
41
-2.86224086490333
42
-2.25810071891691
0
ELLIPSE
5
D1
100
AcDbEntity
8
1
62
256
6
ByLayer
370
18
48
1
60
0
100
AcDbEllipse
10
8.637816
20
5.458278
30
0
11
-0.402463615134407
21
1.50201465987951
31
0
210
0
220
0
230
1
40
0.989133
41
-0.163705616523755
42
0.279351788686465
0
ELLIPSE
5
D2
100
AcDbEntity
8
1
62
256
6
ByLayer
370
18
48
1
60
0
100
AcDbEllipse
10
8.637816
20
5.458278
30
0
11
-0.402463615134407
21
1.50201465987951
31
0
210
0
220
0
230
1
40
0.989133
41
-2.2581007189169
42
-1.81504331370673
0
ELLIPSE
5
D3
100
AcDbEntity
8
1
62
256
6
ByLayer
370
18
48
1
60
0
100
AcDbEllipse
10
8.637816
20
5.458278
30
0
11
-0.402463615134407
21
1.50201465987951
31
0
210
0
220
0
230
1
40
0.989133
41
1.93068948586948
42
2.37374689107967
0
ELLIPSE
5
D4
100
AcDbEntity
8
1
62
256
6
ByLayer
370
18
48
1
60
0
100
AcDbEllipse
10
8.10029
20
5.314248
30
0
11
-0.402463615134407
21
1.50201465987951
31
0
210
0
220
0
230
1
40
0.989133
41
-0.767845762510126
42
-0.163705616523746
0
ELLIPSE
5
D5
100
AcDbEntity
8
1
62
256
6
ByLayer
370
18
48
1
60
0
100
AcDbEllipse
10
8.668349
20
5.466459
30
0
11
0.837279610906621
21
-3.12477004804515
31
0
210
0
220
0
230
1
40
0.989133
41
0
42
6.28318530717959
0
ELLIPSE
5
D6
100
AcDbEntity
8
1
62
256
6
ByLayer
370
18
48
1
60
0
100
AcDbEllipse
10
8.668349
20
5.466459
30
0
11
0.498845478392467
21
-1.86171667048676
31
0
210
0
220
0
230
1
40
0.989133
41
0
42
6.28318530717959
0
ELLIPSE
5
D7
100
AcDbEntity
8
1
62
256
6
ByLayer
370
18
48
1
60
0
100
AcDbEllipse
10
8.559707
20
5.437349
30
0
11
1.03527618041004
21
-3.86370330515628
31
0
210
0
220
0
230
1
40
0.989133
41
0
42
6.28318530717959
0
ELLIPSE
5
D8
100
AcDbEntity
8
1
62
256
6
ByLayer
370
18
48
1
60
0
100
AcDbEllipse
10
8.637816
20
5.458278
30
0
11
-0.402463615134407
21
1.50201465987951
31
0
210
0
220
0
230
1
40
0.989133
41
2.97788703706608
42
-2.86224086490333
0
ELLIPSE
5
D9
100
AcDbEntity
8
1
62
256
6
ByLayer
370
18
48
1
60
0
100
AcDbEllipse
10
8.10029
20
5.314248
30
0
11
-0.402463615134407
21
1.50201465987951
31
0
210
0
220
0
230
1
40
0.989133
41
-1.81504331370673
42
-1.21090316772031
0
ELLIPSE
5
DA
100
AcDbEntity
8
1
62
256
6
ByLayer
370
18
48
1
60
0
100
AcDbEllipse
10
8.637816
20
5.458278
30
0
11
-0.402463615134407
21
1.50201465987951
31
0
210
0
220
0
230
1
40
0.989133
41
0.883491934672867
42
1.32654933988307
0
ELLIPSE
5
DB
100
AcDbEntity
8
1
62
256
6
ByLayer
370
18
48
1
60
0
100
AcDbEllipse
10
8.637816
20
5.458278
30
0
11
-0.402463615134407
21
1.50201465987951
31
0
210
0
220
0
230
1
40
0.989133
41
-1.21090316772033
42
-0.767845762510144
0
POINT
5
6C
100
AcDbEntity
8
80
62
256
6
ByLayer
370
18
48
1
60
0
100
AcDbPoint
10
0
20
0
30
0
39
0
210
0
220
0
230
1
50
360
0
POINT
5
6E
100
AcDbEntity
8
81
62
256
6
ByLayer
370
18
48
1
60
0
100
AcDbPoint
10
31.015502
20
9.5625
30
0
39
0
210
0
220
0
230
1
50
360
0
POINT
5
70
100
AcDbEntity
8
1
62
256
6
ByLayer
370
18
48
1
60
0
100
AcDbPoint
10
-118.984498
20
-12.4375
30
0
39
0
210
0
220
0
230
1
50
360
0
SPLINE
5
DC
100
AcDbEntity
8
1
62
256
6
ByLayer
370
18
48
1
60
0
100
AcDbSpline
70
4
71
3
72
8
73
4
40
0
40
0
40
0
40
0
40
1
40
1
40
1
40
1
41
1
10
19.2957237154514
20
7.22289641680365
30
0
41
1
10
19.3108290517589
20
7.21597334044486
30
0
41
1
10
19.3154325084455
20
7.21106902082229
30
0
41
1
10
19.3059683033572
20
7.20853309471184
30
0
0
SPLINE
5
DD
100
AcDbEntity
8
1
62
256
6
ByLayer
370
18
48
1
60
0
100
AcDbSpline
70
4
71
3
72
18
73
14
40
0
40
0
40
0
40
0
40
0.12239037798747
40
0.12239037798747
40
0.268658648322892
40
0.268658648322892
40
0.414926918658314
40
0.414926918658314
40
0.707463459329157
40
0.707463459329157
40
0.853731729664579
40
0.853731729664579
40
1
40
1
40
1
40
1
41
1
10
20.320989172328
20
11.4502558570419
30
0
41
1
10
20.2729961678254
20
11.4633217391175
30
0
41
1
10
20.224635189502
20
11.4749193838733
30
0
41
1
10
20.1176658323725
20
11.4971359060255
30
0
41
1
10
20.0588972707619
20
11.5071156362106
30
0
41
1
10
19.9402691133075
20
11.5227216671479
30
0
41
1
10
19.8803349860506
20
11.5283309543587
30
0
41
1
10
19.7018413723235
20
11.5382939545968
30
0
41
1
10
19.5836084915488
20
11.5359819030952
30
0
41
1
10
19.4073396386962
20
11.5192438361877
30
0
41
1
10
19.3487645405004
20
11.5114436674848
30
0
41
1
10
19.231978812529
20
11.4913154596152
30
0
41
1
10
19.1735162979995
20
11.4789180113047
30
0
41
1
10
19.1159675896099
20
11.4643677811801
30
0
0
SPLINE
5
DE
100
AcDbEntity
8
1
62
256
6
ByLayer
370
18
48
1
60
0
100
AcDbSpline
70
4
71
3
72
14
73
10
40
0
40
0
40
0
40
0
40
0.268664991386561
40
0.268664991386561
40
0.634332495693282
40
0.634332495693282
40
0.817166247846641
40
0.817166247846641
40
1
40
1
40
1
40
1
41
1
10
20.2374179545449
20
6.89930660433396
30
0
41
1
10
20.2783952986957
20
6.91029487866234
30
0
41
1
10
20.3180015095795
20
6.92187549825954
30
0
41
1
10
20.4061651088368
20
6.94939578990642
30
0
41
1
10
20.4537175522609
20
6.96571189657269
30
0
41
1
10
20.5136450990873
20
6.98705037291541
30
0
41
1
10
20.5317122463127
20
6.99362334286153
30
0
41
1
10
20.5630997356165
20
7.00501607153151
30
0
41
1
10
20.5762855054357
20
7.00978029417729
30
0
41
1
10
20.5860916930061
20
7.01315477430859
30
0
0
SPLINE
5
DF
100
AcDbEntity
8
1
62
256
6
ByLayer
370
18
48
1
60
0
100
AcDbSpline
70
4
71
3
72
12
73
8
40
0
40
0
40
0
40
0
40
0.348842320211144
40
0.348842320211144
40
0.697684640422289
40
0.697684640422289
40
1
40
1
40
1
40
1
41
1
10
20.5860916930061
20
7.01315477430859
30
0
41
1
10
20.694735701058
20
7.05814708171192
30
0
41
1
10
20.8002170954954
20
7.11145814665178
30
0
41
1
10
21.0046756733247
20
7.23531360425829
30
0
41
1
10
21.1016751410961
20
7.30473719508856
30
0
41
1
10
21.2714950894513
20
7.44635281105008
30
0
41
1
10
21.3460844361286
20
7.5171065185927
30
0
41
1
10
21.4164041560337
20
7.59291593351378
30
0
0
SPLINE
5
E0
100
AcDbEntity
8
1
62
256
6
ByLayer
370
18
48
1
60
0
100
AcDbSpline
70
4
71
3
72
8
73
4
40
0
40
0
40
0
40
0
40
1
40
1
40
1
40
1
41
1
10
20.162703364771
20
6.95279967506184
30
0
41
1
10
20.0621493693568
20
6.9482999339991
30
0
41
1
10
19.9634912265385
20
6.95099239598855
30
0
41
1
10
19.8673293247137
20
6.9602848077152
30
0
0
SPLINE
5
E1
100
AcDbEntity
8
1
62
256
6
ByLayer
370
18
48
1
60
0
100
AcDbSpline
70
4
71
3
72
10
73
6
40
0
40
0
40
0
40
0
40
0.566826978620536
40
0.566826978620536
40
1
40
1
40
1
40
1
41
1
10
19.0719378074703
20
11.4528109010785
30
0
41
1
10
19.0567804798714
20
11.4487616186063
30
0
41
1
10
19.0395285535053
20
11.4440634917988
30
0
41
1
10
19.0066306071289
20
11.4347781396646
30
0
41
1
10
18.9914677990846
20
11.4303908263902
30
0
41
1
10
18.9756211427887
20
11.4256668030056
30
0
0
SPLINE
5
E2
100
AcDbEntity
8
1
62
256
6
ByLayer
370
18
48
1
60
0
100
AcDbSpline
70
4
71
3
72
8
73
4
40
0
40
0
40
0
40
0
40
1
40
1
40
1
40
1
41
1
10
19.0494925402266
20
8.26605349347994
30
0
41
1
10
18.9089426077557
20
8.14119466861095
30
0
41
1
10
18.7685945264907
20
8.01632751122412
30
0
41
1
10
18.6283460455277
20
7.89145646413547
30
0
0
SPLINE
5
E3
100
AcDbEntity
8
1
62
256
6
ByLayer
370
18
48
1
60
0
100
AcDbSpline
70
4
71
3
72
8
73
4
40
0
40
0
40
0
40
0
40
1
40
1
40
1
40
1
41
1
10
20.586091693006
20
7.01315477430862
30
0
41
1
10
20.4457371204536
20
6.97905969449056
30
0
41
1
10
20.3043619543278
20
6.95913882617859
30
0
41
1
10
20.1627033647706
20
6.95279967506184
30
0
0
SPLINE
5
E4
100
AcDbEntity
8
1
62
256
6
ByLayer
370
18
48
1
60
0
100
AcDbSpline
70
4
71
3
72
8
73
4
40
0
40
0
40
0
40
0
40
1
40
1
40
1
40
1
41
1
10
18.0952234037019
20
9.50563477198781
30
0
41
1
10
18.2830174358399
20
9.48654832914718
30
0
41
1
10
18.4708886624008
20
9.4675258366878
30
0
41
1
10
18.6589160593167
20
9.44863332329689
30
0
0
SPLINE
5
E5
100
AcDbEntity
8
1
62
256
6
ByLayer
370
18
48
1
60
0
100
AcDbSpline
70
4
71
3
72
8
73
4
40
0
40
0
40
0
40
0
40
1
40
1
40
1
40
1
41
1
10
22.2091665890667
20
10.8701223066979
30
0
41
1
10
22.1162864275152
20
10.7579435625424
30
0
41
1
10
22.0232843433031
20
10.6457627268308
30
0
41
1
10
21.9300348973153
20
10.5335780291165
30
0
0
SPLINE
5
E6
100
AcDbEntity
8
1
62
256
6
ByLayer
370
18
48
1
60
0
100
AcDbSpline
70
4
71
3
72
8
73
4
40
0
40
0
40
0
40
0
40
1
40
1
40
1
40
1
41
1
10
22.3206113782251
20
9.35099819929957
30
0
41
1
10
22.461338288658
20
9.31943155875393
30
0
41
1
10
22.6018635181659
20
9.28772274461937
30
0
41
1
10
22.7422892308925
20
9.25594399884559
30
0
0
SPLINE
5
E7
100
AcDbEntity
8
1
62
256
6
ByLayer
370
18
48
1
60
0
100
AcDbSpline
70
4
71
3
72
10
73
6
40
0
40
0
40
0
40
0
40
0.5
40
0.5
40
1
40
1
40
1
40
1
41
1
10
9.9519798193123
20
4.29491925661645
30
0
41
1
10
9.86644635917409
20
4.26677808489271
30
0
41
1
10
9.78042528181342
20
4.23845211685733
30
0
41
1
10
9.6070940583862
20
4.1813116518106
30
0
41
1
10
9.52033297989769
20
4.15267773377929
30
0
41
1
10
9.43433115562593
20
4.12425635494043
30
0
0
SPLINE
5
E8
100
AcDbEntity
8
1
62
256
6
ByLayer
370
18
48
1
60
0
100
AcDbSpline
70
4
71
3
72
10
73
6
40
0
40
0
40
0
40
0
40
0.5
40
0.5
40
1
40
1
40
1
40
1
41
1
10
8.79276702484228
20
3.91146628475042
30
0
41
1
10
8.709483026313
20
3.88373932751361
30
0
41
1
10
8.62660620862161
20
3.85610727393652
30
0
41
1
10
8.46485174723554
20
3.80210946505807
30
0
41
1
10
8.38552339959622
20
3.77559395645116
30
0
41
1
10
8.30737096380093
20
3.74944544190694
30
0
0
SPLINE
5
E9
100
AcDbEntity
8
1
62
256
6
ByLayer
370
18
48
1
60
0
100
AcDbSpline
70
4
71
3
72
10
73
6
40
0
40
0
40
0
40
0
40
0.5
40
0.5
40
1
40
1
40
1
40
1
41
1
10
10.2985506896269
20
6.00807292456648
30
0
41
1
10
10.2299838873448
20
6.06555710368838
30
0
41
1
10
10.1608124503204
20
6.12399906541808
30
0
41
1
10
10.0232053969556
20
6.24141738442759
30
0
41
1
10
9.95471268925886
20
6.30044023195742
30
0
41
1
10
9.88658857932629
20
6.35983507962254
30
0
0
SPLINE
5
EA
100
AcDbEntity
8
1
62
256
6
ByLayer
370
18
48
1
60
0
100
AcDbSpline
70
4
71
3
72
10
73
6
40
0
40
0
40
0
40
0
40
0.5
40
0.5
40
1
40
1
40
1
40
1
41
1
10
7.00933297860414
20
4.91712529514746
30
0
41
1
10
7.07071077605204
20
4.85771482798589
30
0
41
1
10
7.13340217904224
20
4.79753654636977
30
0
41
1
10
7.26009849580984
20
4.67719470430023
30
0
41
1
10
7.32415216261845
20
4.61698241934926
30
0
41
1
10
7.38904248625974
20
4.55672108125887
30
0
0
SPLINE
5
EB
100
AcDbEntity
8
1
62
256
6
ByLayer
370
18
48
1
60
0
100
AcDbSpline
70
4
71
3
72
10
73
6
40
0
40
0
40
0
40
0
40
0.5
40
0.5
40
1
40
1
40
1
40
1
41
1
10
7.8412999099601
20
6.79229980594101
30
0
41
1
10
7.75801591143087
20
6.7645728487042
30
0
41
1
10
7.67513909373943
20
6.73694079512711
30
0
41
1
10
7.51338463235336
20
6.68294298624866
30
0
41
1
10
7.43405628471405
20
6.65642747764173
30
0
41
1
10
7.35590384891876
20
6.63027896309751
30
0
0
SPLINE
5
EC
100
AcDbEntity
8
1
62
256
6
ByLayer
370
18
48
1
60
0
100
AcDbSpline
70
4
71
3
72
8
73
4
40
0
40
0
40
0
40
0
40
1
40
1
40
1
40
1
41
1
10
10.1767378349186
20
5.48132683841811
30
0
41
1
10
10.2161145293497
20
5.66060807711182
30
0
41
1
10
10.2569047412311
20
5.83562983515924
30
0
41
1
10
10.2985506896269
20
6.00807292456648
30
0
0
SPLINE
5
ED
100
AcDbEntity
8
1
62
256
6
ByLayer
370
18
48
1
60
0
100
AcDbSpline
70
4
71
3
72
10
73
6
40
0
40
0
40
0
40
0
40
0.5
40
0.5
40
1
40
1
40
1
40
1
41
1
10
7.35590384891876
20
6.63027896309751
30
0
41
1
10
7.33496200631029
20
6.54356522079146
30
0
41
1
10
7.31411856791911
20
6.45568061348172
30
0
41
1
10
7.27337923641662
20
6.27980473882187
30
0
41
1
10
7.2534650441319
20
6.19174250750879
30
0
41
1
10
7.2340909942105
20
6.10353287694917
30
0
0
SPLINE
5
EE
100
AcDbEntity
8
1
62
256
6
ByLayer
370
18
48
1
60
0
100
AcDbSpline
70
4
71
3
72
10
73
6
40
0
40
0
40
0
40
0
40
0.5
40
0.5
40
1
40
1
40
1
40
1
41
1
10
9.00051270443018
20
7.17575277780702
30
0
41
1
10
8.91497924429191
20
7.14761160608327
30
0
41
1
10
8.82895816693124
20
7.1192856380479
30
0
41
1
10
8.65562694350407
20
7.06214517300117
30
0
41
1
10
8.56886586501557
20
7.03351125496988
30
0
41
1
10
8.48286404074381
20
7.005089876131
30
0
0
SPLINE
5
EF
100
AcDbEntity
8
1
62
256
6
ByLayer
370
18
48
1
60
0
100
AcDbSpline
70
4
71
3
72
8
73
4
40
0
40
0
40
0
40
0
40
1
40
1
40
1
40
1
41
1
10
7.8954088535003
20
4.10120759696298
30
0
41
1
10
8.03386737255462
20
3.98049082495217
30
0
41
1
10
8.17101574602512
20
3.86376122595917
30
0
41
1
10
8.30737096380093
20
3.74944544190694
30
0
0
SPLINE
5
F0
100
AcDbEntity
8
1
62
256
6
ByLayer
370
18
48
1
60
0
100
AcDbSpline
70
4
71
3
72
8
73
4
40
0
40
0
40
0
40
0
40
1
40
1
40
1
40
1
41
1
10
9.38022221208573
20
6.81534856391843
30
0
41
1
10
9.24833618640085
20
6.93782643021987
30
0
41
1
10
9.12257152384515
20
7.05760628535936
30
0
41
1
10
9.00051270443018
20
7.17575277780702
30
0
0
SPLINE
5
F1
100
AcDbEntity
8
1
62
256
6
ByLayer
370
18
48
1
60
0
100
AcDbSpline
70
4
71
3
72
8
73
4
40
0
40
0
40
0
40
0
40
1
40
1
40
1
40
1
41
1
10
7.09889323066736
20
5.43522932246327
30
0
41
1
10
7.06608902960576
20
5.25770917806023
30
0
41
1
10
7.03668252863915
20
5.08573767615928
30
0
41
1
10
7.00933297860414
20
4.91712529514746
30
0
0
SPLINE
5
F2
100
AcDbEntity
8
1
62
256
6
ByLayer
370
18
48
1
60
0
100
AcDbSpline
70
4
71
3
72
10
73
6
40
0
40
0
40
0
40
0
40
0.5
40
0.5
40
1
40
1
40
1
40
1
41
1
10
9.9519798193123
20
4.29491925661645
30
0
41
1
10
9.96573265708659
20
4.3797067108828
30
0
41
1
10
9.98009606144362
20
4.46585499830616
30
0
41
1
10
10.0099246563488
20
4.63880734990596
30
0
41
1
10
10.0253998077454
20
4.72568014379789
30
0
41
1
10
10.0415400713755
20
4.81302328393227
30
0
0
LINE
5
72
100
AcDbEntity
8
1
62
256
6
ByLayer
370
18
48
1
60
0
100
AcDbLine
10
7.524431
20
9.301052
30
0
11
7.465274
21
9.285201
31
0
39
0
210
0
220
0
230
1
0
LINE
5
73
100
AcDbEntity
8
1
62
256
6
ByLayer
370
18
48
1
60
0
100
AcDbLine
10
9.535827
20
1.557795
30
0
11
9.594984
21
1.573646
31
0
39
0
210
0
220
0
230
1
0
LINE
5
74
100
AcDbEntity
8
1
62
256
6
ByLayer
370
18
48
1
60
0
100
AcDbLine
10
14.687829
20
-1.155794
30
0
11
15.364174
21
-0.974568
31
0
39
0
210
0
220
0
230
1
0
LINE
5
75
100
AcDbEntity
8
1
62
256
6
ByLayer
370
18
48
1
60
0
100
AcDbLine
10
14.796923
20
19.792241
30
0
11
14.120577
21
19.611015
31
0
39
0
210
0
220
0
230
1
0
LINE
5
76
100
AcDbEntity
8
1
62
256
6
ByLayer
370
18
48
1
60
0
100
AcDbLine
10
20.175766
20
6.882781
30
0
11
20.237429
21
6.899304
31
0
39
0
210
0
220
0
230
1
0
LINE
5
77
100
AcDbEntity
8
1
62
256
6
ByLayer
370
18
48
1
60
0
100
AcDbLine
10
19.069704
20
11.452211
30
0
11
18.959319
21
11.422633
31
0
39
0
210
0
220
0
230
1
0
LINE
5
78
100
AcDbEntity
8
1
62
256
6
ByLayer
370
18
48
1
60
0
100
AcDbLine
10
20.29434
20
7.224184
30
0
11
20.919205
21
7.391616
31
0
39
0
210
0
220
0
230
1
0
LINE
5
79
100
AcDbEntity
8
1
62
256
6
ByLayer
370
18
48
1
60
0
100
AcDbLine
10
19.918308
20
11.369962
30
0
11
19.293443
21
11.20253
31
0
39
0
210
0
220
0
230
1
0
LINE
5
7A
100
AcDbEntity
8
1
62
256
6
ByLayer
370
18
48
1
60
0
100
AcDbLine
10
20.237847
20
1.859733
30
0
11
20.368087
21
1.937143
31
0
39
0
210
0
220
0
230
1
0
LINE
5
7B
100
AcDbEntity
8
1
62
256
6
ByLayer
370
18
48
1
60
0
100
AcDbLine
10
25.965287
20
5.230613
30
0
11
26.932689
21
3.565396
31
0
39
0
210
0
220
0
230
1
0
LINE
5
7C
100
AcDbEntity
8
1
62
256
6
ByLayer
370
18
48
1
60
0
100
AcDbLine
10
19.13411
20
1.211002
30
0
11
17.592683
21
-2.531649
31
0
39
0
210
0
220
0
230
1
0
LINE
5
7D
100
AcDbEntity
8
1
62
256
6
ByLayer
370
18
48
1
60
0
100
AcDbLine
10
20.237847
20
1.859733
30
0
11
20.234634
21
1.858618
31
0
39
0
210
0
220
0
230
1
0
LINE
5
7E
100
AcDbEntity
8
1
62
256
6
ByLayer
370
18
48
1
60
0
100
AcDbLine
10
17.433995
20
-2.479239
30
0
11
18.896199
21
1.071057
31
0
39
0
210
0
220
0
230
1
0
LINE
5
7F
100
AcDbEntity
8
1
62
256
6
ByLayer
370
18
48
1
60
0
100
AcDbLine
10
14.246295
20
7.722684
30
0
11
14.299506
21
1.178035
31
0
39
0
210
0
220
0
230
1
0
LINE
5
80
100
AcDbEntity
8
1
62
256
6
ByLayer
370
18
48
1
60
0
100
AcDbLine
10
14.160576
20
18.265575
30
0
11
2.789351
21
18.265575
31
0
39
0
210
0
220
0
230
1
0
LINE
5
81
100
AcDbEntity
8
1
62
256
6
ByLayer
370
18
48
1
60
0
100
AcDbLine
10
13.742031
20
-0.175538
30
0
11
14.299506
21
1.178035
31
0
39
0
210
0
220
0
230
1
0
LINE
5
82
100
AcDbEntity
8
1
62
256
6
ByLayer
370
18
48
1
60
0
100
AcDbLine
10
2.789351
20
18.265575
30
0
11
2.23692
21
16.203872
31
0
39
0
210
0
220
0
230
1
0
LINE
5
83
100
AcDbEntity
8
1
62
256
6
ByLayer
370
18
48
1
60
0
100
AcDbLine
10
1.545481
20
13.62339
30
0
11
1.545481
21
-12.442674
31
0
39
0
210
0
220
0
230
1
0
LINE
5
84
100
AcDbEntity
8
1
62
256
6
ByLayer
370
18
48
1
60
0
100
AcDbLine
10
5.147258
20
-12.456922
30
0
11
2.521433
21
-12.458567
31
0
39
0
210
0
220
0
230
1
0
LINE
5
85
100
AcDbEntity
8
1
62
256
6
ByLayer
370
18
48
1
60
0
100
AcDbLine
10
0
20
-12.4375
30
0
11
0
21
12.4375
31
0
39
0
210
0
220
0
230
1
0
LINE
5
86
100
AcDbEntity
8
1
62
256
6
ByLayer
370
18
48
1
60
0
100
AcDbLine
10
14.058123
20
12.604806
30
0
11
14.09061
21
8.609039
31
0
39
0
210
0
220
0
230
1
0
LINE
5
87
100
AcDbEntity
8
1
62
256
6
ByLayer
370
18
48
1
60
0
100
AcDbLine
10
20.237847
20
1.859733
30
0
11
18.558062
21
-2.218857
31
0
39
0
210
0
220
0
230
1
0
LINE
5
88
100
AcDbEntity
8
1
62
256
6
ByLayer
370
18
48
1
60
0
100
AcDbLine
10
1.545481
20
-12.442674
30
0
11
2.521433
21
-12.458567
31
0
39
0
210
0
220
0
230
1
0
LINE
5
89
100
AcDbEntity
8
1
62
256
6
ByLayer
370
18
48
1
60
0
100
AcDbLine
10
26.932689
20
3.565396
30
0
11
18.111943
21
-9.327659
31
0
39
0
210
0
220
0
230
1
0
LINE
5
8A
100
AcDbEntity
8
1
62
256
6
ByLayer
370
18
48
1
60
0
100
AcDbLine
10
2.521433
20
-12.458567
30
0
11
2.23692
21
16.203872
31
0
39
0
210
0
220
0
230
1
0
LINE
5
8B
100
AcDbEntity
8
1
62
256
6
ByLayer
370
18
48
1
60
0
100
AcDbLine
10
14.160576
20
18.265575
30
0
11
14.199388
21
13.491984
31
0
39
0
210
0
220
0
230
1
0
LINE
5
8C
100
AcDbEntity
8
1
62
256
6
ByLayer
370
18
48
1
60
0
100
AcDbLine
10
18.111943
20
-9.327659
30
0
11
5.147258
21
-12.456922
31
0
39
0
210
0
220
0
230
1
0
LINE
5
8D
100
AcDbEntity
8
1
62
256
6
ByLayer
370
18
48
1
60
0
100
AcDbLine
10
18.558062
20
-2.218857
30
0
11
17.592683
21
-2.531649
31
0
39
0
210
0
220
0
230
1
0
LINE
5
8E
100
AcDbEntity
8
1
62
256
6
ByLayer
370
18
48
1
60
0
100
AcDbLine
10
1.545481
20
13.62339
30
0
11
2.23692
21
16.203872
31
0
39
0
210
0
220
0
230
1
0
LINE
5
8F
100
AcDbEntity
8
SK1
62
256
6
ByLayer
370
18
48
1
60
0
100
AcDbLine
10
0
20
-12.4375
30
0
11
0
21
12.4375
31
0
39
0
210
0
220
0
230
1
0
LINE
5
91
100
AcDbEntity
8
SK1
62
256
6
ByLayer
370
18
48
1
60
0
100
AcDbLine
10
-118.984498
20
-12.4375
30
0
11
0
21
-12.4375
31
0
39
0
210
0
220
0
230
1
0
LINE
5
92
100
AcDbEntity
8
SK1
62
256
6
ByLayer
370
18
48
1
60
0
100
AcDbLine
10
-118.984498
20
12.4375
30
0
11
-118.984498
21
-12.4375
31
0
39
0
210
0
220
0
230
1
0
LINE
5
93
100
AcDbEntity
8
SK1
62
256
6
ByLayer
370
18
48
1
60
0
100
AcDbLine
10
-118.984498
20
12.4375
30
0
11
0
21
12.4375
31
0
39
0
210
0
220
0
230
1
0
LINE
5
94
100
AcDbEntity
8
1
62
256
6
ByLayer
370
18
48
1
60
0
100
AcDbLine
10
18.095223
20
9.505635
30
0
11
18.028902
21
9.487864
31
0
39
0
210
0
220
0
230
1
0
LINE
5
95
100
AcDbEntity
8
1
62
256
6
ByLayer
370
18
48
1
60
0
100
AcDbLine
10
18.552626
20
7.871167
30
0
11
18.628346
21
7.891456
31
0
39
0
210
0
220
0
230
1
0
LINE
5
96
100
AcDbEntity
8
1
62
256
6
ByLayer
370
18
48
1
60
0
100
AcDbLine
10
19.305968
20
7.208533
30
0
11
19.295103
21
7.205622
31
0
39
0
210
0
220
0
230
1
0
LINE
5
97
100
AcDbEntity
8
1
62
256
6
ByLayer
370
18
48
1
60
0
100
AcDbLine
10
7.998603
20
6.875333
30
0
11
8.482864
21
7.00509
31
0
39
0
210
0
220
0
230
1
0
LINE
5
98
100
AcDbEntity
8
1
62
256
6
ByLayer
370
18
48
1
60
0
100
AcDbLine
10
8.474235
20
7.002777
30
0
11
8.842696
21
6.671319
31
0
39
0
210
0
220
0
230
1
0
LINE
5
99
100
AcDbEntity
8
1
62
256
6
ByLayer
370
18
48
1
60
0
100
AcDbLine
10
13.696713
20
-0.391267
30
0
11
13.695936
21
-0.295701
31
0
39
0
210
0
220
0
230
1
0
LINE
5
9A
100
AcDbEntity
8
1
62
256
6
ByLayer
370
18
48
1
60
0
100
AcDbLine
10
13.545025
20
18.265433
30
0
11
13.540336
21
18.842135
31
0
39
0
210
0
220
0
230
1
0
LINE
5
9B
100
AcDbEntity
8
80
62
256
6
ByLayer
370
18
48
1
60
0
100
AcDbLine
10
0
20
0
30
0
11
-5
21
0
31
0
39
0
210
0
220
0
230
1
0
LINE
5
9C
100
AcDbEntity
8
81
62
256
6
ByLayer
370
18
48
1
60
0
100
AcDbLine
10
31.015502
20
9.5625
30
0
11
41.015502
21
9.5625
31
0
39
0
210
0
220
0
230
1
0
LINE
5
9D
100
AcDbEntity
8
1
62
256
6
ByLayer
370
18
48
1
60
0
100
AcDbLine
10
15.389615
20
19.713533
30
0
11
31.967052
21
10.142546
31
0
39
0
210
0
220
0
230
1
0
LINE
5
9E
100
AcDbEntity
8
1
62
256
6
ByLayer
370
18
48
1
60
0
100
AcDbLine
10
13.696713
20
-0.391267
30
0
11
14.373058
21
-0.210041
31
0
39
0
210
0
220
0
230
1
0
LINE
5
9F
100
AcDbEntity
8
1
62
256
6
ByLayer
370
18
48
1
60
0
100
AcDbLine
10
31.978221
20
8.768731
30
0
11
15.557161
21
-0.893683
31
0
39
0
210
0
220
0
230
1
0
LINE
5
A0
100
AcDbEntity
8
1
62
256
6
ByLayer
370
18
48
1
60
0
100
AcDbLine
10
14.373058
20
-0.210041
30
0
11
14.216682
21
19.023361
31
0
39
0
210
0
220
0
230
1
0
LINE
5
A1
100
AcDbEntity
8
1
62
256
6
ByLayer
370
18
48
1
60
0
100
AcDbLine
10
13.540336
20
18.842135
30
0
11
14.216682
21
19.023361
31
0
39
0
210
0
220
0
230
1
0
LINE
5
A2
100
AcDbEntity
8
1
62
256
6
ByLayer
370
18
48
1
60
0
100
AcDbLine
10
8.896805
20
3.980227
30
0
11
9.398327
21
4.146569
31
0
39
0
210
0
220
0
230
1
0
LINE
5
A3
100
AcDbEntity
8
1
62
256
6
ByLayer
370
18
48
1
60
0
100
AcDbLine
10
9.349063
20
6.215805
30
0
11
9.744898
21
5.859722
31
0
39
0
210
0
220
0
230
1
0
LINE
5
A4
100
AcDbEntity
8
1
62
256
6
ByLayer
370
18
48
1
60
0
100
AcDbLine
10
9.504014
20
4.668994
30
0
11
9.398327
21
4.146569
31
0
39
0
210
0
220
0
230
1
0
LINE
5
A5
100
AcDbEntity
8
1
62
256
6
ByLayer
370
18
48
1
60
0
100
AcDbLine
10
8.792767
20
3.911466
30
0
11
8.255241
21
3.767437
31
0
39
0
210
0
220
0
230
1
0
LINE
5
A6
100
AcDbEntity
8
1
62
256
6
ByLayer
370
18
48
1
60
0
100
AcDbLine
10
9.349063
20
6.215805
30
0
11
9.886589
21
6.359835
31
0
39
0
210
0
220
0
230
1
0
LINE
5
A7
100
AcDbEntity
8
1
62
256
6
ByLayer
370
18
48
1
60
0
100
AcDbLine
10
10.298551
20
6.008073
30
0
11
9.744898
21
5.859722
31
0
39
0
210
0
220
0
230
1
0
LINE
5
A8
100
AcDbEntity
8
1
62
256
6
ByLayer
370
18
48
1
60
0
100
AcDbLine
10
8.896805
20
3.980227
30
0
11
9.434331
21
4.124256
31
0
39
0
210
0
220
0
230
1
0
LINE
5
A9
100
AcDbEntity
8
1
62
256
6
ByLayer
370
18
48
1
60
0
100
AcDbLine
10
9.380222
20
6.815349
30
0
11
8.842696
21
6.671319
31
0
39
0
210
0
220
0
230
1
0
LINE
5
AA
100
AcDbEntity
8
1
62
256
6
ByLayer
370
18
48
1
60
0
100
AcDbLine
10
10.176738
20
5.481327
30
0
11
9.639212
21
5.337297
31
0
39
0
210
0
220
0
230
1
0
LINE
5
AB
100
AcDbEntity
8
1
62
256
6
ByLayer
370
18
48
1
60
0
100
AcDbLine
10
9.744898
20
5.859722
30
0
11
9.639212
21
5.337297
31
0
39
0
210
0
220
0
230
1
0
LINE
5
AC
100
AcDbEntity
8
1
62
256
6
ByLayer
370
18
48
1
60
0
100
AcDbLine
10
9.504014
20
4.668994
30
0
11
10.04154
21
4.813023
31
0
39
0
210
0
220
0
230
1
0
LINE
5
AD
100
AcDbEntity
8
1
62
256
6
ByLayer
370
18
48
1
60
0
100
AcDbLine
10
9.95198
20
4.294919
30
0
11
9.398327
21
4.146569
31
0
39
0
210
0
220
0
230
1
0
MTEXT
5
F3
100
AcDbEntity
8
SK6
62
256
6
ByLayer
370
13
48
1
60
0
100
AcDbMText
10
-90.937631
20
-37.499425
30
0
210
0
220
0
230
1
1
\W0.7986;PTTNR 2525M 22
40
3.5
41
0
44
1.084337
50
0
71
7
72
5
7
iso_b_vert
0
DIMENSION
5
105
100
AcDbEntity
8
SK2
62
256
6
ByLayer
370
13
48
1
60
0
100
AcDbDimension
2
DimnDraft3D1
10
-128.734498
20
-12.4375
30
0
11
-128.734498
21
0.0625
31
0
70
32
71
5
72
1
41
1
210
0
220
0
230
1
3
Standard
100
AcDbAlignedDimension
13
-120.571998
23
12.5625
33
0
14
-120.571998
24
-12.4375
34
0
50
90
100
AcDbRotatedDimension
1001
ACAD
1000
DSTYLE
1002
{
1070
    74
1070
     0
1070
   279
1070
     0
1070
   172
1070
     1
1070
   173
1070
     1
1070
   340
1005
F4
1070
   271
1070
     1
1070
   272
1070
     2
1070
    77
1070
     1
1070
    73
1070
     0
1070
   171
1070
     3
1070
   274
1070
     4
1070
   177
1070
   150
1070
   176
1070
     9
1070
   178
1070
    43
1070
    78
1070
     8
1070
    48
1040
-0.005
1070
    41
1041
3.175
1070
   147
1041
2.25
1070
    42
1041
1.5875
1070
    44
1041
3.175
1070
   140
1041
4.5
1070
   343
1005
106
1070
   344
1005
106
1002
}
0
DIMENSION
5
11B
100
AcDbEntity
8
2
62
256
6
ByLayer
370
13
48
1
60
0
100
AcDbDimension
2
DimnDraft3D2
10
48.865502
20
9.9125
30
0
11
48.865502
21
-1.2625
31
0
70
32
71
5
72
1
41
1
210
0
220
0
230
1
3
Standard
100
AcDbAlignedDimension
13
1.5875
23
-12.4375
33
0
14
33.953002
24
9.9125
34
0
50
90
100
AcDbRotatedDimension
1001
ACAD
1000
DSTYLE
1002
{
1070
    74
1070
     0
1070
   279
1070
     0
1070
   172
1070
     1
1070
   173
1070
     1
1070
   340
1005
F4
1070
   271
1070
     1
1070
   272
1070
     2
1070
    77
1070
     1
1070
    73
1070
     0
1070
   171
1070
     3
1070
   274
1070
     4
1070
   177
1070
   150
1070
   176
1070
     9
1070
   178
1070
    43
1070
    78
1070
     8
1070
    48
1040
-0.005
1070
    41
1041
3.175
1070
   147
1041
2.25
1070
    42
1041
1.5875
1070
    44
1041
3.175
1070
   140
1041
4.5
1070
   343
1005
106
1070
   344
1005
106
1002
}
0
DIMENSION
5
129
100
AcDbEntity
8
SK2
62
256
6
ByLayer
370
13
48
1
60
0
100
AcDbDimension
2
DimnDraft3D3
10
32.365502
20
35.765575
30
0
11
-43.309498
21
35.765575
31
0
70
32
71
5
72
1
41
1
210
0
220
0
230
1
3
Standard
100
AcDbAlignedDimension
13
-118.984498
23
14.15
33
0
14
32.365502
24
11.5
34
0
50
0
100
AcDbRotatedDimension
1001
ACAD
1000
DSTYLE
1002
{
1070
   279
1070
     0
1070
   172
1070
     1
1070
   173
1070
     1
1070
   340
1005
F4
1070
   271
1070
     1
1070
   272
1070
     2
1070
    77
1070
     1
1070
    73
1070
     0
1070
   171
1070
     3
1070
   274
1070
     4
1070
   177
1070
   150
1070
   176
1070
     9
1070
   178
1070
    43
1070
    78
1070
     8
1070
    48
1040
-0.005
1070
    41
1041
3.175
1070
   147
1041
2.25
1070
    42
1041
1.5875
1070
    44
1041
3.175
1070
   140
1041
4.5
1070
   343
1005
106
1070
   344
1005
106
1002
}
0
DIMENSION
5
136
100
AcDbEntity
8
2
62
256
6
ByLayer
370
13
48
1
60
0
100
AcDbDimension
2
DimnDraft3D4
10
9.968627
20
22.507864
30
0
11
20.949182
21
29.350668
31
0
70
34
71
5
72
1
41
1
210
0
220
0
230
1
3
Standard
100
AcDb2LineAngularDimension
13
32.365502
23
9.9125
33
0
14
32.365502
24
8.325
34
0
15
31.968627
25
9.806158
35
0
16
23.199182
26
25.453553
36
0
40
0
0
ENDSEC
0
SECTION
2
OBJECTS
0
DICTIONARY
5
1a0
330
0
100
AcDbDictionary
280
0
281
1
3
ACAD_GROUP
350
1a1
3
ACAD_MLINESTYLE
350
1a2
0
DICTIONARY
5
1a1
330
0
100
AcDbDictionary
280
0
281
1
0
DICTIONARY
5
1a2
330
0
100
AcDbDictionary
280
0
281
1
3
Standard
350
18
0
MLINESTYLE
5
18
330
1a2
100
AcDbMlineStyle
2
Standard
70
0
3

62
256
51
90
52
90
71
2
49
-0.5
62
256
6
ByLayer
49
0.5
62
256
6
ByLayer
0
RASTERVARIABLES
5
18f
330

100
AcDbRasterVariables
90
0
70
1
71
1
72
1
0
ENDSEC
0
EOF
