0
SECTION
2
HEADER
9
$ACADVER
1
AC1015
9
$DWGCODEPAGE
3
ANSI_1252
9
$HANDSEED
5
1ad
9
$ANGBASE
50
0
9
$ANGDIR
70
0
9
$ATTMODE
70
1
9
$AUNITS
70
0
9
$AUPREC
70
0
9
$CECOLOR
62
256
9
$CELTSCALE
40
1
9
$CELTYPE
6
ByLayer
9
$CELWEIGHT
370
18
9
$CLAYER
8
0
9
$CMLJUST
70
0
9
$CMLSCALE
40
1
9
$CMLSTYLE
2
Standard
9
$DIMSTYLE
2
Standard
9
$TEXTSIZE
40
0.2
9
$TEXTSTYLE
7
Standard
9
$LUNITS
70
2
9
$LUPREC
70
4
9
$EXTNAMES
290
1
9
$INSUNITS
70
4
9
$LTSCALE
40
1
9
$LWDISPLAY
290
1
9
$PDMODE
70
0
9
$PDSIZE
40
0
9
$PLINEGEN
70
0
0
ENDSEC
0
SECTION
2
CLASSES
0
CLASS
1
RASTERVARIABLES
2
AcDbRasterVariables
3
ISM
90
0
280
0
281
0
0
ENDSEC
0
SECTION
2
TABLES
0
TABLE
2
VPORT
5
1a3
100
AcDbSymbolTable
0
VPORT
5
1
100
AcDbSymbolTableRecord
100
AcDbViewportTableRecord
2
*Active
70
0
10
0
20
0
11
1
21
1
12
-1
22
1
13
0
23
0
14
0.5
24
0.5
15
10
25
10
16
0
26
0
36
1
17
0
27
0
37
0
0
ENDTAB
0
TABLE
2
LTYPE
5
1a4
100
AcDbSymbolTable
0
LTYPE
5
14
100
AcDbSymbolTableRecord
100
AcDbLinetypeTableRecord
70
0
2
ByBlock
3

72
65
73
0
40
0
0
LTYPE
5
15
100
AcDbSymbolTableRecord
100
AcDbLinetypeTableRecord
70
0
2
ByLayer
3

72
65
73
0
40
0
0
LTYPE
5
16
100
AcDbSymbolTableRecord
100
AcDbLinetypeTableRecord
70
0
2
CONTINUOUS
3
Solid line
72
65
73
0
40
0
0
LTYPE
5
6A
100
AcDbSymbolTableRecord
100
AcDbLinetypeTableRecord
70
0
2
CENTER
3
____ _ ____ _ ____ _ ____
72
65
73
4
40
47.5
49
22
74
0
49
-8.5
74
0
49
8.5
74
0
49
-8.5
74
0
0
LTYPE
5
6B
100
AcDbSymbolTableRecord
100
AcDbLinetypeTableRecord
70
0
2
DASHED
3
__ __ __ __ __ __ __ __ __
72
65
73
2
40
25.72
49
12.86
74
0
49
-12.86
74
0
0
ENDTAB
0
TABLE
2
LAYER
5
1a5
100
AcDbSymbolTable
0
LAYER
5
10
100
AcDbSymbolTableRecord
100
AcDbLayerTableRecord
2
0
70
0
62
7
6
CONTINUOUS
290
1
370
-3
390
0
0
LAYER
5
6D
100
AcDbSymbolTableRecord
100
AcDbLayerTableRecord
2
80
70
0
62
-6
6
CONTINUOUS
290
1
370
-3
390
0
0
LAYER
5
6F
100
AcDbSymbolTableRecord
100
AcDbLayerTableRecord
2
81
70
0
62
-3
6
CONTINUOUS
290
1
370
-3
390
0
0
LAYER
5
71
100
AcDbSymbolTableRecord
100
AcDbLayerTableRecord
2
1
70
0
62
4
6
CONTINUOUS
290
1
370
-3
390
0
0
LAYER
5
10F
100
AcDbSymbolTableRecord
100
AcDbLayerTableRecord
2
2
70
0
62
7
6
CONTINUOUS
290
1
370
-3
390
0
0
LAYER
5
190
100
AcDbSymbolTableRecord
100
AcDbLayerTableRecord
2
SK1
70
0
62
4
6
CONTINUOUS
290
1
370
-3
390
0
0
LAYER
5
191
100
AcDbSymbolTableRecord
100
AcDbLayerTableRecord
2
SK6
70
0
62
5
6
CONTINUOUS
290
1
370
-3
390
0
0
LAYER
5
192
100
AcDbSymbolTableRecord
100
AcDbLayerTableRecord
2
SK2
70
0
62
7
6
CONTINUOUS
290
1
370
-3
390
0
0
ENDTAB
0
TABLE
2
STYLE
5
1a6
100
AcDbSymbolTable
0
STYLE
5
11
100
AcDbSymbolTableRecord
100
AcDbTextStyleTableRecord
2
Standard
3
txt
70
0
71
0
40
0
41
1
42
0
50
0
0
STYLE
5
F4
100
AcDbSymbolTableRecord
100
AcDbTextStyleTableRecord
2
iso_b_vert
3
simplex.shx
70
0
71
0
40
0
41
1
42
0
50
0
0
STYLE
5
F5
100
AcDbSymbolTableRecord
100
AcDbTextStyleTableRecord
2
DWGDirectTextStyle
3
simplex
70
0
71
0
40
0
41
1
42
0
50
0
0
ENDTAB
0
TABLE
2
DIMSTYLE
5
1a7
100
AcDbSymbolTable
100
AcDbDimStyleTable
0
DIMSTYLE
105
27
100
AcDbSymbolTableRecord
100
AcDbDimStyleTableRecord
2
Standard
70
0
3
<>
41
0.18
42
0.0625
44
0.18
140
0.18
147
0.09
73
0
74
0
77
1
271
2
275
0
278
52
280
0
340
11
0
ENDTAB
0
TABLE
2
VIEW
5
1a8
100
AcDbSymbolTable
0
ENDTAB
0
TABLE
2
UCS
5
1a9
100
AcDbSymbolTable
0
ENDTAB
0
TABLE
2
APPID
5
1aa
100
AcDbSymbolTable
0
APPID
5
12
100
AcDbSymbolTableRecord
100
AcDbRegAppTableRecord
2
ACAD
70
0
0
ENDTAB
0
TABLE
2
BLOCK_RECORD
5
1ab
100
AcDbSymbolTable
0
BLOCK_RECORD
5
1F
100
AcDbSymbolTableRecord
100
AcDbBlockTableRecord
2
*Model_Space
340
0
70
0
0
BLOCK_RECORD
5
1B
100
AcDbSymbolTableRecord
100
AcDbBlockTableRecord
2
*Paper_Space
340
0
70
0
0
BLOCK_RECORD
5
23
100
AcDbSymbolTableRecord
100
AcDbBlockTableRecord
2
*Paper_Space0
340
0
70
0
0
BLOCK_RECORD
5
F7
100
AcDbSymbolTableRecord
100
AcDbBlockTableRecord
2
DimnDraft3D1
340
0
70
0
0
BLOCK_RECORD
5
106
100
AcDbSymbolTableRecord
100
AcDbBlockTableRecord
2
_CLOSED
340
0
70
0
0
BLOCK_RECORD
5
10D
100
AcDbSymbolTableRecord
100
AcDbBlockTableRecord
2
DimnDraft3D2
340
0
70
0
0
BLOCK_RECORD
5
11C
100
AcDbSymbolTableRecord
100
AcDbBlockTableRecord
2
DimnDraft3D3
340
0
70
0
0
BLOCK_RECORD
5
12A
100
AcDbSymbolTableRecord
100
AcDbBlockTableRecord
2
DimnDraft3D4
340
0
70
0
0
ENDTAB
0
ENDSEC
0
SECTION
2
BLOCKS
0
BLOCK
5
20
100
AcDbEntity
8
0
100
AcDbBlockBegin
2
*Model_Space
70
0
10
0
20
0
30
0
3
*Model_Space
0
ENDBLK
5
21
100
AcDbEntity
8
0
100
AcDbBlockEnd
0
BLOCK
5
1C
100
AcDbEntity
8
0
100
AcDbBlockBegin
2
*Paper_Space
70
0
10
0
20
0
30
0
3
*Paper_Space
0
ENDBLK
5
1D
100
AcDbEntity
8
0
100
AcDbBlockEnd
0
BLOCK
5
24
100
AcDbEntity
8
0
100
AcDbBlockBegin
2
*Paper_Space0
70
0
10
0
20
0
30
0
3
*Paper_Space0
0
ENDBLK
5
25
100
AcDbEntity
8
0
100
AcDbBlockEnd
0
BLOCK
5
103
100
AcDbEntity
8
0
100
AcDbBlockBegin
2
DimnDraft3D1
70
0
10
0
20
0
30
0
3
DimnDraft3D1
0
MTEXT
5
F8
100
AcDbEntity
8
SK2
62
256
6
ByLayer
370
13
48
1
60
0
100
AcDbMText
10
-132.205305
20
-1.500658
30
0
210
0
220
0
230
1
1
\W0.6740;25
40
4.5
41
0
44
1.084337
50
90
71
7
72
5
7
iso_b_vert
0
LINE
5
FA
100
AcDbEntity
8
SK2
62
256
6
ByLayer
370
13
48
1
60
0
100
AcDbLine
10
-122.917805
20
12.5625
30
0
11
-134.255305
21
12.5625
31
0
39
0
210
0
220
0
230
1
0
LINE
5
FB
100
AcDbEntity
8
SK2
62
256
6
ByLayer
370
13
48
1
60
0
100
AcDbLine
10
-122.917805
20
-12.4375
30
0
11
-134.255305
21
-12.4375
31
0
39
0
210
0
220
0
230
1
0
LINE
5
FC
100
AcDbEntity
8
SK2
62
256
6
ByLayer
370
13
48
1
60
0
100
AcDbLine
10
-131.080305
20
12.5625
30
0
11
-131.080305
21
-12.4375
31
0
39
0
210
0
220
0
230
1
0
LINE
5
FD
100
AcDbEntity
8
SK2
62
256
6
ByLayer
370
13
48
1
60
0
100
AcDbLine
10
-131.080305
20
12.5625
30
0
11
-130.229566
21
9.387503
31
0
39
0
210
0
220
0
230
1
0
LINE
5
FE
100
AcDbEntity
8
SK2
62
256
6
ByLayer
370
13
48
1
60
0
100
AcDbLine
10
-131.080305
20
12.5625
30
0
11
-131.931043
21
9.387497
31
0
39
0
210
0
220
0
230
1
0
LINE
5
FF
100
AcDbEntity
8
SK2
62
256
6
ByLayer
370
13
48
1
60
0
100
AcDbLine
10
-130.229566
20
9.387503
30
0
11
-131.931043
21
9.387497
31
0
39
0
210
0
220
0
230
1
0
LINE
5
100
100
AcDbEntity
8
SK2
62
256
6
ByLayer
370
13
48
1
60
0
100
AcDbLine
10
-131.080305
20
-12.4375
30
0
11
-131.931043
21
-9.262503
31
0
39
0
210
0
220
0
230
1
0
LINE
5
101
100
AcDbEntity
8
SK2
62
256
6
ByLayer
370
13
48
1
60
0
100
AcDbLine
10
-131.080305
20
-12.4375
30
0
11
-130.229566
21
-9.262497
31
0
39
0
210
0
220
0
230
1
0
LINE
5
102
100
AcDbEntity
8
SK2
62
256
6
ByLayer
370
13
48
1
60
0
100
AcDbLine
10
-131.931043
20
-9.262503
30
0
11
-130.229566
21
-9.262497
31
0
39
0
210
0
220
0
230
1
0
ENDBLK
5
104
100
AcDbEntity
8
0
100
AcDbBlockEnd
0
BLOCK
5
107
100
AcDbEntity
8
0
100
AcDbBlockBegin
2
_CLOSED
70
0
10
0
20
0
30
0
3
_CLOSED
0
LINE
5
109
100
AcDbEntity
8
0
62
256
6
ByLayer
370
-2
48
1
60
0
100
AcDbLine
10
-1
20
0.166667
30
0
11
0
21
0
31
0
39
0
210
0
220
0
230
1
0
LINE
5
10A
100
AcDbEntity
8
0
62
256
6
ByLayer
370
-2
48
1
60
0
100
AcDbLine
10
0
20
0
30
0
11
-1
21
-0.166667
31
0
39
0
210
0
220
0
230
1
0
LINE
5
10B
100
AcDbEntity
8
0
62
256
6
ByLayer
370
-2
48
1
60
0
100
AcDbLine
10
-1
20
0.166667
30
0
11
-1
21
-0.166667
31
0
39
0
210
0
220
0
230
1
0
LINE
5
10C
100
AcDbEntity
8
0
62
256
6
ByLayer
370
-2
48
1
60
0
100
AcDbLine
10
0
20
0
30
0
11
-1
21
0
31
0
39
0
210
0
220
0
230
1
0
ENDBLK
5
108
100
AcDbEntity
8
0
100
AcDbBlockEnd
0
BLOCK
5
119
100
AcDbEntity
8
0
100
AcDbBlockBegin
2
DimnDraft3D2
70
0
10
0
20
0
30
0
3
DimnDraft3D2
0
MTEXT
5
10E
100
AcDbEntity
8
2
62
256
6
ByLayer
370
13
48
1
60
0
100
AcDbMText
10
45.394695
20
2.174342
30
0
210
0
220
0
230
1
1
\W0.6740;32
40
4.5
41
0
44
1.084337
50
90
71
7
72
5
7
iso_b_vert
0
LINE
5
110
100
AcDbEntity
8
2
62
256
6
ByLayer
370
13
48
1
60
0
100
AcDbLine
10
1.5875
20
-12.4375
30
0
11
49.694695
21
-12.4375
31
0
39
0
210
0
220
0
230
1
0
LINE
5
111
100
AcDbEntity
8
2
62
256
6
ByLayer
370
13
48
1
60
0
100
AcDbLine
10
31.607195
20
19.9125
30
0
11
49.694695
21
19.9125
31
0
39
0
210
0
220
0
230
1
0
LINE
5
112
100
AcDbEntity
8
2
62
256
6
ByLayer
370
13
48
1
60
0
100
AcDbLine
10
46.519695
20
-12.4375
30
0
11
46.519695
21
19.9125
31
0
39
0
210
0
220
0
230
1
0
LINE
5
113
100
AcDbEntity
8
2
62
256
6
ByLayer
370
13
48
1
60
0
100
AcDbLine
10
46.519695
20
-12.4375
30
0
11
45.668957
21
-9.262503
31
0
39
0
210
0
220
0
230
1
0
LINE
5
114
100
AcDbEntity
8
2
62
256
6
ByLayer
370
13
48
1
60
0
100
AcDbLine
10
46.519695
20
-12.4375
30
0
11
47.370434
21
-9.262497
31
0
39
0
210
0
220
0
230
1
0
LINE
5
115
100
AcDbEntity
8
2
62
256
6
ByLayer
370
13
48
1
60
0
100
AcDbLine
10
45.668957
20
-9.262503
30
0
11
47.370434
21
-9.262497
31
0
39
0
210
0
220
0
230
1
0
LINE
5
116
100
AcDbEntity
8
2
62
256
6
ByLayer
370
13
48
1
60
0
100
AcDbLine
10
46.519695
20
19.9125
30
0
11
47.370434
21
16.737503
31
0
39
0
210
0
220
0
230
1
0
LINE
5
117
100
AcDbEntity
8
2
62
256
6
ByLayer
370
13
48
1
60
0
100
AcDbLine
10
46.519695
20
19.9125
30
0
11
45.668957
21
16.737497
31
0
39
0
210
0
220
0
230
1
0
LINE
5
118
100
AcDbEntity
8
2
62
256
6
ByLayer
370
13
48
1
60
0
100
AcDbLine
10
47.370434
20
16.737503
30
0
11
45.668957
21
16.737497
31
0
39
0
210
0
220
0
230
1
0
ENDBLK
5
11A
100
AcDbEntity
8
0
100
AcDbBlockEnd
0
BLOCK
5
127
100
AcDbEntity
8
0
100
AcDbBlockBegin
2
DimnDraft3D3
70
0
10
0
20
0
30
0
3
DimnDraft3D3
0
MTEXT
5
11D
100
AcDbEntity
8
SK2
62
256
6
ByLayer
370
13
48
1
60
0
100
AcDbMText
10
-48.337541
20
38.5375
30
0
210
0
220
0
230
1
1
\W0.6217;150
40
4.5
41
0
44
1.084337
50
0
71
7
72
5
7
iso_b_vert
0
LINE
5
11E
100
AcDbEntity
8
SK2
62
256
6
ByLayer
370
13
48
1
60
0
100
AcDbLine
10
-121.330305
20
14.15
30
0
11
-121.330305
21
40.5875
31
0
39
0
210
0
220
0
230
1
0
LINE
5
11F
100
AcDbEntity
8
SK2
62
256
6
ByLayer
370
13
48
1
60
0
100
AcDbLine
10
30.019695
20
21.5
30
0
11
30.019695
21
40.5875
31
0
39
0
210
0
220
0
230
1
0
LINE
5
120
100
AcDbEntity
8
SK2
62
256
6
ByLayer
370
13
48
1
60
0
100
AcDbLine
10
-121.330305
20
37.4125
30
0
11
30.019695
21
37.4125
31
0
39
0
210
0
220
0
230
1
0
LINE
5
121
100
AcDbEntity
8
SK2
62
256
6
ByLayer
370
13
48
1
60
0
100
AcDbLine
10
-121.330305
20
37.4125
30
0
11
-118.155308
21
38.263239
31
0
39
0
210
0
220
0
230
1
0
LINE
5
122
100
AcDbEntity
8
SK2
62
256
6
ByLayer
370
13
48
1
60
0
100
AcDbLine
10
-121.330305
20
37.4125
30
0
11
-118.155301
21
36.561761
31
0
39
0
210
0
220
0
230
1
0
LINE
5
123
100
AcDbEntity
8
SK2
62
256
6
ByLayer
370
13
48
1
60
0
100
AcDbLine
10
-118.155308
20
38.263239
30
0
11
-118.155301
21
36.561761
31
0
39
0
210
0
220
0
230
1
0
LINE
5
124
100
AcDbEntity
8
SK2
62
256
6
ByLayer
370
13
48
1
60
0
100
AcDbLine
10
30.019695
20
37.4125
30
0
11
26.844699
21
36.561761
31
0
39
0
210
0
220
0
230
1
0
LINE
5
125
100
AcDbEntity
8
SK2
62
256
6
ByLayer
370
13
48
1
60
0
100
AcDbLine
10
30.019695
20
37.4125
30
0
11
26.844692
21
38.263239
31
0
39
0
210
0
220
0
230
1
0
LINE
5
126
100
AcDbEntity
8
SK2
62
256
6
ByLayer
370
13
48
1
60
0
100
AcDbLine
10
26.844699
20
36.561761
30
0
11
26.844692
21
38.263239
31
0
39
0
210
0
220
0
230
1
0
ENDBLK
5
128
100
AcDbEntity
8
0
100
AcDbBlockEnd
0
BLOCK
5
134
100
AcDbEntity
8
0
100
AcDbBlockBegin
2
DimnDraft3D4
70
0
10
0
20
0
30
0
3
DimnDraft3D4
0
MTEXT
5
12B
100
AcDbEntity
8
2
62
256
6
ByLayer
370
13
48
1
60
0
100
AcDbMText
10
16.891326
20
25.949891
30
0
210
0
220
0
230
1
1
\W0.7582;91%%d0'
40
4.5
41
0
44
1.084337
50
45.5
71
7
72
5
7
iso_b_vert
0
LINE
5
12C
100
AcDbEntity
8
2
62
256
6
ByLayer
370
13
48
1
60
0
100
AcDbLine
10
30.019695
20
21.5
30
0
11
30.019695
21
35.562159
31
0
39
0
210
0
220
0
230
1
0
ARC
5
12D
100
AcDbEntity
8
2
62
256
6
ByLayer
370
13
48
1
60
0
100
AcDbCircle
39
0
10
30.019695
20
19.926476
30
0
40
12.4606831964037
210
0
220
0
230
1
100
AcDbArc
50
90
51
181
0
LINE
5
12E
100
AcDbEntity
8
2
62
256
6
ByLayer
370
13
48
1
60
0
100
AcDbLine
10
30.019695
20
32.387159
30
0
11
26.904935
21
31.337097
31
0
39
0
210
0
220
0
230
1
0
LINE
5
12F
100
AcDbEntity
8
2
62
256
6
ByLayer
370
13
48
1
60
0
100
AcDbLine
10
30.019695
20
32.387159
30
0
11
26.797197
21
33.03516
31
0
39
0
210
0
220
0
230
1
0
LINE
5
130
100
AcDbEntity
8
2
62
256
6
ByLayer
370
13
48
1
60
0
100
AcDbLine
10
26.904935
20
31.337097
30
0
11
26.797197
21
33.03516
31
0
39
0
210
0
220
0
230
1
0
LINE
5
131
100
AcDbEntity
8
2
62
256
6
ByLayer
370
13
48
1
60
0
100
AcDbLine
10
17.56091
20
19.709007
30
0
11
16.856767
21
22.919699
31
0
39
0
210
0
220
0
230
1
0
LINE
5
132
100
AcDbEntity
8
2
62
256
6
ByLayer
370
13
48
1
60
0
100
AcDbLine
10
17.56091
20
19.709007
30
0
11
18.556452
21
22.841625
31
0
39
0
210
0
220
0
230
1
0
LINE
5
133
100
AcDbEntity
8
2
62
256
6
ByLayer
370
13
48
1
60
0
100
AcDbLine
10
16.856767
20
22.919699
30
0
11
18.556452
21
22.841625
31
0
39
0
210
0
220
0
230
1
0
ENDBLK
5
135
100
AcDbEntity
8
0
100
AcDbBlockEnd
0
ENDSEC
0
SECTION
2
ENTITIES
0
ARC
5
AE
100
AcDbEntity
8
1
62
256
6
ByLayer
370
18
48
1
60
0
100
AcDbCircle
39
0
10
0
20
14.0375
30
0
40
1.60000000000038
210
0
220
0
230
-1
100
AcDbArc
50
195
51
270
0
ELLIPSE
5
AF
100
AcDbEntity
8
1
62
256
6
ByLayer
370
18
48
1
60
0
100
AcDbEllipse
10
23.266452
20
1.624185
30
0
11
-0.148307392766096
21
-0.0224703638360142
31
0
210
0
220
0
230
1
40
0.089883
41
1.4537063946325
42
3.03613883155017
0
ELLIPSE
5
B0
100
AcDbEntity
8
1
62
256
6
ByLayer
370
18
48
1
60
0
100
AcDbEllipse
10
20.739783
20
1.268807
30
0
11
1.95601449753062
21
-1.88890124362527
31
0
210
0
220
0
230
1
40
0.989133
41
0.281574154364259
42
0.913034419558604
0
ELLIPSE
5
B1
100
AcDbEntity
8
1
62
256
6
ByLayer
370
18
48
1
60
0
100
AcDbEllipse
10
21.490274
20
2.045963
30
0
11
1.89450449980889
21
-1.82950172928699
31
0
210
0
220
0
230
1
40
0.989133
41
-2.22855823403118
42
0.913034419558604
0
ELLIPSE
5
B2
100
AcDbEntity
8
1
62
256
6
ByLayer
370
18
48
1
60
0
100
AcDbEllipse
10
0
20
-12.444481
30
0
11
1.60000000000029
21
1.61702248813207E-15
31
0
210
0
220
0
230
-1
40
0.004363
41
-1.5707963267949
42
-0.261799387798856
0
ELLIPSE
5
B3
100
AcDbEntity
8
1
62
256
6
ByLayer
370
18
48
1
60
0
100
AcDbEllipse
10
20.724285
20
1.252758
30
0
11
-1.8481208322423
21
1.78470954218354
31
0
210
0
220
0
230
1
40
0.989133
41
-2.98254037894903
42
-2.22855823403119
0
ELLIPSE
5
B4
100
AcDbEntity
8
1
62
256
6
ByLayer
370
18
48
1
60
0
100
AcDbEllipse
10
14.875592
20
14.181978
30
0
11
-1.94221746091433
21
1.87557760023932
31
0
210
0
220
0
230
1
40
0.989133
41
0.979563989077924
42
1.3144601475173
0
ELLIPSE
5
B5
100
AcDbEntity
8
1
62
256
6
ByLayer
370
18
48
1
60
0
100
AcDbEllipse
10
16.961411
20
10.773669
30
0
11
-1.94221746091433
21
1.87557760023932
31
0
210
0
220
0
230
1
40
0.989133
41
1.3144601475173
42
1.64935630595668
0
ELLIPSE
5
B6
100
AcDbEntity
8
1
62
256
6
ByLayer
370
18
48
1
60
0
100
AcDbEllipse
10
19.668642
20
12.487461
30
0
11
-1.87028348088047
21
1.80611176319342
31
0
210
0
220
0
230
1
40
0.989133
41
-2.61521822317366E-06
42
0.397108112912777
0
ELLIPSE
5
B7
100
AcDbEntity
8
1
62
256
6
ByLayer
370
18
48
1
60
0
100
AcDbEllipse
10
18.835011
20
13.205077
30
0
11
-1.87028348088047
21
1.80611176319342
31
0
210
0
220
0
230
1
40
0.989133
41
2.78936731112345
42
-3.14158775909852
0
ELLIPSE
5
B8
100
AcDbEntity
8
1
62
256
6
ByLayer
370
18
48
1
60
0
100
AcDbEllipse
10
19.562063
20
13.196647
30
0
11
1.69044853079581
21
-1.63244717057867
31
0
210
0
220
0
230
1
40
0.989133
41
-0.709228362397198
42
-0.677859577252267
0
ELLIPSE
5
B9
100
AcDbEntity
8
1
62
256
6
ByLayer
370
18
48
1
60
0
100
AcDbEllipse
10
19.412197
20
13.041456
30
0
11
1.69044853079581
21
-1.63244717057867
31
0
210
0
220
0
230
1
40
0.989133
41
-0.339439479697339
42
-0.208276817418973
0
ELLIPSE
5
BA
100
AcDbEntity
8
1
62
256
6
ByLayer
370
18
48
1
60
0
100
AcDbEllipse
10
18.55733
20
12.127097
30
0
11
2.05011843096513
21
-1.97977635580817
31
0
210
0
220
0
230
1
40
0.989133
41
2.46650622409501
42
2.66020862132218
0
ELLIPSE
5
BB
100
AcDbEntity
8
1
62
256
6
ByLayer
370
18
48
1
60
0
100
AcDbEllipse
10
18.55733
20
12.127097
30
0
11
2.05011843096513
21
-1.97977635580817
31
0
210
0
220
0
230
1
40
0.989133
41
0.481362341111431
42
0.740111313474799
0
ELLIPSE
5
BC
100
AcDbEntity
8
1
62
256
6
ByLayer
370
18
48
1
60
0
100
AcDbEllipse
10
11.134511
20
3.375669
30
0
11
1.11857338952659
21
-1.08019376606376
31
0
210
0
220
0
230
1
40
0.989133
41
0.163641990250853
42
0.773405749980179
0
ELLIPSE
5
BD
100
AcDbEntity
8
1
62
256
6
ByLayer
370
18
48
1
60
0
100
AcDbEllipse
10
11.134511
20
3.375669
30
0
11
1.11857338952659
21
-1.08019376606376
31
0
210
0
220
0
230
1
40
0.989133
41
0.773405749980177
42
2.91086709783559
0
ELLIPSE
5
BE
100
AcDbEntity
8
1
62
256
6
ByLayer
370
18
48
1
60
0
100
AcDbEllipse
10
18.74372
20
12.32011
30
0
11
-1.99616794593973
21
1.92767697802374
31
0
210
0
220
0
230
1
40
0.989133
41
-2.72659297477469
42
-2.36851174375153
0
ELLIPSE
5
BF
100
AcDbEntity
8
1
62
256
6
ByLayer
370
18
48
1
60
0
100
AcDbEllipse
10
18.74372
20
12.32011
30
0
11
-1.99616794593973
21
1.92767697802374
31
0
210
0
220
0
230
1
40
0.989133
41
-0.764224556949607
42
-0.414991410983637
0
ELLIPSE
5
C0
100
AcDbEntity
8
1
62
256
6
ByLayer
370
18
48
1
60
0
100
AcDbEllipse
10
19.644608
20
1.87974
30
0
11
0.570975966518798
21
-0.55138508155184
31
0
210
0
220
0
230
1
40
0.989133
41
-1.8271325060725
42
-1.83589365264924E-06
0
ELLIPSE
5
C1
100
AcDbEntity
8
1
62
256
6
ByLayer
370
18
48
1
60
0
100
AcDbEllipse
10
9.604633
20
18.285443
30
0
11
0.570975966518798
21
-0.551385081551839
31
0
210
0
220
0
230
1
40
0.989133
41
-3.14156227505829
42
-1.8271325060725
0
ELLIPSE
5
C2
100
AcDbEntity
8
1
62
256
6
ByLayer
370
18
48
1
60
0
100
AcDbEllipse
10
19.330978
20
12.928233
30
0
11
-1.85445800527302
21
1.79082927904332
31
0
210
0
220
0
230
1
40
0.989133
41
-3.00377032742204
42
-2.20079892988037
0
ELLIPSE
5
C3
100
AcDbEntity
8
1
62
256
6
ByLayer
370
18
48
1
60
0
100
AcDbEllipse
10
19.330978
20
12.928233
30
0
11
-1.85445800527302
21
1.79082927904332
31
0
210
0
220
0
230
1
40
0.989133
41
-0.892227171738652
42
-0.13775399533105
0
ELLIPSE
5
C4
100
AcDbEntity
8
1
62
256
6
ByLayer
370
18
48
1
60
0
100
AcDbEllipse
10
20.131011
20
2.383425
30
0
11
0.570975966518798
21
-0.55138508155184
31
0
210
0
220
0
230
1
40
0.989133
41
-1.82713250607247
42
0.267262596320702
0
ELLIPSE
5
C5
100
AcDbEntity
8
1
62
256
6
ByLayer
370
18
48
1
60
0
100
AcDbEllipse
10
29.230096
20
19.123202
30
0
11
0.570975966518798
21
-0.551385081551839
31
0
210
0
220
0
230
1
40
0.989133
41
0.267262596320713
42
2.3616576987139
0
ELLIPSE
5
C6
100
AcDbEntity
8
1
62
256
6
ByLayer
370
18
48
1
60
0
100
AcDbEllipse
10
10.091036
20
18.789128
30
0
11
0.570975966518798
21
-0.551385081551839
31
0
210
0
220
0
230
1
40
0.989133
41
2.36165769871391
42
-1.82713250607251
0
ELLIPSE
5
C7
100
AcDbEntity
8
1
62
256
6
ByLayer
370
18
48
1
60
0
100
AcDbEllipse
10
19.817381
20
13.431918
30
0
11
-1.85445800527302
21
1.79082927904332
31
0
210
0
220
0
230
1
40
0.989133
41
0
42
6.28318530717959
0
ELLIPSE
5
C8
100
AcDbEntity
8
1
62
256
6
ByLayer
370
18
48
1
60
0
100
AcDbEllipse
10
19.335457
20
13.723304
30
0
11
-1.51061358071115
21
1.45878257796391
31
0
210
0
220
0
230
1
40
0.989133
41
2.22112534940667
42
-2.10547917724392
0
ELLIPSE
5
C9
100
AcDbEntity
8
1
62
256
6
ByLayer
370
18
48
1
60
0
100
AcDbEllipse
10
20.169088
20
13.005688
30
0
11
-1.51061358071115
21
1.45878257796391
31
0
210
0
220
0
230
1
40
0.989133
41
-0.920467304183119
42
1.03611347634588
0
ELLIPSE
5
CA
100
AcDbEntity
8
1
62
256
6
ByLayer
370
18
48
1
60
0
100
AcDbEllipse
10
19.284391
20
13.670423
30
0
11
1.87028348088047
21
-1.80611176319342
31
0
210
0
220
0
230
1
40
0.989133
41
-0.944362940449339
42
1.0600091126121
0
ELLIPSE
5
CB
100
AcDbEntity
8
1
62
256
6
ByLayer
370
18
48
1
60
0
100
AcDbEllipse
10
20.118022
20
12.952808
30
0
11
1.87028348088047
21
-1.80611176319342
31
0
210
0
220
0
230
1
40
0.989133
41
2.19722971314046
42
-2.08158354097769
0
ELLIPSE
5
CC
100
AcDbEntity
8
1
62
256
6
ByLayer
370
18
48
1
60
0
100
AcDbEllipse
10
19.701206
20
13.311615
30
0
11
1.69044853079581
21
-1.63244717057867
31
0
210
0
220
0
230
1
40
0.989133
41
1.2585264227279
42
1.99871240302467
0
ELLIPSE
5
CD
100
AcDbEntity
8
1
62
256
6
ByLayer
370
18
48
1
60
0
100
AcDbEllipse
10
19.701206
20
13.311615
30
0
11
1.69044853079581
21
-1.63244717057867
31
0
210
0
220
0
230
1
40
0.989133
41
-1.88306623086191
42
-1.14288025056513
0
ELLIPSE
5
CE
100
AcDbEntity
8
1
62
256
6
ByLayer
370
18
48
1
60
0
100
AcDbEllipse
10
19.752272
20
13.364496
30
0
11
-1.33077863062649
21
1.28511798534916
31
0
210
0
220
0
230
1
40
0.989133
41
-1.85628702035546
42
-1.16965946107158
0
ELLIPSE
5
CF
100
AcDbEntity
8
1
62
256
6
ByLayer
370
18
48
1
60
0
100
AcDbEllipse
10
19.752272
20
13.364496
30
0
11
-1.33077863062649
21
1.28511798534916
31
0
210
0
220
0
230
1
40
0.989133
41
1.28530563323434
42
1.97193319251822
0
ELLIPSE
5
D0
100
AcDbEntity
8
1
62
256
6
ByLayer
370
18
48
1
60
0
100
AcDbEllipse
10
11.623212
20
3.881734
30
0
11
-1.11857338952659
21
1.08019376606375
31
0
210
0
220
0
230
1
40
0.989133
41
0.883491934672872
42
1.32654933988307
0
ELLIPSE
5
D1
100
AcDbEntity
8
1
62
256
6
ByLayer
370
18
48
1
60
0
100
AcDbEllipse
10
11.236643
20
3.48143
30
0
11
-1.11857338952659
21
1.08019376606375
31
0
210
0
220
0
230
1
40
0.989133
41
-0.767845762510132
42
-0.163705616523758
0
ELLIPSE
5
D2
100
AcDbEntity
8
1
62
256
6
ByLayer
370
18
48
1
60
0
100
AcDbEllipse
10
11.64517
20
3.904473
30
0
11
1.38644900217658
21
-1.33887823824443
31
0
210
0
220
0
230
1
40
0.989133
41
0
42
6.28318530717959
0
ELLIPSE
5
D3
100
AcDbEntity
8
1
62
256
6
ByLayer
370
18
48
1
60
0
100
AcDbEllipse
10
11.623212
20
3.881734
30
0
11
-1.11857338952659
21
1.08019376606375
31
0
210
0
220
0
230
1
40
0.989133
41
-0.163705616523746
42
0.279351788686474
0
ELLIPSE
5
D4
100
AcDbEntity
8
1
62
256
6
ByLayer
370
18
48
1
60
0
100
AcDbEllipse
10
11.623212
20
3.881734
30
0
11
-1.11857338952659
21
1.08019376606375
31
0
210
0
220
0
230
1
40
0.989133
41
-2.25810071891689
42
-1.81504331370671
0
ELLIPSE
5
D5
100
AcDbEntity
8
1
62
256
6
ByLayer
370
18
48
1
60
0
100
AcDbEllipse
10
11.64517
20
3.904473
30
0
11
2.3270642540955
21
-2.24721982843489
31
0
210
0
220
0
230
1
40
0.989133
41
0
42
6.28318530717959
0
ELLIPSE
5
D6
100
AcDbEntity
8
1
62
256
6
ByLayer
370
18
48
1
60
0
100
AcDbEllipse
10
11.623212
20
3.881734
30
0
11
-1.11857338952659
21
1.08019376606375
31
0
210
0
220
0
230
1
40
0.989133
41
2.9778870370661
42
-2.86224086490332
0
ELLIPSE
5
D7
100
AcDbEntity
8
1
62
256
6
ByLayer
370
18
48
1
60
0
100
AcDbEllipse
10
11.236643
20
3.48143
30
0
11
-1.11857338952659
21
1.08019376606375
31
0
210
0
220
0
230
1
40
0.989133
41
-1.81504331370673
42
-1.21090316772031
0
ELLIPSE
5
D8
100
AcDbEntity
8
1
62
256
6
ByLayer
370
18
48
1
60
0
100
AcDbEllipse
10
11.236643
20
3.48143
30
0
11
-1.11857338952659
21
1.08019376606375
31
0
210
0
220
0
230
1
40
0.989133
41
-2.86224086490331
42
-2.2581007189169
0
ELLIPSE
5
D9
100
AcDbEntity
8
1
62
256
6
ByLayer
370
18
48
1
60
0
100
AcDbEllipse
10
11.567039
20
3.823566
30
0
11
2.87735920135456
21
-2.77863348183603
31
0
210
0
220
0
230
1
40
0.989133
41
0
42
6.28318530717959
0
ELLIPSE
5
DA
100
AcDbEntity
8
1
62
256
6
ByLayer
370
18
48
1
60
0
100
AcDbEllipse
10
11.623212
20
3.881734
30
0
11
-1.11857338952659
21
1.08019376606375
31
0
210
0
220
0
230
1
40
0.989133
41
1.93068948586949
42
2.37374689107967
0
ELLIPSE
5
DB
100
AcDbEntity
8
1
62
256
6
ByLayer
370
18
48
1
60
0
100
AcDbEllipse
10
11.623212
20
3.881734
30
0
11
-1.11857338952659
21
1.08019376606375
31
0
210
0
220
0
230
1
40
0.989133
41
-1.21090316772031
42
-0.767845762510112
0
POINT
5
6C
100
AcDbEntity
8
80
62
256
6
ByLayer
370
18
48
1
60
0
100
AcDbPoint
10
0
20
0
30
0
39
0
210
0
220
0
230
1
50
360
0
POINT
5
6E
100
AcDbEntity
8
81
62
256
6
ByLayer
370
18
48
1
60
0
100
AcDbPoint
10
28.669695
20
19.5625
30
0
39
0
210
0
220
0
230
1
50
360
0
POINT
5
70
100
AcDbEntity
8
1
62
256
6
ByLayer
370
18
48
1
60
0
100
AcDbPoint
10
-121.330305
20
-12.4375
30
0
39
0
210
0
220
0
230
1
50
360
0
SPLINE
5
DC
100
AcDbEntity
8
1
62
256
6
ByLayer
370
18
48
1
60
0
100
AcDbSpline
70
4
71
3
72
8
73
4
40
0
40
0
40
0
40
0
40
1
40
1
40
1
40
1
41
1
10
19.8499764457528
20
10.8835356349034
30
0
41
1
10
19.8664898940063
20
10.8853812235571
30
0
41
1
10
19.872961737877
20
10.8835483566128
30
0
41
1
10
19.8661554292531
20
10.8765002177078
30
0
0
SPLINE
5
DD
100
AcDbEntity
8
1
62
256
6
ByLayer
370
18
48
1
60
0
100
AcDbSpline
70
4
71
3
72
18
73
14
40
0
40
0
40
0
40
0
40
0.122390377990258
40
0.122390377990258
40
0.268658648325215
40
0.268658648325215
40
0.414926918660172
40
0.414926918660172
40
0.707463459330086
40
0.707463459330086
40
0.853731729665043
40
0.853731729665043
40
1
40
1
40
1
40
1
41
1
10
18.551549401856
20
15.0351406625701
30
0
41
1
10
18.5036819409815
20
15.0216220847917
30
0
41
1
10
18.4562552631031
20
15.0066554614649
30
0
41
1
10
18.3531222731928
20
14.9706054460182
30
0
41
1
10
18.2976078428484
20
14.9488916975656
30
0
41
1
10
18.1878859652049
20
14.9011706591333
30
0
41
1
10
18.1336233946375
20
14.8751103991868
30
0
41
1
10
17.9754931811036
20
14.7917193500101
30
0
41
1
10
17.8753386163901
20
14.7288430997601
30
0
41
1
10
17.7328674613503
20
14.6237106054902
30
0
41
1
10
17.6866761864141
20
14.5868561501257
30
0
41
1
10
17.596938072641
20
14.5094538120068
30
0
41
1
10
17.5532110747811
20
14.4687167037652
30
0
41
1
10
17.5113761262647
20
14.4266049463022
30
0
0
SPLINE
5
DE
100
AcDbEntity
8
1
62
256
6
ByLayer
370
18
48
1
60
0
100
AcDbSpline
70
4
71
3
72
14
73
10
40
0
40
0
40
0
40
0
40
0.268664991379256
40
0.268664991379256
40
0.63433249568963
40
0.63433249568963
40
0.817166247844815
40
0.817166247844815
40
1
40
1
40
1
40
1
41
1
10
20.8238270288202
20
11.0911734168718
30
0
41
1
10
20.853292088638
20
11.1216970987624
30
0
41
1
10
20.8812767774877
20
11.1520223338099
30
0
41
1
10
20.9426737338515
20
11.2210194383528
30
0
41
1
10
20.9750307172557
20
11.2594963903804
30
0
41
1
10
21.0154085230294
20
11.3086520028997
30
0
41
1
10
21.0275097610606
20
11.3235914065321
30
0
41
1
10
21.0485464015008
20
11.3495226330811
30
0
41
1
10
21.0573950561645
20
11.3603975424502
30
0
41
1
10
21.0640626137437
20
11.368340596444
30
0
0
SPLINE
5
DF
100
AcDbEntity
8
1
62
256
6
ByLayer
370
18
48
1
60
0
100
AcDbSpline
70
4
71
3
72
12
73
8
40
0
40
0
40
0
40
0
40
0.348842320212459
40
0.348842320212459
40
0.697684640424917
40
0.697684640424917
40
1
40
1
40
1
40
1
41
1
10
21.0640626137437
20
11.368340596444
30
0
41
1
10
21.1340159534722
20
11.4628623318909
30
0
41
1
10
21.1969739273584
20
11.5628857678528
30
0
41
1
10
21.3084388581691
20
11.7743545684507
30
0
41
1
10
21.3558278375536
20
11.883820619556
30
0
41
1
10
21.4284545100681
20
12.092672634108
30
0
41
1
10
21.455949205695
20
12.1917367521372
30
0
41
1
10
21.477180235071
20
12.2929354368597
30
0
0
SPLINE
5
E0
100
AcDbEntity
8
1
62
256
6
ByLayer
370
18
48
1
60
0
100
AcDbSpline
70
4
71
3
72
8
73
4
40
0
40
0
40
0
40
0
40
1
40
1
40
1
40
1
41
1
10
20.7322331574087
20
11.0985450694256
30
0
41
1
10
20.6483590985593
20
11.0428989023023
30
0
41
1
10
20.5624058441477
20
10.9943940927267
30
0
41
1
10
20.4751930604831
20
10.9528322034078
30
0
0
SPLINE
5
E1
100
AcDbEntity
8
1
62
256
6
ByLayer
370
18
48
1
60
0
100
AcDbSpline
70
4
71
3
72
10
73
6
40
0
40
0
40
0
40
0
40
0.566826978607347
40
0.566826978607347
40
1
40
1
40
1
40
1
41
1
10
17.4795874700363
20
14.3940217523482
30
0
41
1
10
17.4686806391019
20
14.3827442389946
30
0
41
1
10
17.4563125661337
20
14.3698317593769
30
0
41
1
10
17.4328958321277
20
14.3449289641818
30
0
41
1
10
17.4221584022679
20
14.3333588792393
30
0
41
1
10
17.4110082185752
20
14.3211479695135
30
0
0
SPLINE
5
E2
100
AcDbEntity
8
1
62
256
6
ByLayer
370
18
48
1
60
0
100
AcDbSpline
70
4
71
3
72
8
73
4
40
0
40
0
40
0
40
0
40
1
40
1
40
1
40
1
41
1
10
17.6452496660398
20
12.221920939531
30
0
41
1
10
17.8160508144331
20
12.3022817416333
30
0
41
1
10
17.9868851944801
20
12.3827371179782
30
0
41
1
10
18.1577864944797
20
12.4633843418094
30
0
0
SPLINE
5
E3
100
AcDbEntity
8
1
62
256
6
ByLayer
370
18
48
1
60
0
100
AcDbSpline
70
4
71
3
72
8
73
4
40
0
40
0
40
0
40
0
40
1
40
1
40
1
40
1
41
1
10
21.0640626137436
20
11.3683405964441
30
0
41
1
10
20.9613155279211
20
11.266827460057
30
0
41
1
10
20.8503933640527
20
11.1769383497368
30
0
41
1
10
20.7322331574083
20
11.0985450694253
30
0
0
SPLINE
5
E4
100
AcDbEntity
8
1
62
256
6
ByLayer
370
18
48
1
60
0
100
AcDbSpline
70
4
71
3
72
8
73
4
40
0
40
0
40
0
40
0
40
1
40
1
40
1
40
1
41
1
10
20.4688242083649
20
15.5103524149798
30
0
41
1
10
20.4469866954348
20
15.3663596440531
30
0
41
1
10
20.4250457516177
20
15.2223022855004
30
0
41
1
10
20.4028947664535
20
15.0781142158326
30
0
0
SPLINE
5
E5
100
AcDbEntity
8
1
62
256
6
ByLayer
370
18
48
1
60
0
100
AcDbSpline
70
4
71
3
72
8
73
4
40
0
40
0
40
0
40
0
40
1
40
1
40
1
40
1
41
1
10
21.3467577932891
20
14.2656072140766
30
0
41
1
10
21.483642321019
20
14.3110290390453
30
0
41
1
10
21.6204271992665
20
14.3562251241071
30
0
41
1
10
21.7571627924398
20
14.4013100111231
30
0
0
SPLINE
5
E6
100
AcDbEntity
8
1
62
256
6
ByLayer
370
18
48
1
60
0
100
AcDbSpline
70
4
71
3
72
8
73
4
40
0
40
0
40
0
40
0
40
1
40
1
40
1
40
1
41
1
10
19.1016495213153
20
11.6508773400534
30
0
41
1
10
19.0454817638814
20
11.471463871523
30
0
41
1
10
18.9894913182648
20
11.2921472216874
30
0
41
1
10
18.9335882501146
20
11.1128785356743
30
0
0
SPLINE
5
E7
100
AcDbEntity
8
1
62
256
6
ByLayer
370
18
48
1
60
0
100
AcDbSpline
70
4
71
3
72
8
73
4
40
0
40
0
40
0
40
0
40
1
40
1
40
1
40
1
41
1
10
11.6857879285979
20
2.33612983569839
30
0
41
1
10
11.8666437775008
20
2.30396677519303
30
0
41
1
10
12.0443230665346
20
2.27454661416147
30
0
41
1
10
12.2200792818421
20
2.24678699098493
30
0
0
SPLINE
5
E8
100
AcDbEntity
8
1
62
256
6
ByLayer
370
18
48
1
60
0
100
AcDbSpline
70
4
71
3
72
8
73
4
40
0
40
0
40
0
40
0
40
1
40
1
40
1
40
1
41
1
10
11.5606354485678
20
5.42733813587517
30
0
41
1
10
11.3845062954522
20
5.46439583315225
30
0
41
1
10
11.2150137531215
20
5.50229361856623
30
0
41
1
10
11.0495389823291
20
5.54069998920775
30
0
0
SPLINE
5
E9
100
AcDbEntity
8
1
62
256
6
ByLayer
370
18
48
1
60
0
100
AcDbSpline
70
4
71
3
72
8
73
4
40
0
40
0
40
0
40
0
40
1
40
1
40
1
40
1
41
1
10
10.3159688008173
20
3.06937376420379
30
0
41
1
10
10.3792797457728
20
2.90031388864182
30
0
41
1
10
10.4426453259946
20
2.73776007291201
30
0
41
1
10
10.5060439821379
20
2.5791449938155
30
0
0
SPLINE
5
EA
100
AcDbEntity
8
1
62
256
6
ByLayer
370
18
48
1
60
0
100
AcDbSpline
70
4
71
3
72
10
73
6
40
0
40
0
40
0
40
0
40
0.5
40
0.5
40
1
40
1
40
1
40
1
41
1
10
13.3488444317898
20
3.56138548726579
30
0
41
1
10
13.3169641473999
20
3.64114575566453
30
0
41
1
10
13.2849063398301
20
3.72238695078451
30
0
41
1
10
13.2213973897898
20
3.88599891325265
30
0
41
1
10
13.1899193870121
20
3.96843372368167
30
0
41
1
10
13.1587692504691
20
4.05161425765411
30
0
0
SPLINE
5
EB
100
AcDbEntity
8
1
62
256
6
ByLayer
370
18
48
1
60
0
100
AcDbSpline
70
4
71
3
72
10
73
6
40
0
40
0
40
0
40
0
40
0.5
40
0.5
40
1
40
1
40
1
40
1
41
1
10
11.0495389823291
20
5.54069998920775
30
0
41
1
10
10.9907162720929
20
5.47252530835272
30
0
41
1
10
10.9315707694552
20
5.40394108470653
30
0
41
1
10
10.8124264276599
20
5.26568996688584
30
0
41
1
10
10.7528052262258
20
5.1964606498166
30
0
41
1
10
10.6937253669028
20
5.12780455922333
30
0
0
SPLINE
5
EC
100
AcDbEntity
8
1
62
256
6
ByLayer
370
18
48
1
60
0
100
AcDbSpline
70
4
71
3
72
10
73
6
40
0
40
0
40
0
40
0
40
0.5
40
0.5
40
1
40
1
40
1
40
1
41
1
10
13.3488444317898
20
3.56138548726579
30
0
41
1
10
13.2900217215537
20
3.49321080641076
30
0
41
1
10
13.2308762189159
20
3.42462658276457
30
0
41
1
10
13.1117318771205
20
3.28637546494389
30
0
41
1
10
13.0521106756865
20
3.21714614787461
30
0
41
1
10
12.9930308163635
20
3.14849005728135
30
0
0
SPLINE
5
ED
100
AcDbEntity
8
1
62
256
6
ByLayer
370
18
48
1
60
0
100
AcDbSpline
70
4
71
3
72
10
73
6
40
0
40
0
40
0
40
0
40
0.5
40
0.5
40
1
40
1
40
1
40
1
41
1
10
12.552698010263
20
2.63566341235023
30
0
41
1
10
12.4955901287303
20
2.56900234098555
30
0
41
1
10
12.4387823902992
20
2.50263233156957
30
0
41
1
10
12.3279426827905
20
2.37303746908901
30
0
41
1
10
12.2736015136835
20
2.30945212269575
30
0
41
1
10
12.2200792818421
20
2.24678699098493
30
0
0
SPLINE
5
EE
100
AcDbEntity
8
1
62
256
6
ByLayer
370
18
48
1
60
0
100
AcDbSpline
70
4
71
3
72
10
73
6
40
0
40
0
40
0
40
0
40
0.5
40
0.5
40
1
40
1
40
1
40
1
41
1
10
9.9207738323814
20
4.22610149292692
30
0
41
1
10
9.94748404858657
20
4.14098746219852
30
0
41
1
10
9.97488165372644
20
4.05492048619402
30
0
41
1
10
10.030544002818
20
3.88318313058306
30
0
41
1
10
10.0588296104595
20
3.79744249821692
30
0
41
1
10
10.0876541266966
20
3.71185371391948
30
0
0
SPLINE
5
EF
100
AcDbEntity
8
1
62
256
6
ByLayer
370
18
48
1
60
0
100
AcDbSpline
70
4
71
3
72
10
73
6
40
0
40
0
40
0
40
0
40
0.5
40
0.5
40
1
40
1
40
1
40
1
41
1
10
12.7635742820333
20
5.20834198637721
30
0
41
1
10
12.6751945202506
20
5.22230103117809
30
0
41
1
10
12.5858031908275
20
5.23676964599787
30
0
41
1
10
12.4073760193554
20
5.26654391769716
30
0
41
1
10
12.3182672962137
20
5.28186002027655
30
0
41
1
10
12.2292829287891
20
5.29768483109063
30
0
0
SPLINE
5
F0
100
AcDbEntity
8
1
62
256
6
ByLayer
370
18
48
1
60
0
100
AcDbSpline
70
4
71
3
72
10
73
6
40
0
40
0
40
0
40
0
40
0.5
40
0.5
40
1
40
1
40
1
40
1
41
1
10
10.5060439821379
20
2.5791449938155
30
0
41
1
10
10.5892536757359
20
2.55983218668496
30
0
41
1
10
10.6739848027291
20
2.54053779098067
30
0
41
1
10
10.8445653732523
20
2.50263812613852
30
0
41
1
10
10.9304817012579
20
2.48401620162207
30
0
41
1
10
11.0171404483767
20
2.46578314048293
30
0
0
SPLINE
5
F1
100
AcDbEntity
8
1
62
256
6
ByLayer
370
18
48
1
60
0
100
AcDbSpline
70
4
71
3
72
10
73
6
40
0
40
0
40
0
40
0
40
0.5
40
0.5
40
1
40
1
40
1
40
1
41
1
10
10.2533925608023
20
4.61497791429218
30
0
41
1
10
10.1962846792696
20
4.54831684292751
30
0
41
1
10
10.1394769408384
20
4.48194683351153
30
0
41
1
10
10.0286372333297
20
4.35235197103097
30
0
41
1
10
9.97429606422278
20
4.28876662463767
30
0
41
1
10
9.9207738323814
20
4.22610149292689
30
0
0
SPLINE
5
F2
100
AcDbEntity
8
1
62
256
6
ByLayer
370
18
48
1
60
0
100
AcDbSpline
70
4
71
3
72
8
73
4
40
0
40
0
40
0
40
0
40
1
40
1
40
1
40
1
41
1
10
12.9304545763484
20
4.69409420736974
30
0
41
1
10
12.8718703271802
20
4.86804871970347
30
0
41
1
10
12.8166914936615
20
5.03908015981568
30
0
41
1
10
12.7635742820333
20
5.20834198637721
30
0
0
LINE
5
72
100
AcDbEntity
8
1
62
256
6
ByLayer
370
18
48
1
60
0
100
AcDbLine
10
8.68968
20
6.602199
30
0
11
8.647137
21
6.558144
31
0
39
0
210
0
220
0
230
1
0
LINE
5
73
100
AcDbEntity
8
1
62
256
6
ByLayer
370
18
48
1
60
0
100
AcDbLine
10
14.401855
20
1.000877
30
0
11
14.444398
21
1.044932
31
0
39
0
210
0
220
0
230
1
0
LINE
5
74
100
AcDbEntity
8
1
62
256
6
ByLayer
370
18
48
1
60
0
100
AcDbLine
10
18.247738
20
14.758919
30
0
11
17.798358
21
14.293573
31
0
39
0
210
0
220
0
230
1
0
LINE
5
75
100
AcDbEntity
8
1
62
256
6
ByLayer
370
18
48
1
60
0
100
AcDbLine
10
9.52006
20
19.340513
30
0
11
9.033657
21
18.836828
31
0
39
0
210
0
220
0
230
1
0
LINE
5
76
100
AcDbEntity
8
1
62
256
6
ByLayer
370
18
48
1
60
0
100
AcDbLine
10
20.215584
20
1.328355
30
0
11
20.701987
21
1.83204
31
0
39
0
210
0
220
0
230
1
0
LINE
5
77
100
AcDbEntity
8
1
62
256
6
ByLayer
370
18
48
1
60
0
100
AcDbLine
10
20.779492
20
11.045256
30
0
11
20.823838
21
11.091177
31
0
39
0
210
0
220
0
230
1
0
LINE
5
78
100
AcDbEntity
8
1
62
256
6
ByLayer
370
18
48
1
60
0
100
AcDbLine
10
17.477982
20
14.392357
30
0
11
17.398597
21
14.310152
31
0
39
0
210
0
220
0
230
1
0
LINE
5
79
100
AcDbEntity
8
1
62
256
6
ByLayer
370
18
48
1
60
0
100
AcDbLine
10
20.705294
20
11.398965
30
0
11
21.154674
21
11.864312
31
0
39
0
210
0
220
0
230
1
0
LINE
5
7A
100
AcDbEntity
8
SK1
62
256
6
ByLayer
370
18
48
1
60
0
100
AcDbLine
10
0
20
-12.4375
30
0
11
0
21
12.4375
31
0
39
0
210
0
220
0
230
1
0
LINE
5
7C
100
AcDbEntity
8
SK1
62
256
6
ByLayer
370
18
48
1
60
0
100
AcDbLine
10
-121.330305
20
-12.4375
30
0
11
0
21
-12.4375
31
0
39
0
210
0
220
0
230
1
0
LINE
5
7D
100
AcDbEntity
8
SK1
62
256
6
ByLayer
370
18
48
1
60
0
100
AcDbLine
10
-121.330305
20
12.4375
30
0
11
0
21
12.4375
31
0
39
0
210
0
220
0
230
1
0
LINE
5
7E
100
AcDbEntity
8
SK1
62
256
6
ByLayer
370
18
48
1
60
0
100
AcDbLine
10
-121.330305
20
12.4375
30
0
11
-121.330305
21
-12.4375
31
0
39
0
210
0
220
0
230
1
0
LINE
5
7F
100
AcDbEntity
8
1
62
256
6
ByLayer
370
18
48
1
60
0
100
AcDbLine
10
1.545481
20
-12.442674
30
0
11
2.82272
21
-12.463473
31
0
39
0
210
0
220
0
230
1
0
LINE
5
80
100
AcDbEntity
8
1
62
256
6
ByLayer
370
18
48
1
60
0
100
AcDbLine
10
23.419767
20
6.771637
30
0
11
23.417587
21
6.769026
31
0
39
0
210
0
220
0
230
1
0
LINE
5
81
100
AcDbEntity
8
1
62
256
6
ByLayer
370
18
48
1
60
0
100
AcDbLine
10
2.626034
20
17.656066
30
0
11
9.714609
21
17.779798
31
0
39
0
210
0
220
0
230
1
0
LINE
5
82
100
AcDbEntity
8
1
62
256
6
ByLayer
370
18
48
1
60
0
100
AcDbLine
10
26.593009
20
12.610895
30
0
11
28.279885
21
11.681774
31
0
39
0
210
0
220
0
230
1
0
LINE
5
83
100
AcDbEntity
8
1
62
256
6
ByLayer
370
18
48
1
60
0
100
AcDbLine
10
2.82272
20
-12.463473
30
0
11
2.043628
21
15.482499
31
0
39
0
210
0
220
0
230
1
0
LINE
5
84
100
AcDbEntity
8
1
62
256
6
ByLayer
370
18
48
1
60
0
100
AcDbLine
10
18.900008
20
1.681476
30
0
11
18.680716
21
3.128835
31
0
39
0
210
0
220
0
230
1
0
LINE
5
85
100
AcDbEntity
8
1
62
256
6
ByLayer
370
18
48
1
60
0
100
AcDbLine
10
15.264361
20
8.711289
30
0
11
18.680716
21
3.128835
31
0
39
0
210
0
220
0
230
1
0
LINE
5
86
100
AcDbEntity
8
1
62
256
6
ByLayer
370
18
48
1
60
0
100
AcDbLine
10
23.419767
20
6.771637
30
0
11
23.491535
21
6.905068
31
0
39
0
210
0
220
0
230
1
0
LINE
5
87
100
AcDbEntity
8
1
62
256
6
ByLayer
370
18
48
1
60
0
100
AcDbLine
10
23.419767
20
6.771637
30
0
11
24.080539
21
2.410449
31
0
39
0
210
0
220
0
230
1
0
LINE
5
88
100
AcDbEntity
8
1
62
256
6
ByLayer
370
18
48
1
60
0
100
AcDbLine
10
5.163031
20
-12.462418
30
0
11
2.82272
21
-12.463473
31
0
39
0
210
0
220
0
230
1
0
LINE
5
89
100
AcDbEntity
8
1
62
256
6
ByLayer
370
18
48
1
60
0
100
AcDbLine
10
0
20
-12.4375
30
0
11
0
21
12.4375
31
0
39
0
210
0
220
0
230
1
0
LINE
5
8A
100
AcDbEntity
8
1
62
256
6
ByLayer
370
18
48
1
60
0
100
AcDbLine
10
22.807801
20
5.6471
30
0
11
23.414148
21
1.645127
31
0
39
0
210
0
220
0
230
1
0
LINE
5
8B
100
AcDbEntity
8
1
62
256
6
ByLayer
370
18
48
1
60
0
100
AcDbLine
10
23.251132
20
1.608321
30
0
11
22.675949
21
5.40461
31
0
39
0
210
0
220
0
230
1
0
LINE
5
8C
100
AcDbEntity
8
1
62
256
6
ByLayer
370
18
48
1
60
0
100
AcDbLine
10
1.545481
20
13.62339
30
0
11
2.043628
21
15.482499
31
0
39
0
210
0
220
0
230
1
0
LINE
5
8D
100
AcDbEntity
8
1
62
256
6
ByLayer
370
18
48
1
60
0
100
AcDbLine
10
1.545481
20
13.62339
30
0
11
1.545481
21
-12.442674
31
0
39
0
210
0
220
0
230
1
0
LINE
5
8E
100
AcDbEntity
8
1
62
256
6
ByLayer
370
18
48
1
60
0
100
AcDbLine
10
24.080539
20
2.410449
30
0
11
23.414148
21
1.645127
31
0
39
0
210
0
220
0
230
1
0
LINE
5
8F
100
AcDbEntity
8
1
62
256
6
ByLayer
370
18
48
1
60
0
100
AcDbLine
10
28.279885
20
11.681774
30
0
11
27.359445
21
-3.912751
31
0
39
0
210
0
220
0
230
1
0
LINE
5
90
100
AcDbEntity
8
1
62
256
6
ByLayer
370
18
48
1
60
0
100
AcDbLine
10
9.714609
20
17.779798
30
0
11
12.252745
21
13.632385
31
0
39
0
210
0
220
0
230
1
0
LINE
5
91
100
AcDbEntity
8
1
62
256
6
ByLayer
370
18
48
1
60
0
100
AcDbLine
10
2.626034
20
17.656066
30
0
11
2.043628
21
15.482499
31
0
39
0
210
0
220
0
230
1
0
LINE
5
92
100
AcDbEntity
8
1
62
256
6
ByLayer
370
18
48
1
60
0
100
AcDbLine
10
27.359445
20
-3.912751
30
0
11
5.163031
21
-12.462418
31
0
39
0
210
0
220
0
230
1
0
LINE
5
93
100
AcDbEntity
8
1
62
256
6
ByLayer
370
18
48
1
60
0
100
AcDbLine
10
12.588588
20
12.799169
30
0
11
14.674407
21
9.39086
31
0
39
0
210
0
220
0
230
1
0
LINE
5
94
100
AcDbEntity
8
1
62
256
6
ByLayer
370
18
48
1
60
0
100
AcDbLine
10
17.64525
20
12.221921
30
0
11
17.597554
21
12.172531
31
0
39
0
210
0
220
0
230
1
0
LINE
5
95
100
AcDbEntity
8
1
62
256
6
ByLayer
370
18
48
1
60
0
100
AcDbLine
10
18.879133
20
11.056488
30
0
11
18.933588
21
11.112879
31
0
39
0
210
0
220
0
230
1
0
LINE
5
96
100
AcDbEntity
8
1
62
256
6
ByLayer
370
18
48
1
60
0
100
AcDbLine
10
19.866155
20
10.8765
30
0
11
19.858342
21
10.868409
31
0
39
0
210
0
220
0
230
1
0
LINE
5
97
100
AcDbEntity
8
1
62
256
6
ByLayer
370
18
48
1
60
0
100
AcDbLine
10
10.345463
20
4.767168
30
0
11
10.693725
21
5.127805
31
0
39
0
210
0
220
0
230
1
0
LINE
5
98
100
AcDbEntity
8
1
62
256
6
ByLayer
370
18
48
1
60
0
100
AcDbLine
10
10.68752
20
5.121377
30
0
11
11.174066
21
5.027034
31
0
39
0
210
0
220
0
230
1
0
LINE
5
99
100
AcDbEntity
8
1
62
256
6
ByLayer
370
18
48
1
60
0
100
AcDbLine
10
18.972272
20
1.47322
30
0
11
18.922385
21
1.554735
31
0
39
0
210
0
220
0
230
1
0
LINE
5
9A
100
AcDbEntity
8
1
62
256
6
ByLayer
370
18
48
1
60
0
100
AcDbLine
10
9.000694
20
17.767159
30
0
11
8.932297
21
17.878923
31
0
39
0
210
0
220
0
230
1
0
LINE
5
9B
100
AcDbEntity
8
80
62
256
6
ByLayer
370
18
48
1
60
0
100
AcDbLine
10
0
20
0
30
0
11
-5
21
0
31
0
39
0
210
0
220
0
230
1
0
LINE
5
9C
100
AcDbEntity
8
81
62
256
6
ByLayer
370
18
48
1
60
0
100
AcDbLine
10
28.669695
20
19.5625
30
0
11
38.669695
21
19.5625
31
0
39
0
210
0
220
0
230
1
0
LINE
5
9D
100
AcDbEntity
8
1
62
256
6
ByLayer
370
18
48
1
60
0
100
AcDbLine
10
19.458674
20
1.976904
30
0
11
9.418699
21
18.382608
31
0
39
0
210
0
220
0
230
1
0
LINE
5
9E
100
AcDbEntity
8
1
62
256
6
ByLayer
370
18
48
1
60
0
100
AcDbLine
10
8.932297
20
17.878923
30
0
11
9.418699
21
18.382608
31
0
39
0
210
0
220
0
230
1
0
LINE
5
9F
100
AcDbEntity
8
1
62
256
6
ByLayer
370
18
48
1
60
0
100
AcDbLine
10
10.068634
20
19.578306
30
0
11
29.207694
21
19.91238
31
0
39
0
210
0
220
0
230
1
0
LINE
5
A0
100
AcDbEntity
8
1
62
256
6
ByLayer
370
18
48
1
60
0
100
AcDbLine
10
18.972272
20
1.47322
30
0
11
19.458674
21
1.976904
31
0
39
0
210
0
220
0
230
1
0
LINE
5
A1
100
AcDbEntity
8
1
62
256
6
ByLayer
370
18
48
1
60
0
100
AcDbLine
10
29.924835
20
18.740544
30
0
11
20.82575
21
2.000767
31
0
39
0
210
0
220
0
230
1
0
LINE
5
A2
100
AcDbEntity
8
1
62
256
6
ByLayer
370
18
48
1
60
0
100
AcDbLine
10
12.365408
20
4.796029
30
0
11
12.543886
21
4.29379
31
0
39
0
210
0
220
0
230
1
0
LINE
5
A3
100
AcDbEntity
8
1
62
256
6
ByLayer
370
18
48
1
60
0
100
AcDbLine
10
12.606462
20
2.748186
30
0
11
12.950678
21
3.149072
31
0
39
0
210
0
220
0
230
1
0
LINE
5
A4
100
AcDbEntity
8
1
62
256
6
ByLayer
370
18
48
1
60
0
100
AcDbLine
10
12.7722
20
3.65131
30
0
11
13.158769
21
4.051614
31
0
39
0
210
0
220
0
230
1
0
LINE
5
A5
100
AcDbEntity
8
1
62
256
6
ByLayer
370
18
48
1
60
0
100
AcDbLine
10
13.348844
20
3.561385
30
0
11
12.950678
21
3.149072
31
0
39
0
210
0
220
0
230
1
0
LINE
5
A6
100
AcDbEntity
8
1
62
256
6
ByLayer
370
18
48
1
60
0
100
AcDbLine
10
12.552698
20
2.635663
30
0
11
12.166129
21
2.23536
31
0
39
0
210
0
220
0
230
1
0
LINE
5
A7
100
AcDbEntity
8
1
62
256
6
ByLayer
370
18
48
1
60
0
100
AcDbLine
10
11.842714
20
4.897381
30
0
11
12.365408
21
4.796029
31
0
39
0
210
0
220
0
230
1
0
LINE
5
A8
100
AcDbEntity
8
1
62
256
6
ByLayer
370
18
48
1
60
0
100
AcDbLine
10
11.842714
20
4.897381
30
0
11
12.229283
21
5.297685
31
0
39
0
210
0
220
0
230
1
0
LINE
5
A9
100
AcDbEntity
8
1
62
256
6
ByLayer
370
18
48
1
60
0
100
AcDbLine
10
12.763574
20
5.208342
30
0
11
12.365408
21
4.796029
31
0
39
0
210
0
220
0
230
1
0
LINE
5
AA
100
AcDbEntity
8
1
62
256
6
ByLayer
370
18
48
1
60
0
100
AcDbLine
10
12.606462
20
2.748186
30
0
11
12.993031
21
3.14849
31
0
39
0
210
0
220
0
230
1
0
LINE
5
AB
100
AcDbEntity
8
1
62
256
6
ByLayer
370
18
48
1
60
0
100
AcDbLine
10
12.7722
20
3.65131
30
0
11
12.950678
21
3.149072
31
0
39
0
210
0
220
0
230
1
0
LINE
5
AC
100
AcDbEntity
8
1
62
256
6
ByLayer
370
18
48
1
60
0
100
AcDbLine
10
11.560635
20
5.427338
30
0
11
11.174066
21
5.027034
31
0
39
0
210
0
220
0
230
1
0
LINE
5
AD
100
AcDbEntity
8
1
62
256
6
ByLayer
370
18
48
1
60
0
100
AcDbLine
10
12.930455
20
4.694094
30
0
11
12.543886
21
4.29379
31
0
39
0
210
0
220
0
230
1
0
MTEXT
5
F3
100
AcDbEntity
8
SK6
62
256
6
ByLayer
370
13
48
1
60
0
100
AcDbMText
10
-93.283438
20
-37.499425
30
0
210
0
220
0
230
1
1
\W0.7845;PTGNR 2525M 22
40
3.5
41
0
44
1.084337
50
0
71
7
72
5
7
iso_b_vert
0
DIMENSION
5
105
100
AcDbEntity
8
SK2
62
256
6
ByLayer
370
13
48
1
60
0
100
AcDbDimension
2
DimnDraft3D1
10
-131.080305
20
-12.4375
30
0
11
-131.080305
21
0.0625
31
0
70
32
71
5
72
1
41
1
210
0
220
0
230
1
3
Standard
100
AcDbAlignedDimension
13
-122.917805
23
12.5625
33
0
14
-122.917805
24
-12.4375
34
0
50
90
100
AcDbRotatedDimension
1001
ACAD
1000
DSTYLE
1002
{
1070
    74
1070
     0
1070
   279
1070
     0
1070
   172
1070
     1
1070
   173
1070
     1
1070
   340
1005
F4
1070
   271
1070
     1
1070
   272
1070
     2
1070
    77
1070
     1
1070
    73
1070
     0
1070
   171
1070
     3
1070
   274
1070
     4
1070
   177
1070
   150
1070
   176
1070
     9
1070
   178
1070
    43
1070
    78
1070
     8
1070
    48
1040
-0.005
1070
    41
1041
3.175
1070
   147
1041
2.25
1070
    42
1041
1.5875
1070
    44
1041
3.175
1070
   140
1041
4.5
1070
   343
1005
106
1070
   344
1005
106
1002
}
0
DIMENSION
5
11B
100
AcDbEntity
8
2
62
256
6
ByLayer
370
13
48
1
60
0
100
AcDbDimension
2
DimnDraft3D2
10
46.519695
20
19.9125
30
0
11
46.519695
21
3.7375
31
0
70
32
71
5
72
1
41
1
210
0
220
0
230
1
3
Standard
100
AcDbAlignedDimension
13
1.5875
23
-12.4375
33
0
14
31.607195
24
19.9125
34
0
50
90
100
AcDbRotatedDimension
1001
ACAD
1000
DSTYLE
1002
{
1070
    74
1070
     0
1070
   279
1070
     0
1070
   172
1070
     1
1070
   173
1070
     1
1070
   340
1005
F4
1070
   271
1070
     1
1070
   272
1070
     2
1070
    77
1070
     1
1070
    73
1070
     0
1070
   171
1070
     3
1070
   274
1070
     4
1070
   177
1070
   150
1070
   176
1070
     9
1070
   178
1070
    43
1070
    78
1070
     8
1070
    48
1040
-0.005
1070
    41
1041
3.175
1070
   147
1041
2.25
1070
    42
1041
1.5875
1070
    44
1041
3.175
1070
   140
1041
4.5
1070
   343
1005
106
1070
   344
1005
106
1002
}
0
DIMENSION
5
129
100
AcDbEntity
8
SK2
62
256
6
ByLayer
370
13
48
1
60
0
100
AcDbDimension
2
DimnDraft3D3
10
30.019695
20
37.4125
30
0
11
-45.655305
21
37.4125
31
0
70
32
71
5
72
1
41
1
210
0
220
0
230
1
3
Standard
100
AcDbAlignedDimension
13
-121.330305
23
14.15
33
0
14
30.019695
24
21.5
34
0
50
0
100
AcDbRotatedDimension
1001
ACAD
1000
DSTYLE
1002
{
1070
   279
1070
     0
1070
   172
1070
     1
1070
   173
1070
     1
1070
   340
1005
F4
1070
   271
1070
     1
1070
   272
1070
     2
1070
    77
1070
     1
1070
    73
1070
     0
1070
   171
1070
     3
1070
   274
1070
     4
1070
   177
1070
   150
1070
   176
1070
     9
1070
   178
1070
    43
1070
    78
1070
     8
1070
    48
1040
-0.005
1070
    41
1041
3.175
1070
   147
1041
2.25
1070
    42
1041
1.5875
1070
    44
1041
3.175
1070
   140
1041
4.5
1070
   343
1005
106
1070
   344
1005
106
1002
}
0
DIMENSION
5
136
100
AcDbEntity
8
2
62
256
6
ByLayer
370
13
48
1
60
0
100
AcDbDimension
2
DimnDraft3D4
10
7.212093
20
19.528368
30
0
11
17.922481
21
31.814376
31
0
70
34
71
5
72
1
41
1
210
0
220
0
230
1
3
Standard
100
AcDb2LineAngularDimension
13
30.019695
23
19.9125
33
0
14
30.019695
24
18.325
34
0
15
29.212093
25
19.912379
35
0
16
21.132108
26
28.660284
36
0
40
0
0
ENDSEC
0
SECTION
2
OBJECTS
0
DICTIONARY
5
1a0
330
0
100
AcDbDictionary
280
0
281
1
3
ACAD_GROUP
350
1a1
3
ACAD_MLINESTYLE
350
1a2
0
DICTIONARY
5
1a1
330
0
100
AcDbDictionary
280
0
281
1
0
DICTIONARY
5
1a2
330
0
100
AcDbDictionary
280
0
281
1
3
Standard
350
18
0
MLINESTYLE
5
18
330
1a2
100
AcDbMlineStyle
2
Standard
70
0
3

62
256
51
90
52
90
71
2
49
-0.5
62
256
6
ByLayer
49
0.5
62
256
6
ByLayer
0
RASTERVARIABLES
5
18f
330

100
AcDbRasterVariables
90
0
70
1
71
1
72
1
0
ENDSEC
0
EOF
