0
SECTION
2
HEADER
9
$ACADVER
1
AC1015
9
$DWGCODEPAGE
3
ANSI_1252
9
$HANDSEED
5
19d
9
$ANGBASE
50
0
9
$ANGDIR
70
0
9
$ATTMODE
70
1
9
$AUNITS
70
0
9
$AUPREC
70
0
9
$CECOLOR
62
256
9
$CELTSCALE
40
1
9
$CELTYPE
6
ByLayer
9
$CELWEIGHT
370
18
9
$CLAYER
8
0
9
$CMLJUST
70
0
9
$CMLSCALE
40
1
9
$CMLSTYLE
2
Standard
9
$DIMSTYLE
2
Standard
9
$TEXTSIZE
40
0.2
9
$TEXTSTYLE
7
Standard
9
$LUNITS
70
2
9
$LUPREC
70
4
9
$EXTNAMES
290
1
9
$INSUNITS
70
4
9
$LTSCALE
40
1
9
$LWDISPLAY
290
1
9
$PDMODE
70
0
9
$PDSIZE
40
0
9
$PLINEGEN
70
0
0
ENDSEC
0
SECTION
2
CLASSES
0
CLASS
1
RASTERVARIABLES
2
AcDbRasterVariables
3
ISM
90
0
280
0
281
0
0
ENDSEC
0
SECTION
2
TABLES
0
TABLE
2
VPORT
5
193
100
AcDbSymbolTable
0
VPORT
5
1
100
AcDbSymbolTableRecord
100
AcDbViewportTableRecord
2
*Active
70
0
10
0
20
0
11
1
21
1
12
-1
22
1
13
0
23
0
14
0.5
24
0.5
15
10
25
10
16
0
26
0
36
1
17
0
27
0
37
0
0
ENDTAB
0
TABLE
2
LTYPE
5
194
100
AcDbSymbolTable
0
LTYPE
5
14
100
AcDbSymbolTableRecord
100
AcDbLinetypeTableRecord
70
0
2
ByBlock
3

72
65
73
0
40
0
0
LTYPE
5
15
100
AcDbSymbolTableRecord
100
AcDbLinetypeTableRecord
70
0
2
ByLayer
3

72
65
73
0
40
0
0
LTYPE
5
16
100
AcDbSymbolTableRecord
100
AcDbLinetypeTableRecord
70
0
2
CONTINUOUS
3
Solid line
72
65
73
0
40
0
0
LTYPE
5
6A
100
AcDbSymbolTableRecord
100
AcDbLinetypeTableRecord
70
0
2
CENTER
3
____ _ ____ _ ____ _ ____
72
65
73
4
40
47.5
49
22
74
0
49
-8.5
74
0
49
8.5
74
0
49
-8.5
74
0
0
LTYPE
5
6B
100
AcDbSymbolTableRecord
100
AcDbLinetypeTableRecord
70
0
2
DASHED
3
__ __ __ __ __ __ __ __ __
72
65
73
2
40
25.72
49
12.86
74
0
49
-12.86
74
0
0
ENDTAB
0
TABLE
2
LAYER
5
195
100
AcDbSymbolTable
0
LAYER
5
10
100
AcDbSymbolTableRecord
100
AcDbLayerTableRecord
2
0
70
0
62
7
6
CONTINUOUS
290
1
370
-3
390
0
0
LAYER
5
6D
100
AcDbSymbolTableRecord
100
AcDbLayerTableRecord
2
80
70
0
62
-6
6
CONTINUOUS
290
1
370
-3
390
0
0
LAYER
5
6F
100
AcDbSymbolTableRecord
100
AcDbLayerTableRecord
2
81
70
0
62
-3
6
CONTINUOUS
290
1
370
-3
390
0
0
LAYER
5
71
100
AcDbSymbolTableRecord
100
AcDbLayerTableRecord
2
1
70
0
62
4
6
CONTINUOUS
290
1
370
-3
390
0
0
LAYER
5
73
100
AcDbSymbolTableRecord
100
AcDbLayerTableRecord
2
2
70
0
62
7
6
CONTINUOUS
290
1
370
-3
390
0
0
LAYER
5
180
100
AcDbSymbolTableRecord
100
AcDbLayerTableRecord
2
SK1
70
0
62
4
6
CONTINUOUS
290
1
370
-3
390
0
0
LAYER
5
181
100
AcDbSymbolTableRecord
100
AcDbLayerTableRecord
2
SK6
70
0
62
5
6
CONTINUOUS
290
1
370
-3
390
0
0
LAYER
5
182
100
AcDbSymbolTableRecord
100
AcDbLayerTableRecord
2
SK2
70
0
62
7
6
CONTINUOUS
290
1
370
-3
390
0
0
ENDTAB
0
TABLE
2
STYLE
5
196
100
AcDbSymbolTable
0
STYLE
5
11
100
AcDbSymbolTableRecord
100
AcDbTextStyleTableRecord
2
Standard
3
txt
70
0
71
0
40
0
41
1
42
0
50
0
0
STYLE
5
E5
100
AcDbSymbolTableRecord
100
AcDbTextStyleTableRecord
2
iso_b_vert
3
simplex.shx
70
0
71
0
40
0
41
1
42
0
50
0
0
STYLE
5
E6
100
AcDbSymbolTableRecord
100
AcDbTextStyleTableRecord
2
DWGDirectTextStyle
3
simplex
70
0
71
0
40
0
41
1
42
0
50
0
0
ENDTAB
0
TABLE
2
DIMSTYLE
5
197
100
AcDbSymbolTable
100
AcDbDimStyleTable
0
DIMSTYLE
105
27
100
AcDbSymbolTableRecord
100
AcDbDimStyleTableRecord
2
Standard
70
0
3
<>
41
0.18
42
0.0625
44
0.18
140
0.18
147
0.09
73
0
74
0
77
1
271
2
275
0
278
52
280
0
340
11
0
ENDTAB
0
TABLE
2
VIEW
5
198
100
AcDbSymbolTable
0
ENDTAB
0
TABLE
2
UCS
5
199
100
AcDbSymbolTable
0
ENDTAB
0
TABLE
2
APPID
5
19a
100
AcDbSymbolTable
0
APPID
5
12
100
AcDbSymbolTableRecord
100
AcDbRegAppTableRecord
2
ACAD
70
0
0
ENDTAB
0
TABLE
2
BLOCK_RECORD
5
19b
100
AcDbSymbolTable
0
BLOCK_RECORD
5
1F
100
AcDbSymbolTableRecord
100
AcDbBlockTableRecord
2
*Model_Space
340
0
70
0
0
BLOCK_RECORD
5
1B
100
AcDbSymbolTableRecord
100
AcDbBlockTableRecord
2
*Paper_Space
340
0
70
0
0
BLOCK_RECORD
5
23
100
AcDbSymbolTableRecord
100
AcDbBlockTableRecord
2
*Paper_Space0
340
0
70
0
0
BLOCK_RECORD
5
E8
100
AcDbSymbolTableRecord
100
AcDbBlockTableRecord
2
DimnDraft3D1
340
0
70
0
0
BLOCK_RECORD
5
F7
100
AcDbSymbolTableRecord
100
AcDbBlockTableRecord
2
_CLOSED
340
0
70
0
0
BLOCK_RECORD
5
FE
100
AcDbSymbolTableRecord
100
AcDbBlockTableRecord
2
DimnDraft3D2
340
0
70
0
0
BLOCK_RECORD
5
10C
100
AcDbSymbolTableRecord
100
AcDbBlockTableRecord
2
DimnDraft3D3
340
0
70
0
0
BLOCK_RECORD
5
11A
100
AcDbSymbolTableRecord
100
AcDbBlockTableRecord
2
DimnDraft3D4
340
0
70
0
0
ENDTAB
0
ENDSEC
0
SECTION
2
BLOCKS
0
BLOCK
5
20
100
AcDbEntity
8
0
100
AcDbBlockBegin
2
*Model_Space
70
0
10
0
20
0
30
0
3
*Model_Space
0
ENDBLK
5
21
100
AcDbEntity
8
0
100
AcDbBlockEnd
0
BLOCK
5
1C
100
AcDbEntity
8
0
100
AcDbBlockBegin
2
*Paper_Space
70
0
10
0
20
0
30
0
3
*Paper_Space
0
ENDBLK
5
1D
100
AcDbEntity
8
0
100
AcDbBlockEnd
0
BLOCK
5
24
100
AcDbEntity
8
0
100
AcDbBlockBegin
2
*Paper_Space0
70
0
10
0
20
0
30
0
3
*Paper_Space0
0
ENDBLK
5
25
100
AcDbEntity
8
0
100
AcDbBlockEnd
0
BLOCK
5
F4
100
AcDbEntity
8
0
100
AcDbBlockBegin
2
DimnDraft3D1
70
0
10
0
20
0
30
0
3
DimnDraft3D1
0
MTEXT
5
E9
100
AcDbEntity
8
SK2
62
256
6
ByLayer
370
13
48
1
60
0
100
AcDbMText
10
-113.344794
20
-1.500658
30
0
210
0
220
0
230
1
1
\W0.6740;20
40
4.5
41
0
44
1.084337
50
90
71
7
72
5
7
iso_b_vert
0
LINE
5
EB
100
AcDbEntity
8
SK2
62
256
6
ByLayer
370
13
48
1
60
0
100
AcDbLine
10
-104.057294
20
10.0625
30
0
11
-115.394794
21
10.0625
31
0
39
0
210
0
220
0
230
1
0
LINE
5
EC
100
AcDbEntity
8
SK2
62
256
6
ByLayer
370
13
48
1
60
0
100
AcDbLine
10
-104.057294
20
-9.9375
30
0
11
-115.394794
21
-9.9375
31
0
39
0
210
0
220
0
230
1
0
LINE
5
ED
100
AcDbEntity
8
SK2
62
256
6
ByLayer
370
13
48
1
60
0
100
AcDbLine
10
-112.219794
20
10.0625
30
0
11
-112.219794
21
-9.9375
31
0
39
0
210
0
220
0
230
1
0
LINE
5
EE
100
AcDbEntity
8
SK2
62
256
6
ByLayer
370
13
48
1
60
0
100
AcDbLine
10
-112.219794
20
10.0625
30
0
11
-111.369056
21
6.887503
31
0
39
0
210
0
220
0
230
1
0
LINE
5
EF
100
AcDbEntity
8
SK2
62
256
6
ByLayer
370
13
48
1
60
0
100
AcDbLine
10
-112.219794
20
10.0625
30
0
11
-113.070533
21
6.887497
31
0
39
0
210
0
220
0
230
1
0
LINE
5
F0
100
AcDbEntity
8
SK2
62
256
6
ByLayer
370
13
48
1
60
0
100
AcDbLine
10
-111.369056
20
6.887503
30
0
11
-113.070533
21
6.887497
31
0
39
0
210
0
220
0
230
1
0
LINE
5
F1
100
AcDbEntity
8
SK2
62
256
6
ByLayer
370
13
48
1
60
0
100
AcDbLine
10
-112.219794
20
-9.9375
30
0
11
-113.070533
21
-6.762503
31
0
39
0
210
0
220
0
230
1
0
LINE
5
F2
100
AcDbEntity
8
SK2
62
256
6
ByLayer
370
13
48
1
60
0
100
AcDbLine
10
-112.219794
20
-9.9375
30
0
11
-111.369056
21
-6.762497
31
0
39
0
210
0
220
0
230
1
0
LINE
5
F3
100
AcDbEntity
8
SK2
62
256
6
ByLayer
370
13
48
1
60
0
100
AcDbLine
10
-113.070533
20
-6.762503
30
0
11
-111.369056
21
-6.762497
31
0
39
0
210
0
220
0
230
1
0
ENDBLK
5
F5
100
AcDbEntity
8
0
100
AcDbBlockEnd
0
BLOCK
5
F8
100
AcDbEntity
8
0
100
AcDbBlockBegin
2
_CLOSED
70
0
10
0
20
0
30
0
3
_CLOSED
0
LINE
5
FA
100
AcDbEntity
8
0
62
256
6
ByLayer
370
-2
48
1
60
0
100
AcDbLine
10
-1
20
0.166667
30
0
11
0
21
0
31
0
39
0
210
0
220
0
230
1
0
LINE
5
FB
100
AcDbEntity
8
0
62
256
6
ByLayer
370
-2
48
1
60
0
100
AcDbLine
10
0
20
0
30
0
11
-1
21
-0.166667
31
0
39
0
210
0
220
0
230
1
0
LINE
5
FC
100
AcDbEntity
8
0
62
256
6
ByLayer
370
-2
48
1
60
0
100
AcDbLine
10
-1
20
0.166667
30
0
11
-1
21
-0.166667
31
0
39
0
210
0
220
0
230
1
0
LINE
5
FD
100
AcDbEntity
8
0
62
256
6
ByLayer
370
-2
48
1
60
0
100
AcDbLine
10
0
20
0
30
0
11
-1
21
0
31
0
39
0
210
0
220
0
230
1
0
ENDBLK
5
F9
100
AcDbEntity
8
0
100
AcDbBlockEnd
0
BLOCK
5
109
100
AcDbEntity
8
0
100
AcDbBlockBegin
2
DimnDraft3D2
70
0
10
0
20
0
30
0
3
DimnDraft3D2
0
MTEXT
5
FF
100
AcDbEntity
8
2
62
256
6
ByLayer
370
13
48
1
60
0
100
AcDbMText
10
39.255206
20
1.174342
30
0
210
0
220
0
230
1
1
\W0.6740;25
40
4.5
41
0
44
1.084337
50
90
71
7
72
5
7
iso_b_vert
0
LINE
5
100
100
AcDbEntity
8
2
62
256
6
ByLayer
370
13
48
1
60
0
100
AcDbLine
10
1.5875
20
-9.9375
30
0
11
43.555206
21
-9.9375
31
0
39
0
210
0
220
0
230
1
0
LINE
5
101
100
AcDbEntity
8
2
62
256
6
ByLayer
370
13
48
1
60
0
100
AcDbLine
10
25.467706
20
15.4125
30
0
11
43.555206
21
15.4125
31
0
39
0
210
0
220
0
230
1
0
LINE
5
102
100
AcDbEntity
8
2
62
256
6
ByLayer
370
13
48
1
60
0
100
AcDbLine
10
40.380206
20
-9.9375
30
0
11
40.380206
21
15.4125
31
0
39
0
210
0
220
0
230
1
0
LINE
5
103
100
AcDbEntity
8
2
62
256
6
ByLayer
370
13
48
1
60
0
100
AcDbLine
10
40.380206
20
-9.9375
30
0
11
39.529467
21
-6.762503
31
0
39
0
210
0
220
0
230
1
0
LINE
5
104
100
AcDbEntity
8
2
62
256
6
ByLayer
370
13
48
1
60
0
100
AcDbLine
10
40.380206
20
-9.9375
30
0
11
41.230944
21
-6.762497
31
0
39
0
210
0
220
0
230
1
0
LINE
5
105
100
AcDbEntity
8
2
62
256
6
ByLayer
370
13
48
1
60
0
100
AcDbLine
10
39.529467
20
-6.762503
30
0
11
41.230944
21
-6.762497
31
0
39
0
210
0
220
0
230
1
0
LINE
5
106
100
AcDbEntity
8
2
62
256
6
ByLayer
370
13
48
1
60
0
100
AcDbLine
10
40.380206
20
15.4125
30
0
11
41.230944
21
12.237503
31
0
39
0
210
0
220
0
230
1
0
LINE
5
107
100
AcDbEntity
8
2
62
256
6
ByLayer
370
13
48
1
60
0
100
AcDbLine
10
40.380206
20
15.4125
30
0
11
39.529467
21
12.237497
31
0
39
0
210
0
220
0
230
1
0
LINE
5
108
100
AcDbEntity
8
2
62
256
6
ByLayer
370
13
48
1
60
0
100
AcDbLine
10
41.230944
20
12.237503
30
0
11
39.529467
21
12.237497
31
0
39
0
210
0
220
0
230
1
0
ENDBLK
5
10A
100
AcDbEntity
8
0
100
AcDbBlockEnd
0
BLOCK
5
117
100
AcDbEntity
8
0
100
AcDbBlockBegin
2
DimnDraft3D3
70
0
10
0
20
0
30
0
3
DimnDraft3D3
0
MTEXT
5
10D
100
AcDbEntity
8
SK2
62
256
6
ByLayer
370
13
48
1
60
0
100
AcDbMText
10
-41.977031
20
34.0375
30
0
210
0
220
0
230
1
1
\W0.6217;125
40
4.5
41
0
44
1.084337
50
0
71
7
72
5
7
iso_b_vert
0
LINE
5
10E
100
AcDbEntity
8
SK2
62
256
6
ByLayer
370
13
48
1
60
0
100
AcDbLine
10
-102.469794
20
11.65
30
0
11
-102.469794
21
36.0875
31
0
39
0
210
0
220
0
230
1
0
LINE
5
10F
100
AcDbEntity
8
SK2
62
256
6
ByLayer
370
13
48
1
60
0
100
AcDbLine
10
23.880206
20
17
30
0
11
23.880206
21
36.0875
31
0
39
0
210
0
220
0
230
1
0
LINE
5
110
100
AcDbEntity
8
SK2
62
256
6
ByLayer
370
13
48
1
60
0
100
AcDbLine
10
-102.469794
20
32.9125
30
0
11
23.880206
21
32.9125
31
0
39
0
210
0
220
0
230
1
0
LINE
5
111
100
AcDbEntity
8
SK2
62
256
6
ByLayer
370
13
48
1
60
0
100
AcDbLine
10
-102.469794
20
32.9125
30
0
11
-99.294798
21
33.763239
31
0
39
0
210
0
220
0
230
1
0
LINE
5
112
100
AcDbEntity
8
SK2
62
256
6
ByLayer
370
13
48
1
60
0
100
AcDbLine
10
-102.469794
20
32.9125
30
0
11
-99.294791
21
32.061761
31
0
39
0
210
0
220
0
230
1
0
LINE
5
113
100
AcDbEntity
8
SK2
62
256
6
ByLayer
370
13
48
1
60
0
100
AcDbLine
10
-99.294798
20
33.763239
30
0
11
-99.294791
21
32.061761
31
0
39
0
210
0
220
0
230
1
0
LINE
5
114
100
AcDbEntity
8
SK2
62
256
6
ByLayer
370
13
48
1
60
0
100
AcDbLine
10
23.880206
20
32.9125
30
0
11
20.705209
21
32.061761
31
0
39
0
210
0
220
0
230
1
0
LINE
5
115
100
AcDbEntity
8
SK2
62
256
6
ByLayer
370
13
48
1
60
0
100
AcDbLine
10
23.880206
20
32.9125
30
0
11
20.705202
21
33.763239
31
0
39
0
210
0
220
0
230
1
0
LINE
5
116
100
AcDbEntity
8
SK2
62
256
6
ByLayer
370
13
48
1
60
0
100
AcDbLine
10
20.705209
20
32.061761
30
0
11
20.705202
21
33.763239
31
0
39
0
210
0
220
0
230
1
0
ENDBLK
5
118
100
AcDbEntity
8
0
100
AcDbBlockEnd
0
BLOCK
5
124
100
AcDbEntity
8
0
100
AcDbBlockBegin
2
DimnDraft3D4
70
0
10
0
20
0
30
0
3
DimnDraft3D4
0
MTEXT
5
11B
100
AcDbEntity
8
2
62
256
6
ByLayer
370
13
48
1
60
0
100
AcDbMText
10
10.751836
20
21.449891
30
0
210
0
220
0
230
1
1
\W0.7582;91%%d0'
40
4.5
41
0
44
1.084337
50
45.5
71
7
72
5
7
iso_b_vert
0
LINE
5
11C
100
AcDbEntity
8
2
62
256
6
ByLayer
370
13
48
1
60
0
100
AcDbLine
10
23.880206
20
17
30
0
11
23.880206
21
31.062159
31
0
39
0
210
0
220
0
230
1
0
ARC
5
11D
100
AcDbEntity
8
2
62
256
6
ByLayer
370
13
48
1
60
0
100
AcDbCircle
39
0
10
23.880206
20
15.426476
30
0
40
12.4606831964037
210
0
220
0
230
1
100
AcDbArc
50
90
51
181
0
LINE
5
11E
100
AcDbEntity
8
2
62
256
6
ByLayer
370
13
48
1
60
0
100
AcDbLine
10
23.880206
20
27.887159
30
0
11
20.765445
21
26.837097
31
0
39
0
210
0
220
0
230
1
0
LINE
5
11F
100
AcDbEntity
8
2
62
256
6
ByLayer
370
13
48
1
60
0
100
AcDbLine
10
23.880206
20
27.887159
30
0
11
20.657707
21
28.53516
31
0
39
0
210
0
220
0
230
1
0
LINE
5
120
100
AcDbEntity
8
2
62
256
6
ByLayer
370
13
48
1
60
0
100
AcDbLine
10
20.765445
20
26.837097
30
0
11
20.657707
21
28.53516
31
0
39
0
210
0
220
0
230
1
0
LINE
5
121
100
AcDbEntity
8
2
62
256
6
ByLayer
370
13
48
1
60
0
100
AcDbLine
10
11.42142
20
15.209007
30
0
11
10.717277
21
18.419699
31
0
39
0
210
0
220
0
230
1
0
LINE
5
122
100
AcDbEntity
8
2
62
256
6
ByLayer
370
13
48
1
60
0
100
AcDbLine
10
11.42142
20
15.209007
30
0
11
12.416962
21
18.341625
31
0
39
0
210
0
220
0
230
1
0
LINE
5
123
100
AcDbEntity
8
2
62
256
6
ByLayer
370
13
48
1
60
0
100
AcDbLine
10
10.717277
20
18.419699
30
0
11
12.416962
21
18.341625
31
0
39
0
210
0
220
0
230
1
0
ENDBLK
5
125
100
AcDbEntity
8
0
100
AcDbBlockEnd
0
ENDSEC
0
SECTION
2
ENTITIES
0
ARC
5
A5
100
AcDbEntity
8
1
62
256
6
ByLayer
370
18
48
1
60
0
100
AcDbCircle
39
0
10
15.178679
20
9.32721
30
0
40
2.3
210
0
220
0
230
1
100
AcDbArc
50
351.270929
51
2.025795
0
ARC
5
A6
100
AcDbEntity
8
1
62
256
6
ByLayer
370
18
48
1
60
0
100
AcDbCircle
39
0
10
15.178679
20
9.32721
30
0
40
2.3
210
0
220
0
230
1
100
AcDbArc
50
90.038664
51
100.726993
0
ARC
5
A7
100
AcDbEntity
8
1
62
256
6
ByLayer
370
18
48
1
60
0
100
AcDbCircle
39
0
10
0
20
11.5375
30
0
40
1.59999999999987
210
0
220
0
230
-1
100
AcDbArc
50
195
51
270
0
ELLIPSE
5
A8
100
AcDbEntity
8
1
62
256
6
ByLayer
370
18
48
1
60
0
100
AcDbEllipse
10
18.85851
20
2.160602
30
0
11
-0.145796044862335
21
-0.0352634839813062
31
0
210
0
220
0
230
1
40
0.0794
41
1.44634260939349
42
3.02877504631161
0
ELLIPSE
5
A9
100
AcDbEntity
8
1
62
256
6
ByLayer
370
18
48
1
60
0
100
AcDbEllipse
10
12.829254
20
10.72911
30
0
11
-1.43867960067728
21
1.38931674091802
31
0
210
0
220
0
230
1
40
0.989133
41
0.924699414719819
42
1.31446014751729
0
ELLIPSE
5
AA
100
AcDbEntity
8
1
62
256
6
ByLayer
370
18
48
1
60
0
100
AcDbEllipse
10
0
20
-9.944481
30
0
11
1.6
21
1.61702248813178E-15
31
0
210
0
220
0
230
-1
40
0.004363
41
-1.5707963267949
42
-0.261799387798656
0
ELLIPSE
5
AB
100
AcDbEntity
8
1
62
256
6
ByLayer
370
18
48
1
60
0
100
AcDbEllipse
10
16.961678
20
1.721857
30
0
11
1.51938820036896
21
-1.46725612967067
31
0
210
0
220
0
230
1
40
0.989133
41
0.32706762352344
42
1.00030088215832
0
ELLIPSE
5
AC
100
AcDbEntity
8
1
62
256
6
ByLayer
370
18
48
1
60
0
100
AcDbEllipse
10
17.671316
20
2.456708
30
0
11
1.46122648061955
21
-1.41109000978519
31
0
210
0
220
0
230
1
40
0.989133
41
-2.14129177143147
42
1.00030088215833
0
ELLIPSE
5
AD
100
AcDbEntity
8
1
62
256
6
ByLayer
370
18
48
1
60
0
100
AcDbEllipse
10
16.94618
20
1.705808
30
0
11
-1.41149453508064
21
1.36306442822894
31
0
210
0
220
0
230
1
40
0.989133
41
-2.9379802669914
42
-2.14129177143147
0
ELLIPSE
5
AE
100
AcDbEntity
8
1
62
256
6
ByLayer
370
18
48
1
60
0
100
AcDbEllipse
10
15.048066
20
7.103487
30
0
11
-1.43867960067728
21
1.38931674091802
31
0
210
0
220
0
230
1
40
0.989133
41
1.31446014751729
42
1.70422088031478
0
ELLIPSE
5
AF
100
AcDbEntity
8
1
62
256
6
ByLayer
370
18
48
1
60
0
100
AcDbEllipse
10
16.488631
20
10.252559
30
0
11
1.36674562064342
21
-1.31985090387211
31
0
210
0
220
0
230
1
40
0.989133
41
2.13145023530695
42
-2.07100474664686
0
ELLIPSE
5
B0
100
AcDbEntity
8
1
62
256
6
ByLayer
370
18
48
1
60
0
100
AcDbEllipse
10
16.033923
20
10.643986
30
0
11
1.36674562064342
21
-1.31985090387211
31
0
210
0
220
0
230
1
40
0.989133
41
-0.974198675180965
42
1.12578859044563
0
ELLIPSE
5
B1
100
AcDbEntity
8
1
62
256
6
ByLayer
370
18
48
1
60
0
100
AcDbEllipse
10
16.008611
20
9.755484
30
0
11
-1.36674562064342
21
1.31985090387211
31
0
210
0
220
0
230
1
40
0.989133
41
-1.38178282675108E-05
42
0.114250918377381
0
ELLIPSE
5
B2
100
AcDbEntity
8
1
62
256
6
ByLayer
370
18
48
1
60
0
100
AcDbEllipse
10
15.553903
20
10.146911
30
0
11
-1.36674562064342
21
1.31985090387211
31
0
210
0
220
0
230
1
40
0.989133
41
3.04912122681555
42
-3.14158672643323
0
ELLIPSE
5
B3
100
AcDbEntity
8
1
62
256
6
ByLayer
370
18
48
1
60
0
100
AcDbEllipse
10
16.104857
20
2.162533
30
0
11
0.570975966518796
21
-0.551385081551838
31
0
210
0
220
0
230
1
40
0.989133
41
-0.980800513708766
42
-1.62190913112584E-06
0
ELLIPSE
5
B4
100
AcDbEntity
8
1
62
256
6
ByLayer
370
18
48
1
60
0
100
AcDbEllipse
10
8.933446
20
13.880893
30
0
11
0.570975966518796
21
-0.551385081551838
31
0
210
0
220
0
230
1
40
0.989133
41
-3.1415622750583
42
-2.03333312740052
0
ELLIPSE
5
B5
100
AcDbEntity
8
1
62
256
6
ByLayer
370
18
48
1
60
0
100
AcDbEllipse
10
15.880836
20
10.054314
30
0
11
-1.37034231964511
21
1.32332419572441
31
0
210
0
220
0
230
1
40
0.989133
41
-2.95468277924111
42
-2.46204164115245
0
ELLIPSE
5
B6
100
AcDbEntity
8
1
62
256
6
ByLayer
370
18
48
1
60
0
100
AcDbEllipse
10
15.880836
20
10.054314
30
0
11
-1.37034231964511
21
1.32332419572441
31
0
210
0
220
0
230
1
40
0.989133
41
-0.661025597750021
42
-0.186939634518683
0
ELLIPSE
5
B7
100
AcDbEntity
8
1
62
256
6
ByLayer
370
18
48
1
60
0
100
AcDbEllipse
10
15.344644
20
9.499071
30
0
11
1.61851455076194
21
-1.56298133353277
31
0
210
0
220
0
230
1
40
0.989133
41
2.35210768959552
42
2.5208157932702
0
ELLIPSE
5
B8
100
AcDbEntity
8
1
62
256
6
ByLayer
370
18
48
1
60
0
100
AcDbEllipse
10
15.344644
20
9.499071
30
0
11
1.61851455076194
21
-1.56298133353277
31
0
210
0
220
0
230
1
40
0.989133
41
0.620751902132444
42
0.793059325308262
0
ELLIPSE
5
B9
100
AcDbEntity
8
1
62
256
6
ByLayer
370
18
48
1
60
0
100
AcDbEllipse
10
9.717144
20
2.864651
30
0
11
0.93154504143854
21
-0.899582589744415
31
0
210
0
220
0
230
1
40
0.989133
41
0.16226746621269
42
0.773405233139344
0
ELLIPSE
5
BA
100
AcDbEntity
8
1
62
256
6
ByLayer
370
18
48
1
60
0
100
AcDbEllipse
10
9.717144
20
2.864651
30
0
11
0.93154504143854
21
-0.899582589744415
31
0
210
0
220
0
230
1
40
0.989133
41
0.773406009649008
42
2.89908577569554
0
ELLIPSE
5
BB
100
AcDbEntity
8
1
62
256
6
ByLayer
370
18
48
1
60
0
100
AcDbEllipse
10
9.809063
20
2.959835
30
0
11
-0.93154504143854
21
0.899582589744414
31
0
210
0
220
0
230
1
40
0.989133
41
-0.769242883465826
42
-0.189667845695988
0
ELLIPSE
5
BC
100
AcDbEntity
8
1
62
256
6
ByLayer
370
18
48
1
60
0
100
AcDbEllipse
10
15.219532
20
9.369514
30
0
11
1.62926891857724
21
-1.57336670581214
31
0
210
0
220
0
230
1
40
0.989133
41
2.35470705101444
42
2.55111868283305
0
ELLIPSE
5
BD
100
AcDbEntity
8
1
62
256
6
ByLayer
370
18
48
1
60
0
100
AcDbEllipse
10
15.219532
20
9.369514
30
0
11
1.62926891857724
21
-1.57336670581214
31
0
210
0
220
0
230
1
40
0.989133
41
0.590460554207021
42
0.787958009348598
0
ELLIPSE
5
BE
100
AcDbEntity
8
1
62
256
6
ByLayer
370
18
48
1
60
0
100
AcDbEllipse
10
16.367238
20
10.557999
30
0
11
-1.37034231964511
21
1.32332419572441
31
0
210
0
220
0
230
1
40
0.989133
41
0
42
6.28318530717959
0
ELLIPSE
5
BF
100
AcDbEntity
8
1
62
256
6
ByLayer
370
18
48
1
60
0
100
AcDbEllipse
10
16.59126
20
2.666218
30
0
11
0.570975966518796
21
-0.551385081551838
31
0
210
0
220
0
230
1
40
0.989133
41
-1.8271325060725
42
0.26726259632071
0
ELLIPSE
5
C0
100
AcDbEntity
8
1
62
256
6
ByLayer
370
18
48
1
60
0
100
AcDbEllipse
10
23.090606
20
14.623202
30
0
11
0.570975966518796
21
-0.551385081551837
31
0
210
0
220
0
230
1
40
0.989133
41
0.267262596320684
42
2.36165769871389
0
ELLIPSE
5
C1
100
AcDbEntity
8
1
62
256
6
ByLayer
370
18
48
1
60
0
100
AcDbEllipse
10
9.419849
20
14.384578
30
0
11
0.570975966518796
21
-0.551385081551838
31
0
210
0
220
0
230
1
40
0.989133
41
2.3616576987139
42
-1.82713250607249
0
ELLIPSE
5
C2
100
AcDbEntity
8
1
62
256
6
ByLayer
370
18
48
1
60
0
100
AcDbEllipse
10
16.261277
20
10.448273
30
0
11
1.27682814560109
21
-1.23301860756474
31
0
210
0
220
0
230
1
40
0.989133
41
1.27442916948905
42
1.9828096562635
0
ELLIPSE
5
C3
100
AcDbEntity
8
1
62
256
6
ByLayer
370
18
48
1
60
0
100
AcDbEllipse
10
16.291916
20
10.480001
30
0
11
-1.0610262054995
21
1.02462109642704
31
0
210
0
220
0
230
1
40
0.989133
41
-1.8520611954639
42
-1.17388528596313
0
ELLIPSE
5
C4
100
AcDbEntity
8
1
62
256
6
ByLayer
370
18
48
1
60
0
100
AcDbEllipse
10
16.291916
20
10.480001
30
0
11
-1.0610262054995
21
1.02462109642704
31
0
210
0
220
0
230
1
40
0.989133
41
1.28953145812589
42
1.96770736762665
0
ELLIPSE
5
C5
100
AcDbEntity
8
1
62
256
6
ByLayer
370
18
48
1
60
0
100
AcDbEllipse
10
16.064562
20
10.675714
30
0
11
-1.15094368054183
21
1.11145339273441
31
0
210
0
220
0
230
1
40
0.989133
41
2.14546547696801
42
-2.02981930480524
0
ELLIPSE
5
C6
100
AcDbEntity
8
1
62
256
6
ByLayer
370
18
48
1
60
0
100
AcDbEllipse
10
16.51927
20
10.284287
30
0
11
-1.15094368054183
21
1.11145339273441
31
0
210
0
220
0
230
1
40
0.989133
41
-0.9961271766218
42
1.11177334878457
0
ELLIPSE
5
C7
100
AcDbEntity
8
1
62
256
6
ByLayer
370
18
48
1
60
0
100
AcDbEllipse
10
10.144566
20
3.307259
30
0
11
-0.93154504143854
21
0.899582589744414
31
0
210
0
220
0
230
1
40
0.989133
41
-1.20950604676459
42
-0.769242883465825
0
ELLIPSE
5
C8
100
AcDbEntity
8
1
62
256
6
ByLayer
370
18
48
1
60
0
100
AcDbEllipse
10
9.809063
20
2.959835
30
0
11
-0.93154504143854
21
0.899582589744414
31
0
210
0
220
0
230
1
40
0.989133
41
-2.86363798585904
42
-2.25670359796118
0
ELLIPSE
5
C9
100
AcDbEntity
8
1
62
256
6
ByLayer
370
18
48
1
60
0
100
AcDbEllipse
10
10.144566
20
3.307259
30
0
11
-0.93154504143854
21
0.899582589744414
31
0
210
0
220
0
230
1
40
0.989133
41
-0.162308495570007
42
0.277954667730774
0
ELLIPSE
5
CA
100
AcDbEntity
8
1
62
256
6
ByLayer
370
18
48
1
60
0
100
AcDbEllipse
10
10.144566
20
3.307259
30
0
11
-0.93154504143854
21
0.899582589744414
31
0
210
0
220
0
230
1
40
0.989133
41
-2.2567035979612
42
-1.81644043466245
0
ELLIPSE
5
CB
100
AcDbEntity
8
1
62
256
6
ByLayer
370
18
48
1
60
0
100
AcDbEllipse
10
10.144566
20
3.307259
30
0
11
-0.93154504143854
21
0.899582589744414
31
0
210
0
220
0
230
1
40
0.989133
41
1.93208660682518
42
2.37234977012395
0
ELLIPSE
5
CC
100
AcDbEntity
8
1
62
256
6
ByLayer
370
18
48
1
60
0
100
AcDbEllipse
10
10.166524
20
3.329997
30
0
11
1.60772445375686
21
-1.55256145797588
31
0
210
0
220
0
230
1
40
0.989133
41
0
42
6.28318530717959
0
ELLIPSE
5
CD
100
AcDbEntity
8
1
62
256
6
ByLayer
370
18
48
1
60
0
100
AcDbEllipse
10
10.144566
20
3.307259
30
0
11
-0.93154504143854
21
0.899582589744414
31
0
210
0
220
0
230
1
40
0.989133
41
0.884889055628596
42
1.32515221892736
0
ELLIPSE
5
CE
100
AcDbEntity
8
1
62
256
6
ByLayer
370
18
48
1
60
0
100
AcDbEllipse
10
9.809063
20
2.959835
30
0
11
-0.93154504143854
21
0.899582589744414
31
0
210
0
220
0
230
1
40
0.989133
41
-1.81644043466243
42
-1.20950604676459
0
ELLIPSE
5
CF
100
AcDbEntity
8
1
62
256
6
ByLayer
370
18
48
1
60
0
100
AcDbEllipse
10
10.144566
20
3.307259
30
0
11
-0.93154504143854
21
0.899582589744414
31
0
210
0
220
0
230
1
40
0.989133
41
2.97928415802179
42
-2.86363798585905
0
ELLIPSE
5
D0
100
AcDbEntity
8
1
62
256
6
ByLayer
370
18
48
1
60
0
100
AcDbEllipse
10
10.088393
20
3.249091
30
0
11
2.15801940101592
21
-2.08397511137702
31
0
210
0
220
0
230
1
40
0.989133
41
0
42
6.28318530717959
0
ELLIPSE
5
D1
100
AcDbEntity
8
1
62
256
6
ByLayer
370
18
48
1
60
0
100
AcDbEllipse
10
10.166524
20
3.329997
30
0
11
1.19942065408853
21
-1.15826706192509
31
0
210
0
220
0
230
1
40
0.989133
41
0
42
6.28318530717959
0
POINT
5
6C
100
AcDbEntity
8
80
62
256
6
ByLayer
370
18
48
1
60
0
100
AcDbPoint
10
0
20
0
30
0
39
0
210
0
220
0
230
1
50
360
0
POINT
5
6E
100
AcDbEntity
8
81
62
256
6
ByLayer
370
18
48
1
60
0
100
AcDbPoint
10
22.530206
20
15.0625
30
0
39
0
210
0
220
0
230
1
50
360
0
POINT
5
70
100
AcDbEntity
8
1
62
256
6
ByLayer
370
18
48
1
60
0
100
AcDbPoint
10
-102.469794
20
-9.9375
30
0
39
0
210
0
220
0
230
1
50
360
0
POINT
5
72
100
AcDbEntity
8
2
62
256
6
ByLayer
370
18
48
1
60
0
100
AcDbPoint
10
9.007166
20
2.129446
30
0
39
0
210
0
220
0
230
1
50
360
0
SPLINE
5
D2
100
AcDbEntity
8
1
62
256
6
ByLayer
370
18
48
1
60
0
100
AcDbSpline
70
4
71
3
72
8
73
4
40
0
40
0
40
0
40
0
40
1
40
1
40
1
40
1
41
1
10
14.7592458418642
20
9.61971688130564
30
0
41
1
10
14.8474030740822
20
9.66516974954942
30
0
41
1
10
14.9355678366129
20
9.7106433337934
30
0
41
1
10
15.0237445271396
20
9.7561498030235
30
0
0
SPLINE
5
D3
100
AcDbEntity
8
1
62
256
6
ByLayer
370
18
48
1
60
0
100
AcDbSpline
70
4
71
3
72
8
73
4
40
0
40
0
40
0
40
0
40
1
40
1
40
1
40
1
41
1
10
15.7673811363299
20
9.11600400373857
30
0
41
1
10
15.7353519249771
20
9.02519473919409
30
0
41
1
10
15.7033515232093
20
8.93440169992252
30
0
41
1
10
15.6713695343434
20
8.84361904628577
30
0
0
SPLINE
5
D4
100
AcDbEntity
8
1
62
256
6
ByLayer
370
18
48
1
60
0
100
AcDbSpline
70
4
71
3
72
12
73
8
40
0
40
0
40
0
40
0
40
0.238774337377425
40
0.238774337377425
40
0.777313819562112
40
0.777313819562112
40
1
40
1
40
1
40
1
41
1
10
17.1676079890201
20
8.85995451616526
30
0
41
1
10
17.1921256199847
20
8.89447482532643
30
0
41
1
10
17.2154032072191
20
8.92990222431376
30
0
41
1
10
17.2871726394041
20
9.04816965701704
30
0
41
1
10
17.3309378933265
20
9.13558511891915
30
0
41
1
10
17.3820042311005
20
9.26230108481519
30
0
41
1
10
17.3956701431948
20
9.29974413989817
30
0
41
1
10
17.408078860894
20
9.33755758865186
30
0
0
SPLINE
5
D5
100
AcDbEntity
8
1
62
256
6
ByLayer
370
18
48
1
60
0
100
AcDbSpline
70
4
71
3
72
12
73
8
40
0
40
0
40
0
40
0
40
0.0789971346383354
40
0.0789971346383354
40
0.592805540952024
40
0.592805540952024
40
1
40
1
40
1
40
1
41
1
10
15.1217616763983
20
11.5609298082993
30
0
41
1
10
15.1078384516366
20
11.5558605793164
30
0
41
1
10
15.0939725650143
20
11.5506218884102
30
0
41
1
10
14.9903520572099
20
11.5100359987803
30
0
41
1
10
14.9022220725816
20
11.4671803376523
30
0
41
1
10
14.7532865372248
20
11.3791757121395
30
0
41
1
10
14.6904595555559
20
11.336405719429
30
0
41
1
10
14.6306313930604
20
11.2897837328355
30
0
0
SPLINE
5
D6
100
AcDbEntity
8
1
62
256
6
ByLayer
370
18
48
1
60
0
100
AcDbSpline
70
4
71
3
72
8
73
4
40
0
40
0
40
0
40
0
40
1
40
1
40
1
40
1
41
1
10
17.5600879131032
20
11.2038516247676
30
0
41
1
10
17.640285194282
20
11.2346330850653
30
0
41
1
10
17.7204592056456
20
11.2653637130702
30
0
41
1
10
17.8006197576485
20
11.2960649820502
30
0
0
SPLINE
5
D7
100
AcDbEntity
8
1
62
256
6
ByLayer
370
18
48
1
60
0
100
AcDbSpline
70
4
71
3
72
8
73
4
40
0
40
0
40
0
40
0
40
1
40
1
40
1
40
1
41
1
10
16.8675215919766
20
12.0993052524905
30
0
41
1
10
16.8505320650389
20
12.0142243768153
30
0
41
1
10
16.8335152825674
20
11.929126018295
30
0
41
1
10
16.816451303913
20
11.8439974240526
30
0
0
SPLINE
5
D8
100
AcDbEntity
8
1
62
256
6
ByLayer
370
18
48
1
60
0
100
AcDbSpline
70
4
71
3
72
8
73
4
40
0
40
0
40
0
40
0
40
1
40
1
40
1
40
1
41
1
10
9.05493631648739
20
2.63225891946743
30
0
41
1
10
9.10788758234679
20
2.4908171461681
30
0
41
1
10
9.16089013619728
20
2.3548336728287
30
0
41
1
10
9.21392370247304
20
2.22215068203204
30
0
0
SPLINE
5
D9
100
AcDbEntity
8
1
62
256
6
ByLayer
370
18
48
1
60
0
100
AcDbSpline
70
4
71
3
72
10
73
6
40
0
40
0
40
0
40
0
40
0.5
40
0.5
40
1
40
1
40
1
40
1
41
1
10
11.5821432596567
20
3.04041463957839
30
0
41
1
10
11.5554721608389
20
3.10714221246243
30
0
41
1
10
11.5286534922217
20
3.17511018882541
30
0
41
1
10
11.4755364176494
20
3.31196922454592
30
0
41
1
10
11.449209014508
20
3.38093053809234
30
0
41
1
10
11.423155873671
20
3.45052287701378
30
0
0
SPLINE
5
DA
100
AcDbEntity
8
1
62
256
6
ByLayer
370
18
48
1
60
0
100
AcDbSpline
70
4
71
3
72
8
73
4
40
0
40
0
40
0
40
0
40
1
40
1
40
1
40
1
41
1
10
10.0942510467545
20
4.59448597953821
30
0
41
1
10
9.94689582015781
20
4.62547433962737
30
0
41
1
10
9.80510811041012
20
4.65717245625137
30
0
41
1
10
9.66668692362765
20
4.68929974295949
30
0
0
SPLINE
5
DB
100
AcDbEntity
8
1
62
256
6
ByLayer
370
18
48
1
60
0
100
AcDbSpline
70
4
71
3
72
10
73
6
40
0
40
0
40
0
40
0
40
0.5
40
0.5
40
1
40
1
40
1
40
1
41
1
10
10.9200777085174
20
2.27060086717489
30
0
41
1
10
10.8722901131026
20
2.21482001072459
30
0
41
1
10
10.8247595327754
20
2.15928929151752
30
0
41
1
10
10.7320372709725
20
2.05087818759333
30
0
41
1
10
10.6865826976457
20
1.99769129595666
30
0
41
1
10
10.6418156668773
20
1.94527696675377
30
0
0
SPLINE
5
DC
100
AcDbEntity
8
1
62
256
6
ByLayer
370
18
48
1
60
0
100
AcDbSpline
70
4
71
3
72
10
73
6
40
0
40
0
40
0
40
0
40
0.5
40
0.5
40
1
40
1
40
1
40
1
41
1
10
11.0945788880318
20
4.41242602768125
30
0
41
1
10
11.020640232681
20
4.42410418772312
30
0
41
1
10
10.9458560052159
20
4.43620983387729
30
0
41
1
10
10.7966152607577
20
4.46111995631415
30
0
41
1
10
10.7220795054075
20
4.47393617420028
30
0
41
1
10
10.647644155907
20
4.48718093828853
30
0
0
SPLINE
5
DD
100
AcDbEntity
8
1
62
256
6
ByLayer
370
18
48
1
60
0
100
AcDbSpline
70
4
71
3
72
10
73
6
40
0
40
0
40
0
40
0
40
0.5
40
0.5
40
1
40
1
40
1
40
1
41
1
10
9.21392370247304
20
2.22215068203204
30
0
41
1
10
9.28353707020216
20
2.20599355554197
30
0
41
1
10
9.35442470554926
20
2.18985287012919
30
0
41
1
10
9.49711246956645
20
2.15815693779993
30
0
41
1
10
9.56898594279721
20
2.14258384607524
30
0
41
1
10
9.64148782559994
20
2.12733691861075
30
0
0
SPLINE
5
DE
100
AcDbEntity
8
1
62
256
6
ByLayer
370
18
48
1
60
0
100
AcDbSpline
70
4
71
3
72
10
73
6
40
0
40
0
40
0
40
0
40
0.5
40
0.5
40
1
40
1
40
1
40
1
41
1
10
9.00462137248843
20
3.919485970556
30
0
41
1
10
8.9568337770736
20
3.8637051141057
30
0
41
1
10
8.90930319674641
20
3.80817439489863
30
0
41
1
10
8.81658093494349
20
3.69976329097443
30
0
41
1
10
8.77112636161672
20
3.64657639933776
30
0
41
1
10
8.72635933084825
20
3.5941620701349
30
0
0
SPLINE
5
DF
100
AcDbEntity
8
1
62
256
6
ByLayer
370
18
48
1
60
0
100
AcDbSpline
70
4
71
3
72
8
73
4
40
0
40
0
40
0
40
0
40
1
40
1
40
1
40
1
41
1
10
11.2341956650196
20
3.98225893743185
30
0
41
1
10
11.1851740408791
20
4.1277699738535
30
0
41
1
10
11.1390119302228
20
4.27083693348027
30
0
41
1
10
11.0945788880318
20
4.41242602768125
30
0
0
SPLINE
5
E0
100
AcDbEntity
8
1
62
256
6
ByLayer
370
18
48
1
60
0
100
AcDbSpline
70
4
71
3
72
8
73
4
40
0
40
0
40
0
40
0
40
1
40
1
40
1
40
1
41
1
10
11.5821432596567
20
3.04041463957839
30
0
41
1
10
11.483725240914
20
2.926349561801
30
0
41
1
10
11.3833324974637
20
2.80987330555357
30
0
41
1
10
11.2845106090185
20
2.69503188634329
30
0
0
SPLINE
5
E1
100
AcDbEntity
8
1
62
256
6
ByLayer
370
18
48
1
60
0
100
AcDbSpline
70
4
71
3
72
8
73
4
40
0
40
0
40
0
40
0
40
1
40
1
40
1
40
1
41
1
10
9.66668692362771
20
4.68929974295949
30
0
41
1
10
9.56826890488566
20
4.57523466518276
30
0
41
1
10
9.46787616143581
20
4.45875840893601
30
0
41
1
10
9.36905427299126
20
4.34391698972638
30
0
0
SPLINE
5
E2
100
AcDbEntity
8
1
62
256
6
ByLayer
370
18
48
1
60
0
100
AcDbSpline
70
4
71
3
72
10
73
6
40
0
40
0
40
0
40
0
40
0.5
40
0.5
40
1
40
1
40
1
40
1
41
1
10
8.72635933084825
20
3.5941620701349
30
0
41
1
10
8.74870514204423
20
3.52295553080265
30
0
41
1
10
8.77162721854353
20
3.45095251518106
30
0
41
1
10
8.8181913126748
20
3.30730766956816
30
0
41
1
10
8.84185643369671
20
3.23558948218317
30
0
41
1
10
8.86597610783599
20
3.1639949798855
30
0
0
SPLINE
5
E3
100
AcDbEntity
8
1
62
256
6
ByLayer
370
18
48
1
60
0
100
AcDbSpline
70
4
71
3
72
8
73
4
40
0
40
0
40
0
40
0
40
1
40
1
40
1
40
1
41
1
10
10.1948809347524
20
2.02003187736108
30
0
41
1
10
10.3461658030681
20
1.9931127803942
30
0
41
1
10
10.49479395601
20
1.9684981500576
30
0
41
1
10
10.6418156668773
20
1.94527696675377
30
0
0
LINE
5
74
100
AcDbEntity
8
1
62
256
6
ByLayer
370
18
48
1
60
0
100
AcDbLine
10
7.930374
20
5.333066
30
0
11
7.924157
21
5.326628
31
0
39
0
210
0
220
0
230
1
0
LINE
5
75
100
AcDbEntity
8
1
62
256
6
ByLayer
370
18
48
1
60
0
100
AcDbLine
10
12.240196
20
1.158677
30
0
11
12.246413
21
1.165115
31
0
39
0
210
0
220
0
230
1
0
LINE
5
76
100
AcDbEntity
8
1
62
256
6
ByLayer
370
18
48
1
60
0
100
AcDbLine
10
8.848873
20
14.935963
30
0
11
8.36247
21
14.432278
31
0
39
0
210
0
220
0
230
1
0
LINE
5
77
100
AcDbEntity
8
1
62
256
6
ByLayer
370
18
48
1
60
0
100
AcDbLine
10
16.675833
20
1.611148
30
0
11
17.162236
21
2.114833
31
0
39
0
210
0
220
0
230
1
0
LINE
5
78
100
AcDbEntity
8
1
62
256
6
ByLayer
370
18
48
1
60
0
100
AcDbLine
10
16.920649
20
8.82706
30
0
11
17.400668
21
9.324135
31
0
39
0
210
0
220
0
230
1
0
LINE
5
79
100
AcDbEntity
8
1
62
256
6
ByLayer
370
18
48
1
60
0
100
AcDbLine
10
15.121885
20
11.57241
30
0
11
14.641865
21
11.075335
31
0
39
0
210
0
220
0
230
1
0
LINE
5
7A
100
AcDbEntity
8
SK1
62
256
6
ByLayer
370
18
48
1
60
0
100
AcDbLine
10
-102.469794
20
9.9375
30
0
11
0
21
9.9375
31
0
39
0
210
0
220
0
230
1
0
LINE
5
7C
100
AcDbEntity
8
SK1
62
256
6
ByLayer
370
18
48
1
60
0
100
AcDbLine
10
0
20
-9.9375
30
0
11
0
21
9.9375
31
0
39
0
210
0
220
0
230
1
0
LINE
5
7D
100
AcDbEntity
8
SK1
62
256
6
ByLayer
370
18
48
1
60
0
100
AcDbLine
10
-102.469794
20
-9.9375
30
0
11
0
21
-9.9375
31
0
39
0
210
0
220
0
230
1
0
LINE
5
7E
100
AcDbEntity
8
SK1
62
256
6
ByLayer
370
18
48
1
60
0
100
AcDbLine
10
-102.469794
20
9.9375
30
0
11
-102.469794
21
-9.9375
31
0
39
0
210
0
220
0
230
1
0
LINE
5
7F
100
AcDbEntity
8
1
62
256
6
ByLayer
370
18
48
1
60
0
100
AcDbLine
10
18.843191
20
2.144738
30
0
11
18.340433
21
4.223376
31
0
39
0
210
0
220
0
230
1
0
LINE
5
80
100
AcDbEntity
8
1
62
256
6
ByLayer
370
18
48
1
60
0
100
AcDbLine
10
1.545481
20
-9.942674
30
0
11
2.488492
21
-9.958031
31
0
39
0
210
0
220
0
230
1
0
LINE
5
81
100
AcDbEntity
8
1
62
256
6
ByLayer
370
18
48
1
60
0
100
AcDbLine
10
2.488492
20
-9.958031
30
0
11
1.867291
21
12.324399
31
0
39
0
210
0
220
0
230
1
0
LINE
5
82
100
AcDbEntity
8
1
62
256
6
ByLayer
370
18
48
1
60
0
100
AcDbLine
10
2.186766
20
13.516695
30
0
11
1.867291
21
12.324399
31
0
39
0
210
0
220
0
230
1
0
LINE
5
83
100
AcDbEntity
8
1
62
256
6
ByLayer
370
18
48
1
60
0
100
AcDbLine
10
18.459807
20
4.443028
30
0
11
19.003695
21
2.194338
31
0
39
0
210
0
220
0
230
1
0
LINE
5
84
100
AcDbEntity
8
1
62
256
6
ByLayer
370
18
48
1
60
0
100
AcDbLine
10
1.545481
20
11.12339
30
0
11
1.867291
21
12.324399
31
0
39
0
210
0
220
0
230
1
0
LINE
5
85
100
AcDbEntity
8
1
62
256
6
ByLayer
370
18
48
1
60
0
100
AcDbLine
10
20.487608
20
8.173616
30
0
11
22.533237
21
7.046896
31
0
39
0
210
0
220
0
230
1
0
LINE
5
86
100
AcDbEntity
8
1
62
256
6
ByLayer
370
18
48
1
60
0
100
AcDbLine
10
2.186766
20
13.516695
30
0
11
8.901744
21
13.633906
31
0
39
0
210
0
220
0
230
1
0
LINE
5
87
100
AcDbEntity
8
1
62
256
6
ByLayer
370
18
48
1
60
0
100
AcDbLine
10
5.147558
20
-9.956832
30
0
11
2.488492
21
-9.958031
31
0
39
0
210
0
220
0
230
1
0
LINE
5
88
100
AcDbEntity
8
1
62
256
6
ByLayer
370
18
48
1
60
0
100
AcDbLine
10
1.545481
20
11.12339
30
0
11
1.545481
21
-9.942674
31
0
39
0
210
0
220
0
230
1
0
LINE
5
89
100
AcDbEntity
8
1
62
256
6
ByLayer
370
18
48
1
60
0
100
AcDbLine
10
15.707468
20
2.002314
30
0
11
15.503149
21
2.847065
31
0
39
0
210
0
220
0
230
1
0
LINE
5
8A
100
AcDbEntity
8
1
62
256
6
ByLayer
370
18
48
1
60
0
100
AcDbLine
10
21.766166
20
-5.949181
30
0
11
5.147558
21
-9.956832
31
0
39
0
210
0
220
0
230
1
0
LINE
5
8B
100
AcDbEntity
8
1
62
256
6
ByLayer
370
18
48
1
60
0
100
AcDbLine
10
0
20
-9.9375
30
0
11
0
21
9.9375
31
0
39
0
210
0
220
0
230
1
0
LINE
5
8C
100
AcDbEntity
8
1
62
256
6
ByLayer
370
18
48
1
60
0
100
AcDbLine
10
19.635165
20
2.911103
30
0
11
19.003695
21
2.194338
31
0
39
0
210
0
220
0
230
1
0
LINE
5
8D
100
AcDbEntity
8
1
62
256
6
ByLayer
370
18
48
1
60
0
100
AcDbLine
10
11.135177
20
9.704807
30
0
11
13.353989
21
6.079184
31
0
39
0
210
0
220
0
230
1
0
LINE
5
8E
100
AcDbEntity
8
1
62
256
6
ByLayer
370
18
48
1
60
0
100
AcDbLine
10
19.016795
20
5.46774
30
0
11
19.635165
21
2.911103
31
0
39
0
210
0
220
0
230
1
0
LINE
5
8F
100
AcDbEntity
8
1
62
256
6
ByLayer
370
18
48
1
60
0
100
AcDbLine
10
22.533237
20
7.046896
30
0
11
21.766166
21
-5.949181
31
0
39
0
210
0
220
0
230
1
0
LINE
5
90
100
AcDbEntity
8
1
62
256
6
ByLayer
370
18
48
1
60
0
100
AcDbLine
10
9.351737
20
4.325983
30
0
11
9.758748
21
4.247062
31
0
39
0
210
0
220
0
230
1
0
LINE
5
91
100
AcDbEntity
8
1
62
256
6
ByLayer
370
18
48
1
60
0
100
AcDbLine
10
15.700034
20
2.033032
30
0
11
15.918923
21
2.259698
31
0
39
0
210
0
220
0
230
1
0
LINE
5
92
100
AcDbEntity
8
1
62
256
6
ByLayer
370
18
48
1
60
0
100
AcDbLine
10
8.406833
20
13.625273
30
0
11
8.747512
21
13.978057
31
0
39
0
210
0
220
0
230
1
0
LINE
5
93
100
AcDbEntity
8
1
62
256
6
ByLayer
370
18
48
1
60
0
100
AcDbLine
10
9.081476
20
4.046121
30
0
11
9.369054
21
4.343917
31
0
39
0
210
0
220
0
230
1
0
LINE
5
94
100
AcDbEntity
8
80
62
256
6
ByLayer
370
18
48
1
60
0
100
AcDbLine
10
0
20
0
30
0
11
-5
21
0
31
0
39
0
210
0
220
0
230
1
0
LINE
5
95
100
AcDbEntity
8
81
62
256
6
ByLayer
370
18
48
1
60
0
100
AcDbLine
10
22.530206
20
15.0625
30
0
11
32.530206
21
15.0625
31
0
39
0
210
0
220
0
230
1
0
LINE
5
96
100
AcDbEntity
8
1
62
256
6
ByLayer
370
18
48
1
60
0
100
AcDbLine
10
23.785345
20
14.240544
30
0
11
17.285999
21
2.28356
31
0
39
0
210
0
220
0
230
1
0
LINE
5
97
100
AcDbEntity
8
1
62
256
6
ByLayer
370
18
48
1
60
0
100
AcDbLine
10
15.918923
20
2.259698
30
0
11
8.747512
21
13.978057
31
0
39
0
210
0
220
0
230
1
0
LINE
5
98
100
AcDbEntity
8
1
62
256
6
ByLayer
370
18
48
1
60
0
100
AcDbLine
10
9.397447
20
15.173756
30
0
11
23.068204
21
15.41238
31
0
39
0
210
0
220
0
230
1
0
LINE
5
99
100
AcDbEntity
8
1
62
256
6
ByLayer
370
18
48
1
60
0
100
AcDbLine
10
10.749391
20
4.054973
30
0
11
10.898693
21
3.634835
31
0
39
0
210
0
220
0
230
1
0
LINE
5
9A
100
AcDbEntity
8
1
62
256
6
ByLayer
370
18
48
1
60
0
100
AcDbLine
10
10.949008
20
2.347608
30
0
11
11.236955
21
2.682962
31
0
39
0
210
0
220
0
230
1
0
LINE
5
9B
100
AcDbEntity
8
1
62
256
6
ByLayer
370
18
48
1
60
0
100
AcDbLine
10
11.087653
20
3.103099
30
0
11
11.423156
21
3.450523
31
0
39
0
210
0
220
0
230
1
0
LINE
5
9C
100
AcDbEntity
8
1
62
256
6
ByLayer
370
18
48
1
60
0
100
AcDbLine
10
10.920078
20
2.270601
30
0
11
10.584575
21
1.923177
31
0
39
0
210
0
220
0
230
1
0
LINE
5
9D
100
AcDbEntity
8
1
62
256
6
ByLayer
370
18
48
1
60
0
100
AcDbLine
10
11.582143
20
3.040415
30
0
11
11.236955
21
2.682962
31
0
39
0
210
0
220
0
230
1
0
LINE
5
9E
100
AcDbEntity
8
1
62
256
6
ByLayer
370
18
48
1
60
0
100
AcDbLine
10
10.312141
20
4.139757
30
0
11
10.749391
21
4.054973
31
0
39
0
210
0
220
0
230
1
0
LINE
5
9F
100
AcDbEntity
8
1
62
256
6
ByLayer
370
18
48
1
60
0
100
AcDbLine
10
11.087653
20
3.103099
30
0
11
11.236955
21
2.682962
31
0
39
0
210
0
220
0
230
1
0
LINE
5
A0
100
AcDbEntity
8
1
62
256
6
ByLayer
370
18
48
1
60
0
100
AcDbLine
10
10.312141
20
4.139757
30
0
11
10.647644
21
4.487181
31
0
39
0
210
0
220
0
230
1
0
LINE
5
A1
100
AcDbEntity
8
1
62
256
6
ByLayer
370
18
48
1
60
0
100
AcDbLine
10
11.094579
20
4.412426
30
0
11
10.749391
21
4.054973
31
0
39
0
210
0
220
0
230
1
0
LINE
5
A2
100
AcDbEntity
8
1
62
256
6
ByLayer
370
18
48
1
60
0
100
AcDbLine
10
10.949008
20
2.347608
30
0
11
11.284511
21
2.695032
31
0
39
0
210
0
220
0
230
1
0
LINE
5
A3
100
AcDbEntity
8
1
62
256
6
ByLayer
370
18
48
1
60
0
100
AcDbLine
10
10.094251
20
4.594486
30
0
11
9.758748
21
4.247062
31
0
39
0
210
0
220
0
230
1
0
LINE
5
A4
100
AcDbEntity
8
1
62
256
6
ByLayer
370
18
48
1
60
0
100
AcDbLine
10
11.234196
20
3.982259
30
0
11
10.898693
21
3.634835
31
0
39
0
210
0
220
0
230
1
0
MTEXT
5
E4
100
AcDbEntity
8
SK6
62
256
6
ByLayer
370
13
48
1
60
0
100
AcDbMText
10
-78.589594
20
-34.999425
30
0
210
0
220
0
230
1
1
\W0.7660;PTGNR 2020K 16
40
3.5
41
0
44
1.084337
50
0
71
7
72
5
7
iso_b_vert
0
DIMENSION
5
F6
100
AcDbEntity
8
SK2
62
256
6
ByLayer
370
13
48
1
60
0
100
AcDbDimension
2
DimnDraft3D1
10
-112.219794
20
-9.9375
30
0
11
-112.219794
21
0.0625
31
0
70
32
71
5
72
1
41
1
210
0
220
0
230
1
3
Standard
100
AcDbAlignedDimension
13
-104.057294
23
10.0625
33
0
14
-104.057294
24
-9.9375
34
0
50
90
100
AcDbRotatedDimension
1001
ACAD
1000
DSTYLE
1002
{
1070
    74
1070
     0
1070
   279
1070
     0
1070
   172
1070
     1
1070
   173
1070
     1
1070
   340
1005
E5
1070
   271
1070
     1
1070
   272
1070
     2
1070
    77
1070
     1
1070
    73
1070
     0
1070
   171
1070
     3
1070
   274
1070
     4
1070
   177
1070
   150
1070
   176
1070
     9
1070
   178
1070
    43
1070
    78
1070
     8
1070
    48
1040
-0.005
1070
    41
1041
3.175
1070
   147
1041
2.25
1070
    42
1041
1.5875
1070
    44
1041
3.175
1070
   140
1041
4.5
1070
   343
1005
F7
1070
   344
1005
F7
1002
}
0
DIMENSION
5
10B
100
AcDbEntity
8
2
62
256
6
ByLayer
370
13
48
1
60
0
100
AcDbDimension
2
DimnDraft3D2
10
40.380206
20
15.4125
30
0
11
40.380206
21
2.7375
31
0
70
32
71
5
72
1
41
1
210
0
220
0
230
1
3
Standard
100
AcDbAlignedDimension
13
1.5875
23
-9.9375
33
0
14
25.467706
24
15.4125
34
0
50
90
100
AcDbRotatedDimension
1001
ACAD
1000
DSTYLE
1002
{
1070
    74
1070
     0
1070
   279
1070
     0
1070
   172
1070
     1
1070
   173
1070
     1
1070
   340
1005
E5
1070
   271
1070
     1
1070
   272
1070
     2
1070
    77
1070
     1
1070
    73
1070
     0
1070
   171
1070
     3
1070
   274
1070
     4
1070
   177
1070
   150
1070
   176
1070
     9
1070
   178
1070
    43
1070
    78
1070
     8
1070
    48
1040
-0.005
1070
    41
1041
3.175
1070
   147
1041
2.25
1070
    42
1041
1.5875
1070
    44
1041
3.175
1070
   140
1041
4.5
1070
   343
1005
F7
1070
   344
1005
F7
1002
}
0
DIMENSION
5
119
100
AcDbEntity
8
SK2
62
256
6
ByLayer
370
13
48
1
60
0
100
AcDbDimension
2
DimnDraft3D3
10
23.880206
20
32.9125
30
0
11
-39.294794
21
32.9125
31
0
70
32
71
5
72
1
41
1
210
0
220
0
230
1
3
Standard
100
AcDbAlignedDimension
13
-102.469794
23
11.65
33
0
14
23.880206
24
17
34
0
50
0
100
AcDbRotatedDimension
1001
ACAD
1000
DSTYLE
1002
{
1070
   279
1070
     0
1070
   172
1070
     1
1070
   173
1070
     1
1070
   340
1005
E5
1070
   271
1070
     1
1070
   272
1070
     2
1070
    77
1070
     1
1070
    73
1070
     0
1070
   171
1070
     3
1070
   274
1070
     4
1070
   177
1070
   150
1070
   176
1070
     9
1070
   178
1070
    43
1070
    78
1070
     8
1070
    48
1040
-0.005
1070
    41
1041
3.175
1070
   147
1041
2.25
1070
    42
1041
1.5875
1070
    44
1041
3.175
1070
   140
1041
4.5
1070
   343
1005
F7
1070
   344
1005
F7
1002
}
0
DIMENSION
5
126
100
AcDbEntity
8
2
62
256
6
ByLayer
370
13
48
1
60
0
100
AcDbDimension
2
DimnDraft3D4
10
7.072603
20
15.133098
30
0
11
11.782991
21
27.314376
31
0
70
34
71
5
72
1
41
1
210
0
220
0
230
1
3
Standard
100
AcDb2LineAngularDimension
13
23.880206
23
15.4125
33
0
14
23.880206
24
13.825
34
0
15
23.072603
25
15.412379
35
0
16
14.992618
26
24.160284
36
0
40
0
0
ENDSEC
0
SECTION
2
OBJECTS
0
DICTIONARY
5
190
330
0
100
AcDbDictionary
280
0
281
1
3
ACAD_GROUP
350
191
3
ACAD_MLINESTYLE
350
192
0
DICTIONARY
5
191
330
0
100
AcDbDictionary
280
0
281
1
0
DICTIONARY
5
192
330
0
100
AcDbDictionary
280
0
281
1
3
Standard
350
18
0
MLINESTYLE
5
18
330
192
100
AcDbMlineStyle
2
Standard
70
0
3

62
256
51
90
52
90
71
2
49
-0.5
62
256
6
ByLayer
49
0.5
62
256
6
ByLayer
0
RASTERVARIABLES
5
17f
330

100
AcDbRasterVariables
90
0
70
1
71
1
72
1
0
ENDSEC
0
EOF
