0
SECTION
2
HEADER
9
$ACADVER
1
AC1015
9
$DWGCODEPAGE
3
ANSI_1252
9
$HANDSEED
5
1b9
9
$ANGBASE
50
0
9
$ANGDIR
70
0
9
$ATTMODE
70
1
9
$AUNITS
70
0
9
$AUPREC
70
0
9
$CECOLOR
62
256
9
$CELTSCALE
40
1
9
$CELTYPE
6
ByLayer
9
$CELWEIGHT
370
18
9
$CLAYER
8
0
9
$CMLJUST
70
0
9
$CMLSCALE
40
1
9
$CMLSTYLE
2
Standard
9
$DIMSTYLE
2
Standard
9
$TEXTSIZE
40
0.2
9
$TEXTSTYLE
7
Standard
9
$LUNITS
70
2
9
$LUPREC
70
4
9
$EXTNAMES
290
1
9
$INSUNITS
70
4
9
$LTSCALE
40
1
9
$LWDISPLAY
290
1
9
$PDMODE
70
0
9
$PDSIZE
40
0
9
$PLINEGEN
70
0
0
ENDSEC
0
SECTION
2
CLASSES
0
CLASS
1
RASTERVARIABLES
2
AcDbRasterVariables
3
ISM
90
0
280
0
281
0
0
ENDSEC
0
SECTION
2
TABLES
0
TABLE
2
VPORT
5
1af
100
AcDbSymbolTable
0
VPORT
5
1
100
AcDbSymbolTableRecord
100
AcDbViewportTableRecord
2
*Active
70
0
10
0
20
0
11
1
21
1
12
-1
22
1
13
0
23
0
14
0.5
24
0.5
15
10
25
10
16
0
26
0
36
1
17
0
27
0
37
0
0
ENDTAB
0
TABLE
2
LTYPE
5
1b0
100
AcDbSymbolTable
0
LTYPE
5
14
100
AcDbSymbolTableRecord
100
AcDbLinetypeTableRecord
70
0
2
ByBlock
3

72
65
73
0
40
0
0
LTYPE
5
15
100
AcDbSymbolTableRecord
100
AcDbLinetypeTableRecord
70
0
2
ByLayer
3

72
65
73
0
40
0
0
LTYPE
5
16
100
AcDbSymbolTableRecord
100
AcDbLinetypeTableRecord
70
0
2
CONTINUOUS
3
Solid line
72
65
73
0
40
0
0
LTYPE
5
6A
100
AcDbSymbolTableRecord
100
AcDbLinetypeTableRecord
70
0
2
CENTER
3
____ _ ____ _ ____ _ ____
72
65
73
4
40
47.5
49
22
74
0
49
-8.5
74
0
49
8.5
74
0
49
-8.5
74
0
0
LTYPE
5
6B
100
AcDbSymbolTableRecord
100
AcDbLinetypeTableRecord
70
0
2
DASHED
3
__ __ __ __ __ __ __ __ __
72
65
73
2
40
25.72
49
12.86
74
0
49
-12.86
74
0
0
ENDTAB
0
TABLE
2
LAYER
5
1b1
100
AcDbSymbolTable
0
LAYER
5
10
100
AcDbSymbolTableRecord
100
AcDbLayerTableRecord
2
0
70
0
62
7
6
CONTINUOUS
290
1
370
-3
390
0
0
LAYER
5
6D
100
AcDbSymbolTableRecord
100
AcDbLayerTableRecord
2
80
70
0
62
-6
6
CONTINUOUS
290
1
370
-3
390
0
0
LAYER
5
6F
100
AcDbSymbolTableRecord
100
AcDbLayerTableRecord
2
81
70
0
62
-3
6
CONTINUOUS
290
1
370
-3
390
0
0
LAYER
5
71
100
AcDbSymbolTableRecord
100
AcDbLayerTableRecord
2
1
70
0
62
4
6
CONTINUOUS
290
1
370
-3
390
0
0
LAYER
5
73
100
AcDbSymbolTableRecord
100
AcDbLayerTableRecord
2
2
70
0
62
7
6
CONTINUOUS
290
1
370
-3
390
0
0
LAYER
5
19c
100
AcDbSymbolTableRecord
100
AcDbLayerTableRecord
2
SK1
70
0
62
4
6
CONTINUOUS
290
1
370
-3
390
0
0
LAYER
5
19d
100
AcDbSymbolTableRecord
100
AcDbLayerTableRecord
2
SK6
70
0
62
5
6
CONTINUOUS
290
1
370
-3
390
0
0
LAYER
5
19e
100
AcDbSymbolTableRecord
100
AcDbLayerTableRecord
2
SK2
70
0
62
7
6
CONTINUOUS
290
1
370
-3
390
0
0
ENDTAB
0
TABLE
2
STYLE
5
1b2
100
AcDbSymbolTable
0
STYLE
5
11
100
AcDbSymbolTableRecord
100
AcDbTextStyleTableRecord
2
Standard
3
txt
70
0
71
0
40
0
41
1
42
0
50
0
0
STYLE
5
101
100
AcDbSymbolTableRecord
100
AcDbTextStyleTableRecord
2
iso_b_vert
3
simplex.shx
70
0
71
0
40
0
41
1
42
0
50
0
0
STYLE
5
102
100
AcDbSymbolTableRecord
100
AcDbTextStyleTableRecord
2
DWGDirectTextStyle
3
simplex
70
0
71
0
40
0
41
1
42
0
50
0
0
ENDTAB
0
TABLE
2
DIMSTYLE
5
1b3
100
AcDbSymbolTable
100
AcDbDimStyleTable
0
DIMSTYLE
105
27
100
AcDbSymbolTableRecord
100
AcDbDimStyleTableRecord
2
Standard
70
0
3
<>
41
0.18
42
0.0625
44
0.18
140
0.18
147
0.09
73
0
74
0
77
1
271
2
275
0
278
52
280
0
340
11
0
ENDTAB
0
TABLE
2
VIEW
5
1b4
100
AcDbSymbolTable
0
ENDTAB
0
TABLE
2
UCS
5
1b5
100
AcDbSymbolTable
0
ENDTAB
0
TABLE
2
APPID
5
1b6
100
AcDbSymbolTable
0
APPID
5
12
100
AcDbSymbolTableRecord
100
AcDbRegAppTableRecord
2
ACAD
70
0
0
ENDTAB
0
TABLE
2
BLOCK_RECORD
5
1b7
100
AcDbSymbolTable
0
BLOCK_RECORD
5
1F
100
AcDbSymbolTableRecord
100
AcDbBlockTableRecord
2
*Model_Space
340
0
70
0
0
BLOCK_RECORD
5
1B
100
AcDbSymbolTableRecord
100
AcDbBlockTableRecord
2
*Paper_Space
340
0
70
0
0
BLOCK_RECORD
5
23
100
AcDbSymbolTableRecord
100
AcDbBlockTableRecord
2
*Paper_Space0
340
0
70
0
0
BLOCK_RECORD
5
104
100
AcDbSymbolTableRecord
100
AcDbBlockTableRecord
2
DimnDraft3D1
340
0
70
0
0
BLOCK_RECORD
5
113
100
AcDbSymbolTableRecord
100
AcDbBlockTableRecord
2
_CLOSED
340
0
70
0
0
BLOCK_RECORD
5
11A
100
AcDbSymbolTableRecord
100
AcDbBlockTableRecord
2
DimnDraft3D2
340
0
70
0
0
BLOCK_RECORD
5
128
100
AcDbSymbolTableRecord
100
AcDbBlockTableRecord
2
DimnDraft3D3
340
0
70
0
0
BLOCK_RECORD
5
136
100
AcDbSymbolTableRecord
100
AcDbBlockTableRecord
2
DimnDraft3D4
340
0
70
0
0
ENDTAB
0
ENDSEC
0
SECTION
2
BLOCKS
0
BLOCK
5
20
100
AcDbEntity
8
0
100
AcDbBlockBegin
2
*Model_Space
70
0
10
0
20
0
30
0
3
*Model_Space
0
ENDBLK
5
21
100
AcDbEntity
8
0
100
AcDbBlockEnd
0
BLOCK
5
1C
100
AcDbEntity
8
0
100
AcDbBlockBegin
2
*Paper_Space
70
0
10
0
20
0
30
0
3
*Paper_Space
0
ENDBLK
5
1D
100
AcDbEntity
8
0
100
AcDbBlockEnd
0
BLOCK
5
24
100
AcDbEntity
8
0
100
AcDbBlockBegin
2
*Paper_Space0
70
0
10
0
20
0
30
0
3
*Paper_Space0
0
ENDBLK
5
25
100
AcDbEntity
8
0
100
AcDbBlockEnd
0
BLOCK
5
110
100
AcDbEntity
8
0
100
AcDbBlockBegin
2
DimnDraft3D1
70
0
10
0
20
0
30
0
3
DimnDraft3D1
0
MTEXT
5
105
100
AcDbEntity
8
SK2
62
256
6
ByLayer
370
13
48
1
60
0
100
AcDbMText
10
-88.344794
20
-0.938158
30
0
210
0
220
0
230
1
1
\W0.5321;16
40
4.5
41
0
44
1.084337
50
90
71
7
72
5
7
iso_b_vert
0
LINE
5
107
100
AcDbEntity
8
SK2
62
256
6
ByLayer
370
13
48
1
60
0
100
AcDbLine
10
-79.057294
20
8.0625
30
0
11
-90.394794
21
8.0625
31
0
39
0
210
0
220
0
230
1
0
LINE
5
108
100
AcDbEntity
8
SK2
62
256
6
ByLayer
370
13
48
1
60
0
100
AcDbLine
10
-79.057294
20
-7.9375
30
0
11
-90.394794
21
-7.9375
31
0
39
0
210
0
220
0
230
1
0
LINE
5
109
100
AcDbEntity
8
SK2
62
256
6
ByLayer
370
13
48
1
60
0
100
AcDbLine
10
-87.219794
20
8.0625
30
0
11
-87.219794
21
-7.9375
31
0
39
0
210
0
220
0
230
1
0
LINE
5
10A
100
AcDbEntity
8
SK2
62
256
6
ByLayer
370
13
48
1
60
0
100
AcDbLine
10
-87.219794
20
8.0625
30
0
11
-86.369056
21
4.887503
31
0
39
0
210
0
220
0
230
1
0
LINE
5
10B
100
AcDbEntity
8
SK2
62
256
6
ByLayer
370
13
48
1
60
0
100
AcDbLine
10
-87.219794
20
8.0625
30
0
11
-88.070533
21
4.887497
31
0
39
0
210
0
220
0
230
1
0
LINE
5
10C
100
AcDbEntity
8
SK2
62
256
6
ByLayer
370
13
48
1
60
0
100
AcDbLine
10
-86.369056
20
4.887503
30
0
11
-88.070533
21
4.887497
31
0
39
0
210
0
220
0
230
1
0
LINE
5
10D
100
AcDbEntity
8
SK2
62
256
6
ByLayer
370
13
48
1
60
0
100
AcDbLine
10
-87.219794
20
-7.9375
30
0
11
-88.070533
21
-4.762503
31
0
39
0
210
0
220
0
230
1
0
LINE
5
10E
100
AcDbEntity
8
SK2
62
256
6
ByLayer
370
13
48
1
60
0
100
AcDbLine
10
-87.219794
20
-7.9375
30
0
11
-86.369056
21
-4.762497
31
0
39
0
210
0
220
0
230
1
0
LINE
5
10F
100
AcDbEntity
8
SK2
62
256
6
ByLayer
370
13
48
1
60
0
100
AcDbLine
10
-88.070533
20
-4.762503
30
0
11
-86.369056
21
-4.762497
31
0
39
0
210
0
220
0
230
1
0
ENDBLK
5
111
100
AcDbEntity
8
0
100
AcDbBlockEnd
0
BLOCK
5
114
100
AcDbEntity
8
0
100
AcDbBlockBegin
2
_CLOSED
70
0
10
0
20
0
30
0
3
_CLOSED
0
LINE
5
116
100
AcDbEntity
8
0
62
256
6
ByLayer
370
-2
48
1
60
0
100
AcDbLine
10
-1
20
0.166667
30
0
11
0
21
0
31
0
39
0
210
0
220
0
230
1
0
LINE
5
117
100
AcDbEntity
8
0
62
256
6
ByLayer
370
-2
48
1
60
0
100
AcDbLine
10
0
20
0
30
0
11
-1
21
-0.166667
31
0
39
0
210
0
220
0
230
1
0
LINE
5
118
100
AcDbEntity
8
0
62
256
6
ByLayer
370
-2
48
1
60
0
100
AcDbLine
10
-1
20
0.166667
30
0
11
-1
21
-0.166667
31
0
39
0
210
0
220
0
230
1
0
LINE
5
119
100
AcDbEntity
8
0
62
256
6
ByLayer
370
-2
48
1
60
0
100
AcDbLine
10
0
20
0
30
0
11
-1
21
0
31
0
39
0
210
0
220
0
230
1
0
ENDBLK
5
115
100
AcDbEntity
8
0
100
AcDbBlockEnd
0
BLOCK
5
125
100
AcDbEntity
8
0
100
AcDbBlockBegin
2
DimnDraft3D2
70
0
10
0
20
0
30
0
3
DimnDraft3D2
0
MTEXT
5
11B
100
AcDbEntity
8
2
62
256
6
ByLayer
370
13
48
1
60
0
100
AcDbMText
10
39.255206
20
0.674342
30
0
210
0
220
0
230
1
1
\W0.6740;20
40
4.5
41
0
44
1.084337
50
90
71
7
72
5
7
iso_b_vert
0
LINE
5
11C
100
AcDbEntity
8
2
62
256
6
ByLayer
370
13
48
1
60
0
100
AcDbLine
10
1.5875
20
-7.9375
30
0
11
43.555206
21
-7.9375
31
0
39
0
210
0
220
0
230
1
0
LINE
5
11D
100
AcDbEntity
8
2
62
256
6
ByLayer
370
13
48
1
60
0
100
AcDbLine
10
25.467706
20
12.4125
30
0
11
43.555206
21
12.4125
31
0
39
0
210
0
220
0
230
1
0
LINE
5
11E
100
AcDbEntity
8
2
62
256
6
ByLayer
370
13
48
1
60
0
100
AcDbLine
10
40.380206
20
-7.9375
30
0
11
40.380206
21
12.4125
31
0
39
0
210
0
220
0
230
1
0
LINE
5
11F
100
AcDbEntity
8
2
62
256
6
ByLayer
370
13
48
1
60
0
100
AcDbLine
10
40.380206
20
-7.9375
30
0
11
39.529467
21
-4.762503
31
0
39
0
210
0
220
0
230
1
0
LINE
5
120
100
AcDbEntity
8
2
62
256
6
ByLayer
370
13
48
1
60
0
100
AcDbLine
10
40.380206
20
-7.9375
30
0
11
41.230944
21
-4.762497
31
0
39
0
210
0
220
0
230
1
0
LINE
5
121
100
AcDbEntity
8
2
62
256
6
ByLayer
370
13
48
1
60
0
100
AcDbLine
10
39.529467
20
-4.762503
30
0
11
41.230944
21
-4.762497
31
0
39
0
210
0
220
0
230
1
0
LINE
5
122
100
AcDbEntity
8
2
62
256
6
ByLayer
370
13
48
1
60
0
100
AcDbLine
10
40.380206
20
12.4125
30
0
11
41.230944
21
9.237503
31
0
39
0
210
0
220
0
230
1
0
LINE
5
123
100
AcDbEntity
8
2
62
256
6
ByLayer
370
13
48
1
60
0
100
AcDbLine
10
40.380206
20
12.4125
30
0
11
39.529467
21
9.237497
31
0
39
0
210
0
220
0
230
1
0
LINE
5
124
100
AcDbEntity
8
2
62
256
6
ByLayer
370
13
48
1
60
0
100
AcDbLine
10
41.230944
20
9.237503
30
0
11
39.529467
21
9.237497
31
0
39
0
210
0
220
0
230
1
0
ENDBLK
5
126
100
AcDbEntity
8
0
100
AcDbBlockEnd
0
BLOCK
5
133
100
AcDbEntity
8
0
100
AcDbBlockBegin
2
DimnDraft3D3
70
0
10
0
20
0
30
0
3
DimnDraft3D3
0
MTEXT
5
129
100
AcDbEntity
8
SK2
62
256
6
ByLayer
370
13
48
1
60
0
100
AcDbMText
10
-29.477031
20
31.0375
30
0
210
0
220
0
230
1
1
\W0.6217;100
40
4.5
41
0
44
1.084337
50
0
71
7
72
5
7
iso_b_vert
0
LINE
5
12A
100
AcDbEntity
8
SK2
62
256
6
ByLayer
370
13
48
1
60
0
100
AcDbLine
10
-77.469794
20
9.65
30
0
11
-77.469794
21
33.0875
31
0
39
0
210
0
220
0
230
1
0
LINE
5
12B
100
AcDbEntity
8
SK2
62
256
6
ByLayer
370
13
48
1
60
0
100
AcDbLine
10
23.880206
20
14
30
0
11
23.880206
21
33.0875
31
0
39
0
210
0
220
0
230
1
0
LINE
5
12C
100
AcDbEntity
8
SK2
62
256
6
ByLayer
370
13
48
1
60
0
100
AcDbLine
10
-77.469794
20
29.9125
30
0
11
23.880206
21
29.9125
31
0
39
0
210
0
220
0
230
1
0
LINE
5
12D
100
AcDbEntity
8
SK2
62
256
6
ByLayer
370
13
48
1
60
0
100
AcDbLine
10
-77.469794
20
29.9125
30
0
11
-74.294798
21
30.763239
31
0
39
0
210
0
220
0
230
1
0
LINE
5
12E
100
AcDbEntity
8
SK2
62
256
6
ByLayer
370
13
48
1
60
0
100
AcDbLine
10
-77.469794
20
29.9125
30
0
11
-74.294791
21
29.061761
31
0
39
0
210
0
220
0
230
1
0
LINE
5
12F
100
AcDbEntity
8
SK2
62
256
6
ByLayer
370
13
48
1
60
0
100
AcDbLine
10
-74.294798
20
30.763239
30
0
11
-74.294791
21
29.061761
31
0
39
0
210
0
220
0
230
1
0
LINE
5
130
100
AcDbEntity
8
SK2
62
256
6
ByLayer
370
13
48
1
60
0
100
AcDbLine
10
23.880206
20
29.9125
30
0
11
20.705209
21
29.061761
31
0
39
0
210
0
220
0
230
1
0
LINE
5
131
100
AcDbEntity
8
SK2
62
256
6
ByLayer
370
13
48
1
60
0
100
AcDbLine
10
23.880206
20
29.9125
30
0
11
20.705202
21
30.763239
31
0
39
0
210
0
220
0
230
1
0
LINE
5
132
100
AcDbEntity
8
SK2
62
256
6
ByLayer
370
13
48
1
60
0
100
AcDbLine
10
20.705209
20
29.061761
30
0
11
20.705202
21
30.763239
31
0
39
0
210
0
220
0
230
1
0
ENDBLK
5
134
100
AcDbEntity
8
0
100
AcDbBlockEnd
0
BLOCK
5
140
100
AcDbEntity
8
0
100
AcDbBlockBegin
2
DimnDraft3D4
70
0
10
0
20
0
30
0
3
DimnDraft3D4
0
MTEXT
5
137
100
AcDbEntity
8
2
62
256
6
ByLayer
370
13
48
1
60
0
100
AcDbMText
10
10.751836
20
18.449891
30
0
210
0
220
0
230
1
1
\W0.7582;91%%d0'
40
4.5
41
0
44
1.084337
50
45.5
71
7
72
5
7
iso_b_vert
0
LINE
5
138
100
AcDbEntity
8
2
62
256
6
ByLayer
370
13
48
1
60
0
100
AcDbLine
10
23.880206
20
14
30
0
11
23.880206
21
28.062159
31
0
39
0
210
0
220
0
230
1
0
ARC
5
139
100
AcDbEntity
8
2
62
256
6
ByLayer
370
13
48
1
60
0
100
AcDbCircle
39
0
10
23.880206
20
12.426476
30
0
40
12.4606831964037
210
0
220
0
230
1
100
AcDbArc
50
90
51
181
0
LINE
5
13A
100
AcDbEntity
8
2
62
256
6
ByLayer
370
13
48
1
60
0
100
AcDbLine
10
23.880206
20
24.887159
30
0
11
20.765445
21
23.837097
31
0
39
0
210
0
220
0
230
1
0
LINE
5
13B
100
AcDbEntity
8
2
62
256
6
ByLayer
370
13
48
1
60
0
100
AcDbLine
10
23.880206
20
24.887159
30
0
11
20.657707
21
25.53516
31
0
39
0
210
0
220
0
230
1
0
LINE
5
13C
100
AcDbEntity
8
2
62
256
6
ByLayer
370
13
48
1
60
0
100
AcDbLine
10
20.765445
20
23.837097
30
0
11
20.657707
21
25.53516
31
0
39
0
210
0
220
0
230
1
0
LINE
5
13D
100
AcDbEntity
8
2
62
256
6
ByLayer
370
13
48
1
60
0
100
AcDbLine
10
11.42142
20
12.209007
30
0
11
10.717277
21
15.419699
31
0
39
0
210
0
220
0
230
1
0
LINE
5
13E
100
AcDbEntity
8
2
62
256
6
ByLayer
370
13
48
1
60
0
100
AcDbLine
10
11.42142
20
12.209007
30
0
11
12.416962
21
15.341625
31
0
39
0
210
0
220
0
230
1
0
LINE
5
13F
100
AcDbEntity
8
2
62
256
6
ByLayer
370
13
48
1
60
0
100
AcDbLine
10
10.717277
20
15.419699
30
0
11
12.416962
21
15.341625
31
0
39
0
210
0
220
0
230
1
0
ENDBLK
5
141
100
AcDbEntity
8
0
100
AcDbBlockEnd
0
ENDSEC
0
SECTION
2
ENTITIES
0
ARC
5
B7
100
AcDbEntity
8
1
62
256
6
ByLayer
370
18
48
1
60
0
100
AcDbCircle
39
0
10
15.178679
20
6.32721
30
0
40
2.3
210
0
220
0
230
1
100
AcDbArc
50
351.270929
51
2.025795
0
ARC
5
B8
100
AcDbEntity
8
1
62
256
6
ByLayer
370
18
48
1
60
0
100
AcDbCircle
39
0
10
15.178679
20
6.32721
30
0
40
2.3
210
0
220
0
230
1
100
AcDbArc
50
90.038664
51
100.726993
0
ARC
5
B9
100
AcDbEntity
8
1
62
256
6
ByLayer
370
18
48
1
60
0
100
AcDbCircle
39
0
10
0
20
9.5375
30
0
40
1.6000000000002
210
0
220
0
230
-1
100
AcDbArc
50
195
51
270
0
ELLIPSE
5
BA
100
AcDbEntity
8
1
62
256
6
ByLayer
370
18
48
1
60
0
100
AcDbEllipse
10
16.94618
20
-1.294192
30
0
11
-1.41149453508066
21
1.36306442822892
31
0
210
0
220
0
230
1
40
0.989133
41
-2.93798026699142
42
-2.14129177143149
0
ELLIPSE
5
BB
100
AcDbEntity
8
1
62
256
6
ByLayer
370
18
48
1
60
0
100
AcDbEllipse
10
11.044478
20
-4.88008
30
0
11
1.15094368054184
21
-1.11145339273439
31
0
210
0
220
0
230
1
40
0.989133
41
3.14157810571399
42
-2.78804881833276
0
ELLIPSE
5
BC
100
AcDbEntity
8
1
62
256
6
ByLayer
370
18
48
1
60
0
100
AcDbEllipse
10
10.881068
20
-5.049297
30
0
11
-2.30188736108369
21
2.22290678546879
31
0
210
0
220
0
230
1
40
0.989133
41
-0.154377447670727
42
0.353543835257033
0
ELLIPSE
5
BD
100
AcDbEntity
8
1
62
256
6
ByLayer
370
18
48
1
60
0
100
AcDbEllipse
10
11.231836
20
-1.705778
30
0
11
0.111486268906224
21
1.59611115272257
31
0
210
0
220
0
230
1
40
0.095119
41
2.0997561651575
42
2.35633203356662
0
ELLIPSE
5
BE
100
AcDbEntity
8
1
62
256
6
ByLayer
370
18
48
1
60
0
100
AcDbEllipse
10
16.961678
20
-1.278143
30
0
11
1.51938820036899
21
-1.46725612967065
31
0
210
0
220
0
230
1
40
0.989133
41
0.327067623523424
42
1.00030088215831
0
ELLIPSE
5
BF
100
AcDbEntity
8
1
62
256
6
ByLayer
370
18
48
1
60
0
100
AcDbEllipse
10
11.598799
20
-4.306064
30
0
11
1.3196557898619
21
-0.907818791254186
31
0
210
0
220
0
230
-1
40
0.958685
41
2.94670469948668
42
-2.1157353549598
0
ELLIPSE
5
C0
100
AcDbEntity
8
1
62
256
6
ByLayer
370
18
48
1
60
0
100
AcDbEllipse
10
12.829254
20
7.72911
30
0
11
1.4386796006773
21
-1.38931674091799
31
0
210
0
220
0
230
1
40
0.989133
41
-2.21689323886998
42
-1.82713250607251
0
ELLIPSE
5
C1
100
AcDbEntity
8
1
62
256
6
ByLayer
370
18
48
1
60
0
100
AcDbEllipse
10
0
20
-9.544497
30
0
11
-9.8396911875353E-17
21
1.60699659230455
31
0
210
0
220
0
230
-1
40
0.995646
41
0
42
1.30899693899594
0
ELLIPSE
5
C2
100
AcDbEntity
8
1
62
256
6
ByLayer
370
18
48
1
60
0
100
AcDbEllipse
10
17.671316
20
-0.543292
30
0
11
-1.46122648061957
21
1.41109000978516
31
0
210
0
220
0
230
1
40
0.989133
41
1.0003008821583
42
1.79248468217963
0
ELLIPSE
5
C3
100
AcDbEntity
8
1
62
256
6
ByLayer
370
18
48
1
60
0
100
AcDbEllipse
10
17.671316
20
-0.543292
30
0
11
-1.46122648061957
21
1.41109000978516
31
0
210
0
220
0
230
1
40
0.989133
41
2.75629779004826
42
-2.14129177143149
0
ELLIPSE
5
C4
100
AcDbEntity
8
1
62
256
6
ByLayer
370
18
48
1
60
0
100
AcDbEllipse
10
18.85851
20
-0.839398
30
0
11
-0.145796044862335
21
-0.0352634839813062
31
0
210
0
220
0
230
1
40
0.0794
41
1.44634260939363
42
3.02877504631101
0
ELLIPSE
5
C5
100
AcDbEntity
8
1
62
256
6
ByLayer
370
18
48
1
60
0
100
AcDbEllipse
10
3.126843
20
-15.053457
30
0
11
0.664442231497561
21
-2.48098293314155
31
0
210
0
220
0
230
-1
40
0.00071
41
-1.62310576441113
42
-0.0523094375994231
0
ELLIPSE
5
C6
100
AcDbEntity
8
1
62
256
6
ByLayer
370
18
48
1
60
0
100
AcDbEllipse
10
15.048066
20
4.103487
30
0
11
1.43867960067731
21
-1.38931674091799
31
0
210
0
220
0
230
1
40
0.989133
41
-1.82713250607251
42
-1.43737177327503
0
ELLIPSE
5
C7
100
AcDbEntity
8
1
62
256
6
ByLayer
370
18
48
1
60
0
100
AcDbEllipse
10
8.123698
20
-3.582966
30
0
11
1.46685886336518
21
-0.639003188542127
31
0
210
0
220
0
230
1
40
0.137931
41
-1.62221373901197
42
-0.0514174122170991
0
ELLIPSE
5
C8
100
AcDbEntity
8
1
62
256
6
ByLayer
370
18
48
1
60
0
100
AcDbEllipse
10
15.344644
20
6.499071
30
0
11
1.61851455076197
21
-1.56298133353274
31
0
210
0
220
0
230
1
40
0.989133
41
2.3521076895955
42
2.52081579327018
0
ELLIPSE
5
C9
100
AcDbEntity
8
1
62
256
6
ByLayer
370
18
48
1
60
0
100
AcDbEllipse
10
15.344644
20
6.499071
30
0
11
1.61851455076197
21
-1.56298133353274
31
0
210
0
220
0
230
1
40
0.989133
41
0.620751902132415
42
0.793059325308231
0
ELLIPSE
5
CA
100
AcDbEntity
8
1
62
256
6
ByLayer
370
18
48
1
60
0
100
AcDbEllipse
10
10.088393
20
0.249091
30
0
11
2.15801940101596
21
-2.08397511137699
31
0
210
0
220
0
230
1
40
0.989133
41
-0.277751539112269
42
-2.43191079462637E-16
0
ELLIPSE
5
CB
100
AcDbEntity
8
1
62
256
6
ByLayer
370
18
48
1
60
0
100
AcDbEllipse
10
10.088393
20
0.249091
30
0
11
2.15801940101596
21
-2.08397511137699
31
0
210
0
220
0
230
1
40
0.989133
41
0
42
0.773405703359845
0
ELLIPSE
5
CC
100
AcDbEntity
8
1
62
256
6
ByLayer
370
18
48
1
60
0
100
AcDbEllipse
10
10.088393
20
0.249091
30
0
11
2.15801940101596
21
-2.08397511137699
31
0
210
0
220
0
230
1
40
0.989133
41
0.773405797403036
42
-1.01249148712093
0
ELLIPSE
5
CD
100
AcDbEntity
8
1
62
256
6
ByLayer
370
18
48
1
60
0
100
AcDbEllipse
10
9.717144
20
-0.135349
30
0
11
0.931545041438555
21
-0.899582589744399
31
0
210
0
220
0
230
1
40
0.989133
41
0.162267466212691
42
0.773405233139344
0
ELLIPSE
5
CE
100
AcDbEntity
8
1
62
256
6
ByLayer
370
18
48
1
60
0
100
AcDbEllipse
10
9.717144
20
-0.135349
30
0
11
0.931545041438555
21
-0.899582589744399
31
0
210
0
220
0
230
1
40
0.989133
41
0.773406009649008
42
2.89908577569554
0
ELLIPSE
5
CF
100
AcDbEntity
8
1
62
256
6
ByLayer
370
18
48
1
60
0
100
AcDbEllipse
10
9.809063
20
-0.040165
30
0
11
-0.931545041438554
21
0.8995825897444
31
0
210
0
220
0
230
1
40
0.989133
41
-0.769242883465858
42
-0.189667845696017
0
ELLIPSE
5
D0
100
AcDbEntity
8
1
62
256
6
ByLayer
370
18
48
1
60
0
100
AcDbEllipse
10
16.488631
20
7.252559
30
0
11
1.36674562064344
21
-1.31985090387209
31
0
210
0
220
0
230
1
40
0.989133
41
2.13145023530693
42
-2.07100474664688
0
ELLIPSE
5
D1
100
AcDbEntity
8
1
62
256
6
ByLayer
370
18
48
1
60
0
100
AcDbEllipse
10
16.033923
20
7.643986
30
0
11
1.36674562064344
21
-1.31985090387209
31
0
210
0
220
0
230
1
40
0.989133
41
-0.97419867518098
42
1.12578859044561
0
ELLIPSE
5
D2
100
AcDbEntity
8
1
62
256
6
ByLayer
370
18
48
1
60
0
100
AcDbEllipse
10
16.008611
20
6.755484
30
0
11
-1.36674562064344
21
1.31985090387209
31
0
210
0
220
0
230
1
40
0.989133
41
-1.38178282845244E-05
42
0.114250918377362
0
ELLIPSE
5
D3
100
AcDbEntity
8
1
62
256
6
ByLayer
370
18
48
1
60
0
100
AcDbEllipse
10
15.553903
20
7.146911
30
0
11
-1.36674562064344
21
1.31985090387209
31
0
210
0
220
0
230
1
40
0.989133
41
3.04912122681555
42
-3.14158672643324
0
ELLIPSE
5
D4
100
AcDbEntity
8
1
62
256
6
ByLayer
370
18
48
1
60
0
100
AcDbEllipse
10
16.104857
20
-0.837467
30
0
11
0.570975966518806
21
-0.551385081551828
31
0
210
0
220
0
230
1
40
0.989133
41
-0.980800513708772
42
-1.62190913565087E-06
0
ELLIPSE
5
D5
100
AcDbEntity
8
1
62
256
6
ByLayer
370
18
48
1
60
0
100
AcDbEllipse
10
8.933446
20
10.880893
30
0
11
0.570975966518806
21
-0.551385081551828
31
0
210
0
220
0
230
1
40
0.989133
41
-3.14156227505831
42
-2.03333312740053
0
ELLIPSE
5
D6
100
AcDbEntity
8
1
62
256
6
ByLayer
370
18
48
1
60
0
100
AcDbEllipse
10
15.880836
20
7.054314
30
0
11
-1.37034231964513
21
1.32332419572439
31
0
210
0
220
0
230
1
40
0.989133
41
-2.9546827792411
42
-2.46204164115245
0
ELLIPSE
5
D7
100
AcDbEntity
8
1
62
256
6
ByLayer
370
18
48
1
60
0
100
AcDbEllipse
10
15.880836
20
7.054314
30
0
11
-1.37034231964513
21
1.32332419572439
31
0
210
0
220
0
230
1
40
0.989133
41
-0.661025597750021
42
-0.186939634518677
0
ELLIPSE
5
D8
100
AcDbEntity
8
1
62
256
6
ByLayer
370
18
48
1
60
0
100
AcDbEllipse
10
15.219532
20
6.369514
30
0
11
1.62926891857726
21
-1.57336670581212
31
0
210
0
220
0
230
1
40
0.989133
41
2.35470705101442
42
2.55111868283303
0
ELLIPSE
5
D9
100
AcDbEntity
8
1
62
256
6
ByLayer
370
18
48
1
60
0
100
AcDbEllipse
10
15.219532
20
6.369514
30
0
11
1.62926891857726
21
-1.57336670581212
31
0
210
0
220
0
230
1
40
0.989133
41
0.603007823905497
42
0.787958009348578
0
ELLIPSE
5
DA
100
AcDbEntity
8
1
62
256
6
ByLayer
370
18
48
1
60
0
100
AcDbEllipse
10
16.367238
20
7.557999
30
0
11
-1.37034231964513
21
1.32332419572439
31
0
210
0
220
0
230
1
40
0.989133
41
0
42
6.28318530717959
0
ELLIPSE
5
DB
100
AcDbEntity
8
1
62
256
6
ByLayer
370
18
48
1
60
0
100
AcDbEllipse
10
16.59126
20
-0.333782
30
0
11
0.570975966518806
21
-0.551385081551828
31
0
210
0
220
0
230
1
40
0.989133
41
-1.82713250607252
42
0.267262596320667
0
ELLIPSE
5
DC
100
AcDbEntity
8
1
62
256
6
ByLayer
370
18
48
1
60
0
100
AcDbEllipse
10
23.090606
20
11.623202
30
0
11
0.570975966518805
21
-0.551385081551827
31
0
210
0
220
0
230
1
40
0.989133
41
0.26726259632067
42
2.36165769871389
0
ELLIPSE
5
DD
100
AcDbEntity
8
1
62
256
6
ByLayer
370
18
48
1
60
0
100
AcDbEllipse
10
9.419849
20
11.384578
30
0
11
0.570975966518806
21
-0.551385081551828
31
0
210
0
220
0
230
1
40
0.989133
41
2.36165769871387
42
-1.82713250607251
0
ELLIPSE
5
DE
100
AcDbEntity
8
1
62
256
6
ByLayer
370
18
48
1
60
0
100
AcDbEllipse
10
16.261277
20
7.448273
30
0
11
1.27682814560111
21
-1.23301860756472
31
0
210
0
220
0
230
1
40
0.989133
41
1.27442916948904
42
1.98280965626348
0
ELLIPSE
5
DF
100
AcDbEntity
8
1
62
256
6
ByLayer
370
18
48
1
60
0
100
AcDbEllipse
10
16.291916
20
7.480001
30
0
11
-1.06102620549951
21
1.02462109642702
31
0
210
0
220
0
230
1
40
0.989133
41
-1.85206119546391
42
-1.17388528596316
0
ELLIPSE
5
E0
100
AcDbEntity
8
1
62
256
6
ByLayer
370
18
48
1
60
0
100
AcDbEllipse
10
16.291916
20
7.480001
30
0
11
-1.06102620549951
21
1.02462109642702
31
0
210
0
220
0
230
1
40
0.989133
41
1.28953145812588
42
1.96770736762664
0
ELLIPSE
5
E1
100
AcDbEntity
8
1
62
256
6
ByLayer
370
18
48
1
60
0
100
AcDbEllipse
10
16.064562
20
7.675714
30
0
11
-1.15094368054184
21
1.11145339273439
31
0
210
0
220
0
230
1
40
0.989133
41
2.14546547696798
42
-2.02981930480525
0
ELLIPSE
5
E2
100
AcDbEntity
8
1
62
256
6
ByLayer
370
18
48
1
60
0
100
AcDbEllipse
10
16.51927
20
7.284287
30
0
11
-1.15094368054184
21
1.11145339273439
31
0
210
0
220
0
230
1
40
0.989133
41
-0.996127176621816
42
1.11177334878455
0
ELLIPSE
5
E3
100
AcDbEntity
8
1
62
256
6
ByLayer
370
18
48
1
60
0
100
AcDbEllipse
10
10.166524
20
0.329997
30
0
11
1.19942065408855
21
-1.15826706192507
31
0
210
0
220
0
230
1
40
0.989133
41
0
42
6.28318530717959
0
ELLIPSE
5
E4
100
AcDbEntity
8
1
62
256
6
ByLayer
370
18
48
1
60
0
100
AcDbEllipse
10
10.144566
20
0.307259
30
0
11
-0.931545041438554
21
0.8995825897444
31
0
210
0
220
0
230
1
40
0.989133
41
2.97928415802178
42
-2.86363798585905
0
ELLIPSE
5
E5
100
AcDbEntity
8
1
62
256
6
ByLayer
370
18
48
1
60
0
100
AcDbEllipse
10
10.166524
20
0.329997
30
0
11
1.60772445375689
21
-1.55256145797585
31
0
210
0
220
0
230
1
40
0.989133
41
0
42
6.28318530717959
0
ELLIPSE
5
E6
100
AcDbEntity
8
1
62
256
6
ByLayer
370
18
48
1
60
0
100
AcDbEllipse
10
9.809063
20
-0.040165
30
0
11
-0.931545041438554
21
0.8995825897444
31
0
210
0
220
0
230
1
40
0.989133
41
-1.81644043466246
42
-1.20950604676462
0
ELLIPSE
5
E7
100
AcDbEntity
8
1
62
256
6
ByLayer
370
18
48
1
60
0
100
AcDbEllipse
10
10.144566
20
0.307259
30
0
11
-0.931545041438554
21
0.8995825897444
31
0
210
0
220
0
230
1
40
0.989133
41
-1.20950604676462
42
-0.769242883465852
0
ELLIPSE
5
E8
100
AcDbEntity
8
1
62
256
6
ByLayer
370
18
48
1
60
0
100
AcDbEllipse
10
10.144566
20
0.307259
30
0
11
-0.931545041438554
21
0.8995825897444
31
0
210
0
220
0
230
1
40
0.989133
41
0.884889055628588
42
1.32515221892733
0
ELLIPSE
5
E9
100
AcDbEntity
8
1
62
256
6
ByLayer
370
18
48
1
60
0
100
AcDbEllipse
10
10.144566
20
0.307259
30
0
11
-0.931545041438554
21
0.8995825897444
31
0
210
0
220
0
230
1
40
0.989133
41
-0.162308495570038
42
0.277954667730763
0
ELLIPSE
5
EA
100
AcDbEntity
8
1
62
256
6
ByLayer
370
18
48
1
60
0
100
AcDbEllipse
10
10.144566
20
0.307259
30
0
11
-0.931545041438554
21
0.8995825897444
31
0
210
0
220
0
230
1
40
0.989133
41
-2.25670359796121
42
-1.81644043466245
0
ELLIPSE
5
EB
100
AcDbEntity
8
1
62
256
6
ByLayer
370
18
48
1
60
0
100
AcDbEllipse
10
10.144566
20
0.307259
30
0
11
-0.931545041438554
21
0.8995825897444
31
0
210
0
220
0
230
1
40
0.989133
41
1.93208660682518
42
2.37234977012393
0
ELLIPSE
5
EC
100
AcDbEntity
8
1
62
256
6
ByLayer
370
18
48
1
60
0
100
AcDbEllipse
10
9.809063
20
-0.040165
30
0
11
-0.931545041438554
21
0.8995825897444
31
0
210
0
220
0
230
1
40
0.989133
41
-2.86363798585905
42
-2.2567035979612
0
POINT
5
6C
100
AcDbEntity
8
80
62
256
6
ByLayer
370
18
48
1
60
0
100
AcDbPoint
10
0
20
0
30
0
39
0
210
0
220
0
230
1
50
360
0
POINT
5
6E
100
AcDbEntity
8
81
62
256
6
ByLayer
370
18
48
1
60
0
100
AcDbPoint
10
22.530206
20
12.0625
30
0
39
0
210
0
220
0
230
1
50
360
0
POINT
5
70
100
AcDbEntity
8
1
62
256
6
ByLayer
370
18
48
1
60
0
100
AcDbPoint
10
-77.469794
20
-7.9375
30
0
39
0
210
0
220
0
230
1
50
360
0
POINT
5
72
100
AcDbEntity
8
2
62
256
6
ByLayer
370
18
48
1
60
0
100
AcDbPoint
10
9.007166
20
-0.870554
30
0
39
0
210
0
220
0
230
1
50
360
0
SPLINE
5
ED
100
AcDbEntity
8
1
62
256
6
ByLayer
370
18
48
1
60
0
100
AcDbSpline
70
4
71
3
72
18
73
14
40
0
40
0
40
0
40
0
40
0.124999999999995
40
0.124999999999995
40
0.24999999999999
40
0.24999999999999
40
0.374999999999985
40
0.374999999999985
40
0.499999999999979
40
0.499999999999979
40
0.74999999999999
40
0.74999999999999
40
1
40
1
40
1
40
1
41
1
10
18.5008468422488
20
-2.39413959353612
30
0
41
1
10
18.4266683694741
20
-2.42670990543527
30
0
41
1
10
18.3498833393048
20
-2.45486361358206
30
0
41
1
10
18.1950413076427
20
-2.50105680229248
30
0
41
1
10
18.1166842462072
20
-2.51927998867302
30
0
41
1
10
17.9579711668886
20
-2.5462686770106
30
0
41
1
10
17.8776154428297
20
-2.55503428367177
30
0
41
1
10
17.7147436409272
20
-2.56291332196284
30
0
41
1
10
17.6331953754181
20
-2.56194218394029
30
0
41
1
10
17.3909962734053
20
-2.54483024856231
30
0
41
1
10
17.2309932464579
20
-2.51462066651979
30
0
41
1
10
16.9178517412231
20
-2.4155331411412
30
0
41
1
10
16.769931370732
20
-2.34843865518803
30
0
41
1
10
16.6310084861677
20
-2.26353383877881
30
0
0
SPLINE
5
EE
100
AcDbEntity
8
1
62
256
6
ByLayer
370
18
48
1
60
0
100
AcDbSpline
70
4
71
3
72
8
73
4
40
0
40
0
40
0
40
0
40
1
40
1
40
1
40
1
41
1
10
14.7592458418643
20
6.61971688130564
30
0
41
1
10
14.8474030740823
20
6.66516974954942
30
0
41
1
10
14.935567836613
20
6.7106433337934
30
0
41
1
10
15.0237445271397
20
6.7561498030235
30
0
0
SPLINE
5
EF
100
AcDbEntity
8
1
62
256
6
ByLayer
370
18
48
1
60
0
100
AcDbSpline
70
4
71
3
72
8
73
4
40
0
40
0
40
0
40
0
40
1
40
1
40
1
40
1
41
1
10
15.76738113633
20
6.11600400373854
30
0
41
1
10
15.7353519249772
20
6.02519473919409
30
0
41
1
10
15.7033515232094
20
5.93440169992255
30
0
41
1
10
15.6713695343435
20
5.84361904628571
30
0
0
SPLINE
5
F0
100
AcDbEntity
8
1
62
256
6
ByLayer
370
18
48
1
60
0
100
AcDbSpline
70
4
71
3
72
12
73
8
40
0
40
0
40
0
40
0
40
0.238774337401474
40
0.238774337401474
40
0.777313819582579
40
0.777313819582579
40
1
40
1
40
1
40
1
41
1
10
17.1676079890123
20
5.85995451615418
30
0
41
1
10
17.1921256199798
20
5.89447482531884
30
0
41
1
10
17.2154032072168
20
5.9299022243099
30
0
41
1
10
17.2871726394041
20
6.04816965701701
30
0
41
1
10
17.3309378933266
20
6.13558511891912
30
0
41
1
10
17.3820042310994
20
6.26230108481204
30
0
41
1
10
17.3956701431926
20
6.29974413989177
30
0
41
1
10
17.408078860891
20
6.3375575886422
30
0
0
SPLINE
5
F1
100
AcDbEntity
8
1
62
256
6
ByLayer
370
18
48
1
60
0
100
AcDbSpline
70
4
71
3
72
12
73
8
40
0
40
0
40
0
40
0
40
0.0789971346696976
40
0.0789971346696976
40
0.592805540984584
40
0.592805540984584
40
1
40
1
40
1
40
1
41
1
10
15.1217616764149
20
8.5609298083053
30
0
41
1
10
15.1078384516477
20
8.55586057932049
30
0
41
1
10
15.0939725650199
20
8.55062188841231
30
0
41
1
10
14.99035205721
20
8.51003599878032
30
0
41
1
10
14.9022220725818
20
8.46718033765228
30
0
41
1
10
14.7532865372304
20
8.37917571214274
30
0
41
1
10
14.6904595555664
20
8.33640571943599
30
0
41
1
10
14.6306313930753
20
8.28978373284704
30
0
0
SPLINE
5
F2
100
AcDbEntity
8
1
62
256
6
ByLayer
370
18
48
1
60
0
100
AcDbSpline
70
4
71
3
72
8
73
4
40
0
40
0
40
0
40
0
40
1
40
1
40
1
40
1
41
1
10
17.5600879131034
20
8.20385162476765
30
0
41
1
10
17.6402851942821
20
8.2346330850653
30
0
41
1
10
17.7204592056457
20
8.2653637130702
30
0
41
1
10
17.8006197576486
20
8.29606498205015
30
0
0
SPLINE
5
F3
100
AcDbEntity
8
1
62
256
6
ByLayer
370
18
48
1
60
0
100
AcDbSpline
70
4
71
3
72
8
73
4
40
0
40
0
40
0
40
0
40
1
40
1
40
1
40
1
41
1
10
16.8675215919767
20
9.09930525249052
30
0
41
1
10
16.850532065039
20
9.01422437681529
30
0
41
1
10
16.8335152825675
20
8.92912601829502
30
0
41
1
10
16.8164513039131
20
8.84399742405262
30
0
0
SPLINE
5
F4
100
AcDbEntity
8
1
62
256
6
ByLayer
370
18
48
1
60
0
100
AcDbSpline
70
4
71
3
72
10
73
6
40
0
40
0
40
0
40
0
40
0.5
40
0.5
40
1
40
1
40
1
40
1
41
1
10
9.00462137248849
20
0.919485970555996
30
0
41
1
10
8.95683377707368
20
0.863705114105699
30
0
41
1
10
8.90930319674646
20
0.808174394898629
30
0
41
1
10
8.8165809349436
20
0.699763290974431
30
0
41
1
10
8.77112636161681
20
0.646576399337761
30
0
41
1
10
8.72635933084837
20
0.5941620701349
30
0
0
SPLINE
5
F5
100
AcDbEntity
8
1
62
256
6
ByLayer
370
18
48
1
60
0
100
AcDbSpline
70
4
71
3
72
8
73
4
40
0
40
0
40
0
40
0
40
1
40
1
40
1
40
1
41
1
10
11.2341956650197
20
0.982258937431851
30
0
41
1
10
11.1851740408792
20
1.1277699738535
30
0
41
1
10
11.1390119302229
20
1.27083693348027
30
0
41
1
10
11.094578888032
20
1.41242602768125
30
0
0
SPLINE
5
F6
100
AcDbEntity
8
1
62
256
6
ByLayer
370
18
48
1
60
0
100
AcDbSpline
70
4
71
3
72
10
73
6
40
0
40
0
40
0
40
0
40
0.5
40
0.5
40
1
40
1
40
1
40
1
41
1
10
9.21392370247315
20
-0.777849317967963
30
0
41
1
10
9.28353707020227
20
-0.794006444458034
30
0
41
1
10
9.35442470554938
20
-0.810147129870813
30
0
41
1
10
9.49711246956653
20
-0.84184306220007
30
0
41
1
10
9.56898594279727
20
-0.85741615392476
30
0
41
1
10
9.64148782560002
20
-0.872663081389248
30
0
0
SPLINE
5
F7
100
AcDbEntity
8
1
62
256
6
ByLayer
370
18
48
1
60
0
100
AcDbSpline
70
4
71
3
72
8
73
4
40
0
40
0
40
0
40
0
40
1
40
1
40
1
40
1
41
1
10
9.66668692362776
20
1.68929974295949
30
0
41
1
10
9.56826890488577
20
1.57523466518276
30
0
41
1
10
9.46787616143592
20
1.45875840893601
30
0
41
1
10
9.36905427299132
20
1.34391698972638
30
0
0
SPLINE
5
F8
100
AcDbEntity
8
1
62
256
6
ByLayer
370
18
48
1
60
0
100
AcDbSpline
70
4
71
3
72
8
73
4
40
0
40
0
40
0
40
0
40
1
40
1
40
1
40
1
41
1
10
10.1948809347525
20
-0.979968122638923
30
0
41
1
10
10.3461658030682
20
-1.0068872196058
30
0
41
1
10
10.4947939560101
20
-1.0315018499424
30
0
41
1
10
10.6418156668774
20
-1.05472303324623
30
0
0
SPLINE
5
F9
100
AcDbEntity
8
1
62
256
6
ByLayer
370
18
48
1
60
0
100
AcDbSpline
70
4
71
3
72
8
73
4
40
0
40
0
40
0
40
0
40
1
40
1
40
1
40
1
41
1
10
10.0942510467546
20
1.59448597953821
30
0
41
1
10
9.94689582015792
20
1.62547433962737
30
0
41
1
10
9.80510811041023
20
1.65717245625137
30
0
41
1
10
9.66668692362776
20
1.68929974295949
30
0
0
SPLINE
5
FA
100
AcDbEntity
8
1
62
256
6
ByLayer
370
18
48
1
60
0
100
AcDbSpline
70
4
71
3
72
8
73
4
40
0
40
0
40
0
40
0
40
1
40
1
40
1
40
1
41
1
10
9.05493631648747
20
-0.367741080532568
30
0
41
1
10
9.10788758234688
20
-0.509182853831902
30
0
41
1
10
9.16089013619739
20
-0.645166327171296
30
0
41
1
10
9.21392370247315
20
-0.777849317967963
30
0
0
SPLINE
5
FB
100
AcDbEntity
8
1
62
256
6
ByLayer
370
18
48
1
60
0
100
AcDbSpline
70
4
71
3
72
10
73
6
40
0
40
0
40
0
40
0
40
0.5
40
0.5
40
1
40
1
40
1
40
1
41
1
10
11.5821432596567
20
0.0404146395783869
30
0
41
1
10
11.555472160839
20
0.107142212462435
30
0
41
1
10
11.5286534922218
20
0.175110188825414
30
0
41
1
10
11.4755364176495
20
0.311969224545919
30
0
41
1
10
11.4492090145081
20
0.380930538092343
30
0
41
1
10
11.423155873671
20
0.450522877013782
30
0
0
SPLINE
5
FC
100
AcDbEntity
8
1
62
256
6
ByLayer
370
18
48
1
60
0
100
AcDbSpline
70
4
71
3
72
10
73
6
40
0
40
0
40
0
40
0
40
0.5
40
0.5
40
1
40
1
40
1
40
1
41
1
10
8.72635933084837
20
0.5941620701349
30
0
41
1
10
8.74870514204434
20
0.522955530802648
30
0
41
1
10
8.77162721854364
20
0.450952515181058
30
0
41
1
10
8.81819131267486
20
0.307307669568161
30
0
41
1
10
8.84185643369682
20
0.235589482183172
30
0
41
1
10
8.8659761078361
20
0.163994979885501
30
0
0
SPLINE
5
FD
100
AcDbEntity
8
1
62
256
6
ByLayer
370
18
48
1
60
0
100
AcDbSpline
70
4
71
3
72
8
73
4
40
0
40
0
40
0
40
0
40
1
40
1
40
1
40
1
41
1
10
11.5821432596567
20
0.0404146395783869
30
0
41
1
10
11.4837252409142
20
-0.073650438198996
30
0
41
1
10
11.3833324974637
20
-0.190126694446434
30
0
41
1
10
11.2845106090186
20
-0.304968113656713
30
0
0
SPLINE
5
FE
100
AcDbEntity
8
1
62
256
6
ByLayer
370
18
48
1
60
0
100
AcDbSpline
70
4
71
3
72
10
73
6
40
0
40
0
40
0
40
0
40
0.5
40
0.5
40
1
40
1
40
1
40
1
41
1
10
10.9200777085175
20
-0.729399132825108
30
0
41
1
10
10.8722901131027
20
-0.785179989275406
30
0
41
1
10
10.8247595327755
20
-0.840710708482476
30
0
41
1
10
10.7320372709726
20
-0.949121812406673
30
0
41
1
10
10.6865826976458
20
-1.00230870404334
30
0
41
1
10
10.6418156668773
20
-1.05472303324623
30
0
0
SPLINE
5
FF
100
AcDbEntity
8
1
62
256
6
ByLayer
370
18
48
1
60
0
100
AcDbSpline
70
4
71
3
72
10
73
6
40
0
40
0
40
0
40
0
40
0.5
40
0.5
40
1
40
1
40
1
40
1
41
1
10
11.094578888032
20
1.41242602768125
30
0
41
1
10
11.0206402326811
20
1.42410418772312
30
0
41
1
10
10.9458560052161
20
1.43620983387729
30
0
41
1
10
10.7966152607579
20
1.46111995631415
30
0
41
1
10
10.7220795054076
20
1.47393617420028
30
0
41
1
10
10.6476441559071
20
1.48718093828853
30
0
0
LINE
5
74
100
AcDbEntity
8
1
62
256
6
ByLayer
370
18
48
1
60
0
100
AcDbLine
10
10.433219
20
-3.209767
30
0
11
9.893535
21
-3.768627
31
0
39
0
210
0
220
0
230
1
0
LINE
5
75
100
AcDbEntity
8
1
62
256
6
ByLayer
370
18
48
1
60
0
100
AcDbLine
10
16.920649
20
5.82706
30
0
11
17.400668
21
6.324135
31
0
39
0
210
0
220
0
230
1
0
LINE
5
76
100
AcDbEntity
8
1
62
256
6
ByLayer
370
18
48
1
60
0
100
AcDbLine
10
8.848873
20
11.935963
30
0
11
8.36247
21
11.432278
31
0
39
0
210
0
220
0
230
1
0
LINE
5
77
100
AcDbEntity
8
1
62
256
6
ByLayer
370
18
48
1
60
0
100
AcDbLine
10
16.675833
20
-1.388852
30
0
11
17.162236
21
-0.885167
31
0
39
0
210
0
220
0
230
1
0
LINE
5
78
100
AcDbEntity
8
1
62
256
6
ByLayer
370
18
48
1
60
0
100
AcDbLine
10
15.121885
20
8.57241
30
0
11
14.641865
21
8.075335
31
0
39
0
210
0
220
0
230
1
0
LINE
5
79
100
AcDbEntity
8
1
62
256
6
ByLayer
370
18
48
1
60
0
100
AcDbLine
10
7.930374
20
2.333066
30
0
11
7.924157
21
2.326628
31
0
39
0
210
0
220
0
230
1
0
LINE
5
7A
100
AcDbEntity
8
1
62
256
6
ByLayer
370
18
48
1
60
0
100
AcDbLine
10
12.240196
20
-1.841323
30
0
11
12.246413
21
-1.834885
31
0
39
0
210
0
220
0
230
1
0
LINE
5
7B
100
AcDbEntity
8
1
62
256
6
ByLayer
370
18
48
1
60
0
100
AcDbLine
10
18.843191
20
-0.855262
30
0
11
18.340433
21
1.223376
31
0
39
0
210
0
220
0
230
1
0
LINE
5
7C
100
AcDbEntity
8
1
62
256
6
ByLayer
370
18
48
1
60
0
100
AcDbLine
10
18.459807
20
1.443028
30
0
11
19.003695
21
-0.805662
31
0
39
0
210
0
220
0
230
1
0
LINE
5
7D
100
AcDbEntity
8
1
62
256
6
ByLayer
370
18
48
1
60
0
100
AcDbLine
10
8.901735
20
10.633906
30
0
11
1.917557
21
10.511996
31
0
39
0
210
0
220
0
230
1
0
LINE
5
7E
100
AcDbEntity
8
1
62
256
6
ByLayer
370
18
48
1
60
0
100
AcDbLine
10
15.503149
20
-0.152935
30
0
11
15.707468
21
-0.997686
31
0
39
0
210
0
220
0
230
1
0
LINE
5
7F
100
AcDbEntity
8
1
62
256
6
ByLayer
370
18
48
1
60
0
100
AcDbLine
10
12.130463
20
-1.949177
30
0
11
16.631008
21
-2.263534
31
0
39
0
210
0
220
0
230
1
0
LINE
5
80
100
AcDbEntity
8
1
62
256
6
ByLayer
370
18
48
1
60
0
100
AcDbLine
10
22.138071
20
-2.648195
30
0
11
22.084897
21
-3.549084
31
0
39
0
210
0
220
0
230
1
0
LINE
5
81
100
AcDbEntity
8
1
62
256
6
ByLayer
370
18
48
1
60
0
100
AcDbLine
10
19.635165
20
-0.088897
30
0
11
19.016795
21
2.46774
31
0
39
0
210
0
220
0
230
1
0
LINE
5
82
100
AcDbEntity
8
1
62
256
6
ByLayer
370
18
48
1
60
0
100
AcDbLine
10
22.533237
20
4.046896
30
0
11
20.487608
21
5.173616
31
0
39
0
210
0
220
0
230
1
0
LINE
5
83
100
AcDbEntity
8
1
62
256
6
ByLayer
370
18
48
1
60
0
100
AcDbLine
10
18.500847
20
-2.39414
30
0
11
22.138071
21
-2.648195
31
0
39
0
210
0
220
0
230
1
0
LINE
5
84
100
AcDbEntity
8
1
62
256
6
ByLayer
370
18
48
1
60
0
100
AcDbLine
10
22.084897
20
-3.549083
30
0
11
11.65899
21
-2.753591
31
0
39
0
210
0
220
0
230
1
0
LINE
5
85
100
AcDbEntity
8
1
62
256
6
ByLayer
370
18
48
1
60
0
100
AcDbLine
10
7.465833
20
-9.98361
30
0
11
21.251386
21
-17.670816
31
0
39
0
210
0
220
0
230
1
0
LINE
5
86
100
AcDbEntity
8
1
62
256
6
ByLayer
370
18
48
1
60
0
100
AcDbLine
10
22.138071
20
-2.648195
30
0
11
22.533237
21
4.046896
31
0
39
0
210
0
220
0
230
1
0
LINE
5
87
100
AcDbEntity
8
1
62
256
6
ByLayer
370
18
48
1
60
0
100
AcDbLine
10
21.105081
20
-20.149579
30
0
11
4.571526
21
-20.149579
31
0
39
0
210
0
220
0
230
1
0
LINE
5
88
100
AcDbEntity
8
1
62
256
6
ByLayer
370
18
48
1
60
0
100
AcDbLine
10
9.584088
20
-4.231523
30
0
11
3.790468
21
-17.531022
31
0
39
0
210
0
220
0
230
1
0
LINE
5
89
100
AcDbEntity
8
1
62
256
6
ByLayer
370
18
48
1
60
0
100
AcDbLine
10
4.485693
20
-20.149579
30
0
11
4.571526
21
-20.149579
31
0
39
0
210
0
220
0
230
1
0
LINE
5
8A
100
AcDbEntity
8
1
62
256
6
ByLayer
370
18
48
1
60
0
100
AcDbLine
10
3.853733
20
-17.780758
30
0
11
4.571526
21
-16.500872
31
0
39
0
210
0
220
0
230
1
0
LINE
5
8B
100
AcDbEntity
8
1
62
256
6
ByLayer
370
18
48
1
60
0
100
AcDbLine
10
1.84204
20
10.23016
30
0
11
2.479317
21
-12.628937
31
0
39
0
210
0
220
0
230
1
0
LINE
5
8C
100
AcDbEntity
8
1
62
256
6
ByLayer
370
18
48
1
60
0
100
AcDbLine
10
1.545481
20
9.12339
30
0
11
1.545481
21
-9.128575
31
0
39
0
210
0
220
0
230
1
0
LINE
5
8D
100
AcDbEntity
8
1
62
256
6
ByLayer
370
18
48
1
60
0
100
AcDbLine
10
1.545481
20
-9.128575
30
0
11
2.479317
21
-12.628937
31
0
39
0
210
0
220
0
230
1
0
LINE
5
8E
100
AcDbEntity
8
1
62
256
6
ByLayer
370
18
48
1
60
0
100
AcDbLine
10
7.465833
20
-9.98361
30
0
11
10.135584
21
-3.660433
31
0
39
0
210
0
220
0
230
1
0
LINE
5
8F
100
AcDbEntity
8
1
62
256
6
ByLayer
370
18
48
1
60
0
100
AcDbLine
10
10.135584
20
-3.660433
30
0
11
9.584088
21
-4.231523
31
0
39
0
210
0
220
0
230
1
0
LINE
5
90
100
AcDbEntity
8
1
62
256
6
ByLayer
370
18
48
1
60
0
100
AcDbLine
10
1.545481
20
9.12339
30
0
11
1.84204
21
10.23016
31
0
39
0
210
0
220
0
230
1
0
LINE
5
91
100
AcDbEntity
8
1
62
256
6
ByLayer
370
18
48
1
60
0
100
AcDbLine
10
4.571526
20
-16.500872
30
0
11
7.465833
21
-9.98361
31
0
39
0
210
0
220
0
230
1
0
LINE
5
92
100
AcDbEntity
8
1
62
256
6
ByLayer
370
18
48
1
60
0
100
AcDbLine
10
3.853733
20
-17.780758
30
0
11
4.485693
21
-20.149579
31
0
39
0
210
0
220
0
230
1
0
LINE
5
93
100
AcDbEntity
8
1
62
256
6
ByLayer
370
18
48
1
60
0
100
AcDbLine
10
13.353989
20
3.079184
30
0
11
11.135177
21
6.704807
31
0
39
0
210
0
220
0
230
1
0
LINE
5
94
100
AcDbEntity
8
1
62
256
6
ByLayer
370
18
48
1
60
0
100
AcDbLine
10
19.635165
20
-0.088897
30
0
11
19.003695
21
-0.805662
31
0
39
0
210
0
220
0
230
1
0
LINE
5
95
100
AcDbEntity
8
1
62
256
6
ByLayer
370
18
48
1
60
0
100
AcDbLine
10
21.251386
20
-17.670816
30
0
11
21.105081
21
-20.149579
31
0
39
0
210
0
220
0
230
1
0
LINE
5
96
100
AcDbEntity
8
1
62
256
6
ByLayer
370
18
48
1
60
0
100
AcDbLine
10
2.479317
20
-12.628937
30
0
11
3.093862
21
-14.923266
31
0
39
0
210
0
220
0
230
1
0
LINE
5
97
100
AcDbEntity
8
1
62
256
6
ByLayer
370
18
48
1
60
0
100
AcDbLine
10
21.251386
20
-17.670816
30
0
11
22.084897
21
-3.549083
31
0
39
0
210
0
220
0
230
1
0
LINE
5
98
100
AcDbEntity
8
1
62
256
6
ByLayer
370
18
48
1
60
0
100
AcDbLine
10
4.571526
20
-16.500872
30
0
11
4.571526
21
-20.149579
31
0
39
0
210
0
220
0
230
1
0
LINE
5
99
100
AcDbEntity
8
1
62
256
6
ByLayer
370
18
48
1
60
0
100
AcDbLine
10
3.093862
20
-14.923266
30
0
11
7.960287
21
-3.752183
31
0
39
0
210
0
220
0
230
1
0
LINE
5
9A
100
AcDbEntity
8
1
62
256
6
ByLayer
370
18
48
1
60
0
100
AcDbLine
10
0
20
-7.9375
30
0
11
0
21
7.9375
31
0
39
0
210
0
220
0
230
1
0
LINE
5
9B
100
AcDbEntity
8
1
62
256
6
ByLayer
370
18
48
1
60
0
100
AcDbLine
10
3.790468
20
-17.531022
30
0
11
3.853733
21
-17.780758
31
0
39
0
210
0
220
0
230
1
0
LINE
5
9C
100
AcDbEntity
8
1
62
256
6
ByLayer
370
18
48
1
60
0
100
AcDbLine
10
1.84204
20
10.23016
30
0
11
1.917557
21
10.511996
31
0
39
0
210
0
220
0
230
1
0
LINE
5
9D
100
AcDbEntity
8
SK1
62
256
6
ByLayer
370
18
48
1
60
0
100
AcDbLine
10
-77.469794
20
7.9375
30
0
11
-77.469794
21
-7.9375
31
0
39
0
210
0
220
0
230
1
0
LINE
5
9F
100
AcDbEntity
8
SK1
62
256
6
ByLayer
370
18
48
1
60
0
100
AcDbLine
10
-77.469794
20
7.9375
30
0
11
0
21
7.9375
31
0
39
0
210
0
220
0
230
1
0
LINE
5
A0
100
AcDbEntity
8
SK1
62
256
6
ByLayer
370
18
48
1
60
0
100
AcDbLine
10
-77.469794
20
-7.9375
30
0
11
0
21
-7.9375
31
0
39
0
210
0
220
0
230
1
0
LINE
5
A1
100
AcDbEntity
8
SK1
62
256
6
ByLayer
370
18
48
1
60
0
100
AcDbLine
10
0
20
-7.9375
30
0
11
0
21
7.9375
31
0
39
0
210
0
220
0
230
1
0
LINE
5
A2
100
AcDbEntity
8
1
62
256
6
ByLayer
370
18
48
1
60
0
100
AcDbLine
10
9.081476
20
1.046121
30
0
11
9.369054
21
1.343917
31
0
39
0
210
0
220
0
230
1
0
LINE
5
A3
100
AcDbEntity
8
1
62
256
6
ByLayer
370
18
48
1
60
0
100
AcDbLine
10
9.351737
20
1.325983
30
0
11
9.758748
21
1.247062
31
0
39
0
210
0
220
0
230
1
0
LINE
5
A4
100
AcDbEntity
8
1
62
256
6
ByLayer
370
18
48
1
60
0
100
AcDbLine
10
15.700034
20
-0.966968
30
0
11
15.918923
21
-0.740302
31
0
39
0
210
0
220
0
230
1
0
LINE
5
A5
100
AcDbEntity
8
1
62
256
6
ByLayer
370
18
48
1
60
0
100
AcDbLine
10
8.406833
20
10.625273
30
0
11
8.747512
21
10.978057
31
0
39
0
210
0
220
0
230
1
0
LINE
5
A6
100
AcDbEntity
8
80
62
256
6
ByLayer
370
18
48
1
60
0
100
AcDbLine
10
0
20
0
30
0
11
-5
21
0
31
0
39
0
210
0
220
0
230
1
0
LINE
5
A7
100
AcDbEntity
8
81
62
256
6
ByLayer
370
18
48
1
60
0
100
AcDbLine
10
22.530206
20
12.0625
30
0
11
32.530206
21
12.0625
31
0
39
0
210
0
220
0
230
1
0
LINE
5
A8
100
AcDbEntity
8
1
62
256
6
ByLayer
370
18
48
1
60
0
100
AcDbLine
10
23.785345
20
11.240544
30
0
11
17.285999
21
-0.71644
31
0
39
0
210
0
220
0
230
1
0
LINE
5
A9
100
AcDbEntity
8
1
62
256
6
ByLayer
370
18
48
1
60
0
100
AcDbLine
10
15.918923
20
-0.740302
30
0
11
8.747512
21
10.978057
31
0
39
0
210
0
220
0
230
1
0
LINE
5
AA
100
AcDbEntity
8
1
62
256
6
ByLayer
370
18
48
1
60
0
100
AcDbLine
10
9.397447
20
12.173756
30
0
11
23.068204
21
12.41238
31
0
39
0
210
0
220
0
230
1
0
LINE
5
AB
100
AcDbEntity
8
1
62
256
6
ByLayer
370
18
48
1
60
0
100
AcDbLine
10
11.094579
20
1.412426
30
0
11
10.749391
21
1.054973
31
0
39
0
210
0
220
0
230
1
0
LINE
5
AC
100
AcDbEntity
8
1
62
256
6
ByLayer
370
18
48
1
60
0
100
AcDbLine
10
10.949008
20
-0.652392
30
0
11
11.284511
21
-0.304968
31
0
39
0
210
0
220
0
230
1
0
LINE
5
AD
100
AcDbEntity
8
1
62
256
6
ByLayer
370
18
48
1
60
0
100
AcDbLine
10
10.094251
20
1.594486
30
0
11
9.758748
21
1.247062
31
0
39
0
210
0
220
0
230
1
0
LINE
5
AE
100
AcDbEntity
8
1
62
256
6
ByLayer
370
18
48
1
60
0
100
AcDbLine
10
11.234196
20
0.982259
30
0
11
10.898693
21
0.634835
31
0
39
0
210
0
220
0
230
1
0
LINE
5
AF
100
AcDbEntity
8
1
62
256
6
ByLayer
370
18
48
1
60
0
100
AcDbLine
10
10.749391
20
1.054973
30
0
11
10.898693
21
0.634835
31
0
39
0
210
0
220
0
230
1
0
LINE
5
B0
100
AcDbEntity
8
1
62
256
6
ByLayer
370
18
48
1
60
0
100
AcDbLine
10
10.920078
20
-0.729399
30
0
11
10.584575
21
-1.076823
31
0
39
0
210
0
220
0
230
1
0
LINE
5
B1
100
AcDbEntity
8
1
62
256
6
ByLayer
370
18
48
1
60
0
100
AcDbLine
10
10.949008
20
-0.652392
30
0
11
11.236955
21
-0.317038
31
0
39
0
210
0
220
0
230
1
0
LINE
5
B2
100
AcDbEntity
8
1
62
256
6
ByLayer
370
18
48
1
60
0
100
AcDbLine
10
11.087653
20
0.103099
30
0
11
11.423156
21
0.450523
31
0
39
0
210
0
220
0
230
1
0
LINE
5
B3
100
AcDbEntity
8
1
62
256
6
ByLayer
370
18
48
1
60
0
100
AcDbLine
10
11.582143
20
0.040415
30
0
11
11.236955
21
-0.317038
31
0
39
0
210
0
220
0
230
1
0
LINE
5
B4
100
AcDbEntity
8
1
62
256
6
ByLayer
370
18
48
1
60
0
100
AcDbLine
10
10.312141
20
1.139757
30
0
11
10.749391
21
1.054973
31
0
39
0
210
0
220
0
230
1
0
LINE
5
B5
100
AcDbEntity
8
1
62
256
6
ByLayer
370
18
48
1
60
0
100
AcDbLine
10
11.087653
20
0.103099
30
0
11
11.236955
21
-0.317038
31
0
39
0
210
0
220
0
230
1
0
LINE
5
B6
100
AcDbEntity
8
1
62
256
6
ByLayer
370
18
48
1
60
0
100
AcDbLine
10
10.312141
20
1.139757
30
0
11
10.647644
21
1.487181
31
0
39
0
210
0
220
0
230
1
0
MTEXT
5
100
100
AcDbEntity
8
SK6
62
256
6
ByLayer
370
13
48
1
60
0
100
AcDbMText
10
-57.756261
20
-32.999425
30
0
210
0
220
0
230
1
1
\W0.7400;PTGNR 1616H 16HP
40
3.5
41
0
44
1.084337
50
0
71
7
72
5
7
iso_b_vert
0
DIMENSION
5
112
100
AcDbEntity
8
SK2
62
256
6
ByLayer
370
13
48
1
60
0
100
AcDbDimension
2
DimnDraft3D1
10
-87.219794
20
-7.9375
30
0
11
-87.219794
21
0.0625
31
0
70
32
71
5
72
1
41
1
210
0
220
0
230
1
3
Standard
100
AcDbAlignedDimension
13
-79.057294
23
8.0625
33
0
14
-79.057294
24
-7.9375
34
0
50
90
100
AcDbRotatedDimension
1001
ACAD
1000
DSTYLE
1002
{
1070
    74
1070
     0
1070
   279
1070
     0
1070
   172
1070
     1
1070
   173
1070
     1
1070
   340
1005
101
1070
   271
1070
     1
1070
   272
1070
     2
1070
    77
1070
     1
1070
    73
1070
     0
1070
   171
1070
     3
1070
   274
1070
     4
1070
   177
1070
   150
1070
   176
1070
     9
1070
   178
1070
    43
1070
    78
1070
     8
1070
    48
1040
-0.005
1070
    41
1041
3.175
1070
   147
1041
2.25
1070
    42
1041
1.5875
1070
    44
1041
3.175
1070
   140
1041
4.5
1070
   343
1005
113
1070
   344
1005
113
1002
}
0
DIMENSION
5
127
100
AcDbEntity
8
2
62
256
6
ByLayer
370
13
48
1
60
0
100
AcDbDimension
2
DimnDraft3D2
10
40.380206
20
12.4125
30
0
11
40.380206
21
2.2375
31
0
70
32
71
5
72
1
41
1
210
0
220
0
230
1
3
Standard
100
AcDbAlignedDimension
13
1.5875
23
-7.9375
33
0
14
25.467706
24
12.4125
34
0
50
90
100
AcDbRotatedDimension
1001
ACAD
1000
DSTYLE
1002
{
1070
    74
1070
     0
1070
   279
1070
     0
1070
   172
1070
     1
1070
   173
1070
     1
1070
   340
1005
101
1070
   271
1070
     1
1070
   272
1070
     2
1070
    77
1070
     1
1070
    73
1070
     0
1070
   171
1070
     3
1070
   274
1070
     4
1070
   177
1070
   150
1070
   176
1070
     9
1070
   178
1070
    43
1070
    78
1070
     8
1070
    48
1040
-0.005
1070
    41
1041
3.175
1070
   147
1041
2.25
1070
    42
1041
1.5875
1070
    44
1041
3.175
1070
   140
1041
4.5
1070
   343
1005
113
1070
   344
1005
113
1002
}
0
DIMENSION
5
135
100
AcDbEntity
8
SK2
62
256
6
ByLayer
370
13
48
1
60
0
100
AcDbDimension
2
DimnDraft3D3
10
23.880206
20
29.9125
30
0
11
-26.794794
21
29.9125
31
0
70
32
71
5
72
1
41
1
210
0
220
0
230
1
3
Standard
100
AcDbAlignedDimension
13
-77.469794
23
9.65
33
0
14
23.880206
24
14
34
0
50
0
100
AcDbRotatedDimension
1001
ACAD
1000
DSTYLE
1002
{
1070
   279
1070
     0
1070
   172
1070
     1
1070
   173
1070
     1
1070
   340
1005
101
1070
   271
1070
     1
1070
   272
1070
     2
1070
    77
1070
     1
1070
    73
1070
     0
1070
   171
1070
     3
1070
   274
1070
     4
1070
   177
1070
   150
1070
   176
1070
     9
1070
   178
1070
    43
1070
    78
1070
     8
1070
    48
1040
-0.005
1070
    41
1041
3.175
1070
   147
1041
2.25
1070
    42
1041
1.5875
1070
    44
1041
3.175
1070
   140
1041
4.5
1070
   343
1005
113
1070
   344
1005
113
1002
}
0
DIMENSION
5
142
100
AcDbEntity
8
2
62
256
6
ByLayer
370
13
48
1
60
0
100
AcDbDimension
2
DimnDraft3D4
10
7.072603
20
12.133098
30
0
11
11.782991
21
24.314376
31
0
70
34
71
5
72
1
41
1
210
0
220
0
230
1
3
Standard
100
AcDb2LineAngularDimension
13
23.880206
23
12.4125
33
0
14
23.880206
24
10.825
34
0
15
23.072603
25
12.412379
35
0
16
14.992618
26
21.160284
36
0
40
0
0
ENDSEC
0
SECTION
2
OBJECTS
0
DICTIONARY
5
1ac
330
0
100
AcDbDictionary
280
0
281
1
3
ACAD_GROUP
350
1ad
3
ACAD_MLINESTYLE
350
1ae
0
DICTIONARY
5
1ad
330
0
100
AcDbDictionary
280
0
281
1
0
DICTIONARY
5
1ae
330
0
100
AcDbDictionary
280
0
281
1
3
Standard
350
18
0
MLINESTYLE
5
18
330
1ae
100
AcDbMlineStyle
2
Standard
70
0
3

62
256
51
90
52
90
71
2
49
-0.5
62
256
6
ByLayer
49
0.5
62
256
6
ByLayer
0
RASTERVARIABLES
5
19b
330

100
AcDbRasterVariables
90
0
70
1
71
1
72
1
0
ENDSEC
0
EOF
