0
SECTION
2
HEADER
9
$ACADVER
1
AC1015
9
$DWGCODEPAGE
3
ANSI_1252
9
$HANDSEED
5
190
9
$ANGBASE
50
0
9
$ANGDIR
70
0
9
$ATTMODE
70
1
9
$AUNITS
70
0
9
$AUPREC
70
0
9
$CECOLOR
62
256
9
$CELTSCALE
40
1
9
$CELTYPE
6
ByLayer
9
$CELWEIGHT
370
18
9
$CLAYER
8
0
9
$CMLJUST
70
0
9
$CMLSCALE
40
1
9
$CMLSTYLE
2
Standard
9
$DIMSTYLE
2
Standard
9
$TEXTSIZE
40
0.2
9
$TEXTSTYLE
7
Standard
9
$LUNITS
70
2
9
$LUPREC
70
4
9
$EXTNAMES
290
1
9
$INSUNITS
70
4
9
$LTSCALE
40
1
9
$LWDISPLAY
290
1
9
$PDMODE
70
0
9
$PDSIZE
40
0
9
$PLINEGEN
70
0
0
ENDSEC
0
SECTION
2
CLASSES
0
CLASS
1
RASTERVARIABLES
2
AcDbRasterVariables
3
ISM
90
0
280
0
281
0
0
ENDSEC
0
SECTION
2
TABLES
0
TABLE
2
VPORT
5
186
100
AcDbSymbolTable
0
VPORT
5
1
100
AcDbSymbolTableRecord
100
AcDbViewportTableRecord
2
*Active
70
0
10
0
20
0
11
1
21
1
12
-1
22
1
13
0
23
0
14
0.5
24
0.5
15
10
25
10
16
0
26
0
36
1
17
0
27
0
37
0
0
ENDTAB
0
TABLE
2
LTYPE
5
187
100
AcDbSymbolTable
0
LTYPE
5
14
100
AcDbSymbolTableRecord
100
AcDbLinetypeTableRecord
70
0
2
ByBlock
3

72
65
73
0
40
0
0
LTYPE
5
15
100
AcDbSymbolTableRecord
100
AcDbLinetypeTableRecord
70
0
2
ByLayer
3

72
65
73
0
40
0
0
LTYPE
5
16
100
AcDbSymbolTableRecord
100
AcDbLinetypeTableRecord
70
0
2
CONTINUOUS
3
Solid line
72
65
73
0
40
0
0
LTYPE
5
6A
100
AcDbSymbolTableRecord
100
AcDbLinetypeTableRecord
70
0
2
CENTER
3
____ _ ____ _ ____ _ ____
72
65
73
4
40
47.5
49
22
74
0
49
-8.5
74
0
49
8.5
74
0
49
-8.5
74
0
0
LTYPE
5
6B
100
AcDbSymbolTableRecord
100
AcDbLinetypeTableRecord
70
0
2
DASHED
3
__ __ __ __ __ __ __ __ __
72
65
73
2
40
25.72
49
12.86
74
0
49
-12.86
74
0
0
ENDTAB
0
TABLE
2
LAYER
5
188
100
AcDbSymbolTable
0
LAYER
5
10
100
AcDbSymbolTableRecord
100
AcDbLayerTableRecord
2
0
70
0
62
7
6
CONTINUOUS
290
1
370
-3
390
0
0
LAYER
5
6D
100
AcDbSymbolTableRecord
100
AcDbLayerTableRecord
2
80
70
0
62
-6
6
CONTINUOUS
290
1
370
-3
390
0
0
LAYER
5
6F
100
AcDbSymbolTableRecord
100
AcDbLayerTableRecord
2
81
70
0
62
-3
6
CONTINUOUS
290
1
370
-3
390
0
0
LAYER
5
71
100
AcDbSymbolTableRecord
100
AcDbLayerTableRecord
2
1
70
0
62
4
6
CONTINUOUS
290
1
370
-3
390
0
0
LAYER
5
F1
100
AcDbSymbolTableRecord
100
AcDbLayerTableRecord
2
2
70
0
62
7
6
CONTINUOUS
290
1
370
-3
390
0
0
LAYER
5
173
100
AcDbSymbolTableRecord
100
AcDbLayerTableRecord
2
SK1
70
0
62
4
6
CONTINUOUS
290
1
370
-3
390
0
0
LAYER
5
174
100
AcDbSymbolTableRecord
100
AcDbLayerTableRecord
2
SK6
70
0
62
5
6
CONTINUOUS
290
1
370
-3
390
0
0
LAYER
5
175
100
AcDbSymbolTableRecord
100
AcDbLayerTableRecord
2
SK2
70
0
62
7
6
CONTINUOUS
290
1
370
-3
390
0
0
ENDTAB
0
TABLE
2
STYLE
5
189
100
AcDbSymbolTable
0
STYLE
5
11
100
AcDbSymbolTableRecord
100
AcDbTextStyleTableRecord
2
Standard
3
txt
70
0
71
0
40
0
41
1
42
0
50
0
0
STYLE
5
D6
100
AcDbSymbolTableRecord
100
AcDbTextStyleTableRecord
2
iso_b_vert
3
simplex.shx
70
0
71
0
40
0
41
1
42
0
50
0
0
STYLE
5
D7
100
AcDbSymbolTableRecord
100
AcDbTextStyleTableRecord
2
DWGDirectTextStyle
3
simplex
70
0
71
0
40
0
41
1
42
0
50
0
0
ENDTAB
0
TABLE
2
DIMSTYLE
5
18a
100
AcDbSymbolTable
100
AcDbDimStyleTable
0
DIMSTYLE
105
27
100
AcDbSymbolTableRecord
100
AcDbDimStyleTableRecord
2
Standard
70
0
3
<>
41
0.18
42
0.0625
44
0.18
140
0.18
147
0.09
73
0
74
0
77
1
271
2
275
0
278
52
280
0
340
11
0
ENDTAB
0
TABLE
2
VIEW
5
18b
100
AcDbSymbolTable
0
ENDTAB
0
TABLE
2
UCS
5
18c
100
AcDbSymbolTable
0
ENDTAB
0
TABLE
2
APPID
5
18d
100
AcDbSymbolTable
0
APPID
5
12
100
AcDbSymbolTableRecord
100
AcDbRegAppTableRecord
2
ACAD
70
0
0
ENDTAB
0
TABLE
2
BLOCK_RECORD
5
18e
100
AcDbSymbolTable
0
BLOCK_RECORD
5
1F
100
AcDbSymbolTableRecord
100
AcDbBlockTableRecord
2
*Model_Space
340
0
70
0
0
BLOCK_RECORD
5
1B
100
AcDbSymbolTableRecord
100
AcDbBlockTableRecord
2
*Paper_Space
340
0
70
0
0
BLOCK_RECORD
5
23
100
AcDbSymbolTableRecord
100
AcDbBlockTableRecord
2
*Paper_Space0
340
0
70
0
0
BLOCK_RECORD
5
D9
100
AcDbSymbolTableRecord
100
AcDbBlockTableRecord
2
DimnDraft3D1
340
0
70
0
0
BLOCK_RECORD
5
E8
100
AcDbSymbolTableRecord
100
AcDbBlockTableRecord
2
_CLOSED
340
0
70
0
0
BLOCK_RECORD
5
EF
100
AcDbSymbolTableRecord
100
AcDbBlockTableRecord
2
DimnDraft3D2
340
0
70
0
0
BLOCK_RECORD
5
FE
100
AcDbSymbolTableRecord
100
AcDbBlockTableRecord
2
DimnDraft3D3
340
0
70
0
0
BLOCK_RECORD
5
10C
100
AcDbSymbolTableRecord
100
AcDbBlockTableRecord
2
DimnDraft3D4
340
0
70
0
0
ENDTAB
0
ENDSEC
0
SECTION
2
BLOCKS
0
BLOCK
5
20
100
AcDbEntity
8
0
100
AcDbBlockBegin
2
*Model_Space
70
0
10
0
20
0
30
0
3
*Model_Space
0
ENDBLK
5
21
100
AcDbEntity
8
0
100
AcDbBlockEnd
0
BLOCK
5
1C
100
AcDbEntity
8
0
100
AcDbBlockBegin
2
*Paper_Space
70
0
10
0
20
0
30
0
3
*Paper_Space
0
ENDBLK
5
1D
100
AcDbEntity
8
0
100
AcDbBlockEnd
0
BLOCK
5
24
100
AcDbEntity
8
0
100
AcDbBlockBegin
2
*Paper_Space0
70
0
10
0
20
0
30
0
3
*Paper_Space0
0
ENDBLK
5
25
100
AcDbEntity
8
0
100
AcDbBlockEnd
0
BLOCK
5
E5
100
AcDbEntity
8
0
100
AcDbBlockBegin
2
DimnDraft3D1
70
0
10
0
20
0
30
0
3
DimnDraft3D1
0
MTEXT
5
DA
100
AcDbEntity
8
SK2
62
256
6
ByLayer
370
13
48
1
60
0
100
AcDbMText
10
-145.570681
20
-1.625658
30
0
210
0
220
0
230
1
1
\W0.6740;25
40
4.5
41
0
44
1.084337
50
90
71
7
72
5
7
iso_b_vert
0
LINE
5
DC
100
AcDbEntity
8
SK2
62
256
6
ByLayer
370
13
48
1
60
0
100
AcDbLine
10
-136.283181
20
-12.5625
30
0
11
-147.620681
21
-12.5625
31
0
39
0
210
0
220
0
230
1
0
LINE
5
DD
100
AcDbEntity
8
SK2
62
256
6
ByLayer
370
13
48
1
60
0
100
AcDbLine
10
-136.283181
20
12.4375
30
0
11
-147.620681
21
12.4375
31
0
39
0
210
0
220
0
230
1
0
LINE
5
DE
100
AcDbEntity
8
SK2
62
256
6
ByLayer
370
13
48
1
60
0
100
AcDbLine
10
-144.445681
20
-12.5625
30
0
11
-144.445681
21
12.4375
31
0
39
0
210
0
220
0
230
1
0
LINE
5
DF
100
AcDbEntity
8
SK2
62
256
6
ByLayer
370
13
48
1
60
0
100
AcDbLine
10
-144.445681
20
-12.5625
30
0
11
-145.296419
21
-9.387503
31
0
39
0
210
0
220
0
230
1
0
LINE
5
E0
100
AcDbEntity
8
SK2
62
256
6
ByLayer
370
13
48
1
60
0
100
AcDbLine
10
-144.445681
20
-12.5625
30
0
11
-143.594942
21
-9.387497
31
0
39
0
210
0
220
0
230
1
0
LINE
5
E1
100
AcDbEntity
8
SK2
62
256
6
ByLayer
370
13
48
1
60
0
100
AcDbLine
10
-145.296419
20
-9.387503
30
0
11
-143.594942
21
-9.387497
31
0
39
0
210
0
220
0
230
1
0
LINE
5
E2
100
AcDbEntity
8
SK2
62
256
6
ByLayer
370
13
48
1
60
0
100
AcDbLine
10
-144.445681
20
12.4375
30
0
11
-143.594942
21
9.262503
31
0
39
0
210
0
220
0
230
1
0
LINE
5
E3
100
AcDbEntity
8
SK2
62
256
6
ByLayer
370
13
48
1
60
0
100
AcDbLine
10
-144.445681
20
12.4375
30
0
11
-145.296419
21
9.262497
31
0
39
0
210
0
220
0
230
1
0
LINE
5
E4
100
AcDbEntity
8
SK2
62
256
6
ByLayer
370
13
48
1
60
0
100
AcDbLine
10
-143.594942
20
9.262503
30
0
11
-145.296419
21
9.262497
31
0
39
0
210
0
220
0
230
1
0
ENDBLK
5
E6
100
AcDbEntity
8
0
100
AcDbBlockEnd
0
BLOCK
5
E9
100
AcDbEntity
8
0
100
AcDbBlockBegin
2
_CLOSED
70
0
10
0
20
0
30
0
3
_CLOSED
0
LINE
5
EB
100
AcDbEntity
8
0
62
256
6
ByLayer
370
-2
48
1
60
0
100
AcDbLine
10
-1
20
0.166667
30
0
11
0
21
0
31
0
39
0
210
0
220
0
230
1
0
LINE
5
EC
100
AcDbEntity
8
0
62
256
6
ByLayer
370
-2
48
1
60
0
100
AcDbLine
10
0
20
0
30
0
11
-1
21
-0.166667
31
0
39
0
210
0
220
0
230
1
0
LINE
5
ED
100
AcDbEntity
8
0
62
256
6
ByLayer
370
-2
48
1
60
0
100
AcDbLine
10
-1
20
0.166667
30
0
11
-1
21
-0.166667
31
0
39
0
210
0
220
0
230
1
0
LINE
5
EE
100
AcDbEntity
8
0
62
256
6
ByLayer
370
-2
48
1
60
0
100
AcDbLine
10
0
20
0
30
0
11
-1
21
0
31
0
39
0
210
0
220
0
230
1
0
ENDBLK
5
EA
100
AcDbEntity
8
0
100
AcDbBlockEnd
0
BLOCK
5
FB
100
AcDbEntity
8
0
100
AcDbBlockBegin
2
DimnDraft3D2
70
0
10
0
20
0
30
0
3
DimnDraft3D2
0
MTEXT
5
F0
100
AcDbEntity
8
2
62
256
6
ByLayer
370
13
48
1
60
0
100
AcDbMText
10
32.029319
20
-5.300658
30
0
210
0
220
0
230
1
1
\W0.6740;32
40
4.5
41
0
44
1.084337
50
90
71
7
72
5
7
iso_b_vert
0
LINE
5
F2
100
AcDbEntity
8
2
62
256
6
ByLayer
370
13
48
1
60
0
100
AcDbLine
10
18.241819
20
-19.9125
30
0
11
36.329319
21
-19.9125
31
0
39
0
210
0
220
0
230
1
0
LINE
5
F3
100
AcDbEntity
8
2
62
256
6
ByLayer
370
13
48
1
60
0
100
AcDbLine
10
1.5875
20
12.4375
30
0
11
36.329319
21
12.4375
31
0
39
0
210
0
220
0
230
1
0
LINE
5
F4
100
AcDbEntity
8
2
62
256
6
ByLayer
370
13
48
1
60
0
100
AcDbLine
10
33.154319
20
-19.9125
30
0
11
33.154319
21
12.4375
31
0
39
0
210
0
220
0
230
1
0
LINE
5
F5
100
AcDbEntity
8
2
62
256
6
ByLayer
370
13
48
1
60
0
100
AcDbLine
10
33.154319
20
-19.9125
30
0
11
32.303581
21
-16.737503
31
0
39
0
210
0
220
0
230
1
0
LINE
5
F6
100
AcDbEntity
8
2
62
256
6
ByLayer
370
13
48
1
60
0
100
AcDbLine
10
33.154319
20
-19.9125
30
0
11
34.005058
21
-16.737497
31
0
39
0
210
0
220
0
230
1
0
LINE
5
F7
100
AcDbEntity
8
2
62
256
6
ByLayer
370
13
48
1
60
0
100
AcDbLine
10
32.303581
20
-16.737503
30
0
11
34.005058
21
-16.737497
31
0
39
0
210
0
220
0
230
1
0
LINE
5
F8
100
AcDbEntity
8
2
62
256
6
ByLayer
370
13
48
1
60
0
100
AcDbLine
10
33.154319
20
12.4375
30
0
11
34.005058
21
9.262503
31
0
39
0
210
0
220
0
230
1
0
LINE
5
F9
100
AcDbEntity
8
2
62
256
6
ByLayer
370
13
48
1
60
0
100
AcDbLine
10
33.154319
20
12.4375
30
0
11
32.303581
21
9.262497
31
0
39
0
210
0
220
0
230
1
0
LINE
5
FA
100
AcDbEntity
8
2
62
256
6
ByLayer
370
13
48
1
60
0
100
AcDbLine
10
34.005058
20
9.262503
30
0
11
32.303581
21
9.262497
31
0
39
0
210
0
220
0
230
1
0
ENDBLK
5
FC
100
AcDbEntity
8
0
100
AcDbBlockEnd
0
BLOCK
5
109
100
AcDbEntity
8
0
100
AcDbBlockBegin
2
DimnDraft3D3
70
0
10
0
20
0
30
0
3
DimnDraft3D3
0
MTEXT
5
FF
100
AcDbEntity
8
SK2
62
256
6
ByLayer
370
13
48
1
60
0
100
AcDbMText
10
-61.702918
20
-45.2875
30
0
210
0
220
0
230
1
1
\W0.6217;150
40
4.5
41
0
44
1.084337
50
0
71
7
72
5
7
iso_b_vert
0
LINE
5
100
100
AcDbEntity
8
SK2
62
256
6
ByLayer
370
13
48
1
60
0
100
AcDbLine
10
-134.695681
20
-14.15
30
0
11
-134.695681
21
-49.5875
31
0
39
0
210
0
220
0
230
1
0
LINE
5
101
100
AcDbEntity
8
SK2
62
256
6
ByLayer
370
13
48
1
60
0
100
AcDbLine
10
16.654319
20
-21.5
30
0
11
16.654319
21
-49.5875
31
0
39
0
210
0
220
0
230
1
0
LINE
5
102
100
AcDbEntity
8
SK2
62
256
6
ByLayer
370
13
48
1
60
0
100
AcDbLine
10
-134.695681
20
-46.4125
30
0
11
16.654319
21
-46.4125
31
0
39
0
210
0
220
0
230
1
0
LINE
5
103
100
AcDbEntity
8
SK2
62
256
6
ByLayer
370
13
48
1
60
0
100
AcDbLine
10
-134.695681
20
-46.4125
30
0
11
-131.520684
21
-45.561761
31
0
39
0
210
0
220
0
230
1
0
LINE
5
104
100
AcDbEntity
8
SK2
62
256
6
ByLayer
370
13
48
1
60
0
100
AcDbLine
10
-134.695681
20
-46.4125
30
0
11
-131.520678
21
-47.263239
31
0
39
0
210
0
220
0
230
1
0
LINE
5
105
100
AcDbEntity
8
SK2
62
256
6
ByLayer
370
13
48
1
60
0
100
AcDbLine
10
-131.520684
20
-45.561761
30
0
11
-131.520678
21
-47.263239
31
0
39
0
210
0
220
0
230
1
0
LINE
5
106
100
AcDbEntity
8
SK2
62
256
6
ByLayer
370
13
48
1
60
0
100
AcDbLine
10
16.654319
20
-46.4125
30
0
11
13.479322
21
-47.263239
31
0
39
0
210
0
220
0
230
1
0
LINE
5
107
100
AcDbEntity
8
SK2
62
256
6
ByLayer
370
13
48
1
60
0
100
AcDbLine
10
16.654319
20
-46.4125
30
0
11
13.479316
21
-45.561761
31
0
39
0
210
0
220
0
230
1
0
LINE
5
108
100
AcDbEntity
8
SK2
62
256
6
ByLayer
370
13
48
1
60
0
100
AcDbLine
10
13.479322
20
-47.263239
30
0
11
13.479316
21
-45.561761
31
0
39
0
210
0
220
0
230
1
0
ENDBLK
5
10A
100
AcDbEntity
8
0
100
AcDbBlockEnd
0
BLOCK
5
117
100
AcDbEntity
8
0
100
AcDbBlockBegin
2
DimnDraft3D4
70
0
10
0
20
0
30
0
3
DimnDraft3D4
0
MTEXT
5
10D
100
AcDbEntity
8
2
62
256
6
ByLayer
370
13
48
1
60
0
100
AcDbMText
10
-1.292014
20
-30.677503
30
0
210
0
220
0
230
1
1
\W0.7582;91%%d0'
40
4.5
41
0
44
1.084337
50
314.5
71
7
72
5
7
iso_b_vert
0
LINE
5
10E
100
AcDbEntity
8
2
62
256
6
ByLayer
370
13
48
1
60
0
100
AcDbLine
10
3.664935
20
-19.692757
30
0
11
-7.98255
21
-19.48945
31
0
39
0
210
0
220
0
230
1
0
LINE
5
10F
100
AcDbEntity
8
2
62
256
6
ByLayer
370
13
48
1
60
0
100
AcDbLine
10
16.654319
20
-21.5
30
0
11
16.654319
21
-44.56011
31
0
39
0
210
0
220
0
230
1
0
ARC
5
110
100
AcDbEntity
8
2
62
256
6
ByLayer
370
13
48
1
60
0
100
AcDbCircle
39
0
10
16.654319
20
-19.919488
30
0
40
21.4656222524599
210
0
220
0
230
1
100
AcDbArc
50
179
51
270
0
LINE
5
111
100
AcDbEntity
8
2
62
256
6
ByLayer
370
13
48
1
60
0
100
AcDbLine
10
-4.808034
20
-19.544861
30
0
11
-3.895683
21
-22.702705
31
0
39
0
210
0
220
0
230
1
0
LINE
5
112
100
AcDbEntity
8
2
62
256
6
ByLayer
370
13
48
1
60
0
100
AcDbLine
10
-4.808034
20
-19.544861
30
0
11
-5.596838
21
-22.735815
31
0
39
0
210
0
220
0
230
1
0
LINE
5
113
100
AcDbEntity
8
2
62
256
6
ByLayer
370
13
48
1
60
0
100
AcDbLine
10
-3.895683
20
-22.702705
30
0
11
-5.596838
21
-22.735815
31
0
39
0
210
0
220
0
230
1
0
LINE
5
114
100
AcDbEntity
8
2
62
256
6
ByLayer
370
13
48
1
60
0
100
AcDbLine
10
16.654319
20
-41.38511
30
0
11
13.450091
21
-42.118105
31
0
39
0
210
0
220
0
230
1
0
LINE
5
115
100
AcDbEntity
8
2
62
256
6
ByLayer
370
13
48
1
60
0
100
AcDbLine
10
16.654319
20
-41.38511
30
0
11
13.512873
21
-40.417786
31
0
39
0
210
0
220
0
230
1
0
LINE
5
116
100
AcDbEntity
8
2
62
256
6
ByLayer
370
13
48
1
60
0
100
AcDbLine
10
13.450091
20
-42.118105
30
0
11
13.512873
21
-40.417786
31
0
39
0
210
0
220
0
230
1
0
ENDBLK
5
118
100
AcDbEntity
8
0
100
AcDbBlockEnd
0
ENDSEC
0
SECTION
2
ENTITIES
0
ARC
5
A2
100
AcDbEntity
8
1
62
256
6
ByLayer
370
18
48
1
60
0
100
AcDbCircle
39
0
10
0
20
-14.0375
30
0
40
1.59999999999924
210
0
220
0
230
-1
100
AcDbArc
50
90
51
165
0
ELLIPSE
5
A3
100
AcDbEntity
8
1
62
256
6
ByLayer
370
18
48
1
60
0
100
AcDbEllipse
10
12.382979
20
-11.599984
30
0
11
-1.22190524676017
21
-1.17998018067411
31
0
210
0
220
0
230
1
40
0.989133
41
1.82713250607253
42
2.9946268357102
0
ELLIPSE
5
A4
100
AcDbEntity
8
1
62
256
6
ByLayer
370
18
48
1
60
0
100
AcDbEllipse
10
12.257178
20
-11.469713
30
0
11
1.28071255576028
21
1.23676973885214
31
0
210
0
220
0
230
1
40
0.989133
41
-1.31446014751726
42
-0.509426823632676
0
ELLIPSE
5
A5
100
AcDbEntity
8
1
62
256
6
ByLayer
370
18
48
1
60
0
100
AcDbEllipse
10
13.780565
20
-12.397412
30
0
11
0.127942742177419
21
-0.0782984975853468
31
0
210
0
220
0
230
1
40
0.037276
41
1.06679936608612
42
1.7136006876899
0
ELLIPSE
5
A6
100
AcDbEntity
8
1
62
256
6
ByLayer
370
18
48
1
60
0
100
AcDbEllipse
10
13.276106
20
-13.221717
30
0
11
0.172683049693272
21
-0.00481053056412133
31
0
210
0
220
0
230
-1
40
0.089701
41
-1.66212783898641
42
-1.01078484455356
0
ELLIPSE
5
A7
100
AcDbEntity
8
1
62
256
6
ByLayer
370
18
48
1
60
0
100
AcDbEllipse
10
12.543147
20
-11.765843
30
0
11
-1.20877857572642
21
-1.16730390180623
31
0
210
0
220
0
230
1
40
0.989133
41
1.82713250607252
42
-1.31446014751728
0
ELLIPSE
5
A8
100
AcDbEntity
8
1
62
256
6
ByLayer
370
18
48
1
60
0
100
AcDbEllipse
10
0
20
12.444481
30
0
11
1.59999999999902
21
1.61702248813079E-15
31
0
210
0
220
0
230
-1
40
0.004363
41
0.261799387798814
42
1.5707963267949
0
ELLIPSE
5
A9
100
AcDbEntity
8
1
62
256
6
ByLayer
370
18
48
1
60
0
100
AcDbEllipse
10
12.695953
20
-11.858235
30
0
11
-1.33854745094484
21
-1.292620247924
31
0
210
0
220
0
230
1
40
0.989133
41
-1.31446014751726
42
-0.863778743845462
0
ELLIPSE
5
AA
100
AcDbEntity
8
1
62
256
6
ByLayer
370
18
48
1
60
0
100
AcDbEllipse
10
9.509383
20
-16.638557
30
0
11
-1.15094368054187
21
-1.11145339273437
31
0
210
0
220
0
230
1
40
0.989133
41
-1.31446014751727
42
-0.877991118782354
0
ELLIPSE
5
AB
100
AcDbEntity
8
1
62
256
6
ByLayer
370
18
48
1
60
0
100
AcDbEllipse
10
10.008385
20
-15.823168
30
0
11
-1.15094368054187
21
-1.11145339273437
31
0
210
0
220
0
230
1
40
0.989133
41
-1.75092917625219
42
-1.31446014751726
0
ELLIPSE
5
AC
100
AcDbEntity
8
1
62
256
6
ByLayer
370
18
48
1
60
0
100
AcDbEllipse
10
6.357997
20
-11.235834
30
0
11
-0.74451669335052
21
-0.718971413425046
31
0
210
0
220
0
230
1
40
0.989133
41
0.101233520362858
42
2.36818718427971
0
ELLIPSE
5
AD
100
AcDbEntity
8
1
62
256
6
ByLayer
370
18
48
1
60
0
100
AcDbEllipse
10
6.357997
20
-11.235834
30
0
11
-0.74451669335052
21
-0.718971413425046
31
0
210
0
220
0
230
1
40
0.989133
41
2.36818718427971
42
2.93249537970909
0
ELLIPSE
5
AE
100
AcDbEntity
8
1
62
256
6
ByLayer
370
18
48
1
60
0
100
AcDbEllipse
10
11.385709
20
-10.812172
30
0
11
0.285487983259406
21
0.275692540775908
31
0
210
0
220
0
230
1
40
0.989133
41
1.83589363285223E-06
42
0.423298643268986
0
ELLIPSE
5
AF
100
AcDbEntity
8
1
62
256
6
ByLayer
370
18
48
1
60
0
100
AcDbEllipse
10
6.365721
20
-19.015024
30
0
11
0.285487983259406
21
0.275692540775908
31
0
210
0
220
0
230
1
40
0.989133
41
2.66816303122105
42
3.14156187820131
0
ELLIPSE
5
B0
100
AcDbEntity
8
1
62
256
6
ByLayer
370
18
48
1
60
0
100
AcDbEllipse
10
11.228894
20
-16.336419
30
0
11
0.813213644282861
21
0.78531128780388
31
0
210
0
220
0
230
1
40
0.989133
41
-2.93128763356846
42
-2.78068734673563
0
ELLIPSE
5
B1
100
AcDbEntity
8
1
62
256
6
ByLayer
370
18
48
1
60
0
100
AcDbEllipse
10
11.228894
20
-16.336419
30
0
11
0.813213644282861
21
0.78531128780388
31
0
210
0
220
0
230
1
40
0.989133
41
-0.275463429391214
42
-0.210275417909117
0
ELLIPSE
5
B2
100
AcDbEntity
8
1
62
256
6
ByLayer
370
18
48
1
60
0
100
AcDbEllipse
10
11.463797
20
-16.579669
30
0
11
-0.740735833761812
21
-0.71532027976111
31
0
210
0
220
0
230
1
40
0.989133
41
-0.847233605859916
42
0
0
ELLIPSE
5
B3
100
AcDbEntity
8
1
62
256
6
ByLayer
370
18
48
1
60
0
100
AcDbEllipse
10
11.463797
20
-16.579669
30
0
11
-0.740735833761812
21
-0.71532027976111
31
0
210
0
220
0
230
1
40
0.989133
41
0
42
2.36818717141872
0
ELLIPSE
5
B4
100
AcDbEntity
8
1
62
256
6
ByLayer
370
18
48
1
60
0
100
AcDbEllipse
10
11.463797
20
-16.579669
30
0
11
-0.740735833761812
21
-0.71532027976111
31
0
210
0
220
0
230
1
40
0.989133
41
2.36818684146898
42
-2.2942309017058
0
ELLIPSE
5
B5
100
AcDbEntity
8
1
62
256
6
ByLayer
370
18
48
1
60
0
100
AcDbEllipse
10
11.19216
20
-16.298381
30
0
11
0.809198024911927
21
0.781433449253472
31
0
210
0
220
0
230
1
40
0.989133
41
-0.318267131911481
42
-0.224804983729719
0
ELLIPSE
5
B6
100
AcDbEntity
8
1
62
256
6
ByLayer
370
18
48
1
60
0
100
AcDbEllipse
10
11.494436
20
-16.611397
30
0
11
-0.616142525552514
21
-0.595001920607317
31
0
210
0
220
0
230
1
40
0.989133
41
0
42
6.28318530717959
0
ELLIPSE
5
B7
100
AcDbEntity
8
1
62
256
6
ByLayer
370
18
48
1
60
0
100
AcDbEllipse
10
6.6935
20
-11.583257
30
0
11
0.744516693350518
21
0.718971413425048
31
0
210
0
220
0
230
1
40
0.989133
41
-0.220103189156796
42
0.209176772110515
0
ELLIPSE
5
B8
100
AcDbEntity
8
1
62
256
6
ByLayer
370
18
48
1
60
0
100
AcDbEllipse
10
6.6935
20
-11.583257
30
0
11
0.744516693350518
21
0.718971413425048
31
0
210
0
220
0
230
1
40
0.989133
41
1.87429191323966
42
2.30357187450369
0
ELLIPSE
5
B9
100
AcDbEntity
8
1
62
256
6
ByLayer
370
18
48
1
60
0
100
AcDbEllipse
10
6.6935
20
-11.583257
30
0
11
0.744516693350518
21
0.718971413425048
31
0
210
0
220
0
230
1
40
0.989133
41
-2.3144982915467
42
-1.88521833028272
0
ELLIPSE
5
BA
100
AcDbEntity
8
1
62
256
6
ByLayer
370
18
48
1
60
0
100
AcDbEllipse
10
6.715459
20
-11.605996
30
0
11
-1.26963474759775
21
-1.2260720238601
31
0
210
0
220
0
230
1
40
0.989133
41
0
42
6.28318530717959
0
ELLIPSE
5
BB
100
AcDbEntity
8
1
62
256
6
ByLayer
370
18
48
1
60
0
100
AcDbEllipse
10
6.6935
20
-11.583257
30
0
11
0.744516693350518
21
0.718971413425048
31
0
210
0
220
0
230
1
40
0.989133
41
0.827094362043045
42
1.2563743233071
0
ELLIPSE
5
BC
100
AcDbEntity
8
1
62
256
6
ByLayer
370
18
48
1
60
0
100
AcDbEllipse
10
6.6935
20
-11.583257
30
0
11
0.744516693350518
21
0.718971413425048
31
0
210
0
220
0
230
1
40
0.989133
41
2.92148946443627
42
-2.9324158814793
0
ELLIPSE
5
BD
100
AcDbEntity
8
1
62
256
6
ByLayer
370
18
48
1
60
0
100
AcDbEllipse
10
6.42949
20
-11.309866
30
0
11
0.744516693350518
21
0.718971413425048
31
0
210
0
220
0
230
1
40
0.989133
41
-1.8852183302827
42
-1.26730074035014
0
ELLIPSE
5
BE
100
AcDbEntity
8
1
62
256
6
ByLayer
370
18
48
1
60
0
100
AcDbEllipse
10
6.42949
20
-11.309866
30
0
11
0.744516693350518
21
0.718971413425048
31
0
210
0
220
0
230
1
40
0.989133
41
-2.93241588147928
42
-2.3144982915467
0
ELLIPSE
5
BF
100
AcDbEntity
8
1
62
256
6
ByLayer
370
18
48
1
60
0
100
AcDbEllipse
10
6.715459
20
-11.605996
30
0
11
-1.01239230600052
21
-0.977655885605707
31
0
210
0
220
0
230
1
40
0.989133
41
0
42
6.28318530717959
0
ELLIPSE
5
C0
100
AcDbEntity
8
1
62
256
6
ByLayer
370
18
48
1
60
0
100
AcDbEllipse
10
6.6935
20
-11.583257
30
0
11
0.744516693350518
21
0.718971413425048
31
0
210
0
220
0
230
1
40
0.989133
41
-1.26730074035014
42
-0.838020779086089
0
ELLIPSE
5
C1
100
AcDbEntity
8
1
62
256
6
ByLayer
370
18
48
1
60
0
100
AcDbEllipse
10
6.640392
20
-11.528262
30
0
11
-1.79834950084667
21
-1.73664592614745
31
0
210
0
220
0
230
1
40
0.989133
41
0
42
6.28318530717959
0
ELLIPSE
5
C2
100
AcDbEntity
8
1
62
256
6
ByLayer
370
18
48
1
60
0
100
AcDbEllipse
10
6.42949
20
-11.309866
30
0
11
0.744516693350518
21
0.718971413425048
31
0
210
0
220
0
230
1
40
0.989133
41
-0.838020779086089
42
-0.220103189153554
0
ELLIPSE
5
C3
100
AcDbEntity
8
1
62
256
6
ByLayer
370
18
48
1
60
0
100
AcDbEllipse
10
6.68999
20
-19.350814
30
0
11
0.285487983259406
21
0.275692540775908
31
0
210
0
220
0
230
1
40
0.989133
41
1.82713250607249
42
-2.36165769871389
0
ELLIPSE
5
C4
100
AcDbEntity
8
1
62
256
6
ByLayer
370
18
48
1
60
0
100
AcDbEllipse
10
16.25952
20
-19.517851
30
0
11
0.285487983259407
21
0.275692540775908
31
0
210
0
220
0
230
1
40
0.989133
41
-2.36165769871389
42
-0.267262596320678
0
ELLIPSE
5
C5
100
AcDbEntity
8
1
62
256
6
ByLayer
370
18
48
1
60
0
100
AcDbEllipse
10
11.553162
20
-16.672209
30
0
11
-0.813213644282862
21
-0.785311287803879
31
0
210
0
220
0
230
1
40
0.989133
41
0
42
6.28318530717959
0
ELLIPSE
5
C6
100
AcDbEntity
8
1
62
256
6
ByLayer
370
18
48
1
60
0
100
AcDbEllipse
10
11.709977
20
-11.147962
30
0
11
0.285487983259406
21
0.275692540775908
31
0
210
0
220
0
230
1
40
0.989133
41
-0.26726259632066
42
1.82713250607251
0
POINT
5
6C
100
AcDbEntity
8
80
62
256
6
ByLayer
370
18
48
1
60
0
100
AcDbPoint
10
0
20
0
30
0
39
0
210
0
220
0
230
1
50
360
0
POINT
5
6E
100
AcDbEntity
8
81
62
256
6
ByLayer
370
18
48
1
60
0
100
AcDbPoint
10
15.304319
20
-19.5625
30
0
39
0
210
0
220
0
230
1
50
360
0
POINT
5
70
100
AcDbEntity
8
1
62
256
6
ByLayer
370
18
48
1
60
0
100
AcDbPoint
10
-134.695681
20
12.4375
30
0
39
0
210
0
220
0
230
1
50
360
0
SPLINE
5
C7
100
AcDbEntity
8
1
62
256
6
ByLayer
370
18
48
1
60
0
100
AcDbSpline
70
4
71
3
72
14
73
10
40
0
40
0
40
0
40
0
40
0.0390522796412241
40
0.193398727389532
40
0.352781238778585
40
0.519230990928669
40
0.69244066627412
40
0.869726373372683
40
1
40
1
40
1
40
1
41
1
10
12.1529668014495
20
-17.3189420763587
30
0
41
1
10
12.1734628870782
20
-17.3041311511709
30
0
41
1
10
12.2701333994189
20
-17.2268471416973
30
0
41
1
10
12.3923241950914
20
-17.0282597094774
30
0
41
1
10
12.4912888737884
20
-16.740481003927
30
0
41
1
10
12.5009528779847
20
-16.426981283555
30
0
41
1
10
12.4224419040414
20
-16.1187480263945
30
0
41
1
10
12.2735948205614
20
-15.8661015832541
30
0
41
1
10
12.1431140843346
20
-15.7332186321111
30
0
41
1
10
12.0825960413042
20
-15.6831459946037
30
0
0
SPLINE
5
C8
100
AcDbEntity
8
1
62
256
6
ByLayer
370
18
48
1
60
0
100
AcDbSpline
70
4
71
3
72
14
73
10
40
0
40
0
40
0
40
0
40
0.0294797326224126
40
0.210701490862153
40
0.388669451972362
40
0.560500218938336
40
0.725352297062291
40
0.884115458387571
40
1
40
1
40
1
40
1
41
1
10
10.5468115264233
20
-17.1675697009452
30
0
41
1
10
10.5574567558859
20
-17.1813709114774
30
0
41
1
10
10.6357927446985
20
-17.2782388296946
30
0
41
1
10
10.8089968029473
20
-17.4322858261758
30
0
41
1
10
11.0961779758658
20
-17.5697778007721
30
0
41
1
10
11.4048424178707
20
-17.6217992026118
30
0
41
1
10
11.7085169870545
20
-17.5862631192816
30
0
41
1
10
11.9677128041374
20
-17.4813308038808
30
0
41
1
10
12.1005546348855
20
-17.3723574498543
30
0
41
1
10
12.1529668014496
20
-17.3189420763587
30
0
0
SPLINE
5
C9
100
AcDbEntity
8
1
62
256
6
ByLayer
370
18
48
1
60
0
100
AcDbSpline
70
4
71
3
72
8
73
4
40
0
40
0
40
0
40
0
40
1
40
1
40
1
40
1
41
1
10
7.8314075386358
20
-11.3104564260387
30
0
41
1
10
7.74676491453226
20
-11.2218723391466
30
0
41
1
10
7.66037313130022
20
-11.1314485828966
30
0
41
1
10
7.57532305964503
20
-11.0424152445173
30
0
0
SPLINE
5
CA
100
AcDbEntity
8
1
62
256
6
ByLayer
370
18
48
1
60
0
100
AcDbSpline
70
4
71
3
72
8
73
4
40
0
40
0
40
0
40
0
40
1
40
1
40
1
40
1
41
1
10
7.49905526538242
20
-12.4266170850602
30
0
41
1
10
7.52949738722151
20
-12.3089246286439
30
0
41
1
10
7.56143286903614
20
-12.1894914764219
30
0
41
1
10
7.5946617689155
20
-12.0711565663673
30
0
0
SPLINE
5
CB
100
AcDbEntity
8
1
62
256
6
ByLayer
370
18
48
1
60
0
100
AcDbSpline
70
4
71
3
72
8
73
4
40
0
40
0
40
0
40
0
40
1
40
1
40
1
40
1
41
1
10
7.0336769831269
20
-10.4751988801051
30
0
41
1
10
6.91468694123881
20
-10.5002589205643
30
0
41
1
10
6.79389838640623
20
-10.526722990336
30
0
41
1
10
6.67416176919079
20
-10.5545159884671
30
0
0
SPLINE
5
CC
100
AcDbEntity
8
1
62
256
6
ByLayer
370
18
48
1
60
0
100
AcDbSpline
70
4
71
3
72
8
73
4
40
0
40
0
40
0
40
0
40
1
40
1
40
1
40
1
41
1
10
6.24746090548081
20
-10.6605804272168
30
0
41
1
10
6.12887859821916
20
-10.6920583403817
30
0
41
1
10
6.01486341400766
20
-10.7239544493399
30
0
41
1
10
5.9035941543645
20
-10.7561019931929
30
0
0
SPLINE
5
CD
100
AcDbEntity
8
1
62
256
6
ByLayer
370
18
48
1
60
0
100
AcDbSpline
70
4
71
3
72
8
73
4
40
0
40
0
40
0
40
0
40
1
40
1
40
1
40
1
41
1
10
6.36897243662003
20
-12.707520198148
30
0
41
1
10
6.28432981251575
20
-12.618936111255
30
0
41
1
10
6.19793802928291
20
-12.5285123550041
30
0
41
1
10
6.11288795762692
20
-12.4394790166241
30
0
0
SPLINE
5
CE
100
AcDbEntity
8
1
62
256
6
ByLayer
370
18
48
1
60
0
100
AcDbSpline
70
4
71
3
72
8
73
4
40
0
40
0
40
0
40
0
40
1
40
1
40
1
40
1
41
1
10
5.6668483846442
20
-11.5168021335214
30
0
41
1
10
5.63307445720324
20
-11.6370779982182
30
0
41
1
10
5.60149766835792
20
-11.7552905850006
30
0
41
1
10
5.57124188111112
20
-11.8722626522143
30
0
0
SPLINE
5
CF
100
AcDbEntity
8
1
62
256
6
ByLayer
370
18
48
1
60
0
100
AcDbSpline
70
4
71
3
72
10
73
6
40
0
40
0
40
0
40
0
40
0.5
40
0.5
40
1
40
1
40
1
40
1
41
1
10
5.81167789728448
20
-12.1240993761241
30
0
41
1
10
5.77040272327326
20
-12.0808736287351
30
0
41
1
10
5.72932763329709
20
-12.0378537350977
30
0
41
1
10
5.64920715403429
20
-11.9539336816447
30
0
41
1
10
5.60992913189432
20
-11.9127899228999
30
0
41
1
10
5.57124188111112
20
-11.8722626522143
30
0
0
SPLINE
5
D0
100
AcDbEntity
8
1
62
256
6
ByLayer
370
18
48
1
60
0
100
AcDbSpline
70
4
71
3
72
8
73
4
40
0
40
0
40
0
40
0
40
1
40
1
40
1
40
1
41
1
10
5.9035941543645
20
-10.7561019931929
30
0
41
1
10
5.8661165179272
20
-10.8665089609696
30
0
41
1
10
5.82863602266337
20
-10.9802000836745
30
0
41
1
10
5.79233918801168
20
-11.0953580542717
30
0
0
SPLINE
5
D1
100
AcDbEntity
8
1
62
256
6
ByLayer
370
18
48
1
60
0
100
AcDbSpline
70
4
71
3
72
8
73
4
40
0
40
0
40
0
40
0
40
1
40
1
40
1
40
1
41
1
10
7.72015257228298
20
-11.6497124871176
30
0
41
1
10
7.75704475542216
20
-11.5326656707224
30
0
41
1
10
7.79415930079762
20
-11.4201875986974
30
0
41
1
10
7.8314075386358
20
-11.3104564260387
30
0
0
SPLINE
5
D2
100
AcDbEntity
8
1
62
256
6
ByLayer
370
18
48
1
60
0
100
AcDbSpline
70
4
71
3
72
8
73
4
40
0
40
0
40
0
40
0
40
1
40
1
40
1
40
1
41
1
10
7.13954005144637
20
-12.5059341934222
30
0
41
1
10
7.26124061440623
20
-12.4776853285589
30
0
41
1
10
7.38079355514793
20
-12.4515237343581
30
0
41
1
10
7.49905526538242
20
-12.4266170850602
30
0
0
SPLINE
5
D3
100
AcDbEntity
8
1
62
256
6
ByLayer
370
18
48
1
60
0
100
AcDbSpline
70
4
71
3
72
10
73
6
40
0
40
0
40
0
40
0
40
0.5
40
0.5
40
1
40
1
40
1
40
1
41
1
10
7.27411299930026
20
-10.7270356040149
30
0
41
1
10
7.23283782528904
20
-10.6838098566259
30
0
41
1
10
7.19176273531286
20
-10.6407899629885
30
0
41
1
10
7.11164225605006
20
-10.5568699095355
30
0
41
1
10
7.07236423391015
20
-10.5157261507907
30
0
41
1
10
7.0336769831269
20
-10.4751988801051
30
0
0
SPLINE
5
D4
100
AcDbEntity
8
1
62
256
6
ByLayer
370
18
48
1
60
0
100
AcDbSpline
70
4
71
3
72
8
73
4
40
0
40
0
40
0
40
0
40
1
40
1
40
1
40
1
41
1
10
6.36897243662003
20
-12.707520198148
30
0
41
1
10
6.48092696390989
20
-12.6751746690492
30
0
41
1
10
6.59617050529329
20
-12.6429685697605
30
0
41
1
10
6.71283918773639
20
-12.6119986321719
30
0
0
LINE
5
72
100
AcDbEntity
8
1
62
256
6
ByLayer
370
18
48
1
60
0
100
AcDbLine
10
11.995465
20
-10.87227
30
0
11
11.671197
21
-10.53648
31
0
39
0
210
0
220
0
230
1
0
LINE
5
73
100
AcDbEntity
8
1
62
256
6
ByLayer
370
18
48
1
60
0
100
AcDbLine
10
6.080233
20
-19.290717
30
0
11
6.404502
21
-19.626507
31
0
39
0
210
0
220
0
230
1
0
LINE
5
74
100
AcDbEntity
8
1
62
256
6
ByLayer
370
18
48
1
60
0
100
AcDbLine
10
8.438741
20
-9.791616
30
0
11
8.39439
21
-9.745689
31
0
39
0
210
0
220
0
230
1
0
LINE
5
75
100
AcDbEntity
8
1
62
256
6
ByLayer
370
18
48
1
60
0
100
AcDbLine
10
4.797691
20
-13.21898
30
0
11
4.842042
21
-13.264908
31
0
39
0
210
0
220
0
230
1
0
LINE
5
76
100
AcDbEntity
8
1
62
256
6
ByLayer
370
18
48
1
60
0
100
AcDbLine
10
14.781446
20
-15.968205
30
0
11
15.906474
21
-15.348547
31
0
39
0
210
0
220
0
230
1
0
LINE
5
77
100
AcDbEntity
8
1
62
256
6
ByLayer
370
18
48
1
60
0
100
AcDbLine
10
13.966511
20
-12.626462
30
0
11
13.436112
21
-13.493154
31
0
39
0
210
0
220
0
230
1
0
LINE
5
78
100
AcDbEntity
8
1
62
256
6
ByLayer
370
18
48
1
60
0
100
AcDbLine
10
13.821799
20
-12.469949
30
0
11
13.322986
21
-13.28503
31
0
39
0
210
0
220
0
230
1
0
LINE
5
79
100
AcDbEntity
8
1
62
256
6
ByLayer
370
18
48
1
60
0
100
AcDbLine
10
13.270931
20
-13.189277
30
0
11
13.765245
21
-12.381548
31
0
39
0
210
0
220
0
230
1
0
LINE
5
7A
100
AcDbEntity
8
1
62
256
6
ByLayer
370
18
48
1
60
0
100
AcDbLine
10
15.906474
20
-15.348547
30
0
11
15.213713
21
-3.611475
31
0
39
0
210
0
220
0
230
1
0
LINE
5
7B
100
AcDbEntity
8
1
62
256
6
ByLayer
370
18
48
1
60
0
100
AcDbLine
10
13.966511
20
-12.626462
30
0
11
13.821799
21
-12.469949
31
0
39
0
210
0
220
0
230
1
0
LINE
5
7C
100
AcDbEntity
8
1
62
256
6
ByLayer
370
18
48
1
60
0
100
AcDbLine
10
6.297673
20
-19.137059
30
0
11
7.928355
21
-16.472462
31
0
39
0
210
0
220
0
230
1
0
LINE
5
7D
100
AcDbEntity
8
1
62
256
6
ByLayer
370
18
48
1
60
0
100
AcDbLine
10
5.21581
20
12.456646
30
0
11
2.479217
21
12.45788
31
0
39
0
210
0
220
0
230
1
0
LINE
5
7E
100
AcDbEntity
8
1
62
256
6
ByLayer
370
18
48
1
60
0
100
AcDbLine
10
15.213713
20
-3.611475
30
0
11
5.21581
21
12.456646
31
0
39
0
210
0
220
0
230
1
0
LINE
5
7F
100
AcDbEntity
8
1
62
256
6
ByLayer
370
18
48
1
60
0
100
AcDbLine
10
8.154121
20
-15.819115
30
0
11
8.653124
21
-15.003726
31
0
39
0
210
0
220
0
230
1
0
LINE
5
80
100
AcDbEntity
8
1
62
256
6
ByLayer
370
18
48
1
60
0
100
AcDbLine
10
1.732638
20
-14.321867
30
0
11
2.479217
21
12.45788
31
0
39
0
210
0
220
0
230
1
0
LINE
5
81
100
AcDbEntity
8
1
62
256
6
ByLayer
370
18
48
1
60
0
100
AcDbLine
10
3.007476
20
-19.079628
30
0
11
1.732638
21
-14.321867
31
0
39
0
210
0
220
0
230
1
0
LINE
5
82
100
AcDbEntity
8
1
62
256
6
ByLayer
370
18
48
1
60
0
100
AcDbLine
10
1.545481
20
12.442674
30
0
11
2.479217
21
12.45788
31
0
39
0
210
0
220
0
230
1
0
LINE
5
83
100
AcDbEntity
8
1
62
256
6
ByLayer
370
18
48
1
60
0
100
AcDbLine
10
3.007476
20
-19.079628
30
0
11
6.297673
21
-19.137059
31
0
39
0
210
0
220
0
230
1
0
LINE
5
84
100
AcDbEntity
8
1
62
256
6
ByLayer
370
18
48
1
60
0
100
AcDbLine
10
1.545481
20
-13.62339
30
0
11
1.732638
21
-14.321867
31
0
39
0
210
0
220
0
230
1
0
LINE
5
85
100
AcDbEntity
8
1
62
256
6
ByLayer
370
18
48
1
60
0
100
AcDbLine
10
9.133002
20
-14.504024
30
0
11
10.854371
21
-11.69124
31
0
39
0
210
0
220
0
230
1
0
LINE
5
86
100
AcDbEntity
8
1
62
256
6
ByLayer
370
18
48
1
60
0
100
AcDbLine
10
0
20
-12.4375
30
0
11
0
21
12.4375
31
0
39
0
210
0
220
0
230
1
0
LINE
5
87
100
AcDbEntity
8
1
62
256
6
ByLayer
370
18
48
1
60
0
100
AcDbLine
10
1.545481
20
12.442674
30
0
11
1.545481
21
-13.62339
31
0
39
0
210
0
220
0
230
1
0
LINE
5
88
100
AcDbEntity
8
SK1
62
256
6
ByLayer
370
18
48
1
60
0
100
AcDbLine
10
0
20
-12.4375
30
0
11
0
21
12.4375
31
0
39
0
210
0
220
0
230
1
0
LINE
5
8A
100
AcDbEntity
8
SK1
62
256
6
ByLayer
370
18
48
1
60
0
100
AcDbLine
10
-134.695681
20
-12.4375
30
0
11
0
21
-12.4375
31
0
39
0
210
0
220
0
230
1
0
LINE
5
8B
100
AcDbEntity
8
SK1
62
256
6
ByLayer
370
18
48
1
60
0
100
AcDbLine
10
-134.695681
20
12.4375
30
0
11
0
21
12.4375
31
0
39
0
210
0
220
0
230
1
0
LINE
5
8C
100
AcDbEntity
8
SK1
62
256
6
ByLayer
370
18
48
1
60
0
100
AcDbLine
10
-134.695681
20
12.4375
30
0
11
-134.695681
21
-12.4375
31
0
39
0
210
0
220
0
230
1
0
LINE
5
8D
100
AcDbEntity
8
1
62
256
6
ByLayer
370
18
48
1
60
0
100
AcDbLine
10
6.448828
20
-12.338607
30
0
11
6.099368
21
-12.425472
31
0
39
0
210
0
220
0
230
1
0
LINE
5
8E
100
AcDbEntity
8
1
62
256
6
ByLayer
370
18
48
1
60
0
100
AcDbLine
10
11.208862
20
-10.773895
30
0
11
11.373809
21
-10.944702
31
0
39
0
210
0
220
0
230
1
0
LINE
5
8F
100
AcDbEntity
8
1
62
256
6
ByLayer
370
18
48
1
60
0
100
AcDbLine
10
6.315517
20
-19.107889
30
0
11
6.353821
21
-19.147554
31
0
39
0
210
0
220
0
230
1
0
LINE
5
90
100
AcDbEntity
8
80
62
256
6
ByLayer
370
18
48
1
60
0
100
AcDbLine
10
0
20
0
30
0
11
-5
21
0
31
0
39
0
210
0
220
0
230
1
0
LINE
5
91
100
AcDbEntity
8
81
62
256
6
ByLayer
370
18
48
1
60
0
100
AcDbLine
10
15.304319
20
-19.5625
30
0
11
25.304319
21
-19.5625
31
0
39
0
210
0
220
0
230
1
0
LINE
5
92
100
AcDbEntity
8
1
62
256
6
ByLayer
370
18
48
1
60
0
100
AcDbLine
10
7.330651
20
-11.797765
30
0
11
7.22722
21
-12.145124
31
0
39
0
210
0
220
0
230
1
0
LINE
5
93
100
AcDbEntity
8
1
62
256
6
ByLayer
370
18
48
1
60
0
100
AcDbLine
10
5.848877
20
-12.166088
30
0
11
6.112888
21
-12.439479
31
0
39
0
210
0
220
0
230
1
0
LINE
5
94
100
AcDbEntity
8
1
62
256
6
ByLayer
370
18
48
1
60
0
100
AcDbLine
10
7.13954
20
-12.505934
30
0
11
6.875529
21
-12.232543
31
0
39
0
210
0
220
0
230
1
0
LINE
5
95
100
AcDbEntity
8
1
62
256
6
ByLayer
370
18
48
1
60
0
100
AcDbLine
10
7.274113
20
-10.727036
30
0
11
7.010102
21
-10.453644
31
0
39
0
210
0
220
0
230
1
0
LINE
5
96
100
AcDbEntity
8
1
62
256
6
ByLayer
370
18
48
1
60
0
100
AcDbLine
10
7.22722
20
-12.145124
30
0
11
6.875529
21
-12.232543
31
0
39
0
210
0
220
0
230
1
0
LINE
5
97
100
AcDbEntity
8
1
62
256
6
ByLayer
370
18
48
1
60
0
100
AcDbLine
10
7.559573
20
-11.028963
30
0
11
7.456142
21
-11.376321
31
0
39
0
210
0
220
0
230
1
0
LINE
5
98
100
AcDbEntity
8
1
62
256
6
ByLayer
370
18
48
1
60
0
100
AcDbLine
10
7.330651
20
-11.797765
30
0
11
7.594662
21
-12.071157
31
0
39
0
210
0
220
0
230
1
0
LINE
5
99
100
AcDbEntity
8
1
62
256
6
ByLayer
370
18
48
1
60
0
100
AcDbLine
10
7.831408
20
-11.310456
30
0
11
7.559573
21
-11.028963
31
0
39
0
210
0
220
0
230
1
0
LINE
5
9A
100
AcDbEntity
8
1
62
256
6
ByLayer
370
18
48
1
60
0
100
AcDbLine
10
7.720153
20
-11.649712
30
0
11
7.456142
21
-11.376321
31
0
39
0
210
0
220
0
230
1
0
LINE
5
9B
100
AcDbEntity
8
1
62
256
6
ByLayer
370
18
48
1
60
0
100
AcDbLine
10
7.311312
20
-10.769024
30
0
11
7.575323
21
-11.042415
31
0
39
0
210
0
220
0
230
1
0
LINE
5
9C
100
AcDbEntity
8
1
62
256
6
ByLayer
370
18
48
1
60
0
100
AcDbLine
10
7.499055
20
-12.426617
30
0
11
7.22722
21
-12.145124
31
0
39
0
210
0
220
0
230
1
0
LINE
5
9D
100
AcDbEntity
8
1
62
256
6
ByLayer
370
18
48
1
60
0
100
AcDbLine
10
6.448828
20
-12.338607
30
0
11
6.712839
21
-12.611999
31
0
39
0
210
0
220
0
230
1
0
LINE
5
9E
100
AcDbEntity
8
1
62
256
6
ByLayer
370
18
48
1
60
0
100
AcDbLine
10
7.311312
20
-10.769024
30
0
11
7.559573
21
-11.028963
31
0
39
0
210
0
220
0
230
1
0
LINE
5
9F
100
AcDbEntity
8
1
62
256
6
ByLayer
370
18
48
1
60
0
100
AcDbLine
10
6.678789
20
-19.745403
30
0
11
16.248319
21
-19.91244
31
0
39
0
210
0
220
0
230
1
0
LINE
5
A0
100
AcDbEntity
8
1
62
256
6
ByLayer
370
18
48
1
60
0
100
AcDbLine
10
11.373809
20
-10.944702
30
0
11
6.353821
21
-19.147554
31
0
39
0
210
0
220
0
230
1
0
LINE
5
A1
100
AcDbEntity
8
1
62
256
6
ByLayer
370
18
48
1
60
0
100
AcDbLine
10
16.606889
20
-19.326522
30
0
11
12.057347
21
-10.956633
31
0
39
0
210
0
220
0
230
1
0
MTEXT
5
D5
100
AcDbEntity
8
SK6
62
256
6
ByLayer
370
13
48
1
60
0
100
AcDbMText
10
-108.112811
20
21.423222
30
0
210
0
220
0
230
1
1
\W0.7676;PTGNL 2525M 11
40
3.5
41
0
44
1.084337
50
0
71
7
72
5
7
iso_b_vert
0
DIMENSION
5
E7
100
AcDbEntity
8
SK2
62
256
6
ByLayer
370
13
48
1
60
0
100
AcDbDimension
2
DimnDraft3D1
10
-144.445681
20
12.4375
30
0
11
-144.445681
21
-0.0625
31
0
70
32
71
5
72
1
41
1
210
0
220
0
230
1
3
Standard
100
AcDbAlignedDimension
13
-136.283181
23
-12.5625
33
0
14
-136.283181
24
12.4375
34
0
50
90
100
AcDbRotatedDimension
1001
ACAD
1000
DSTYLE
1002
{
1070
    74
1070
     0
1070
   279
1070
     0
1070
   172
1070
     1
1070
   173
1070
     1
1070
   340
1005
D6
1070
   271
1070
     1
1070
   272
1070
     2
1070
    77
1070
     1
1070
    73
1070
     0
1070
   171
1070
     3
1070
   274
1070
     4
1070
   177
1070
   150
1070
   176
1070
     9
1070
   178
1070
    43
1070
    78
1070
     8
1070
    48
1040
-0.005
1070
    41
1041
3.175
1070
   147
1041
2.25
1070
    42
1041
1.5875
1070
    44
1041
3.175
1070
   140
1041
4.5
1070
   343
1005
E8
1070
   344
1005
E8
1002
}
0
DIMENSION
5
FD
100
AcDbEntity
8
2
62
256
6
ByLayer
370
13
48
1
60
0
100
AcDbDimension
2
DimnDraft3D2
10
33.154319
20
12.4375
30
0
11
33.154319
21
-3.7375
31
0
70
32
71
5
72
1
41
1
210
0
220
0
230
1
3
Standard
100
AcDbAlignedDimension
13
18.241819
23
-19.9125
33
0
14
1.5875
24
12.4375
34
0
50
90
100
AcDbRotatedDimension
1001
ACAD
1000
DSTYLE
1002
{
1070
    74
1070
     0
1070
   279
1070
     0
1070
   172
1070
     1
1070
   173
1070
     1
1070
   340
1005
D6
1070
   271
1070
     1
1070
   272
1070
     2
1070
    77
1070
     1
1070
    73
1070
     0
1070
   171
1070
     3
1070
   274
1070
     4
1070
   177
1070
   150
1070
   176
1070
     9
1070
   178
1070
    43
1070
    78
1070
     8
1070
    48
1040
-0.005
1070
    41
1041
3.175
1070
   147
1041
2.25
1070
    42
1041
1.5875
1070
    44
1041
3.175
1070
   140
1041
4.5
1070
   343
1005
E8
1070
   344
1005
E8
1002
}
0
DIMENSION
5
10B
100
AcDbEntity
8
SK2
62
256
6
ByLayer
370
13
48
1
60
0
100
AcDbDimension
2
DimnDraft3D3
10
16.654319
20
-46.4125
30
0
11
-59.020681
21
-46.4125
31
0
70
32
71
5
72
1
41
1
210
0
220
0
230
1
3
Standard
100
AcDbAlignedDimension
13
-134.695681
23
-14.15
33
0
14
16.654319
24
-21.5
34
0
50
0
100
AcDbRotatedDimension
1001
ACAD
1000
DSTYLE
1002
{
1070
   279
1070
     0
1070
   172
1070
     1
1070
   173
1070
     1
1070
   340
1005
D6
1070
   271
1070
     1
1070
   272
1070
     2
1070
    77
1070
     1
1070
    73
1070
     0
1070
   171
1070
     3
1070
   274
1070
     4
1070
   177
1070
   150
1070
   176
1070
     9
1070
   178
1070
    43
1070
    78
1070
     8
1070
    48
1040
-0.005
1070
    41
1041
3.175
1070
   147
1041
2.25
1070
    42
1041
1.5875
1070
    44
1041
3.175
1070
   140
1041
4.5
1070
   343
1005
E8
1070
   344
1005
E8
1002
}
0
DIMENSION
5
119
100
AcDbEntity
8
2
62
256
6
ByLayer
370
13
48
1
60
0
100
AcDbDimension
2
DimnDraft3D4
10
16.654319
20
-19.11875
30
0
11
4.553582
21
-31.81085
31
0
70
34
71
5
72
1
41
1
210
0
220
0
230
1
3
Standard
100
AcDb2LineAngularDimension
13
16.250518
23
-19.91244
33
0
14
5.252193
24
-19.720463
34
0
15
16.654319
25
-19.9125
35
0
16
1.343955
26
-34.964941
36
0
40
0
0
ENDSEC
0
SECTION
2
OBJECTS
0
DICTIONARY
5
183
330
0
100
AcDbDictionary
280
0
281
1
3
ACAD_GROUP
350
184
3
ACAD_MLINESTYLE
350
185
0
DICTIONARY
5
184
330
0
100
AcDbDictionary
280
0
281
1
0
DICTIONARY
5
185
330
0
100
AcDbDictionary
280
0
281
1
3
Standard
350
18
0
MLINESTYLE
5
18
330
185
100
AcDbMlineStyle
2
Standard
70
0
3

62
256
51
90
52
90
71
2
49
-0.5
62
256
6
ByLayer
49
0.5
62
256
6
ByLayer
0
RASTERVARIABLES
5
172
330

100
AcDbRasterVariables
90
0
70
1
71
1
72
1
0
ENDSEC
0
EOF
