0
SECTION
2
HEADER
9
$ACADVER
1
AC1015
9
$DWGCODEPAGE
3
ANSI_1252
9
$HANDSEED
5
19e
9
$ANGBASE
50
0
9
$ANGDIR
70
0
9
$ATTMODE
70
1
9
$AUNITS
70
0
9
$AUPREC
70
0
9
$CECOLOR
62
256
9
$CELTSCALE
40
1
9
$CELTYPE
6
ByLayer
9
$CELWEIGHT
370
18
9
$CLAYER
8
0
9
$CMLJUST
70
0
9
$CMLSCALE
40
1
9
$CMLSTYLE
2
Standard
9
$DIMSTYLE
2
Standard
9
$TEXTSIZE
40
0.2
9
$TEXTSTYLE
7
Standard
9
$LUNITS
70
2
9
$LUPREC
70
4
9
$EXTNAMES
290
1
9
$INSUNITS
70
4
9
$LTSCALE
40
1
9
$LWDISPLAY
290
1
9
$PDMODE
70
0
9
$PDSIZE
40
0
9
$PLINEGEN
70
0
0
ENDSEC
0
SECTION
2
CLASSES
0
CLASS
1
RASTERVARIABLES
2
AcDbRasterVariables
3
ISM
90
0
280
0
281
0
0
ENDSEC
0
SECTION
2
TABLES
0
TABLE
2
VPORT
5
194
100
AcDbSymbolTable
0
VPORT
5
1
100
AcDbSymbolTableRecord
100
AcDbViewportTableRecord
2
*Active
70
0
10
0
20
0
11
1
21
1
12
-1
22
1
13
0
23
0
14
0.5
24
0.5
15
10
25
10
16
0
26
0
36
1
17
0
27
0
37
0
0
ENDTAB
0
TABLE
2
LTYPE
5
195
100
AcDbSymbolTable
0
LTYPE
5
14
100
AcDbSymbolTableRecord
100
AcDbLinetypeTableRecord
70
0
2
ByBlock
3

72
65
73
0
40
0
0
LTYPE
5
15
100
AcDbSymbolTableRecord
100
AcDbLinetypeTableRecord
70
0
2
ByLayer
3

72
65
73
0
40
0
0
LTYPE
5
16
100
AcDbSymbolTableRecord
100
AcDbLinetypeTableRecord
70
0
2
CONTINUOUS
3
Solid line
72
65
73
0
40
0
0
LTYPE
5
6A
100
AcDbSymbolTableRecord
100
AcDbLinetypeTableRecord
70
0
2
CENTER
3
____ _ ____ _ ____ _ ____
72
65
73
4
40
47.5
49
22
74
0
49
-8.5
74
0
49
8.5
74
0
49
-8.5
74
0
0
LTYPE
5
6B
100
AcDbSymbolTableRecord
100
AcDbLinetypeTableRecord
70
0
2
DASHED
3
__ __ __ __ __ __ __ __ __
72
65
73
2
40
25.72
49
12.86
74
0
49
-12.86
74
0
0
ENDTAB
0
TABLE
2
LAYER
5
196
100
AcDbSymbolTable
0
LAYER
5
10
100
AcDbSymbolTableRecord
100
AcDbLayerTableRecord
2
0
70
0
62
7
6
CONTINUOUS
290
1
370
-3
390
0
0
LAYER
5
6D
100
AcDbSymbolTableRecord
100
AcDbLayerTableRecord
2
80
70
0
62
-6
6
CONTINUOUS
290
1
370
-3
390
0
0
LAYER
5
6F
100
AcDbSymbolTableRecord
100
AcDbLayerTableRecord
2
81
70
0
62
-3
6
CONTINUOUS
290
1
370
-3
390
0
0
LAYER
5
71
100
AcDbSymbolTableRecord
100
AcDbLayerTableRecord
2
1
70
0
62
4
6
CONTINUOUS
290
1
370
-3
390
0
0
LAYER
5
73
100
AcDbSymbolTableRecord
100
AcDbLayerTableRecord
2
2
70
0
62
7
6
CONTINUOUS
290
1
370
-3
390
0
0
LAYER
5
181
100
AcDbSymbolTableRecord
100
AcDbLayerTableRecord
2
SK1
70
0
62
4
6
CONTINUOUS
290
1
370
-3
390
0
0
LAYER
5
182
100
AcDbSymbolTableRecord
100
AcDbLayerTableRecord
2
SK6
70
0
62
5
6
CONTINUOUS
290
1
370
-3
390
0
0
LAYER
5
183
100
AcDbSymbolTableRecord
100
AcDbLayerTableRecord
2
SK2
70
0
62
7
6
CONTINUOUS
290
1
370
-3
390
0
0
ENDTAB
0
TABLE
2
STYLE
5
197
100
AcDbSymbolTable
0
STYLE
5
11
100
AcDbSymbolTableRecord
100
AcDbTextStyleTableRecord
2
Standard
3
txt
70
0
71
0
40
0
41
1
42
0
50
0
0
STYLE
5
E5
100
AcDbSymbolTableRecord
100
AcDbTextStyleTableRecord
2
iso_b_vert
3
simplex.shx
70
0
71
0
40
0
41
1
42
0
50
0
0
STYLE
5
E6
100
AcDbSymbolTableRecord
100
AcDbTextStyleTableRecord
2
DWGDirectTextStyle
3
simplex
70
0
71
0
40
0
41
1
42
0
50
0
0
ENDTAB
0
TABLE
2
DIMSTYLE
5
198
100
AcDbSymbolTable
100
AcDbDimStyleTable
0
DIMSTYLE
105
27
100
AcDbSymbolTableRecord
100
AcDbDimStyleTableRecord
2
Standard
70
0
3
<>
41
0.18
42
0.0625
44
0.18
140
0.18
147
0.09
73
0
74
0
77
1
271
2
275
0
278
52
280
0
340
11
0
ENDTAB
0
TABLE
2
VIEW
5
199
100
AcDbSymbolTable
0
ENDTAB
0
TABLE
2
UCS
5
19a
100
AcDbSymbolTable
0
ENDTAB
0
TABLE
2
APPID
5
19b
100
AcDbSymbolTable
0
APPID
5
12
100
AcDbSymbolTableRecord
100
AcDbRegAppTableRecord
2
ACAD
70
0
0
ENDTAB
0
TABLE
2
BLOCK_RECORD
5
19c
100
AcDbSymbolTable
0
BLOCK_RECORD
5
1F
100
AcDbSymbolTableRecord
100
AcDbBlockTableRecord
2
*Model_Space
340
0
70
0
0
BLOCK_RECORD
5
1B
100
AcDbSymbolTableRecord
100
AcDbBlockTableRecord
2
*Paper_Space
340
0
70
0
0
BLOCK_RECORD
5
23
100
AcDbSymbolTableRecord
100
AcDbBlockTableRecord
2
*Paper_Space0
340
0
70
0
0
BLOCK_RECORD
5
E8
100
AcDbSymbolTableRecord
100
AcDbBlockTableRecord
2
DimnDraft3D1
340
0
70
0
0
BLOCK_RECORD
5
F7
100
AcDbSymbolTableRecord
100
AcDbBlockTableRecord
2
_CLOSED
340
0
70
0
0
BLOCK_RECORD
5
FE
100
AcDbSymbolTableRecord
100
AcDbBlockTableRecord
2
DimnDraft3D2
340
0
70
0
0
BLOCK_RECORD
5
10C
100
AcDbSymbolTableRecord
100
AcDbBlockTableRecord
2
DimnDraft3D3
340
0
70
0
0
BLOCK_RECORD
5
11A
100
AcDbSymbolTableRecord
100
AcDbBlockTableRecord
2
DimnDraft3D4
340
0
70
0
0
ENDTAB
0
ENDSEC
0
SECTION
2
BLOCKS
0
BLOCK
5
20
100
AcDbEntity
8
0
100
AcDbBlockBegin
2
*Model_Space
70
0
10
0
20
0
30
0
3
*Model_Space
0
ENDBLK
5
21
100
AcDbEntity
8
0
100
AcDbBlockEnd
0
BLOCK
5
1C
100
AcDbEntity
8
0
100
AcDbBlockBegin
2
*Paper_Space
70
0
10
0
20
0
30
0
3
*Paper_Space
0
ENDBLK
5
1D
100
AcDbEntity
8
0
100
AcDbBlockEnd
0
BLOCK
5
24
100
AcDbEntity
8
0
100
AcDbBlockBegin
2
*Paper_Space0
70
0
10
0
20
0
30
0
3
*Paper_Space0
0
ENDBLK
5
25
100
AcDbEntity
8
0
100
AcDbBlockEnd
0
BLOCK
5
F4
100
AcDbEntity
8
0
100
AcDbBlockBegin
2
DimnDraft3D1
70
0
10
0
20
0
30
0
3
DimnDraft3D1
0
MTEXT
5
E9
100
AcDbEntity
8
SK2
62
256
6
ByLayer
370
13
48
1
60
0
100
AcDbMText
10
-89.968187
20
-0.938158
30
0
210
0
220
0
230
1
1
\W0.5321;16
40
4.5
41
0
44
1.084337
50
90
71
7
72
5
7
iso_b_vert
0
LINE
5
EB
100
AcDbEntity
8
SK2
62
256
6
ByLayer
370
13
48
1
60
0
100
AcDbLine
10
-80.680687
20
8.0625
30
0
11
-92.018187
21
8.0625
31
0
39
0
210
0
220
0
230
1
0
LINE
5
EC
100
AcDbEntity
8
SK2
62
256
6
ByLayer
370
13
48
1
60
0
100
AcDbLine
10
-80.680687
20
-7.9375
30
0
11
-92.018187
21
-7.9375
31
0
39
0
210
0
220
0
230
1
0
LINE
5
ED
100
AcDbEntity
8
SK2
62
256
6
ByLayer
370
13
48
1
60
0
100
AcDbLine
10
-88.843187
20
8.0625
30
0
11
-88.843187
21
-7.9375
31
0
39
0
210
0
220
0
230
1
0
LINE
5
EE
100
AcDbEntity
8
SK2
62
256
6
ByLayer
370
13
48
1
60
0
100
AcDbLine
10
-88.843187
20
8.0625
30
0
11
-87.992448
21
4.887503
31
0
39
0
210
0
220
0
230
1
0
LINE
5
EF
100
AcDbEntity
8
SK2
62
256
6
ByLayer
370
13
48
1
60
0
100
AcDbLine
10
-88.843187
20
8.0625
30
0
11
-89.693925
21
4.887497
31
0
39
0
210
0
220
0
230
1
0
LINE
5
F0
100
AcDbEntity
8
SK2
62
256
6
ByLayer
370
13
48
1
60
0
100
AcDbLine
10
-87.992448
20
4.887503
30
0
11
-89.693925
21
4.887497
31
0
39
0
210
0
220
0
230
1
0
LINE
5
F1
100
AcDbEntity
8
SK2
62
256
6
ByLayer
370
13
48
1
60
0
100
AcDbLine
10
-88.843187
20
-7.9375
30
0
11
-89.693925
21
-4.762503
31
0
39
0
210
0
220
0
230
1
0
LINE
5
F2
100
AcDbEntity
8
SK2
62
256
6
ByLayer
370
13
48
1
60
0
100
AcDbLine
10
-88.843187
20
-7.9375
30
0
11
-87.992448
21
-4.762497
31
0
39
0
210
0
220
0
230
1
0
LINE
5
F3
100
AcDbEntity
8
SK2
62
256
6
ByLayer
370
13
48
1
60
0
100
AcDbLine
10
-89.693925
20
-4.762503
30
0
11
-87.992448
21
-4.762497
31
0
39
0
210
0
220
0
230
1
0
ENDBLK
5
F5
100
AcDbEntity
8
0
100
AcDbBlockEnd
0
BLOCK
5
F8
100
AcDbEntity
8
0
100
AcDbBlockBegin
2
_CLOSED
70
0
10
0
20
0
30
0
3
_CLOSED
0
LINE
5
FA
100
AcDbEntity
8
0
62
256
6
ByLayer
370
-2
48
1
60
0
100
AcDbLine
10
-1
20
0.166667
30
0
11
0
21
0
31
0
39
0
210
0
220
0
230
1
0
LINE
5
FB
100
AcDbEntity
8
0
62
256
6
ByLayer
370
-2
48
1
60
0
100
AcDbLine
10
0
20
0
30
0
11
-1
21
-0.166667
31
0
39
0
210
0
220
0
230
1
0
LINE
5
FC
100
AcDbEntity
8
0
62
256
6
ByLayer
370
-2
48
1
60
0
100
AcDbLine
10
-1
20
0.166667
30
0
11
-1
21
-0.166667
31
0
39
0
210
0
220
0
230
1
0
LINE
5
FD
100
AcDbEntity
8
0
62
256
6
ByLayer
370
-2
48
1
60
0
100
AcDbLine
10
0
20
0
30
0
11
-1
21
0
31
0
39
0
210
0
220
0
230
1
0
ENDBLK
5
F9
100
AcDbEntity
8
0
100
AcDbBlockEnd
0
BLOCK
5
109
100
AcDbEntity
8
0
100
AcDbBlockBegin
2
DimnDraft3D2
70
0
10
0
20
0
30
0
3
DimnDraft3D2
0
MTEXT
5
FF
100
AcDbEntity
8
2
62
256
6
ByLayer
370
13
48
1
60
0
100
AcDbMText
10
52.631813
20
0.674342
30
0
210
0
220
0
230
1
1
\W0.6740;20
40
4.5
41
0
44
1.084337
50
90
71
7
72
5
7
iso_b_vert
0
LINE
5
100
100
AcDbEntity
8
2
62
256
6
ByLayer
370
13
48
1
60
0
100
AcDbLine
10
1.5875
20
-7.9375
30
0
11
56.931813
21
-7.9375
31
0
39
0
210
0
220
0
230
1
0
LINE
5
101
100
AcDbEntity
8
2
62
256
6
ByLayer
370
13
48
1
60
0
100
AcDbLine
10
23.844313
20
12.4125
30
0
11
56.931813
21
12.4125
31
0
39
0
210
0
220
0
230
1
0
LINE
5
102
100
AcDbEntity
8
2
62
256
6
ByLayer
370
13
48
1
60
0
100
AcDbLine
10
53.756813
20
-7.9375
30
0
11
53.756813
21
12.4125
31
0
39
0
210
0
220
0
230
1
0
LINE
5
103
100
AcDbEntity
8
2
62
256
6
ByLayer
370
13
48
1
60
0
100
AcDbLine
10
53.756813
20
-7.9375
30
0
11
52.906075
21
-4.762503
31
0
39
0
210
0
220
0
230
1
0
LINE
5
104
100
AcDbEntity
8
2
62
256
6
ByLayer
370
13
48
1
60
0
100
AcDbLine
10
53.756813
20
-7.9375
30
0
11
54.607552
21
-4.762497
31
0
39
0
210
0
220
0
230
1
0
LINE
5
105
100
AcDbEntity
8
2
62
256
6
ByLayer
370
13
48
1
60
0
100
AcDbLine
10
52.906075
20
-4.762503
30
0
11
54.607552
21
-4.762497
31
0
39
0
210
0
220
0
230
1
0
LINE
5
106
100
AcDbEntity
8
2
62
256
6
ByLayer
370
13
48
1
60
0
100
AcDbLine
10
53.756813
20
12.4125
30
0
11
54.607552
21
9.237503
31
0
39
0
210
0
220
0
230
1
0
LINE
5
107
100
AcDbEntity
8
2
62
256
6
ByLayer
370
13
48
1
60
0
100
AcDbLine
10
53.756813
20
12.4125
30
0
11
52.906075
21
9.237497
31
0
39
0
210
0
220
0
230
1
0
LINE
5
108
100
AcDbEntity
8
2
62
256
6
ByLayer
370
13
48
1
60
0
100
AcDbLine
10
54.607552
20
9.237503
30
0
11
52.906075
21
9.237497
31
0
39
0
210
0
220
0
230
1
0
ENDBLK
5
10A
100
AcDbEntity
8
0
100
AcDbBlockEnd
0
BLOCK
5
117
100
AcDbEntity
8
0
100
AcDbBlockBegin
2
DimnDraft3D3
70
0
10
0
20
0
30
0
3
DimnDraft3D3
0
MTEXT
5
10D
100
AcDbEntity
8
SK2
62
256
6
ByLayer
370
13
48
1
60
0
100
AcDbMText
10
-31.100423
20
21.0375
30
0
210
0
220
0
230
1
1
\W0.6217;100
40
4.5
41
0
44
1.084337
50
0
71
7
72
5
7
iso_b_vert
0
LINE
5
10E
100
AcDbEntity
8
SK2
62
256
6
ByLayer
370
13
48
1
60
0
100
AcDbLine
10
-79.093187
20
9.65
30
0
11
-79.093187
21
23.0875
31
0
39
0
210
0
220
0
230
1
0
LINE
5
10F
100
AcDbEntity
8
SK2
62
256
6
ByLayer
370
13
48
1
60
0
100
AcDbLine
10
22.256813
20
14
30
0
11
22.256813
21
23.0875
31
0
39
0
210
0
220
0
230
1
0
LINE
5
110
100
AcDbEntity
8
SK2
62
256
6
ByLayer
370
13
48
1
60
0
100
AcDbLine
10
-79.093187
20
19.9125
30
0
11
22.256813
21
19.9125
31
0
39
0
210
0
220
0
230
1
0
LINE
5
111
100
AcDbEntity
8
SK2
62
256
6
ByLayer
370
13
48
1
60
0
100
AcDbLine
10
-79.093187
20
19.9125
30
0
11
-75.91819
21
20.763239
31
0
39
0
210
0
220
0
230
1
0
LINE
5
112
100
AcDbEntity
8
SK2
62
256
6
ByLayer
370
13
48
1
60
0
100
AcDbLine
10
-79.093187
20
19.9125
30
0
11
-75.918183
21
19.061761
31
0
39
0
210
0
220
0
230
1
0
LINE
5
113
100
AcDbEntity
8
SK2
62
256
6
ByLayer
370
13
48
1
60
0
100
AcDbLine
10
-75.91819
20
20.763239
30
0
11
-75.918183
21
19.061761
31
0
39
0
210
0
220
0
230
1
0
LINE
5
114
100
AcDbEntity
8
SK2
62
256
6
ByLayer
370
13
48
1
60
0
100
AcDbLine
10
22.256813
20
19.9125
30
0
11
19.081817
21
19.061761
31
0
39
0
210
0
220
0
230
1
0
LINE
5
115
100
AcDbEntity
8
SK2
62
256
6
ByLayer
370
13
48
1
60
0
100
AcDbLine
10
22.256813
20
19.9125
30
0
11
19.08181
21
20.763239
31
0
39
0
210
0
220
0
230
1
0
LINE
5
116
100
AcDbEntity
8
SK2
62
256
6
ByLayer
370
13
48
1
60
0
100
AcDbLine
10
19.081817
20
19.061761
30
0
11
19.08181
21
20.763239
31
0
39
0
210
0
220
0
230
1
0
ENDBLK
5
118
100
AcDbEntity
8
0
100
AcDbBlockEnd
0
BLOCK
5
125
100
AcDbEntity
8
0
100
AcDbBlockBegin
2
DimnDraft3D4
70
0
10
0
20
0
30
0
3
DimnDraft3D4
0
MTEXT
5
11B
100
AcDbEntity
8
2
62
256
6
ByLayer
370
13
48
1
60
0
100
AcDbMText
10
29.060402
20
-1.495557
30
0
210
0
220
0
230
1
1
\W0.7582;91%%d0'
40
4.5
41
0
44
1.084337
50
44.4999999999999
71
7
72
5
7
iso_b_vert
0
LINE
5
11C
100
AcDbEntity
8
2
62
256
6
ByLayer
370
13
48
1
60
0
100
AcDbLine
10
21.949748
20
-5.979924
30
0
11
21.939563
21
-6.56344
31
0
39
0
210
0
220
0
230
1
0
LINE
5
11D
100
AcDbEntity
8
2
62
256
6
ByLayer
370
13
48
1
60
0
100
AcDbLine
10
23.844313
20
12.4125
30
0
11
41.24962
21
12.4125
31
0
39
0
210
0
220
0
230
1
0
ARC
5
11E
100
AcDbEntity
8
2
62
256
6
ByLayer
370
13
48
1
60
0
100
AcDbCircle
39
0
10
22.270789
20
12.4125
30
0
40
15.8038303877112
210
0
220
0
230
1
100
AcDbArc
50
233.554733
51
35.445267
0
LINE
5
11F
100
AcDbEntity
8
2
62
256
6
ByLayer
370
13
48
1
60
0
100
AcDbLine
10
21.994974
20
-3.388923
30
0
11
18.76982
21
-4.023541
31
0
39
0
210
0
220
0
230
1
0
LINE
5
120
100
AcDbEntity
8
2
62
256
6
ByLayer
370
13
48
1
60
0
100
AcDbLine
10
21.994974
20
-3.388923
30
0
11
18.884594
21
-2.325939
31
0
39
0
210
0
220
0
230
1
0
LINE
5
121
100
AcDbEntity
8
2
62
256
6
ByLayer
370
13
48
1
60
0
100
AcDbLine
10
18.76982
20
-4.023541
30
0
11
18.884594
21
-2.325939
31
0
39
0
210
0
220
0
230
1
0
LINE
5
122
100
AcDbEntity
8
2
62
256
6
ByLayer
370
13
48
1
60
0
100
AcDbLine
10
38.07462
20
12.4125
30
0
11
37.066081
21
15.540952
31
0
39
0
210
0
220
0
230
1
0
LINE
5
123
100
AcDbEntity
8
2
62
256
6
ByLayer
370
13
48
1
60
0
100
AcDbLine
10
38.07462
20
12.4125
30
0
11
38.765427
21
15.626094
31
0
39
0
210
0
220
0
230
1
0
LINE
5
124
100
AcDbEntity
8
2
62
256
6
ByLayer
370
13
48
1
60
0
100
AcDbLine
10
37.066081
20
15.540952
30
0
11
38.765427
21
15.626094
31
0
39
0
210
0
220
0
230
1
0
ENDBLK
5
126
100
AcDbEntity
8
0
100
AcDbBlockEnd
0
ENDSEC
0
SECTION
2
ENTITIES
0
ARC
5
A5
100
AcDbEntity
8
1
62
256
6
ByLayer
370
18
48
1
60
0
100
AcDbCircle
39
0
10
16.171524
20
3.710974
30
0
40
2.3
210
0
220
0
230
1
100
AcDbArc
50
349.272996
51
359.961325
0
ARC
5
A6
100
AcDbEntity
8
1
62
256
6
ByLayer
370
18
48
1
60
0
100
AcDbCircle
39
0
10
16.171524
20
3.710974
30
0
40
2.3
210
0
220
0
230
1
100
AcDbArc
50
87.974219
51
98.309879
0
ARC
5
A7
100
AcDbEntity
8
1
62
256
6
ByLayer
370
18
48
1
60
0
100
AcDbCircle
39
0
10
0
20
9.5375
30
0
40
1.6000000000002
210
0
220
0
230
-1
100
AcDbArc
50
195
51
270
0
ELLIPSE
5
A8
100
AcDbEntity
8
1
62
256
6
ByLayer
370
18
48
1
60
0
100
AcDbEllipse
10
8.550122
20
5.478475
30
0
11
-1.3630644282289
21
1.41149453508068
31
0
210
0
220
0
230
1
40
0.989133
41
-1.00030088215828
42
-0.203612386598346
0
ELLIPSE
5
A9
100
AcDbEntity
8
1
62
256
6
ByLayer
370
18
48
1
60
0
100
AcDbEllipse
10
8.56617
20
5.493973
30
0
11
1.46725612967062
21
-1.51938820036901
31
0
210
0
220
0
230
1
40
0.989133
41
2.1412917714315
42
2.81452503006639
0
ELLIPSE
5
AA
100
AcDbEntity
8
1
62
256
6
ByLayer
370
18
48
1
60
0
100
AcDbEllipse
10
0
20
-7.944481
30
0
11
1.59999999999926
21
1.61702248813103E-15
31
0
210
0
220
0
230
-1
40
0.004363
41
-1.5707963267949
42
-0.261799387798513
0
ELLIPSE
5
AB
100
AcDbEntity
8
1
62
256
6
ByLayer
370
18
48
1
60
0
100
AcDbEllipse
10
9.004915
20
7.390805
30
0
11
0.0352634839813053
21
0.145796044862336
31
0
210
0
220
0
230
1
40
0.0794
41
0.112817607278225
42
1.69525004419622
0
ELLIPSE
5
AC
100
AcDbEntity
8
1
62
256
6
ByLayer
370
18
48
1
60
0
100
AcDbEllipse
10
13.9478
20
3.58036
30
0
11
-1.38931674091797
21
1.43867960067733
31
0
210
0
220
0
230
1
40
0.989133
41
1.43737177327505
42
1.82713250607253
0
ELLIPSE
5
AD
100
AcDbEntity
8
1
62
256
6
ByLayer
370
18
48
1
60
0
100
AcDbEllipse
10
17.573423
20
1.361549
30
0
11
-1.38931674091797
21
1.43867960067733
31
0
210
0
220
0
230
1
40
0.989133
41
1.82713250607253
42
2.21689323887
0
ELLIPSE
5
AE
100
AcDbEntity
8
1
62
256
6
ByLayer
370
18
48
1
60
0
100
AcDbEllipse
10
9.301022
20
6.203611
30
0
11
1.41109000978514
21
-1.4612264806196
31
0
210
0
220
0
230
1
40
0.989133
41
2.1412917714315
42
-1.00030088215827
0
ELLIPSE
5
AF
100
AcDbEntity
8
1
62
256
6
ByLayer
370
18
48
1
60
0
100
AcDbEllipse
10
9.708964
20
-1.750561
30
0
11
0.899582589744384
21
-0.93154504143857
31
0
210
0
220
0
230
1
40
0.989133
41
0.242529303738537
42
0.808310451797813
0
ELLIPSE
5
B0
100
AcDbEntity
8
1
62
256
6
ByLayer
370
18
48
1
60
0
100
AcDbEllipse
10
9.708964
20
-1.750561
30
0
11
0.899582589744384
21
-0.93154504143857
31
0
210
0
220
0
230
1
40
0.989133
41
0.808310451797815
42
2.97934762103756
0
ELLIPSE
5
B1
100
AcDbEntity
8
1
62
256
6
ByLayer
370
18
48
1
60
0
100
AcDbEllipse
10
9.804149
20
-1.658643
30
0
11
-0.899582589744384
21
0.931545041438569
31
0
210
0
220
0
230
1
40
0.989133
41
-2.95192480789375
42
-2.37234977012391
0
ELLIPSE
5
B2
100
AcDbEntity
8
1
62
256
6
ByLayer
370
18
48
1
60
0
100
AcDbEllipse
10
16.343385
20
3.876938
30
0
11
1.56298133353271
21
-1.61851455076199
31
0
210
0
220
0
230
1
40
0.989133
41
2.34853343674444
42
2.52084086012147
0
ELLIPSE
5
B3
100
AcDbEntity
8
1
62
256
6
ByLayer
370
18
48
1
60
0
100
AcDbEllipse
10
16.343385
20
3.876938
30
0
11
1.56298133353271
21
-1.61851455076199
31
0
210
0
220
0
230
1
40
0.989133
41
0.620777416640998
42
0.789485519307348
0
ELLIPSE
5
B4
100
AcDbEntity
8
1
62
256
6
ByLayer
370
18
48
1
60
0
100
AcDbEllipse
10
9.006847
20
4.637151
30
0
11
0.551385081551819
21
-0.570975966518815
31
0
210
0
220
0
230
1
40
0.989133
41
-3.14159081769613
42
-2.16079192751022
0
ELLIPSE
5
B5
100
AcDbEntity
8
1
62
256
6
ByLayer
370
18
48
1
60
0
100
AcDbEllipse
10
20.725206
20
-2.534259
30
0
11
0.551385081551819
21
-0.570975966518815
31
0
210
0
220
0
230
1
40
0.989133
41
-1.10825991958107
42
-3.07753884957605E-05
0
ELLIPSE
5
B6
100
AcDbEntity
8
1
62
256
6
ByLayer
370
18
48
1
60
0
100
AcDbEllipse
10
16.898628
20
4.41313
30
0
11
-1.32332419572437
21
1.37034231964515
31
0
210
0
220
0
230
1
40
0.989133
41
-2.97230179763889
42
-2.48054438211542
0
ELLIPSE
5
B7
100
AcDbEntity
8
1
62
256
6
ByLayer
370
18
48
1
60
0
100
AcDbEllipse
10
16.898628
20
4.41313
30
0
11
-1.32332419572437
21
1.37034231964515
31
0
210
0
220
0
230
1
40
0.989133
41
-0.679528343186335
42
-0.16921610268496
0
ELLIPSE
5
B8
100
AcDbEntity
8
1
62
256
6
ByLayer
370
18
48
1
60
0
100
AcDbEllipse
10
17.096873
20
5.020925
30
0
11
1.31985090387207
21
-1.36674562064346
31
0
210
0
220
0
230
1
40
0.989133
41
-1.07058790694289
42
1.01014241828289
0
ELLIPSE
5
B9
100
AcDbEntity
8
1
62
256
6
ByLayer
370
18
48
1
60
0
100
AcDbEllipse
10
17.488299
20
4.566217
30
0
11
1.31985090387207
21
-1.36674562064346
31
0
210
0
220
0
230
1
40
0.989133
41
2.0158040631442
42
-2.1673939784088
0
ELLIPSE
5
BA
100
AcDbEntity
8
1
62
256
6
ByLayer
370
18
48
1
60
0
100
AcDbEllipse
10
16.599798
20
4.540905
30
0
11
-1.31985090387207
21
1.36674562064346
31
0
210
0
220
0
230
1
40
0.989133
41
3.02734155117574
42
-3.14157901982462
0
ELLIPSE
5
BB
100
AcDbEntity
8
1
62
256
6
ByLayer
370
18
48
1
60
0
100
AcDbEllipse
10
16.991224
20
4.086198
30
0
11
-1.31985090387207
21
1.36674562064346
31
0
210
0
220
0
230
1
40
0.989133
41
-6.21870587218627E-06
42
0.0924711352523849
0
ELLIPSE
5
BC
100
AcDbEntity
8
1
62
256
6
ByLayer
370
18
48
1
60
0
100
AcDbEllipse
10
16.213828
20
3.751826
30
0
11
1.57336670581209
21
-1.62926891857729
31
0
210
0
220
0
230
1
40
0.989133
41
2.35363434473036
42
2.53858452957961
0
ELLIPSE
5
BD
100
AcDbEntity
8
1
62
256
6
ByLayer
370
18
48
1
60
0
100
AcDbEllipse
10
16.213828
20
3.751826
30
0
11
1.57336670581209
21
-1.62926891857729
31
0
210
0
220
0
230
1
40
0.989133
41
0.590473670613715
42
0.786885303061009
0
ELLIPSE
5
BE
100
AcDbEntity
8
1
62
256
6
ByLayer
370
18
48
1
60
0
100
AcDbEllipse
10
17.402313
20
4.899533
30
0
11
-1.32332419572437
21
1.37034231964515
31
0
210
0
220
0
230
1
40
0.989133
41
0
42
6.28318530717959
0
ELLIPSE
5
BF
100
AcDbEntity
8
1
62
256
6
ByLayer
370
18
48
1
60
0
100
AcDbEllipse
10
21.228891
20
-2.047856
30
0
11
0.551385081551819
21
-0.570975966518815
31
0
210
0
220
0
230
1
40
0.989133
41
-1.31446014751727
42
0.779934954875918
0
ELLIPSE
5
C0
100
AcDbEntity
8
1
62
256
6
ByLayer
370
18
48
1
60
0
100
AcDbEllipse
10
21.467515
20
11.622901
30
0
11
0.551385081551818
21
-0.570975966518814
31
0
210
0
220
0
230
1
40
0.989133
41
0.779934954875925
42
2.87433005726915
0
ELLIPSE
5
C1
100
AcDbEntity
8
1
62
256
6
ByLayer
370
18
48
1
60
0
100
AcDbEllipse
10
9.510532
20
5.123554
30
0
11
0.551385081551819
21
-0.570975966518815
31
0
210
0
220
0
230
1
40
0.989133
41
2.87433005726913
42
-1.31446014751726
0
ELLIPSE
5
C2
100
AcDbEntity
8
1
62
256
6
ByLayer
370
18
48
1
60
0
100
AcDbEllipse
10
17.324314
20
4.824211
30
0
11
-1.024621096427
21
1.06102620549953
31
0
210
0
220
0
230
1
40
0.989133
41
-1.96770736762662
42
-1.28953145812586
0
ELLIPSE
5
C3
100
AcDbEntity
8
1
62
256
6
ByLayer
370
18
48
1
60
0
100
AcDbEllipse
10
17.324314
20
4.824211
30
0
11
-1.024621096427
21
1.06102620549953
31
0
210
0
220
0
230
1
40
0.989133
41
1.17388528596317
42
1.85206119546394
0
ELLIPSE
5
C4
100
AcDbEntity
8
1
62
256
6
ByLayer
370
18
48
1
60
0
100
AcDbEllipse
10
17.128601
20
5.051564
30
0
11
-1.11145339273437
21
1.15094368054186
31
0
210
0
220
0
230
1
40
0.989133
41
2.02981930480527
42
-2.14546547696796
0
ELLIPSE
5
C5
100
AcDbEntity
8
1
62
256
6
ByLayer
370
18
48
1
60
0
100
AcDbEllipse
10
17.520028
20
4.596857
30
0
11
-1.11145339273437
21
1.15094368054186
31
0
210
0
220
0
230
1
40
0.989133
41
-1.11177334878453
42
0.99612717662184
0
ELLIPSE
5
C6
100
AcDbEntity
8
1
62
256
6
ByLayer
370
18
48
1
60
0
100
AcDbEllipse
10
17.292586
20
4.793571
30
0
11
1.2330186075647
21
-1.27682814560113
31
0
210
0
220
0
230
1
40
0.989133
41
1.15878299732631
42
1.86716348410077
0
ELLIPSE
5
C7
100
AcDbEntity
8
1
62
256
6
ByLayer
370
18
48
1
60
0
100
AcDbEllipse
10
10.151572
20
-1.32314
30
0
11
-0.899582589744384
21
0.931545041438569
31
0
210
0
220
0
230
1
40
0.989133
41
0.769242883465876
42
1.20950604676463
0
ELLIPSE
5
C8
100
AcDbEntity
8
1
62
256
6
ByLayer
370
18
48
1
60
0
100
AcDbEllipse
10
10.174311
20
-1.301181
30
0
11
1.55256145797583
21
-1.60772445375691
31
0
210
0
220
0
230
1
40
0.989133
41
0
42
6.28318530717959
0
ELLIPSE
5
C9
100
AcDbEntity
8
1
62
256
6
ByLayer
370
18
48
1
60
0
100
AcDbEllipse
10
10.151572
20
-1.32314
30
0
11
-0.899582589744384
21
0.931545041438569
31
0
210
0
220
0
230
1
40
0.989133
41
-1.32515221892733
42
-0.884889055628573
0
ELLIPSE
5
CA
100
AcDbEntity
8
1
62
256
6
ByLayer
370
18
48
1
60
0
100
AcDbEllipse
10
10.151572
20
-1.32314
30
0
11
-0.899582589744384
21
0.931545041438569
31
0
210
0
220
0
230
1
40
0.989133
41
-0.277954667732752
42
0.162308495568038
0
ELLIPSE
5
CB
100
AcDbEntity
8
1
62
256
6
ByLayer
370
18
48
1
60
0
100
AcDbEllipse
10
10.151572
20
-1.32314
30
0
11
-0.899582589744384
21
0.931545041438569
31
0
210
0
220
0
230
1
40
0.989133
41
-2.37234977012393
42
-1.93208660682517
0
ELLIPSE
5
CC
100
AcDbEntity
8
1
62
256
6
ByLayer
370
18
48
1
60
0
100
AcDbEllipse
10
10.151572
20
-1.32314
30
0
11
-0.899582589744384
21
0.931545041438569
31
0
210
0
220
0
230
1
40
0.989133
41
1.81644043466247
42
2.25670359796123
0
ELLIPSE
5
CD
100
AcDbEntity
8
1
62
256
6
ByLayer
370
18
48
1
60
0
100
AcDbEllipse
10
10.151572
20
-1.32314
30
0
11
-0.899582589744384
21
0.931545041438569
31
0
210
0
220
0
230
1
40
0.989133
41
2.86363798585908
42
-2.97928415802177
0
ELLIPSE
5
CE
100
AcDbEntity
8
1
62
256
6
ByLayer
370
18
48
1
60
0
100
AcDbEllipse
10
9.804149
20
-1.658643
30
0
11
-0.899582589744384
21
0.931545041438569
31
0
210
0
220
0
230
1
40
0.989133
41
-1.93208660682515
42
-1.32515221892732
0
ELLIPSE
5
CF
100
AcDbEntity
8
1
62
256
6
ByLayer
370
18
48
1
60
0
100
AcDbEllipse
10
9.804149
20
-1.658643
30
0
11
-0.899582589744384
21
0.931545041438569
31
0
210
0
220
0
230
1
40
0.989133
41
-0.884889055628548
42
-0.27795466773074
0
ELLIPSE
5
D0
100
AcDbEntity
8
1
62
256
6
ByLayer
370
18
48
1
60
0
100
AcDbEllipse
10
10.093404
20
-1.379312
30
0
11
2.08397511137695
21
-2.15801940101599
31
0
210
0
220
0
230
1
40
0.989133
41
0
42
6.28318530717959
0
ELLIPSE
5
D1
100
AcDbEntity
8
1
62
256
6
ByLayer
370
18
48
1
60
0
100
AcDbEllipse
10
10.174311
20
-1.301181
30
0
11
1.15826706192505
21
-1.19942065408857
31
0
210
0
220
0
230
1
40
0.989133
41
0
42
6.28318530717959
0
POINT
5
6C
100
AcDbEntity
8
80
62
256
6
ByLayer
370
18
48
1
60
0
100
AcDbPoint
10
0
20
0
30
0
39
0
210
0
220
0
230
1
50
360
0
POINT
5
6E
100
AcDbEntity
8
81
62
256
6
ByLayer
370
18
48
1
60
0
100
AcDbPoint
10
20.906813
20
12.0625
30
0
39
0
210
0
220
0
230
1
50
360
0
POINT
5
70
100
AcDbEntity
8
1
62
256
6
ByLayer
370
18
48
1
60
0
100
AcDbPoint
10
-79.093187
20
-7.9375
30
0
39
0
210
0
220
0
230
1
50
360
0
POINT
5
72
100
AcDbEntity
8
2
62
256
6
ByLayer
370
18
48
1
60
0
100
AcDbPoint
10
8.97376
20
-2.46054
30
0
39
0
210
0
220
0
230
1
50
360
0
SPLINE
5
D2
100
AcDbEntity
8
1
62
256
6
ByLayer
370
18
48
1
60
0
100
AcDbSpline
70
4
71
3
72
8
73
4
40
0
40
0
40
0
40
0
40
1
40
1
40
1
40
1
41
1
10
15.6803030790525
20
4.20097617774593
30
0
41
1
10
15.7736282850479
20
4.23385304402171
30
0
41
1
10
15.8669642938227
20
4.26674906147662
30
0
41
1
10
15.9603174496588
20
4.29967552524363
30
0
0
SPLINE
5
D3
100
AcDbEntity
8
1
62
256
6
ByLayer
370
18
48
1
60
0
100
AcDbSpline
70
4
71
3
72
12
73
8
40
0
40
0
40
0
40
0
40
0.415110223003431
40
0.415110223003431
40
0.897570603626279
40
0.897570603626279
40
1
40
1
40
1
40
1
41
1
10
18.121049790872
20
3.14640033736831
30
0
41
1
10
18.1726835579021
20
3.21110439368172
30
0
41
1
10
18.2203221767682
20
3.28018581418317
30
0
41
1
10
18.3117288755753
20
3.4349556902653
30
0
41
1
10
18.3538002801788
20
3.52144707752635
30
0
41
1
10
18.3964942741476
20
3.63020583819383
30
0
41
1
10
18.4036693517481
20
3.64943994349815
30
0
41
1
10
18.4105334779691
20
3.66882803146194
30
0
0
SPLINE
5
D4
100
AcDbEntity
8
1
62
256
6
ByLayer
370
18
48
1
60
0
100
AcDbSpline
70
4
71
3
72
12
73
8
40
0
40
0
40
0
40
0
40
0.28279606696339
40
0.28279606696339
40
0.766696339118931
40
0.766696339118931
40
1
40
1
40
1
40
1
41
1
10
16.2295917095149
20
5.95527245627892
30
0
41
1
10
16.1752162774421
20
5.93906211442209
30
0
41
1
10
16.1215112728717
20
5.92031509550995
30
0
41
1
10
15.9796447173499
20
5.86310742332952
30
0
41
1
10
15.8939230667455
20
5.82023356914647
30
0
41
1
10
15.7724744901712
20
5.74669132263986
30
0
41
1
10
15.7336911997973
20
5.72105200769525
30
0
41
1
10
15.6959744056981
20
5.69392898460964
30
0
0
SPLINE
5
D5
100
AcDbEntity
8
1
62
256
6
ByLayer
370
18
48
1
60
0
100
AcDbSpline
70
4
71
3
72
8
73
4
40
0
40
0
40
0
40
0
40
1
40
1
40
1
40
1
41
1
10
16.6004632489438
20
3.55603891605332
30
0
41
1
10
16.5485365502899
20
3.45542191555336
30
0
41
1
10
16.4966526702698
20
3.35482044616796
30
0
41
1
10
16.4447935285221
20
3.25422797393455
30
0
0
SPLINE
5
D6
100
AcDbEntity
8
1
62
256
6
ByLayer
370
18
48
1
60
0
100
AcDbSpline
70
4
71
3
72
8
73
4
40
0
40
0
40
0
40
0
40
1
40
1
40
1
40
1
41
1
10
18.1403784279704
20
6.33291414656225
30
0
41
1
10
18.1096771589905
20
6.25275359455935
30
0
41
1
10
18.0789465309856
20
6.1725795831957
30
0
41
1
10
18.0481650706879
20
6.092382302017
30
0
0
SPLINE
5
D7
100
AcDbEntity
8
1
62
256
6
ByLayer
370
18
48
1
60
0
100
AcDbSpline
70
4
71
3
72
8
73
4
40
0
40
0
40
0
40
0
40
1
40
1
40
1
40
1
41
1
10
18.6883108699729
20
5.3487456928267
30
0
41
1
10
18.7734394642153
20
5.36580967148115
30
0
41
1
10
18.8585378227356
20
5.38282645395259
30
0
41
1
10
18.9436186984108
20
5.39981598089037
30
0
0
SPLINE
5
D8
100
AcDbEntity
8
1
62
256
6
ByLayer
370
18
48
1
60
0
100
AcDbSpline
70
4
71
3
72
10
73
6
40
0
40
0
40
0
40
0
40
0.5
40
0.5
40
1
40
1
40
1
40
1
41
1
10
9.06646412795229
20
-2.25378190861321
30
0
41
1
10
9.13319170083636
20
-2.28045300743091
30
0
41
1
10
9.20115967719934
20
-2.30727167604817
30
0
41
1
10
9.33801871291982
20
-2.36038875062047
30
0
41
1
10
9.40698002646624
20
-2.38671615376188
30
0
41
1
10
9.47657236538768
20
-2.41276929459892
30
0
0
SPLINE
5
D9
100
AcDbEntity
8
1
62
256
6
ByLayer
370
18
48
1
60
0
100
AcDbSpline
70
4
71
3
72
8
73
4
40
0
40
0
40
0
40
0
40
1
40
1
40
1
40
1
41
1
10
8.97165036453097
20
-1.82621778548636
30
0
41
1
10
9.00263872462017
20
-1.97357301208305
30
0
41
1
10
9.0343368412442
20
-2.11536072183074
30
0
41
1
10
9.06646412795229
20
-2.25378190861321
30
0
0
SPLINE
5
DA
100
AcDbEntity
8
1
62
256
6
ByLayer
370
18
48
1
60
0
100
AcDbSpline
70
4
71
3
72
10
73
6
40
0
40
0
40
0
40
0
40
0.5
40
0.5
40
1
40
1
40
1
40
1
41
1
10
11.5336131888797
20
-1.80101868745862
30
0
41
1
10
11.5174560623897
20
-1.7314053197295
30
0
41
1
10
11.5013153769769
20
-1.6605176843824
30
0
41
1
10
11.4696194446476
20
-1.51782992036524
30
0
41
1
10
11.454046352923
20
-1.44595644713451
30
0
41
1
10
11.4387994254585
20
-1.37345456433175
30
0
0
SPLINE
5
DB
100
AcDbEntity
8
1
62
256
6
ByLayer
370
18
48
1
60
0
100
AcDbSpline
70
4
71
3
72
8
73
4
40
0
40
0
40
0
40
0
40
1
40
1
40
1
40
1
41
1
10
11.5336131888797
20
-1.80101868745862
30
0
41
1
10
11.4195481111024
20
-1.89943670620119
30
0
41
1
10
11.303071854855
20
-1.9998294496516
30
0
41
1
10
11.1882304356447
20
-2.09865133809671
30
0
0
SPLINE
5
DC
100
AcDbEntity
8
1
62
256
6
ByLayer
370
18
48
1
60
0
100
AcDbSpline
70
4
71
3
72
10
73
6
40
0
40
0
40
0
40
0
40
0.5
40
0.5
40
1
40
1
40
1
40
1
41
1
10
10.7637994164762
20
-2.46308423859787
30
0
41
1
10
10.708018560026
20
-2.51087183401268
30
0
41
1
10
10.6524878408189
20
-2.55840241433989
30
0
41
1
10
10.5440767368947
20
-2.65112467614279
30
0
41
1
10
10.490889845258
20
-2.69657924946958
30
0
41
1
10
10.4384755160551
20
-2.74134628023802
30
0
0
SPLINE
5
DD
100
AcDbEntity
8
1
62
256
6
ByLayer
370
18
48
1
60
0
100
AcDbSpline
70
4
71
3
72
10
73
6
40
0
40
0
40
0
40
0
40
0.5
40
0.5
40
1
40
1
40
1
40
1
41
1
10
11.2567394736015
20
-0.373126723054412
30
0
41
1
10
11.1855329342692
20
-0.350780911858465
30
0
41
1
10
11.1135299186476
20
-0.327858835359166
30
0
41
1
10
10.9698850730348
20
-0.281294741227924
30
0
41
1
10
10.8981668856498
20
-0.257629620205989
30
0
41
1
10
10.8265723833521
20
-0.233509946066704
30
0
0
SPLINE
5
DE
100
AcDbEntity
8
1
62
256
6
ByLayer
370
18
48
1
60
0
100
AcDbSpline
70
4
71
3
72
10
73
6
40
0
40
0
40
0
40
0
40
0.5
40
0.5
40
1
40
1
40
1
40
1
41
1
10
8.78959041267402
20
-0.825889944209024
30
0
41
1
10
8.80126857271591
20
-0.899828599559868
30
0
41
1
10
8.81337421887005
20
-0.974612827024913
30
0
41
1
10
8.83828434130695
20
-1.12385357148315
30
0
41
1
10
8.85110055919304
20
-1.19838932683334
30
0
41
1
10
8.86434532328136
20
-1.27282467633384
30
0
0
SPLINE
5
DF
100
AcDbEntity
8
1
62
256
6
ByLayer
370
18
48
1
60
0
100
AcDbSpline
70
4
71
3
72
10
73
6
40
0
40
0
40
0
40
0
40
0.5
40
0.5
40
1
40
1
40
1
40
1
41
1
10
9.11491431309511
20
-0.547627902568877
30
0
41
1
10
9.05913345664484
20
-0.595415497983709
30
0
41
1
10
9.00360273743777
20
-0.642946078310899
30
0
41
1
10
8.89519163351358
20
-0.73566834011379
30
0
41
1
10
8.84200474187691
20
-0.781122913440583
30
0
41
1
10
8.78959041267402
20
-0.825889944209024
30
0
0
SPLINE
5
E0
100
AcDbEntity
8
1
62
256
6
ByLayer
370
18
48
1
60
0
100
AcDbSpline
70
4
71
3
72
8
73
4
40
0
40
0
40
0
40
0
40
1
40
1
40
1
40
1
41
1
10
11.3314943842088
20
-0.820061455179257
30
0
41
1
10
11.3045752872419
20
-0.668776586863629
30
0
41
1
10
11.2799606569053
20
-0.52014843392169
30
0
41
1
10
11.2567394736015
20
-0.373126723054412
30
0
0
SPLINE
5
E1
100
AcDbEntity
8
1
62
256
6
ByLayer
370
18
48
1
60
0
100
AcDbSpline
70
4
71
3
72
8
73
4
40
0
40
0
40
0
40
0
40
1
40
1
40
1
40
1
41
1
10
10.294836322934
20
-0.0445497374153092
30
0
41
1
10
10.1533945496347
20
0.0084015284440966
30
0
41
1
10
10.0174110762953
20
0.0614040822946151
30
0
41
1
10
9.88472808549861
20
0.114437648570373
30
0
0
SPLINE
5
E2
100
AcDbEntity
8
1
62
256
6
ByLayer
370
18
48
1
60
0
100
AcDbSpline
70
4
71
3
72
8
73
4
40
0
40
0
40
0
40
0
40
1
40
1
40
1
40
1
41
1
10
9.88472808549861
20
0.114437648570373
30
0
41
1
10
9.77066300772188
20
0.0160196298283495
30
0
41
1
10
9.65418675147512
20
-0.0843731136214956
30
0
41
1
10
9.53934533226553
20
-0.183195002066043
30
0
0
SPLINE
5
E3
100
AcDbEntity
8
1
62
256
6
ByLayer
370
18
48
1
60
0
100
AcDbSpline
70
4
71
3
72
8
73
4
40
0
40
0
40
0
40
0
40
1
40
1
40
1
40
1
41
1
10
10.0083084258057
20
-2.60172950325028
30
0
41
1
10
10.1538194622274
20
-2.65075112739075
30
0
41
1
10
10.2968864218542
20
-2.69691323804705
30
0
41
1
10
10.4384755160551
20
-2.74134628023802
30
0
0
LINE
5
74
100
AcDbEntity
8
1
62
256
6
ByLayer
370
18
48
1
60
0
100
AcDbLine
10
21.276591
20
-3.105235
30
0
11
21.780276
21
-2.618832
31
0
39
0
210
0
220
0
230
1
0
LINE
5
75
100
AcDbEntity
8
1
62
256
6
ByLayer
370
18
48
1
60
0
100
AcDbLine
10
8.959146
20
5.69453
30
0
11
8.455462
21
5.208127
31
0
39
0
210
0
220
0
230
1
0
LINE
5
76
100
AcDbEntity
8
1
62
256
6
ByLayer
370
18
48
1
60
0
100
AcDbLine
10
16.168448
20
5.932963
30
0
11
15.671374
21
5.452943
31
0
39
0
210
0
220
0
230
1
0
LINE
5
77
100
AcDbEntity
8
1
62
256
6
ByLayer
370
18
48
1
60
0
100
AcDbLine
10
17.919649
20
3.17416
30
0
11
18.416724
21
3.654179
31
0
39
0
210
0
220
0
230
1
0
LINE
5
78
100
AcDbEntity
8
1
62
256
6
ByLayer
370
18
48
1
60
0
100
AcDbLine
10
8.009429
20
0.778707
30
0
11
8.002991
21
0.77249
31
0
39
0
210
0
220
0
230
1
0
LINE
5
79
100
AcDbEntity
8
1
62
256
6
ByLayer
370
18
48
1
60
0
100
AcDbLine
10
12.170941
20
-3.543549
30
0
11
12.177379
21
-3.537332
31
0
39
0
210
0
220
0
230
1
0
LINE
5
7A
100
AcDbEntity
8
1
62
256
6
ByLayer
370
18
48
1
60
0
100
AcDbLine
10
11.06769
20
6.872728
30
0
11
8.989051
21
7.375485
31
0
39
0
210
0
220
0
230
1
0
LINE
5
7B
100
AcDbEntity
8
1
62
256
6
ByLayer
370
18
48
1
60
0
100
AcDbLine
10
9.038651
20
7.535989
30
0
11
11.287342
21
6.992102
31
0
39
0
210
0
220
0
230
1
0
LINE
5
7C
100
AcDbEntity
8
1
62
256
6
ByLayer
370
18
48
1
60
0
100
AcDbLine
10
15.017929
20
9.019902
30
0
11
13.891209
21
11.065531
31
0
39
0
210
0
220
0
230
1
0
LINE
5
7D
100
AcDbEntity
8
1
62
256
6
ByLayer
370
18
48
1
60
0
100
AcDbLine
10
9.755416
20
8.167459
30
0
11
12.312053
21
7.549089
31
0
39
0
210
0
220
0
230
1
0
LINE
5
7E
100
AcDbEntity
8
1
62
256
6
ByLayer
370
18
48
1
60
0
100
AcDbLine
10
9.691379
20
4.035443
30
0
11
8.846627
21
4.239762
31
0
39
0
210
0
220
0
230
1
0
LINE
5
7F
100
AcDbEntity
8
1
62
256
6
ByLayer
370
18
48
1
60
0
100
AcDbLine
10
20.390592
20
-7.586101
30
0
11
20.47822
21
-2.565927
31
0
39
0
210
0
220
0
230
1
0
LINE
5
80
100
AcDbEntity
8
1
62
256
6
ByLayer
370
18
48
1
60
0
100
AcDbLine
10
1.545481
20
9.12339
30
0
11
1.545481
21
-7.942674
31
0
39
0
210
0
220
0
230
1
0
LINE
5
81
100
AcDbEntity
8
1
62
256
6
ByLayer
370
18
48
1
60
0
100
AcDbLine
10
0
20
-7.9375
30
0
11
0
21
7.9375
31
0
39
0
210
0
220
0
230
1
0
LINE
5
82
100
AcDbEntity
8
1
62
256
6
ByLayer
370
18
48
1
60
0
100
AcDbLine
10
1.545481
20
-7.942674
30
0
11
2.304913
21
-7.955041
31
0
39
0
210
0
220
0
230
1
0
LINE
5
83
100
AcDbEntity
8
1
62
256
6
ByLayer
370
18
48
1
60
0
100
AcDbLine
10
1.875851
20
10.356345
30
0
11
1.818194
21
10.141166
31
0
39
0
210
0
220
0
230
1
0
LINE
5
84
100
AcDbEntity
8
1
62
256
6
ByLayer
370
18
48
1
60
0
100
AcDbLine
10
2.304913
20
-7.955041
30
0
11
1.818194
21
10.141166
31
0
39
0
210
0
220
0
230
1
0
LINE
5
85
100
AcDbEntity
8
1
62
256
6
ByLayer
370
18
48
1
60
0
100
AcDbLine
10
13.891209
20
11.065531
30
0
11
1.875851
21
10.356345
31
0
39
0
210
0
220
0
230
1
0
LINE
5
86
100
AcDbEntity
8
1
62
256
6
ByLayer
370
18
48
1
60
0
100
AcDbLine
10
12.923497
20
1.886283
30
0
11
16.54912
21
-0.332528
31
0
39
0
210
0
220
0
230
1
0
LINE
5
87
100
AcDbEntity
8
1
62
256
6
ByLayer
370
18
48
1
60
0
100
AcDbLine
10
18.446895
20
-7.947507
30
0
11
2.304913
21
-7.955041
31
0
39
0
210
0
220
0
230
1
0
LINE
5
88
100
AcDbEntity
8
1
62
256
6
ByLayer
370
18
48
1
60
0
100
AcDbLine
10
1.545481
20
9.12339
30
0
11
1.818194
21
10.141166
31
0
39
0
210
0
220
0
230
1
0
LINE
5
89
100
AcDbEntity
8
1
62
256
6
ByLayer
370
18
48
1
60
0
100
AcDbLine
10
9.755416
20
8.167459
30
0
11
9.038651
21
7.535989
31
0
39
0
210
0
220
0
230
1
0
LINE
5
8A
100
AcDbEntity
8
1
62
256
6
ByLayer
370
18
48
1
60
0
100
AcDbLine
10
20.390592
20
-7.586101
30
0
11
18.446895
21
-7.947507
31
0
39
0
210
0
220
0
230
1
0
LINE
5
8B
100
AcDbEntity
8
SK1
62
256
6
ByLayer
370
18
48
1
60
0
100
AcDbLine
10
0
20
-7.9375
30
0
11
0
21
7.9375
31
0
39
0
210
0
220
0
230
1
0
LINE
5
8D
100
AcDbEntity
8
SK1
62
256
6
ByLayer
370
18
48
1
60
0
100
AcDbLine
10
-79.093187
20
7.9375
30
0
11
-79.093187
21
-7.9375
31
0
39
0
210
0
220
0
230
1
0
LINE
5
8E
100
AcDbEntity
8
SK1
62
256
6
ByLayer
370
18
48
1
60
0
100
AcDbLine
10
-79.093187
20
7.9375
30
0
11
0
21
7.9375
31
0
39
0
210
0
220
0
230
1
0
LINE
5
8F
100
AcDbEntity
8
SK1
62
256
6
ByLayer
370
18
48
1
60
0
100
AcDbLine
10
-79.093187
20
-7.9375
30
0
11
0
21
-7.9375
31
0
39
0
210
0
220
0
230
1
0
LINE
5
90
100
AcDbEntity
8
1
62
256
6
ByLayer
370
18
48
1
60
0
100
AcDbLine
10
10.890434
20
-2.38623
30
0
11
11.18823
21
-2.098651
31
0
39
0
210
0
220
0
230
1
0
LINE
5
91
100
AcDbEntity
8
1
62
256
6
ByLayer
370
18
48
1
60
0
100
AcDbLine
10
11.091376
20
-1.708958
30
0
11
11.170297
21
-2.115969
31
0
39
0
210
0
220
0
230
1
0
LINE
5
92
100
AcDbEntity
8
1
62
256
6
ByLayer
370
18
48
1
60
0
100
AcDbLine
10
8.877345
20
4.232329
30
0
11
9.104011
21
4.451218
31
0
39
0
210
0
220
0
230
1
0
LINE
5
93
100
AcDbEntity
8
1
62
256
6
ByLayer
370
18
48
1
60
0
100
AcDbLine
10
20.469587
20
-3.060873
30
0
11
20.822371
21
-2.720193
31
0
39
0
210
0
220
0
230
1
0
LINE
5
94
100
AcDbEntity
8
80
62
256
6
ByLayer
370
18
48
1
60
0
100
AcDbLine
10
0
20
0
30
0
11
-5
21
0
31
0
39
0
210
0
220
0
230
1
0
LINE
5
95
100
AcDbEntity
8
81
62
256
6
ByLayer
370
18
48
1
60
0
100
AcDbLine
10
20.906813
20
12.0625
30
0
11
30.906813
21
12.0625
31
0
39
0
210
0
220
0
230
1
0
LINE
5
96
100
AcDbEntity
8
1
62
256
6
ByLayer
370
18
48
1
60
0
100
AcDbLine
10
9.127874
20
5.818293
30
0
11
21.084857
21
12.31764
31
0
39
0
210
0
220
0
230
1
0
LINE
5
97
100
AcDbEntity
8
1
62
256
6
ByLayer
370
18
48
1
60
0
100
AcDbLine
10
20.822371
20
-2.720193
30
0
11
9.104011
21
4.451218
31
0
39
0
210
0
220
0
230
1
0
LINE
5
98
100
AcDbEntity
8
1
62
256
6
ByLayer
370
18
48
1
60
0
100
AcDbLine
10
22.256693
20
11.600498
30
0
11
22.018069
21
-2.070259
31
0
39
0
210
0
220
0
230
1
0
LINE
5
99
100
AcDbEntity
8
1
62
256
6
ByLayer
370
18
48
1
60
0
100
AcDbLine
10
9.191922
20
-0.518698
30
0
11
9.527275
21
-0.230751
31
0
39
0
210
0
220
0
230
1
0
LINE
5
9A
100
AcDbEntity
8
1
62
256
6
ByLayer
370
18
48
1
60
0
100
AcDbLine
10
10.899286
20
-0.718315
30
0
11
10.984071
21
-1.155565
31
0
39
0
210
0
220
0
230
1
0
LINE
5
9B
100
AcDbEntity
8
1
62
256
6
ByLayer
370
18
48
1
60
0
100
AcDbLine
10
11.091376
20
-1.708958
30
0
11
11.438799
21
-1.373455
31
0
39
0
210
0
220
0
230
1
0
LINE
5
9C
100
AcDbEntity
8
1
62
256
6
ByLayer
370
18
48
1
60
0
100
AcDbLine
10
9.191922
20
-0.518698
30
0
11
9.539345
21
-0.183195
31
0
39
0
210
0
220
0
230
1
0
LINE
5
9D
100
AcDbEntity
8
1
62
256
6
ByLayer
370
18
48
1
60
0
100
AcDbLine
10
10.479149
20
-0.569013
30
0
11
10.899286
21
-0.718315
31
0
39
0
210
0
220
0
230
1
0
LINE
5
9E
100
AcDbEntity
8
1
62
256
6
ByLayer
370
18
48
1
60
0
100
AcDbLine
10
9.114914
20
-0.547628
30
0
11
8.767491
21
-0.883131
31
0
39
0
210
0
220
0
230
1
0
LINE
5
9F
100
AcDbEntity
8
1
62
256
6
ByLayer
370
18
48
1
60
0
100
AcDbLine
10
10.294836
20
-0.04455
30
0
11
9.947413
21
-0.380053
31
0
39
0
210
0
220
0
230
1
0
LINE
5
A0
100
AcDbEntity
8
1
62
256
6
ByLayer
370
18
48
1
60
0
100
AcDbLine
10
10.479149
20
-0.569013
30
0
11
10.826572
21
-0.23351
31
0
39
0
210
0
220
0
230
1
0
LINE
5
A1
100
AcDbEntity
8
1
62
256
6
ByLayer
370
18
48
1
60
0
100
AcDbLine
10
9.527275
20
-0.230751
30
0
11
9.947413
21
-0.380053
31
0
39
0
210
0
220
0
230
1
0
LINE
5
A2
100
AcDbEntity
8
1
62
256
6
ByLayer
370
18
48
1
60
0
100
AcDbLine
10
11.256739
20
-0.373127
30
0
11
10.899286
21
-0.718315
31
0
39
0
210
0
220
0
230
1
0
LINE
5
A3
100
AcDbEntity
8
1
62
256
6
ByLayer
370
18
48
1
60
0
100
AcDbLine
10
9.884728
20
0.114438
30
0
11
9.527275
21
-0.230751
31
0
39
0
210
0
220
0
230
1
0
LINE
5
A4
100
AcDbEntity
8
1
62
256
6
ByLayer
370
18
48
1
60
0
100
AcDbLine
10
11.331494
20
-0.820061
30
0
11
10.984071
21
-1.155565
31
0
39
0
210
0
220
0
230
1
0
MTEXT
5
E4
100
AcDbEntity
8
SK6
62
256
6
ByLayer
370
13
48
1
60
0
100
AcDbMText
10
-59.379653
20
-32.999425
30
0
210
0
220
0
230
1
1
\W0.7256;PTFNR 1616H 16
40
3.5
41
0
44
1.084337
50
0
71
7
72
5
7
iso_b_vert
0
DIMENSION
5
F6
100
AcDbEntity
8
SK2
62
256
6
ByLayer
370
13
48
1
60
0
100
AcDbDimension
2
DimnDraft3D1
10
-88.843187
20
-7.9375
30
0
11
-88.843187
21
0.0625
31
0
70
32
71
5
72
1
41
1
210
0
220
0
230
1
3
Standard
100
AcDbAlignedDimension
13
-80.680687
23
8.0625
33
0
14
-80.680687
24
-7.9375
34
0
50
90
100
AcDbRotatedDimension
1001
ACAD
1000
DSTYLE
1002
{
1070
    74
1070
     0
1070
   279
1070
     0
1070
   172
1070
     1
1070
   173
1070
     1
1070
   340
1005
E5
1070
   271
1070
     1
1070
   272
1070
     2
1070
    77
1070
     1
1070
    73
1070
     0
1070
   171
1070
     3
1070
   274
1070
     4
1070
   177
1070
   150
1070
   176
1070
     9
1070
   178
1070
    43
1070
    78
1070
     8
1070
    48
1040
-0.005
1070
    41
1041
3.175
1070
   147
1041
2.25
1070
    42
1041
1.5875
1070
    44
1041
3.175
1070
   140
1041
4.5
1070
   343
1005
F7
1070
   344
1005
F7
1002
}
0
DIMENSION
5
10B
100
AcDbEntity
8
2
62
256
6
ByLayer
370
13
48
1
60
0
100
AcDbDimension
2
DimnDraft3D2
10
53.756813
20
12.4125
30
0
11
53.756813
21
2.2375
31
0
70
32
71
5
72
1
41
1
210
0
220
0
230
1
3
Standard
100
AcDbAlignedDimension
13
1.5875
23
-7.9375
33
0
14
23.844313
24
12.4125
34
0
50
90
100
AcDbRotatedDimension
1001
ACAD
1000
DSTYLE
1002
{
1070
    74
1070
     0
1070
   279
1070
     0
1070
   172
1070
     1
1070
   173
1070
     1
1070
   340
1005
E5
1070
   271
1070
     1
1070
   272
1070
     2
1070
    77
1070
     1
1070
    73
1070
     0
1070
   171
1070
     3
1070
   274
1070
     4
1070
   177
1070
   150
1070
   176
1070
     9
1070
   178
1070
    43
1070
    78
1070
     8
1070
    48
1040
-0.005
1070
    41
1041
3.175
1070
   147
1041
2.25
1070
    42
1041
1.5875
1070
    44
1041
3.175
1070
   140
1041
4.5
1070
   343
1005
F7
1070
   344
1005
F7
1002
}
0
DIMENSION
5
119
100
AcDbEntity
8
SK2
62
256
6
ByLayer
370
13
48
1
60
0
100
AcDbDimension
2
DimnDraft3D3
10
22.256813
20
19.9125
30
0
11
-28.418187
21
19.9125
31
0
70
32
71
5
72
1
41
1
210
0
220
0
230
1
3
Standard
100
AcDbAlignedDimension
13
-79.093187
23
9.65
33
0
14
22.256813
24
14
34
0
50
0
100
AcDbRotatedDimension
1001
ACAD
1000
DSTYLE
1002
{
1070
   279
1070
     0
1070
   172
1070
     1
1070
   173
1070
     1
1070
   340
1005
E5
1070
   271
1070
     1
1070
   272
1070
     2
1070
    77
1070
     1
1070
    73
1070
     0
1070
   171
1070
     3
1070
   274
1070
     4
1070
   177
1070
   150
1070
   176
1070
     9
1070
   178
1070
    43
1070
    78
1070
     8
1070
    48
1040
-0.005
1070
    41
1041
3.175
1070
   147
1041
2.25
1070
    42
1041
1.5875
1070
    44
1041
3.175
1070
   140
1041
4.5
1070
   343
1005
F7
1070
   344
1005
F7
1002
}
0
DIMENSION
5
127
100
AcDbEntity
8
2
62
256
6
ByLayer
370
13
48
1
60
0
100
AcDbDimension
2
DimnDraft3D4
10
20.669313
20
12.4125
30
0
11
30.193749
21
4.350038
31
0
70
34
71
5
72
1
41
1
210
0
220
0
230
1
3
Standard
100
AcDb2LineAngularDimension
13
22.256693
23
11.604897
33
0
14
21.977454
24
-4.392666
34
0
15
22.256813
25
12.4125
35
0
16
33.34784
26
1.140411
36
0
40
0
0
ENDSEC
0
SECTION
2
OBJECTS
0
DICTIONARY
5
191
330
0
100
AcDbDictionary
280
0
281
1
3
ACAD_GROUP
350
192
3
ACAD_MLINESTYLE
350
193
0
DICTIONARY
5
192
330
0
100
AcDbDictionary
280
0
281
1
0
DICTIONARY
5
193
330
0
100
AcDbDictionary
280
0
281
1
3
Standard
350
18
0
MLINESTYLE
5
18
330
193
100
AcDbMlineStyle
2
Standard
70
0
3

62
256
51
90
52
90
71
2
49
-0.5
62
256
6
ByLayer
49
0.5
62
256
6
ByLayer
0
RASTERVARIABLES
5
180
330

100
AcDbRasterVariables
90
0
70
1
71
1
72
1
0
ENDSEC
0
EOF
