0
SECTION
2
HEADER
9
$ACADVER
1
AC1015
9
$DWGCODEPAGE
3
ANSI_1252
9
$HANDSEED
5
1a2
9
$ANGBASE
50
0
9
$ANGDIR
70
0
9
$ATTMODE
70
1
9
$AUNITS
70
0
9
$AUPREC
70
0
9
$CECOLOR
62
256
9
$CELTSCALE
40
1
9
$CELTYPE
6
ByLayer
9
$CELWEIGHT
370
18
9
$CLAYER
8
0
9
$CMLJUST
70
0
9
$CMLSCALE
40
1
9
$CMLSTYLE
2
Standard
9
$DIMSTYLE
2
Standard
9
$TEXTSIZE
40
0.2
9
$TEXTSTYLE
7
Standard
9
$LUNITS
70
2
9
$LUPREC
70
4
9
$EXTNAMES
290
1
9
$INSUNITS
70
4
9
$LTSCALE
40
1
9
$LWDISPLAY
290
1
9
$PDMODE
70
0
9
$PDSIZE
40
0
9
$PLINEGEN
70
0
0
ENDSEC
0
SECTION
2
CLASSES
0
CLASS
1
RASTERVARIABLES
2
AcDbRasterVariables
3
ISM
90
0
280
0
281
0
0
ENDSEC
0
SECTION
2
TABLES
0
TABLE
2
VPORT
5
198
100
AcDbSymbolTable
0
VPORT
5
1
100
AcDbSymbolTableRecord
100
AcDbViewportTableRecord
2
*Active
70
0
10
0
20
0
11
1
21
1
12
-1
22
1
13
0
23
0
14
0.5
24
0.5
15
10
25
10
16
0
26
0
36
1
17
0
27
0
37
0
0
ENDTAB
0
TABLE
2
LTYPE
5
199
100
AcDbSymbolTable
0
LTYPE
5
14
100
AcDbSymbolTableRecord
100
AcDbLinetypeTableRecord
70
0
2
ByBlock
3

72
65
73
0
40
0
0
LTYPE
5
15
100
AcDbSymbolTableRecord
100
AcDbLinetypeTableRecord
70
0
2
ByLayer
3

72
65
73
0
40
0
0
LTYPE
5
16
100
AcDbSymbolTableRecord
100
AcDbLinetypeTableRecord
70
0
2
CONTINUOUS
3
Solid line
72
65
73
0
40
0
0
LTYPE
5
6A
100
AcDbSymbolTableRecord
100
AcDbLinetypeTableRecord
70
0
2
CENTER
3
____ _ ____ _ ____ _ ____
72
65
73
4
40
47.5
49
22
74
0
49
-8.5
74
0
49
8.5
74
0
49
-8.5
74
0
0
LTYPE
5
6B
100
AcDbSymbolTableRecord
100
AcDbLinetypeTableRecord
70
0
2
DASHED
3
__ __ __ __ __ __ __ __ __
72
65
73
2
40
25.72
49
12.86
74
0
49
-12.86
74
0
0
ENDTAB
0
TABLE
2
LAYER
5
19a
100
AcDbSymbolTable
0
LAYER
5
10
100
AcDbSymbolTableRecord
100
AcDbLayerTableRecord
2
0
70
0
62
7
6
CONTINUOUS
290
1
370
-3
390
0
0
LAYER
5
6D
100
AcDbSymbolTableRecord
100
AcDbLayerTableRecord
2
80
70
0
62
-6
6
CONTINUOUS
290
1
370
-3
390
0
0
LAYER
5
6F
100
AcDbSymbolTableRecord
100
AcDbLayerTableRecord
2
81
70
0
62
-3
6
CONTINUOUS
290
1
370
-3
390
0
0
LAYER
5
71
100
AcDbSymbolTableRecord
100
AcDbLayerTableRecord
2
1
70
0
62
4
6
CONTINUOUS
290
1
370
-3
390
0
0
LAYER
5
104
100
AcDbSymbolTableRecord
100
AcDbLayerTableRecord
2
2
70
0
62
7
6
CONTINUOUS
290
1
370
-3
390
0
0
LAYER
5
185
100
AcDbSymbolTableRecord
100
AcDbLayerTableRecord
2
SK1
70
0
62
4
6
CONTINUOUS
290
1
370
-3
390
0
0
LAYER
5
186
100
AcDbSymbolTableRecord
100
AcDbLayerTableRecord
2
SK6
70
0
62
5
6
CONTINUOUS
290
1
370
-3
390
0
0
LAYER
5
187
100
AcDbSymbolTableRecord
100
AcDbLayerTableRecord
2
SK2
70
0
62
7
6
CONTINUOUS
290
1
370
-3
390
0
0
ENDTAB
0
TABLE
2
STYLE
5
19b
100
AcDbSymbolTable
0
STYLE
5
11
100
AcDbSymbolTableRecord
100
AcDbTextStyleTableRecord
2
Standard
3
txt
70
0
71
0
40
0
41
1
42
0
50
0
0
STYLE
5
E9
100
AcDbSymbolTableRecord
100
AcDbTextStyleTableRecord
2
iso_b_vert
3
simplex.shx
70
0
71
0
40
0
41
1
42
0
50
0
0
STYLE
5
EA
100
AcDbSymbolTableRecord
100
AcDbTextStyleTableRecord
2
DWGDirectTextStyle
3
simplex
70
0
71
0
40
0
41
1
42
0
50
0
0
ENDTAB
0
TABLE
2
DIMSTYLE
5
19c
100
AcDbSymbolTable
100
AcDbDimStyleTable
0
DIMSTYLE
105
27
100
AcDbSymbolTableRecord
100
AcDbDimStyleTableRecord
2
Standard
70
0
3
<>
41
0.18
42
0.0625
44
0.18
140
0.18
147
0.09
73
0
74
0
77
1
271
2
275
0
278
52
280
0
340
11
0
ENDTAB
0
TABLE
2
VIEW
5
19d
100
AcDbSymbolTable
0
ENDTAB
0
TABLE
2
UCS
5
19e
100
AcDbSymbolTable
0
ENDTAB
0
TABLE
2
APPID
5
19f
100
AcDbSymbolTable
0
APPID
5
12
100
AcDbSymbolTableRecord
100
AcDbRegAppTableRecord
2
ACAD
70
0
0
ENDTAB
0
TABLE
2
BLOCK_RECORD
5
1a0
100
AcDbSymbolTable
0
BLOCK_RECORD
5
1F
100
AcDbSymbolTableRecord
100
AcDbBlockTableRecord
2
*Model_Space
340
0
70
0
0
BLOCK_RECORD
5
1B
100
AcDbSymbolTableRecord
100
AcDbBlockTableRecord
2
*Paper_Space
340
0
70
0
0
BLOCK_RECORD
5
23
100
AcDbSymbolTableRecord
100
AcDbBlockTableRecord
2
*Paper_Space0
340
0
70
0
0
BLOCK_RECORD
5
EC
100
AcDbSymbolTableRecord
100
AcDbBlockTableRecord
2
DimnDraft3D1
340
0
70
0
0
BLOCK_RECORD
5
FB
100
AcDbSymbolTableRecord
100
AcDbBlockTableRecord
2
_CLOSED
340
0
70
0
0
BLOCK_RECORD
5
102
100
AcDbSymbolTableRecord
100
AcDbBlockTableRecord
2
DimnDraft3D2
340
0
70
0
0
BLOCK_RECORD
5
111
100
AcDbSymbolTableRecord
100
AcDbBlockTableRecord
2
DimnDraft3D3
340
0
70
0
0
BLOCK_RECORD
5
11F
100
AcDbSymbolTableRecord
100
AcDbBlockTableRecord
2
DimnDraft3D4
340
0
70
0
0
ENDTAB
0
ENDSEC
0
SECTION
2
BLOCKS
0
BLOCK
5
20
100
AcDbEntity
8
0
100
AcDbBlockBegin
2
*Model_Space
70
0
10
0
20
0
30
0
3
*Model_Space
0
ENDBLK
5
21
100
AcDbEntity
8
0
100
AcDbBlockEnd
0
BLOCK
5
1C
100
AcDbEntity
8
0
100
AcDbBlockBegin
2
*Paper_Space
70
0
10
0
20
0
30
0
3
*Paper_Space
0
ENDBLK
5
1D
100
AcDbEntity
8
0
100
AcDbBlockEnd
0
BLOCK
5
24
100
AcDbEntity
8
0
100
AcDbBlockBegin
2
*Paper_Space0
70
0
10
0
20
0
30
0
3
*Paper_Space0
0
ENDBLK
5
25
100
AcDbEntity
8
0
100
AcDbBlockEnd
0
BLOCK
5
F8
100
AcDbEntity
8
0
100
AcDbBlockBegin
2
DimnDraft3D1
70
0
10
0
20
0
30
0
3
DimnDraft3D1
0
MTEXT
5
ED
100
AcDbEntity
8
SK2
62
256
6
ByLayer
370
13
48
1
60
0
100
AcDbMText
10
-146.810622
20
-1.638158
30
0
210
0
220
0
230
1
1
\W0.6740;32
40
4.5
41
0
44
1.084337
50
90
71
7
72
5
7
iso_b_vert
0
LINE
5
EF
100
AcDbEntity
8
SK2
62
256
6
ByLayer
370
13
48
1
60
0
100
AcDbLine
10
-137.523122
20
-16.075
30
0
11
-148.860622
21
-16.075
31
0
39
0
210
0
220
0
230
1
0
LINE
5
F0
100
AcDbEntity
8
SK2
62
256
6
ByLayer
370
13
48
1
60
0
100
AcDbLine
10
-137.523122
20
15.925
30
0
11
-148.860622
21
15.925
31
0
39
0
210
0
220
0
230
1
0
LINE
5
F1
100
AcDbEntity
8
SK2
62
256
6
ByLayer
370
13
48
1
60
0
100
AcDbLine
10
-145.685622
20
-16.075
30
0
11
-145.685622
21
15.925
31
0
39
0
210
0
220
0
230
1
0
LINE
5
F2
100
AcDbEntity
8
SK2
62
256
6
ByLayer
370
13
48
1
60
0
100
AcDbLine
10
-145.685622
20
-16.075
30
0
11
-146.536361
21
-12.900003
31
0
39
0
210
0
220
0
230
1
0
LINE
5
F3
100
AcDbEntity
8
SK2
62
256
6
ByLayer
370
13
48
1
60
0
100
AcDbLine
10
-145.685622
20
-16.075
30
0
11
-144.834884
21
-12.899997
31
0
39
0
210
0
220
0
230
1
0
LINE
5
F4
100
AcDbEntity
8
SK2
62
256
6
ByLayer
370
13
48
1
60
0
100
AcDbLine
10
-146.536361
20
-12.900003
30
0
11
-144.834884
21
-12.899997
31
0
39
0
210
0
220
0
230
1
0
LINE
5
F5
100
AcDbEntity
8
SK2
62
256
6
ByLayer
370
13
48
1
60
0
100
AcDbLine
10
-145.685622
20
15.925
30
0
11
-144.834884
21
12.750003
31
0
39
0
210
0
220
0
230
1
0
LINE
5
F6
100
AcDbEntity
8
SK2
62
256
6
ByLayer
370
13
48
1
60
0
100
AcDbLine
10
-145.685622
20
15.925
30
0
11
-146.536361
21
12.749997
31
0
39
0
210
0
220
0
230
1
0
LINE
5
F7
100
AcDbEntity
8
SK2
62
256
6
ByLayer
370
13
48
1
60
0
100
AcDbLine
10
-144.834884
20
12.750003
30
0
11
-146.536361
21
12.749997
31
0
39
0
210
0
220
0
230
1
0
ENDBLK
5
F9
100
AcDbEntity
8
0
100
AcDbBlockEnd
0
BLOCK
5
FC
100
AcDbEntity
8
0
100
AcDbBlockBegin
2
_CLOSED
70
0
10
0
20
0
30
0
3
_CLOSED
0
LINE
5
FE
100
AcDbEntity
8
0
62
256
6
ByLayer
370
-2
48
1
60
0
100
AcDbLine
10
-1
20
0.166667
30
0
11
0
21
0
31
0
39
0
210
0
220
0
230
1
0
LINE
5
FF
100
AcDbEntity
8
0
62
256
6
ByLayer
370
-2
48
1
60
0
100
AcDbLine
10
0
20
0
30
0
11
-1
21
-0.166667
31
0
39
0
210
0
220
0
230
1
0
LINE
5
100
100
AcDbEntity
8
0
62
256
6
ByLayer
370
-2
48
1
60
0
100
AcDbLine
10
-1
20
0.166667
30
0
11
-1
21
-0.166667
31
0
39
0
210
0
220
0
230
1
0
LINE
5
101
100
AcDbEntity
8
0
62
256
6
ByLayer
370
-2
48
1
60
0
100
AcDbLine
10
0
20
0
30
0
11
-1
21
0
31
0
39
0
210
0
220
0
230
1
0
ENDBLK
5
FD
100
AcDbEntity
8
0
100
AcDbBlockEnd
0
BLOCK
5
10E
100
AcDbEntity
8
0
100
AcDbBlockBegin
2
DimnDraft3D2
70
0
10
0
20
0
30
0
3
DimnDraft3D2
0
MTEXT
5
103
100
AcDbEntity
8
2
62
256
6
ByLayer
370
13
48
1
60
0
100
AcDbMText
10
65.789378
20
-6.05
30
0
210
0
220
0
230
1
1
\W0.7361;40
40
4.5
41
0
44
1.084337
50
90
71
7
72
5
7
iso_b_vert
0
LINE
5
105
100
AcDbEntity
8
2
62
256
6
ByLayer
370
13
48
1
60
0
100
AcDbLine
10
37.001878
20
-24.425
30
0
11
70.089378
21
-24.425
31
0
39
0
210
0
220
0
230
1
0
LINE
5
106
100
AcDbEntity
8
2
62
256
6
ByLayer
370
13
48
1
60
0
100
AcDbLine
10
1.5875
20
15.925
30
0
11
70.089378
21
15.925
31
0
39
0
210
0
220
0
230
1
0
LINE
5
107
100
AcDbEntity
8
2
62
256
6
ByLayer
370
13
48
1
60
0
100
AcDbLine
10
66.914378
20
-24.425
30
0
11
66.914378
21
15.925
31
0
39
0
210
0
220
0
230
1
0
LINE
5
108
100
AcDbEntity
8
2
62
256
6
ByLayer
370
13
48
1
60
0
100
AcDbLine
10
66.914378
20
-24.425
30
0
11
66.063639
21
-21.250003
31
0
39
0
210
0
220
0
230
1
0
LINE
5
109
100
AcDbEntity
8
2
62
256
6
ByLayer
370
13
48
1
60
0
100
AcDbLine
10
66.914378
20
-24.425
30
0
11
67.765116
21
-21.249997
31
0
39
0
210
0
220
0
230
1
0
LINE
5
10A
100
AcDbEntity
8
2
62
256
6
ByLayer
370
13
48
1
60
0
100
AcDbLine
10
66.063639
20
-21.250003
30
0
11
67.765116
21
-21.249997
31
0
39
0
210
0
220
0
230
1
0
LINE
5
10B
100
AcDbEntity
8
2
62
256
6
ByLayer
370
13
48
1
60
0
100
AcDbLine
10
66.914378
20
15.925
30
0
11
67.765116
21
12.750003
31
0
39
0
210
0
220
0
230
1
0
LINE
5
10C
100
AcDbEntity
8
2
62
256
6
ByLayer
370
13
48
1
60
0
100
AcDbLine
10
66.914378
20
15.925
30
0
11
66.063639
21
12.749997
31
0
39
0
210
0
220
0
230
1
0
LINE
5
10D
100
AcDbEntity
8
2
62
256
6
ByLayer
370
13
48
1
60
0
100
AcDbLine
10
67.765116
20
12.750003
30
0
11
66.063639
21
12.749997
31
0
39
0
210
0
220
0
230
1
0
ENDBLK
5
10F
100
AcDbEntity
8
0
100
AcDbBlockEnd
0
BLOCK
5
11C
100
AcDbEntity
8
0
100
AcDbBlockBegin
2
DimnDraft3D3
70
0
10
0
20
0
30
0
3
DimnDraft3D3
0
MTEXT
5
112
100
AcDbEntity
8
SK2
62
256
6
ByLayer
370
13
48
1
60
0
100
AcDbMText
10
-52.942859
20
-39.8
30
0
210
0
220
0
230
1
1
\W0.6217;170
40
4.5
41
0
44
1.084337
50
0
71
7
72
5
7
iso_b_vert
0
LINE
5
113
100
AcDbEntity
8
SK2
62
256
6
ByLayer
370
13
48
1
60
0
100
AcDbLine
10
-135.935622
20
-17.6625
30
0
11
-135.935622
21
-44.1
31
0
39
0
210
0
220
0
230
1
0
LINE
5
114
100
AcDbEntity
8
SK2
62
256
6
ByLayer
370
13
48
1
60
0
100
AcDbLine
10
35.414378
20
-26.0125
30
0
11
35.414378
21
-44.1
31
0
39
0
210
0
220
0
230
1
0
LINE
5
115
100
AcDbEntity
8
SK2
62
256
6
ByLayer
370
13
48
1
60
0
100
AcDbLine
10
-135.935622
20
-40.925
30
0
11
35.414378
21
-40.925
31
0
39
0
210
0
220
0
230
1
0
LINE
5
116
100
AcDbEntity
8
SK2
62
256
6
ByLayer
370
13
48
1
60
0
100
AcDbLine
10
-135.935622
20
-40.925
30
0
11
-132.760625
21
-40.074261
31
0
39
0
210
0
220
0
230
1
0
LINE
5
117
100
AcDbEntity
8
SK2
62
256
6
ByLayer
370
13
48
1
60
0
100
AcDbLine
10
-135.935622
20
-40.925
30
0
11
-132.760619
21
-41.775739
31
0
39
0
210
0
220
0
230
1
0
LINE
5
118
100
AcDbEntity
8
SK2
62
256
6
ByLayer
370
13
48
1
60
0
100
AcDbLine
10
-132.760625
20
-40.074261
30
0
11
-132.760619
21
-41.775739
31
0
39
0
210
0
220
0
230
1
0
LINE
5
119
100
AcDbEntity
8
SK2
62
256
6
ByLayer
370
13
48
1
60
0
100
AcDbLine
10
35.414378
20
-40.925
30
0
11
32.239381
21
-41.775739
31
0
39
0
210
0
220
0
230
1
0
LINE
5
11A
100
AcDbEntity
8
SK2
62
256
6
ByLayer
370
13
48
1
60
0
100
AcDbLine
10
35.414378
20
-40.925
30
0
11
32.239375
21
-40.074261
31
0
39
0
210
0
220
0
230
1
0
LINE
5
11B
100
AcDbEntity
8
SK2
62
256
6
ByLayer
370
13
48
1
60
0
100
AcDbLine
10
32.239381
20
-41.775739
30
0
11
32.239375
21
-40.074261
31
0
39
0
210
0
220
0
230
1
0
ENDBLK
5
11D
100
AcDbEntity
8
0
100
AcDbBlockEnd
0
BLOCK
5
129
100
AcDbEntity
8
0
100
AcDbBlockBegin
2
DimnDraft3D4
70
0
10
0
20
0
30
0
3
DimnDraft3D4
0
MTEXT
5
120
100
AcDbEntity
8
2
62
256
6
ByLayer
370
13
48
1
60
0
100
AcDbMText
10
37.490357
20
-15.334904
30
0
210
0
220
0
230
1
1
\W0.7582;91%%d0'
40
4.5
41
0
44
1.084337
50
315.5
71
7
72
5
7
iso_b_vert
0
LINE
5
121
100
AcDbEntity
8
2
62
256
6
ByLayer
370
13
48
1
60
0
100
AcDbLine
10
37.001878
20
-24.425
30
0
11
45.409236
21
-24.425
31
0
39
0
210
0
220
0
230
1
0
ARC
5
122
100
AcDbEntity
8
2
62
256
6
ByLayer
370
13
48
1
60
0
100
AcDbCircle
39
0
10
35.435342
20
-24.425
30
0
40
6.79889457623561
210
0
220
0
230
1
100
AcDbArc
50
301.146507
51
149.853493
0
LINE
5
123
100
AcDbEntity
8
2
62
256
6
ByLayer
370
13
48
1
60
0
100
AcDbLine
10
42.234236
20
-24.425
30
0
11
42.716036
21
-27.676497
31
0
39
0
210
0
220
0
230
1
0
LINE
5
124
100
AcDbEntity
8
2
62
256
6
ByLayer
370
13
48
1
60
0
100
AcDbLine
10
42.234236
20
-24.425
30
0
11
41.025737
21
-27.481784
31
0
39
0
210
0
220
0
230
1
0
LINE
5
125
100
AcDbEntity
8
2
62
256
6
ByLayer
370
13
48
1
60
0
100
AcDbLine
10
42.716036
20
-27.676497
30
0
11
41.025737
21
-27.481784
31
0
39
0
210
0
220
0
230
1
0
LINE
5
126
100
AcDbEntity
8
2
62
256
6
ByLayer
370
13
48
1
60
0
100
AcDbLine
10
35.316685
20
-17.627141
30
0
11
32.281463
21
-18.888804
31
0
39
0
210
0
220
0
230
1
0
LINE
5
127
100
AcDbEntity
8
2
62
256
6
ByLayer
370
13
48
1
60
0
100
AcDbLine
10
35.316685
20
-17.627141
30
0
11
32.057268
21
-17.202161
31
0
39
0
210
0
220
0
230
1
0
LINE
5
128
100
AcDbEntity
8
2
62
256
6
ByLayer
370
13
48
1
60
0
100
AcDbLine
10
32.281463
20
-18.888804
30
0
11
32.057268
21
-17.202161
31
0
39
0
210
0
220
0
230
1
0
ENDBLK
5
12A
100
AcDbEntity
8
0
100
AcDbBlockEnd
0
ENDSEC
0
SECTION
2
ENTITIES
0
ARC
5
A8
100
AcDbEntity
8
1
62
256
6
ByLayer
370
18
48
1
60
0
100
AcDbCircle
39
0
10
0
20
-17.525
30
0
40
1.60000000000012
210
0
220
0
230
-1
100
AcDbArc
50
90
51
165
0
ELLIPSE
5
A9
100
AcDbEntity
8
1
62
256
6
ByLayer
370
18
48
1
60
0
100
AcDbEllipse
10
26.571535
20
-5.929498
30
0
11
1.87557760023942
21
1.94221746091423
31
0
210
0
220
0
230
1
40
0.989133
41
0.979563989077959
42
1.31446014751734
0
ELLIPSE
5
AA
100
AcDbEntity
8
1
62
256
6
ByLayer
370
18
48
1
60
0
100
AcDbEllipse
10
0
20
15.931981
30
0
11
1.60000000000053
21
1.61702248813232E-15
31
0
210
0
220
0
230
-1
40
0.004363
41
0.261799387799878
42
1.5707963267949
0
ELLIPSE
5
AB
100
AcDbEntity
8
1
62
256
6
ByLayer
370
18
48
1
60
0
100
AcDbEllipse
10
12.959326
20
-13.784118
30
0
11
1.80611176319352
21
1.87028348088038
31
0
210
0
220
0
230
1
40
0.989133
41
0.860674541998838
42
-2.28091811159096
0
ELLIPSE
5
AC
100
AcDbEntity
8
1
62
256
6
ByLayer
370
18
48
1
60
0
100
AcDbEllipse
10
11.838264
20
-12.70152
30
0
11
1.70191300762466
21
1.76238251082958
31
0
210
0
220
0
230
1
40
0.989133
41
-2.91630511273374
42
-2.28091811159099
0
ELLIPSE
5
AD
100
AcDbEntity
8
1
62
256
6
ByLayer
370
18
48
1
60
0
100
AcDbEllipse
10
22.179007
20
-8.617641
30
0
11
1.87557760023942
21
1.94221746091423
31
0
210
0
220
0
230
1
40
0.989133
41
1.31446014751734
42
1.64935630595672
0
ELLIPSE
5
AE
100
AcDbEntity
8
1
62
256
6
ByLayer
370
18
48
1
60
0
100
AcDbEllipse
10
12.066467
20
-15.14229
30
0
11
-0.0146953893033554
21
0.149278416166648
31
0
210
0
220
0
230
1
40
0.095849
41
1.45855902242361
42
3.02935534921869
0
ELLIPSE
5
AF
100
AcDbEntity
8
1
62
256
6
ByLayer
370
18
48
1
60
0
100
AcDbEllipse
10
11.854128
20
-12.71684
30
0
11
-1.80611176319351
21
-1.87028348088038
31
0
210
0
220
0
230
1
40
0.989133
41
0.30333628981378
42
0.860674541998829
0
ELLIPSE
5
B0
100
AcDbEntity
8
1
62
256
6
ByLayer
370
18
48
1
60
0
100
AcDbEllipse
10
13.231978
20
-11.543175
30
0
11
-0.827077622327797
21
-0.856463949778153
31
0
210
0
220
0
230
1
40
0.989133
41
-0.956715194674865
42
-2.47103162527724E-06
0
ELLIPSE
5
B1
100
AcDbEntity
8
1
62
256
6
ByLayer
370
18
48
1
60
0
100
AcDbEllipse
10
33.15319
20
0.648223
30
0
11
-0.827077622327795
21
-0.856463949778151
31
0
210
0
220
0
230
1
40
0.989133
41
-3.14156185049699
42
-2.05378510493135
0
ELLIPSE
5
B2
100
AcDbEntity
8
1
62
256
6
ByLayer
370
18
48
1
60
0
100
AcDbEllipse
10
26.648006
20
-11.162339
30
0
11
2.20554032620747
21
2.28390386607507
31
0
210
0
220
0
230
1
40
0.989133
41
-2.99230612318369
42
-2.38322979633169
0
ELLIPSE
5
B3
100
AcDbEntity
8
1
62
256
6
ByLayer
370
18
48
1
60
0
100
AcDbEllipse
10
26.648006
20
-11.162339
30
0
11
2.20554032620747
21
2.28390386607507
31
0
210
0
220
0
230
1
40
0.989133
41
-0.725058195919325
42
-0.149263237458398
0
ELLIPSE
5
B4
100
AcDbEntity
8
1
62
256
6
ByLayer
370
18
48
1
60
0
100
AcDbEllipse
10
27.181568
20
-11.677594
30
0
11
-2.07355523582024
21
-2.14722930401074
31
0
210
0
220
0
230
1
40
0.989133
41
-1.36156480195113
42
-1.10002899968341
0
ELLIPSE
5
B5
100
AcDbEntity
8
1
62
256
6
ByLayer
370
18
48
1
60
0
100
AcDbEllipse
10
27.181568
20
-11.677594
30
0
11
-2.07355523582024
21
-2.14722930401074
31
0
210
0
220
0
230
1
40
0.989133
41
-1.92591748174353
42
-1.7800320090391
0
ELLIPSE
5
B6
100
AcDbEntity
8
1
62
256
6
ByLayer
370
18
48
1
60
0
100
AcDbEllipse
10
26.122959
20
-11.557403
30
0
11
2.29237262251485
21
2.3738213411174
31
0
210
0
220
0
230
1
40
0.989133
41
-1.15170079564928E-05
42
0.26397117124726
0
ELLIPSE
5
B7
100
AcDbEntity
8
1
62
256
6
ByLayer
370
18
48
1
60
0
100
AcDbEllipse
10
26.97105
20
-10.572203
30
0
11
-2.29237262251484
21
-2.3738213411174
31
0
210
0
220
0
230
1
40
0.989133
41
-0.22845096776028
42
2.04135082312144E-05
0
ELLIPSE
5
B8
100
AcDbEntity
8
1
62
256
6
ByLayer
370
18
48
1
60
0
100
AcDbEllipse
10
26.70767
20
-11.18782
30
0
11
-2.08397511137713
21
-2.15801940101582
31
0
210
0
220
0
230
1
40
0.989133
41
-0.0831019946271165
42
-0.0464386241688949
0
ELLIPSE
5
B9
100
AcDbEntity
8
1
62
256
6
ByLayer
370
18
48
1
60
0
100
AcDbEllipse
10
25.563431
20
-10.114977
30
0
11
-2.42088442104976
21
-2.50689920418005
31
0
210
0
220
0
230
1
40
0.989133
41
2.5443444619314
42
2.6475751177593
0
ELLIPSE
5
BA
100
AcDbEntity
8
1
62
256
6
ByLayer
370
18
48
1
60
0
100
AcDbEllipse
10
25.563431
20
-10.114977
30
0
11
-2.42088442104976
21
-2.50689920418005
31
0
210
0
220
0
230
1
40
0.989133
41
0.49401361494981
42
0.577560305907565
0
ELLIPSE
5
BB
100
AcDbEntity
8
1
62
256
6
ByLayer
370
18
48
1
60
0
100
AcDbEllipse
10
13.726314
20
-0.0819
30
0
11
-1.08019376606381
21
-1.11857338952653
31
0
210
0
220
0
230
1
40
0.989133
41
0.163619891556057
42
2.33328249239884
0
ELLIPSE
5
BC
100
AcDbEntity
8
1
62
256
6
ByLayer
370
18
48
1
60
0
100
AcDbEllipse
10
13.726314
20
-0.0819
30
0
11
-1.08019376606381
21
-1.11857338952653
31
0
210
0
220
0
230
1
40
0.989133
41
2.33328249239885
42
2.91094312174069
0
ELLIPSE
5
BD
100
AcDbEntity
8
1
62
256
6
ByLayer
370
18
48
1
60
0
100
AcDbEllipse
10
25.738465
20
-10.284005
30
0
11
2.41046454549289
21
2.49610910717496
31
0
210
0
220
0
230
1
40
0.989133
41
-2.6778267542898
42
-2.54179461486031
0
ELLIPSE
5
BE
100
AcDbEntity
8
1
62
256
6
ByLayer
370
18
48
1
60
0
100
AcDbEllipse
10
25.738465
20
-10.284005
30
0
11
2.41046454549289
21
2.49610910717496
31
0
210
0
220
0
230
1
40
0.989133
41
-0.678172641930194
42
-0.463785009987872
0
ELLIPSE
5
BF
100
AcDbEntity
8
1
62
256
6
ByLayer
370
18
48
1
60
0
100
AcDbEllipse
10
13.903558
20
-12.191712
30
0
11
-0.827077622327797
21
-0.856463949778153
31
0
210
0
220
0
230
1
40
0.989133
41
-1.82713250607249
42
0.267262596320751
0
ELLIPSE
5
C0
100
AcDbEntity
8
1
62
256
6
ByLayer
370
18
48
1
60
0
100
AcDbEllipse
10
34.23043
20
-23.240601
30
0
11
-0.827077622327798
21
-0.856463949778154
31
0
210
0
220
0
230
1
40
0.989133
41
0.267262596320749
42
2.36165769871394
0
ELLIPSE
5
C1
100
AcDbEntity
8
1
62
256
6
ByLayer
370
18
48
1
60
0
100
AcDbEllipse
10
33.82477
20
-0.000314
30
0
11
-0.827077622327795
21
-0.856463949778151
31
0
210
0
220
0
230
1
40
0.989133
41
2.36165769871396
42
-1.82713250607245
0
ELLIPSE
5
C2
100
AcDbEntity
8
1
62
256
6
ByLayer
370
18
48
1
60
0
100
AcDbEllipse
10
27.319586
20
-11.810876
30
0
11
2.20554032620747
21
2.28390386607507
31
0
210
0
220
0
230
1
40
0.989133
41
0
42
6.28318530717959
0
ELLIPSE
5
C3
100
AcDbEntity
8
1
62
256
6
ByLayer
370
18
48
1
60
0
100
AcDbEllipse
10
27.181568
20
-11.677594
30
0
11
-2.07355523582024
21
-2.14722930401074
31
0
210
0
220
0
230
1
40
0.989133
41
1.21567517184628
42
2.04156365390639
0
ELLIPSE
5
C4
100
AcDbEntity
8
1
62
256
6
ByLayer
370
18
48
1
60
0
100
AcDbEllipse
10
27.234449
20
-11.72866
30
0
11
1.72622605059073
21
1.78755940384143
31
0
210
0
220
0
230
1
40
0.989133
41
1.23390374470692
42
2.02333508104575
0
ELLIPSE
5
C5
100
AcDbEntity
8
1
62
256
6
ByLayer
370
18
48
1
60
0
100
AcDbEllipse
10
27.234449
20
-11.72866
30
0
11
1.72622605059073
21
1.78755940384143
31
0
210
0
220
0
230
1
40
0.989133
41
-1.90768890888289
42
-1.11825757254405
0
ELLIPSE
5
C6
100
AcDbEntity
8
1
62
256
6
ByLayer
370
18
48
1
60
0
100
AcDbEllipse
10
27.658494
20
-11.23606
30
0
11
1.94504343728533
21
2.0141514409481
31
0
210
0
220
0
230
1
40
0.989133
41
2.23930247606439
42
-2.12365630390152
0
ELLIPSE
5
C7
100
AcDbEntity
8
1
62
256
6
ByLayer
370
18
48
1
60
0
100
AcDbEllipse
10
27.605614
20
-11.184994
30
0
11
-2.29237262251484
21
-2.3738213411174
31
0
210
0
220
0
230
1
40
0.989133
41
-0.918622609623469
42
1.03426878178634
0
ELLIPSE
5
C8
100
AcDbEntity
8
1
62
256
6
ByLayer
370
18
48
1
60
0
100
AcDbEllipse
10
26.810403
20
-12.22126
30
0
11
1.94504343728533
21
2.0141514409481
31
0
210
0
220
0
230
1
40
0.989133
41
-0.902290177525408
42
1.01793634968827
0
ELLIPSE
5
C9
100
AcDbEntity
8
1
62
256
6
ByLayer
370
18
48
1
60
0
100
AcDbEllipse
10
26.757523
20
-12.170194
30
0
11
-2.29237262251484
21
-2.3738213411174
31
0
210
0
220
0
230
1
40
0.989133
41
2.22297004396632
42
-2.10732387180346
0
ELLIPSE
5
CA
100
AcDbEntity
8
1
62
256
6
ByLayer
370
18
48
1
60
0
100
AcDbEllipse
10
14.232378
20
-0.5706
30
0
11
1.08019376606382
21
1.11857338952653
31
0
210
0
220
0
230
1
40
0.989133
41
-0.163705616523689
42
0.279351788686521
0
ELLIPSE
5
CB
100
AcDbEntity
8
1
62
256
6
ByLayer
370
18
48
1
60
0
100
AcDbEllipse
10
14.232378
20
-0.5706
30
0
11
1.08019376606382
21
1.11857338952653
31
0
210
0
220
0
230
1
40
0.989133
41
-2.25810071891685
42
-1.81504331370667
0
ELLIPSE
5
CC
100
AcDbEntity
8
1
62
256
6
ByLayer
370
18
48
1
60
0
100
AcDbEllipse
10
14.232378
20
-0.5706
30
0
11
1.08019376606382
21
1.11857338952653
31
0
210
0
220
0
230
1
40
0.989133
41
1.93068948586951
42
2.37374689107972
0
ELLIPSE
5
CD
100
AcDbEntity
8
1
62
256
6
ByLayer
370
18
48
1
60
0
100
AcDbEllipse
10
13.832074
20
-0.184031
30
0
11
1.08019376606382
21
1.11857338952653
31
0
210
0
220
0
230
1
40
0.989133
41
-0.767845762510067
42
-0.163705616523698
0
ELLIPSE
5
CE
100
AcDbEntity
8
1
62
256
6
ByLayer
370
18
48
1
60
0
100
AcDbEllipse
10
14.232378
20
-0.5706
30
0
11
1.08019376606382
21
1.11857338952653
31
0
210
0
220
0
230
1
40
0.989133
41
0.883491934672937
42
1.32654933988311
0
ELLIPSE
5
CF
100
AcDbEntity
8
1
62
256
6
ByLayer
370
18
48
1
60
0
100
AcDbEllipse
10
13.832074
20
-0.184031
30
0
11
1.08019376606382
21
1.11857338952653
31
0
210
0
220
0
230
1
40
0.989133
41
-2.86224086490327
42
-2.25810071891685
0
ELLIPSE
5
D0
100
AcDbEntity
8
1
62
256
6
ByLayer
370
18
48
1
60
0
100
AcDbEllipse
10
14.232378
20
-0.5706
30
0
11
1.08019376606382
21
1.11857338952653
31
0
210
0
220
0
230
1
40
0.989133
41
2.97788703706614
42
-2.86224086490327
0
ELLIPSE
5
D1
100
AcDbEntity
8
1
62
256
6
ByLayer
370
18
48
1
60
0
100
AcDbEllipse
10
14.255117
20
-0.592559
30
0
11
-2.247219828435
21
-2.32706425409539
31
0
210
0
220
0
230
1
40
0.989133
41
0
42
6.28318530717959
0
ELLIPSE
5
D2
100
AcDbEntity
8
1
62
256
6
ByLayer
370
18
48
1
60
0
100
AcDbEllipse
10
14.255117
20
-0.592559
30
0
11
-1.3388782382445
21
-1.38644900217651
31
0
210
0
220
0
230
1
40
0.989133
41
0
42
6.28318530717959
0
ELLIPSE
5
D3
100
AcDbEntity
8
1
62
256
6
ByLayer
370
18
48
1
60
0
100
AcDbEllipse
10
13.832074
20
-0.184031
30
0
11
1.08019376606382
21
1.11857338952653
31
0
210
0
220
0
230
1
40
0.989133
41
-1.81504331370668
42
-1.21090316772028
0
ELLIPSE
5
D4
100
AcDbEntity
8
1
62
256
6
ByLayer
370
18
48
1
60
0
100
AcDbEllipse
10
14.232378
20
-0.5706
30
0
11
1.08019376606382
21
1.11857338952653
31
0
210
0
220
0
230
1
40
0.989133
41
-1.21090316772026
42
-0.767845762510067
0
POINT
5
6C
100
AcDbEntity
8
80
62
256
6
ByLayer
370
18
48
1
60
0
100
AcDbPoint
10
0
20
0
30
0
39
0
210
0
220
0
230
1
50
360
0
POINT
5
6E
100
AcDbEntity
8
81
62
256
6
ByLayer
370
18
48
1
60
0
100
AcDbPoint
10
34.064378
20
-24.075
30
0
39
0
210
0
220
0
230
1
50
360
0
POINT
5
70
100
AcDbEntity
8
1
62
256
6
ByLayer
370
18
48
1
60
0
100
AcDbPoint
10
-135.935622
20
15.925
30
0
39
0
210
0
220
0
230
1
50
360
0
SPLINE
5
D5
100
AcDbEntity
8
1
62
256
6
ByLayer
370
18
48
1
60
0
100
AcDbSpline
70
4
71
3
72
16
73
12
40
0
40
0
40
0
40
0
40
0.17197861337112
40
0.17197861337112
40
0.526705390709859
40
0.526705390709859
40
0.704068779379229
40
0.704068779379229
40
0.881432168048599
40
0.881432168048599
40
1
40
1
40
1
40
1
41
1
10
28.6122936243557
20
-8.9152917470186
30
0
41
1
10
28.6633690263863
20
-8.97010588297304
30
0
41
1
10
28.7122754387443
20
-9.02677220981899
30
0
41
1
10
28.855127468637
20
-9.20543670581588
30
0
41
1
10
28.9421307913622
20
-9.33325895419323
30
0
41
1
10
29.0586071707181
20
-9.53650655184468
30
0
41
1
10
29.0950373637157
20
-9.60617428430497
30
0
41
1
10
29.1619144596443
20
-9.74679168025085
30
0
41
1
10
29.1925495763684
20
-9.81805407935043
30
0
41
1
10
29.239129861694
20
-9.9384905564649
30
0
41
1
10
29.2565818343286
20
-9.98715481308025
30
0
41
1
10
29.2728309469915
20
-10.0362244047526
30
0
0
SPLINE
5
D6
100
AcDbEntity
8
1
62
256
6
ByLayer
370
18
48
1
60
0
100
AcDbSpline
70
4
71
3
72
14
73
10
40
0
40
0
40
0
40
0
40
0.266693962124663
40
0.266693962124663
40
0.450020471593497
40
0.450020471593497
40
0.633346981062331
40
0.633346981062331
40
1
40
1
40
1
40
1
41
1
10
25.6712327212274
20
-13.8370459932917
30
0
41
1
10
25.5623599195538
20
-13.8079604523944
30
0
41
1
10
25.4551750820354
20
-13.7730119084826
30
0
41
1
10
25.2772276649644
20
-13.703905286337
30
0
41
1
10
25.205261732205
20
-13.6727576419752
30
0
41
1
10
25.0645696390354
20
-13.6052796785833
30
0
41
1
10
24.9960118044111
20
-13.5690635851596
30
0
41
1
10
24.7955737556218
20
-13.4531317894561
30
0
41
1
10
24.6688966194097
20
-13.366174481751
30
0
41
1
10
24.549225631825
20
-13.269428886378
30
0
0
SPLINE
5
D7
100
AcDbEntity
8
1
62
256
6
ByLayer
370
18
48
1
60
0
100
AcDbSpline
70
4
71
3
72
8
73
4
40
0
40
0
40
0
40
0
40
1
40
1
40
1
40
1
41
1
10
24.549225631825
20
-13.269428886378
30
0
41
1
10
24.5170637210165
20
-13.2352168811419
30
0
41
1
10
24.4860229316472
20
-13.2004603017498
30
0
41
1
10
24.4560909198424
20
-13.165195235319
30
0
0
SPLINE
5
D8
100
AcDbEntity
8
1
62
256
6
ByLayer
370
18
48
1
60
0
100
AcDbSpline
70
4
71
3
72
8
73
4
40
0
40
0
40
0
40
0
40
1
40
1
40
1
40
1
41
1
10
28.3325750095087
20
-13.9310319901616
30
0
41
1
10
28.3724850563973
20
-14.0698182461989
30
0
41
1
10
28.4122609845805
20
-14.2085464644879
30
0
41
1
10
28.4519583434246
20
-14.3472405975708
30
0
0
SPLINE
5
D9
100
AcDbEntity
8
1
62
256
6
ByLayer
370
18
48
1
60
0
100
AcDbSpline
70
4
71
3
72
8
73
4
40
0
40
0
40
0
40
0
40
1
40
1
40
1
40
1
41
1
10
30.0149302976925
20
-12.5315867799099
30
0
41
1
10
29.8698072041807
20
-12.5153623028604
30
0
41
1
10
29.7246391795726
20
-12.4990646641496
30
0
41
1
10
29.5793946043061
20
-12.4826421127574
30
0
0
SPLINE
5
DA
100
AcDbEntity
8
1
62
256
6
ByLayer
370
18
48
1
60
0
100
AcDbSpline
70
4
71
3
72
8
73
4
40
0
40
0
40
0
40
0
40
1
40
1
40
1
40
1
41
1
10
25.9111785704987
20
-9.00794671277248
30
0
41
1
10
25.9861433855913
20
-9.18069823247048
30
0
41
1
10
26.0611755172176
20
-9.35347297066693
30
0
41
1
10
26.1363225096465
20
-9.52628714947082
30
0
0
SPLINE
5
DB
100
AcDbEntity
8
1
62
256
6
ByLayer
370
18
48
1
60
0
100
AcDbSpline
70
4
71
3
72
8
73
4
40
0
40
0
40
0
40
0
40
1
40
1
40
1
40
1
41
1
10
24.8895029148491
20
-10.974677026875
30
0
41
1
10
24.7090213940424
20
-10.9242265527163
30
0
41
1
10
24.528597165991
20
-10.8738823940979
30
0
41
1
10
24.3482066162308
20
-10.8236005304333
30
0
0
SPLINE
5
DC
100
AcDbEntity
8
1
62
256
6
ByLayer
370
18
48
1
60
0
100
AcDbSpline
70
4
71
3
72
10
73
6
40
0
40
0
40
0
40
0
40
0.5
40
0.5
40
1
40
1
40
1
40
1
41
1
10
13.9120296767562
20
-2.29623317012593
30
0
41
1
10
13.8438549959012
20
-2.23741045988982
30
0
41
1
10
13.775270772255
20
-2.178264957252
30
0
41
1
10
13.6370196544342
20
-2.05912061545666
30
0
41
1
10
13.567790337365
20
-1.99949941402264
30
0
41
1
10
13.4991342467717
20
-1.94041955469959
30
0
0
SPLINE
5
DD
100
AcDbEntity
8
1
62
256
6
ByLayer
370
18
48
1
60
0
100
AcDbSpline
70
4
71
3
72
10
73
6
40
0
40
0
40
0
40
0
40
0.5
40
0.5
40
1
40
1
40
1
40
1
41
1
10
12.9863076018406
20
-1.5000867485991
30
0
41
1
10
12.919646530476
20
-1.44297886706647
30
0
41
1
10
12.85327652106
20
-1.38617112863528
30
0
41
1
10
12.7236816585794
20
-1.27533142112657
30
0
41
1
10
12.6600963121861
20
-1.22099025201962
30
0
41
1
10
12.5974311804753
20
-1.16746802017826
30
0
0
SPLINE
5
DE
100
AcDbEntity
8
1
62
256
6
ByLayer
370
18
48
1
60
0
100
AcDbSpline
70
4
71
3
72
10
73
6
40
0
40
0
40
0
40
0
40
0.5
40
0.5
40
1
40
1
40
1
40
1
41
1
10
15.5589861758676
20
-1.71096302036938
30
0
41
1
10
15.5729452206685
20
-1.62258325858679
30
0
41
1
10
15.5874138354882
20
-1.53319192916365
30
0
41
1
10
15.6171881071876
20
-1.35476475769153
30
0
41
1
10
15.6325042097669
20
-1.26565603454984
30
0
41
1
10
15.6483290205811
20
-1.17667166712516
30
0
0
SPLINE
5
DF
100
AcDbEntity
8
1
62
256
6
ByLayer
370
18
48
1
60
0
100
AcDbSpline
70
4
71
3
72
10
73
6
40
0
40
0
40
0
40
0
40
0.5
40
0.5
40
1
40
1
40
1
40
1
41
1
10
14.5767456824173
20
1.13183742928243
30
0
41
1
10
14.4916316516889
20
1.10512721307731
30
0
41
1
10
14.4055646756845
20
1.07772960793741
30
0
41
1
10
14.2338273200734
20
1.02206725884588
30
0
41
1
10
14.1480866877073
20
0.993781651204415
30
0
41
1
10
14.0624979034099
20
0.964957134967278
30
0
0
SPLINE
5
E0
100
AcDbEntity
8
1
62
256
6
ByLayer
370
18
48
1
60
0
100
AcDbSpline
70
4
71
3
72
10
73
6
40
0
40
0
40
0
40
0
40
0.5
40
0.5
40
1
40
1
40
1
40
1
41
1
10
14.9656221037826
20
0.799218700861616
30
0
41
1
10
14.8989610324179
20
0.856326582394246
30
0
41
1
10
14.8325910230019
20
0.913134320825435
30
0
41
1
10
14.7029961605214
20
1.02397402833412
30
0
41
1
10
14.6394108141281
20
1.0783151974411
30
0
41
1
10
14.5767456824173
20
1.13183742928243
30
0
0
SPLINE
5
E1
100
AcDbEntity
8
1
62
256
6
ByLayer
370
18
48
1
60
0
100
AcDbSpline
70
4
71
3
72
8
73
4
40
0
40
0
40
0
40
0
40
1
40
1
40
1
40
1
41
1
10
15.0447383968602
20
-1.87784331468453
30
0
41
1
10
15.2186929091939
20
-1.81925906551635
30
0
41
1
10
15.3897243493061
20
-1.76408023199767
30
0
41
1
10
15.5589861758676
20
-1.71096302036938
30
0
0
SPLINE
5
E2
100
AcDbEntity
8
1
62
256
6
ByLayer
370
18
48
1
60
0
100
AcDbSpline
70
4
71
3
72
10
73
6
40
0
40
0
40
0
40
0
40
0.5
40
0.5
40
1
40
1
40
1
40
1
41
1
10
15.8913441786981
20
0.0030722793347877
30
0
41
1
10
15.8231694978431
20
0.0618949895708738
30
0
41
1
10
15.7545852741969
20
0.121040492208692
30
0
41
1
10
15.6163341563762
20
0.240184834004026
30
0
41
1
10
15.547104839307
20
0.299806035438024
30
0
41
1
10
15.4784487487137
20
0.358885894761102
30
0
0
SPLINE
5
E3
100
AcDbEntity
8
1
62
256
6
ByLayer
370
18
48
1
60
0
100
AcDbSpline
70
4
71
3
72
10
73
6
40
0
40
0
40
0
40
0
40
0.5
40
0.5
40
1
40
1
40
1
40
1
41
1
10
12.9297891833059
20
0.546567279525902
30
0
41
1
10
12.9104763761753
20
0.463357585928037
30
0
41
1
10
12.8911819804711
20
0.378626458934747
30
0
41
1
10
12.8532823156289
20
0.208045888411561
30
0
41
1
10
12.8346603911124
20
0.122129560406023
30
0
41
1
10
12.8164273299734
20
0.0354708132871906
30
0
0
SPLINE
5
E4
100
AcDbEntity
8
1
62
256
6
ByLayer
370
18
48
1
60
0
100
AcDbSpline
70
4
71
3
72
8
73
4
40
0
40
0
40
0
40
0
40
1
40
1
40
1
40
1
41
1
10
12.6867740251888
20
-0.633176666934048
30
0
41
1
10
12.6546109646835
20
-0.814032515836914
30
0
41
1
10
12.6251908036518
20
-0.991711804870675
30
0
41
1
10
12.5974311804753
20
-1.16746802017826
30
0
0
SPLINE
5
E5
100
AcDbEntity
8
1
62
256
6
ByLayer
370
18
48
1
60
0
100
AcDbSpline
70
4
71
3
72
8
73
4
40
0
40
0
40
0
40
0
40
1
40
1
40
1
40
1
41
1
10
15.7779823253656
20
-0.508024186903924
30
0
41
1
10
15.8150400226427
20
-0.331895033788299
30
0
41
1
10
15.8529378080566
20
-0.162402491457669
30
0
41
1
10
15.8913441786981
20
0.0030722793347877
30
0
0
SPLINE
5
E6
100
AcDbEntity
8
1
62
256
6
ByLayer
370
18
48
1
60
0
100
AcDbSpline
70
4
71
3
72
8
73
4
40
0
40
0
40
0
40
0
40
1
40
1
40
1
40
1
41
1
10
13.4200179536942
20
0.736642460846554
30
0
41
1
10
13.2509580781322
20
0.673331515891135
30
0
41
1
10
13.0884042624024
20
0.609965935669322
30
0
41
1
10
12.9297891833059
20
0.546567279525902
30
0
0
SPLINE
5
E7
100
AcDbEntity
8
1
62
256
6
ByLayer
370
18
48
1
60
0
100
AcDbSpline
70
4
71
3
72
10
73
6
40
0
40
0
40
0
40
0
40
0.5
40
0.5
40
1
40
1
40
1
40
1
41
1
10
13.9120296767562
20
-2.29623317012593
30
0
41
1
10
13.9917899451549
20
-2.26435288573606
30
0
41
1
10
14.0730311402749
20
-2.23229507816632
30
0
41
1
10
14.2366431027431
20
-2.16878612812587
30
0
41
1
10
14.3190779131721
20
-2.13730812534823
30
0
41
1
10
14.4022584471445
20
-2.10615798880528
30
0
0
LINE
5
72
100
AcDbEntity
8
1
62
256
6
ByLayer
370
18
48
1
60
0
100
AcDbLine
10
24.678678
20
-12.946024
30
0
11
25.313241
21
-13.558815
31
0
39
0
210
0
220
0
230
1
0
LINE
5
73
100
AcDbEntity
8
1
62
256
6
ByLayer
370
18
48
1
60
0
100
AcDbLine
10
29.049895
20
-9.796372
30
0
11
28.415332
21
-9.183581
31
0
39
0
210
0
220
0
230
1
0
LINE
5
74
100
AcDbEntity
8
1
62
256
6
ByLayer
370
18
48
1
60
0
100
AcDbLine
10
34.651847
20
0.85615
30
0
11
33.980267
21
1.504687
31
0
39
0
210
0
220
0
230
1
0
LINE
5
75
100
AcDbEntity
8
1
62
256
6
ByLayer
370
18
48
1
60
0
100
AcDbLine
10
12.404901
20
-12.399639
30
0
11
13.076481
21
-13.048176
31
0
39
0
210
0
220
0
230
1
0
LINE
5
76
100
AcDbEntity
8
SK1
62
256
6
ByLayer
370
18
48
1
60
0
100
AcDbLine
10
0
20
-15.925
30
0
11
0
21
15.925
31
0
39
0
210
0
220
0
230
1
0
LINE
5
78
100
AcDbEntity
8
SK1
62
256
6
ByLayer
370
18
48
1
60
0
100
AcDbLine
10
-135.935622
20
15.925
30
0
11
0
21
15.925
31
0
39
0
210
0
220
0
230
1
0
LINE
5
79
100
AcDbEntity
8
SK1
62
256
6
ByLayer
370
18
48
1
60
0
100
AcDbLine
10
-135.935622
20
15.925
30
0
11
-135.935622
21
-15.925
31
0
39
0
210
0
220
0
230
1
0
LINE
5
7A
100
AcDbEntity
8
SK1
62
256
6
ByLayer
370
18
48
1
60
0
100
AcDbLine
10
-135.935622
20
-15.925
30
0
11
0
21
-15.925
31
0
39
0
210
0
220
0
230
1
0
LINE
5
7B
100
AcDbEntity
8
1
62
256
6
ByLayer
370
18
48
1
60
0
100
AcDbLine
10
12.050603
20
-15.12697
30
0
11
16.082186
21
-14.73009
31
0
39
0
210
0
220
0
230
1
0
LINE
5
7C
100
AcDbEntity
8
1
62
256
6
ByLayer
370
18
48
1
60
0
100
AcDbLine
10
18.157483
20
-15.868526
30
0
11
18.115302
21
-15.835154
31
0
39
0
210
0
220
0
230
1
0
LINE
5
7D
100
AcDbEntity
8
1
62
256
6
ByLayer
370
18
48
1
60
0
100
AcDbLine
10
20.116628
20
-6.920591
30
0
11
13.17885
21
-11.166378
31
0
39
0
210
0
220
0
230
1
0
LINE
5
7E
100
AcDbEntity
8
1
62
256
6
ByLayer
370
18
48
1
60
0
100
AcDbLine
10
18.157483
20
-15.868526
30
0
11
19.992157
21
-16.85534
31
0
39
0
210
0
220
0
230
1
0
LINE
5
7F
100
AcDbEntity
8
1
62
256
6
ByLayer
370
18
48
1
60
0
100
AcDbLine
10
13.184666
20
-16.358064
30
0
11
18.157483
21
-15.868526
31
0
39
0
210
0
220
0
230
1
0
LINE
5
80
100
AcDbEntity
8
1
62
256
6
ByLayer
370
18
48
1
60
0
100
AcDbLine
10
1.545481
20
-17.11089
30
0
11
2.21544
21
-19.61121
31
0
39
0
210
0
220
0
230
1
0
LINE
5
81
100
AcDbEntity
8
1
62
256
6
ByLayer
370
18
48
1
60
0
100
AcDbLine
10
0
20
-15.925
30
0
11
0
21
15.925
31
0
39
0
210
0
220
0
230
1
0
LINE
5
82
100
AcDbEntity
8
1
62
256
6
ByLayer
370
18
48
1
60
0
100
AcDbLine
10
25.188726
20
-3.642494
30
0
11
20.796198
21
-6.330637
31
0
39
0
210
0
220
0
230
1
0
LINE
5
83
100
AcDbEntity
8
1
62
256
6
ByLayer
370
18
48
1
60
0
100
AcDbLine
10
24.174104
20
-19.128511
30
0
11
22.518104
21
-22.13508
31
0
39
0
210
0
220
0
230
1
0
LINE
5
84
100
AcDbEntity
8
1
62
256
6
ByLayer
370
18
48
1
60
0
100
AcDbLine
10
2.576325
20
-20.958051
30
0
11
2.21544
21
-19.61121
31
0
39
0
210
0
220
0
230
1
0
LINE
5
85
100
AcDbEntity
8
1
62
256
6
ByLayer
370
18
48
1
60
0
100
AcDbLine
10
2.21544
20
-19.61121
30
0
11
3.172082
21
15.956662
31
0
39
0
210
0
220
0
230
1
0
LINE
5
86
100
AcDbEntity
8
1
62
256
6
ByLayer
370
18
48
1
60
0
100
AcDbLine
10
32.731743
20
4.937755
30
0
11
32.803211
21
0.843354
31
0
39
0
210
0
220
0
230
1
0
LINE
5
87
100
AcDbEntity
8
1
62
256
6
ByLayer
370
18
48
1
60
0
100
AcDbLine
10
16.341822
20
-14.871189
30
0
11
12.079468
21
-15.290787
31
0
39
0
210
0
220
0
230
1
0
LINE
5
88
100
AcDbEntity
8
1
62
256
6
ByLayer
370
18
48
1
60
0
100
AcDbLine
10
32.803211
20
0.843354
30
0
11
26.021943
21
-3.306652
31
0
39
0
210
0
220
0
230
1
0
LINE
5
89
100
AcDbEntity
8
1
62
256
6
ByLayer
370
18
48
1
60
0
100
AcDbLine
10
32.731743
20
4.937755
30
0
11
5.150776
21
15.955739
31
0
39
0
210
0
220
0
230
1
0
LINE
5
8A
100
AcDbEntity
8
1
62
256
6
ByLayer
370
18
48
1
60
0
100
AcDbLine
10
13.17885
20
-11.166378
30
0
11
12.733986
21
-11.210171
31
0
39
0
210
0
220
0
230
1
0
LINE
5
8B
100
AcDbEntity
8
1
62
256
6
ByLayer
370
18
48
1
60
0
100
AcDbLine
10
1.545481
20
15.930174
30
0
11
1.545481
21
-17.11089
31
0
39
0
210
0
220
0
230
1
0
LINE
5
8C
100
AcDbEntity
8
1
62
256
6
ByLayer
370
18
48
1
60
0
100
AcDbLine
10
1.545481
20
15.930174
30
0
11
3.172082
21
15.956662
31
0
39
0
210
0
220
0
230
1
0
LINE
5
8D
100
AcDbEntity
8
1
62
256
6
ByLayer
370
18
48
1
60
0
100
AcDbLine
10
13.184666
20
-16.358064
30
0
11
12.079468
21
-15.290787
31
0
39
0
210
0
220
0
230
1
0
LINE
5
8E
100
AcDbEntity
8
1
62
256
6
ByLayer
370
18
48
1
60
0
100
AcDbLine
10
22.518104
20
-22.13508
30
0
11
2.576325
21
-20.958051
31
0
39
0
210
0
220
0
230
1
0
LINE
5
8F
100
AcDbEntity
8
1
62
256
6
ByLayer
370
18
48
1
60
0
100
AcDbLine
10
5.150776
20
15.955739
30
0
11
3.172082
21
15.956662
31
0
39
0
210
0
220
0
230
1
0
LINE
5
90
100
AcDbEntity
8
1
62
256
6
ByLayer
370
18
48
1
60
0
100
AcDbLine
10
13.238519
20
-11.129845
30
0
11
13.293778
21
-11.183207
31
0
39
0
210
0
220
0
230
1
0
LINE
5
91
100
AcDbEntity
8
1
62
256
6
ByLayer
370
18
48
1
60
0
100
AcDbLine
10
32.793227
20
1.415483
30
0
11
33.214989
21
1.008191
31
0
39
0
210
0
220
0
230
1
0
LINE
5
92
100
AcDbEntity
8
1
62
256
6
ByLayer
370
18
48
1
60
0
100
AcDbLine
10
25.911179
20
-9.007947
30
0
11
25.905598
21
-9.002558
31
0
39
0
210
0
220
0
230
1
0
LINE
5
93
100
AcDbEntity
8
1
62
256
6
ByLayer
370
18
48
1
60
0
100
AcDbLine
10
24.335691
20
-10.811514
30
0
11
24.348207
21
-10.823601
31
0
39
0
210
0
220
0
230
1
0
LINE
5
94
100
AcDbEntity
8
1
62
256
6
ByLayer
370
18
48
1
60
0
100
AcDbLine
10
15.117812
20
0.707148
30
0
11
15.478449
21
0.358886
31
0
39
0
210
0
220
0
230
1
0
LINE
5
95
100
AcDbEntity
8
1
62
256
6
ByLayer
370
18
48
1
60
0
100
AcDbLine
10
15.472022
20
0.365091
30
0
11
15.377678
21
-0.121455
31
0
39
0
210
0
220
0
230
1
0
LINE
5
96
100
AcDbEntity
8
80
62
256
6
ByLayer
370
18
48
1
60
0
100
AcDbLine
10
0
20
0
30
0
11
-5
21
0
31
0
39
0
210
0
220
0
230
1
0
LINE
5
97
100
AcDbEntity
8
81
62
256
6
ByLayer
370
18
48
1
60
0
100
AcDbLine
10
34.064378
20
-24.075
30
0
11
44.064378
21
-24.075
31
0
39
0
210
0
220
0
230
1
0
LINE
5
98
100
AcDbEntity
8
1
62
256
6
ByLayer
370
18
48
1
60
0
100
AcDbLine
10
13.293778
20
-11.183207
30
0
11
33.214989
21
1.008191
31
0
39
0
210
0
220
0
230
1
0
LINE
5
99
100
AcDbEntity
8
1
62
256
6
ByLayer
370
18
48
1
60
0
100
AcDbLine
10
35.008537
20
0.033289
30
0
11
35.414197
21
-23.206998
31
0
39
0
210
0
220
0
230
1
0
LINE
5
9A
100
AcDbEntity
8
1
62
256
6
ByLayer
370
18
48
1
60
0
100
AcDbLine
10
33.656444
20
-24.282709
30
0
11
13.329572
21
-13.233821
31
0
39
0
210
0
220
0
230
1
0
LINE
5
9B
100
AcDbEntity
8
1
62
256
6
ByLayer
370
18
48
1
60
0
100
AcDbLine
10
24.549226
20
-13.269429
30
0
11
24.526851
21
-13.247822
31
0
39
0
210
0
220
0
230
1
0
LINE
5
9C
100
AcDbEntity
8
1
62
256
6
ByLayer
370
18
48
1
60
0
100
AcDbLine
10
14.001955
20
-1.719589
30
0
11
14.402258
21
-2.106158
31
0
39
0
210
0
220
0
230
1
0
LINE
5
9D
100
AcDbEntity
8
1
62
256
6
ByLayer
370
18
48
1
60
0
100
AcDbLine
10
13.91203
20
-2.296233
30
0
11
13.499716
21
-1.898067
31
0
39
0
210
0
220
0
230
1
0
LINE
5
9E
100
AcDbEntity
8
1
62
256
6
ByLayer
370
18
48
1
60
0
100
AcDbLine
10
15.248025
20
-0.790103
30
0
11
15.146673
21
-1.312797
31
0
39
0
210
0
220
0
230
1
0
LINE
5
9F
100
AcDbEntity
8
1
62
256
6
ByLayer
370
18
48
1
60
0
100
AcDbLine
10
14.001955
20
-1.719589
30
0
11
13.499716
21
-1.898067
31
0
39
0
210
0
220
0
230
1
0
LINE
5
A0
100
AcDbEntity
8
1
62
256
6
ByLayer
370
18
48
1
60
0
100
AcDbLine
10
15.248025
20
-0.790103
30
0
11
15.648329
21
-1.176672
31
0
39
0
210
0
220
0
230
1
0
LINE
5
A1
100
AcDbEntity
8
1
62
256
6
ByLayer
370
18
48
1
60
0
100
AcDbLine
10
15.558986
20
-1.710963
30
0
11
15.146673
21
-1.312797
31
0
39
0
210
0
220
0
230
1
0
LINE
5
A2
100
AcDbEntity
8
1
62
256
6
ByLayer
370
18
48
1
60
0
100
AcDbLine
10
13.09883
20
-1.553851
30
0
11
13.499134
21
-1.94042
31
0
39
0
210
0
220
0
230
1
0
LINE
5
A3
100
AcDbEntity
8
1
62
256
6
ByLayer
370
18
48
1
60
0
100
AcDbLine
10
15.777982
20
-0.508024
30
0
11
15.377678
21
-0.121455
31
0
39
0
210
0
220
0
230
1
0
LINE
5
A4
100
AcDbEntity
8
1
62
256
6
ByLayer
370
18
48
1
60
0
100
AcDbLine
10
15.044738
20
-1.877843
30
0
11
14.644435
21
-1.491274
31
0
39
0
210
0
220
0
230
1
0
LINE
5
A5
100
AcDbEntity
8
1
62
256
6
ByLayer
370
18
48
1
60
0
100
AcDbLine
10
15.146673
20
-1.312797
30
0
11
14.644435
21
-1.491274
31
0
39
0
210
0
220
0
230
1
0
LINE
5
A6
100
AcDbEntity
8
1
62
256
6
ByLayer
370
18
48
1
60
0
100
AcDbLine
10
12.986308
20
-1.500087
30
0
11
12.586004
21
-1.113518
31
0
39
0
210
0
220
0
230
1
0
LINE
5
A7
100
AcDbEntity
8
1
62
256
6
ByLayer
370
18
48
1
60
0
100
AcDbLine
10
13.09883
20
-1.553851
30
0
11
13.499716
21
-1.898067
31
0
39
0
210
0
220
0
230
1
0
MTEXT
5
E8
100
AcDbEntity
8
SK6
62
256
6
ByLayer
370
13
48
1
60
0
100
AcDbMText
10
-106.01942
20
24.910722
30
0
210
0
220
0
230
1
1
\W0.7880;PTFNL 3232P 27
40
3.5
41
0
44
1.084337
50
0
71
7
72
5
7
iso_b_vert
0
DIMENSION
5
FA
100
AcDbEntity
8
SK2
62
256
6
ByLayer
370
13
48
1
60
0
100
AcDbDimension
2
DimnDraft3D1
10
-145.685622
20
15.925
30
0
11
-145.685622
21
-0.075
31
0
70
32
71
5
72
1
41
1
210
0
220
0
230
1
3
Standard
100
AcDbAlignedDimension
13
-137.523122
23
-16.075
33
0
14
-137.523122
24
15.925
34
0
50
90
100
AcDbRotatedDimension
1001
ACAD
1000
DSTYLE
1002
{
1070
    74
1070
     0
1070
   279
1070
     0
1070
   172
1070
     1
1070
   173
1070
     1
1070
   340
1005
E9
1070
   271
1070
     1
1070
   272
1070
     2
1070
    77
1070
     1
1070
    73
1070
     0
1070
   171
1070
     3
1070
   274
1070
     4
1070
   177
1070
   150
1070
   176
1070
     9
1070
   178
1070
    43
1070
    78
1070
     8
1070
    48
1040
-0.005
1070
    41
1041
3.175
1070
   147
1041
2.25
1070
    42
1041
1.5875
1070
    44
1041
3.175
1070
   140
1041
4.5
1070
   343
1005
FB
1070
   344
1005
FB
1002
}
0
DIMENSION
5
110
100
AcDbEntity
8
2
62
256
6
ByLayer
370
13
48
1
60
0
100
AcDbDimension
2
DimnDraft3D2
10
66.914378
20
15.925
30
0
11
66.914378
21
-4.25
31
0
70
32
71
5
72
1
41
1
210
0
220
0
230
1
3
Standard
100
AcDbAlignedDimension
13
37.001878
23
-24.425
33
0
14
1.5875
24
15.925
34
0
50
90
100
AcDbRotatedDimension
1001
ACAD
1000
DSTYLE
1002
{
1070
    74
1070
     0
1070
   279
1070
     0
1070
   172
1070
     1
1070
   173
1070
     1
1070
   340
1005
E9
1070
   271
1070
     1
1070
   272
1070
     2
1070
    77
1070
     1
1070
    73
1070
     0
1070
   171
1070
     3
1070
   274
1070
     4
1070
   177
1070
   150
1070
   176
1070
     9
1070
   178
1070
    43
1070
    78
1070
     8
1070
    48
1040
-0.005
1070
    41
1041
3.175
1070
   147
1041
2.25
1070
    42
1041
1.5875
1070
    44
1041
3.175
1070
   140
1041
4.5
1070
   343
1005
FB
1070
   344
1005
FB
1002
}
0
DIMENSION
5
11E
100
AcDbEntity
8
SK2
62
256
6
ByLayer
370
13
48
1
60
0
100
AcDbDimension
2
DimnDraft3D3
10
35.414378
20
-40.925
30
0
11
-50.260622
21
-40.925
31
0
70
32
71
5
72
1
41
1
210
0
220
0
230
1
3
Standard
100
AcDbAlignedDimension
13
-135.935622
23
-17.6625
33
0
14
35.414378
24
-26.0125
34
0
50
0
100
AcDbRotatedDimension
1001
ACAD
1000
DSTYLE
1002
{
1070
   279
1070
     0
1070
   172
1070
     1
1070
   173
1070
     1
1070
   340
1005
E9
1070
   271
1070
     1
1070
   272
1070
     2
1070
    77
1070
     1
1070
    73
1070
     0
1070
   171
1070
     3
1070
   274
1070
     4
1070
   177
1070
   150
1070
   176
1070
     9
1070
   178
1070
    43
1070
    78
1070
     8
1070
    48
1040
-0.005
1070
    41
1041
3.175
1070
   147
1041
2.25
1070
    42
1041
1.5875
1070
    44
1041
3.175
1070
   140
1041
4.5
1070
   343
1005
FB
1070
   344
1005
FB
1002
}
0
DIMENSION
5
12B
100
AcDbEntity
8
2
62
256
6
ByLayer
370
13
48
1
60
0
100
AcDbDimension
2
DimnDraft3D4
10
34.942981
20
3.782292
30
0
11
43.354841
21
-16.366058
31
0
70
34
71
5
72
1
41
1
210
0
220
0
230
1
3
Standard
100
AcDb2LineAngularDimension
13
35.414378
23
-24.425
33
0
14
33.033128
24
-24.425
34
0
15
35.414196
25
-23.213596
35
0
16
40.20075
26
-19.575685
36
0
40
0
0
ENDSEC
0
SECTION
2
OBJECTS
0
DICTIONARY
5
195
330
0
100
AcDbDictionary
280
0
281
1
3
ACAD_GROUP
350
196
3
ACAD_MLINESTYLE
350
197
0
DICTIONARY
5
196
330
0
100
AcDbDictionary
280
0
281
1
0
DICTIONARY
5
197
330
0
100
AcDbDictionary
280
0
281
1
3
Standard
350
18
0
MLINESTYLE
5
18
330
197
100
AcDbMlineStyle
2
Standard
70
0
3

62
256
51
90
52
90
71
2
49
-0.5
62
256
6
ByLayer
49
0.5
62
256
6
ByLayer
0
RASTERVARIABLES
5
184
330

100
AcDbRasterVariables
90
0
70
1
71
1
72
1
0
ENDSEC
0
EOF
