0
SECTION
2
HEADER
9
$ACADVER
1
AC1015
9
$DWGCODEPAGE
3
ANSI_1252
9
$HANDSEED
5
1a9
9
$ANGBASE
50
0
9
$ANGDIR
70
0
9
$ATTMODE
70
1
9
$AUNITS
70
0
9
$AUPREC
70
0
9
$CECOLOR
62
256
9
$CELTSCALE
40
1
9
$CELTYPE
6
ByLayer
9
$CELWEIGHT
370
18
9
$CLAYER
8
0
9
$CMLJUST
70
0
9
$CMLSCALE
40
1
9
$CMLSTYLE
2
Standard
9
$DIMSTYLE
2
Standard
9
$TEXTSIZE
40
0.2
9
$TEXTSTYLE
7
Standard
9
$LUNITS
70
2
9
$LUPREC
70
4
9
$EXTNAMES
290
1
9
$INSUNITS
70
4
9
$LTSCALE
40
1
9
$LWDISPLAY
290
1
9
$PDMODE
70
0
9
$PDSIZE
40
0
9
$PLINEGEN
70
0
0
ENDSEC
0
SECTION
2
CLASSES
0
CLASS
1
RASTERVARIABLES
2
AcDbRasterVariables
3
ISM
90
0
280
0
281
0
0
ENDSEC
0
SECTION
2
TABLES
0
TABLE
2
VPORT
5
19f
100
AcDbSymbolTable
0
VPORT
5
1
100
AcDbSymbolTableRecord
100
AcDbViewportTableRecord
2
*Active
70
0
10
0
20
0
11
1
21
1
12
-1
22
1
13
0
23
0
14
0.5
24
0.5
15
10
25
10
16
0
26
0
36
1
17
0
27
0
37
0
0
ENDTAB
0
TABLE
2
LTYPE
5
1a0
100
AcDbSymbolTable
0
LTYPE
5
14
100
AcDbSymbolTableRecord
100
AcDbLinetypeTableRecord
70
0
2
ByBlock
3

72
65
73
0
40
0
0
LTYPE
5
15
100
AcDbSymbolTableRecord
100
AcDbLinetypeTableRecord
70
0
2
ByLayer
3

72
65
73
0
40
0
0
LTYPE
5
16
100
AcDbSymbolTableRecord
100
AcDbLinetypeTableRecord
70
0
2
CONTINUOUS
3
Solid line
72
65
73
0
40
0
0
LTYPE
5
6A
100
AcDbSymbolTableRecord
100
AcDbLinetypeTableRecord
70
0
2
CENTER
3
____ _ ____ _ ____ _ ____
72
65
73
4
40
47.5
49
22
74
0
49
-8.5
74
0
49
8.5
74
0
49
-8.5
74
0
0
LTYPE
5
6B
100
AcDbSymbolTableRecord
100
AcDbLinetypeTableRecord
70
0
2
DASHED
3
__ __ __ __ __ __ __ __ __
72
65
73
2
40
25.72
49
12.86
74
0
49
-12.86
74
0
0
ENDTAB
0
TABLE
2
LAYER
5
1a1
100
AcDbSymbolTable
0
LAYER
5
10
100
AcDbSymbolTableRecord
100
AcDbLayerTableRecord
2
0
70
0
62
7
6
CONTINUOUS
290
1
370
-3
390
0
0
LAYER
5
6D
100
AcDbSymbolTableRecord
100
AcDbLayerTableRecord
2
80
70
0
62
-6
6
CONTINUOUS
290
1
370
-3
390
0
0
LAYER
5
6F
100
AcDbSymbolTableRecord
100
AcDbLayerTableRecord
2
81
70
0
62
-3
6
CONTINUOUS
290
1
370
-3
390
0
0
LAYER
5
71
100
AcDbSymbolTableRecord
100
AcDbLayerTableRecord
2
1
70
0
62
4
6
CONTINUOUS
290
1
370
-3
390
0
0
LAYER
5
10A
100
AcDbSymbolTableRecord
100
AcDbLayerTableRecord
2
2
70
0
62
7
6
CONTINUOUS
290
1
370
-3
390
0
0
LAYER
5
18c
100
AcDbSymbolTableRecord
100
AcDbLayerTableRecord
2
SK1
70
0
62
4
6
CONTINUOUS
290
1
370
-3
390
0
0
LAYER
5
18d
100
AcDbSymbolTableRecord
100
AcDbLayerTableRecord
2
SK6
70
0
62
5
6
CONTINUOUS
290
1
370
-3
390
0
0
LAYER
5
18e
100
AcDbSymbolTableRecord
100
AcDbLayerTableRecord
2
SK2
70
0
62
7
6
CONTINUOUS
290
1
370
-3
390
0
0
ENDTAB
0
TABLE
2
STYLE
5
1a2
100
AcDbSymbolTable
0
STYLE
5
11
100
AcDbSymbolTableRecord
100
AcDbTextStyleTableRecord
2
Standard
3
txt
70
0
71
0
40
0
41
1
42
0
50
0
0
STYLE
5
EF
100
AcDbSymbolTableRecord
100
AcDbTextStyleTableRecord
2
iso_b_vert
3
simplex.shx
70
0
71
0
40
0
41
1
42
0
50
0
0
STYLE
5
F0
100
AcDbSymbolTableRecord
100
AcDbTextStyleTableRecord
2
DWGDirectTextStyle
3
simplex
70
0
71
0
40
0
41
1
42
0
50
0
0
ENDTAB
0
TABLE
2
DIMSTYLE
5
1a3
100
AcDbSymbolTable
100
AcDbDimStyleTable
0
DIMSTYLE
105
27
100
AcDbSymbolTableRecord
100
AcDbDimStyleTableRecord
2
Standard
70
0
3
<>
41
0.18
42
0.0625
44
0.18
140
0.18
147
0.09
73
0
74
0
77
1
271
2
275
0
278
52
280
0
340
11
0
ENDTAB
0
TABLE
2
VIEW
5
1a4
100
AcDbSymbolTable
0
ENDTAB
0
TABLE
2
UCS
5
1a5
100
AcDbSymbolTable
0
ENDTAB
0
TABLE
2
APPID
5
1a6
100
AcDbSymbolTable
0
APPID
5
12
100
AcDbSymbolTableRecord
100
AcDbRegAppTableRecord
2
ACAD
70
0
0
ENDTAB
0
TABLE
2
BLOCK_RECORD
5
1a7
100
AcDbSymbolTable
0
BLOCK_RECORD
5
1F
100
AcDbSymbolTableRecord
100
AcDbBlockTableRecord
2
*Model_Space
340
0
70
0
0
BLOCK_RECORD
5
1B
100
AcDbSymbolTableRecord
100
AcDbBlockTableRecord
2
*Paper_Space
340
0
70
0
0
BLOCK_RECORD
5
23
100
AcDbSymbolTableRecord
100
AcDbBlockTableRecord
2
*Paper_Space0
340
0
70
0
0
BLOCK_RECORD
5
F2
100
AcDbSymbolTableRecord
100
AcDbBlockTableRecord
2
DimnDraft3D1
340
0
70
0
0
BLOCK_RECORD
5
101
100
AcDbSymbolTableRecord
100
AcDbBlockTableRecord
2
_CLOSED
340
0
70
0
0
BLOCK_RECORD
5
108
100
AcDbSymbolTableRecord
100
AcDbBlockTableRecord
2
DimnDraft3D2
340
0
70
0
0
BLOCK_RECORD
5
117
100
AcDbSymbolTableRecord
100
AcDbBlockTableRecord
2
DimnDraft3D3
340
0
70
0
0
BLOCK_RECORD
5
125
100
AcDbSymbolTableRecord
100
AcDbBlockTableRecord
2
DimnDraft3D4
340
0
70
0
0
ENDTAB
0
ENDSEC
0
SECTION
2
BLOCKS
0
BLOCK
5
20
100
AcDbEntity
8
0
100
AcDbBlockBegin
2
*Model_Space
70
0
10
0
20
0
30
0
3
*Model_Space
0
ENDBLK
5
21
100
AcDbEntity
8
0
100
AcDbBlockEnd
0
BLOCK
5
1C
100
AcDbEntity
8
0
100
AcDbBlockBegin
2
*Paper_Space
70
0
10
0
20
0
30
0
3
*Paper_Space
0
ENDBLK
5
1D
100
AcDbEntity
8
0
100
AcDbBlockEnd
0
BLOCK
5
24
100
AcDbEntity
8
0
100
AcDbBlockBegin
2
*Paper_Space0
70
0
10
0
20
0
30
0
3
*Paper_Space0
0
ENDBLK
5
25
100
AcDbEntity
8
0
100
AcDbBlockEnd
0
BLOCK
5
FE
100
AcDbEntity
8
0
100
AcDbBlockBegin
2
DimnDraft3D1
70
0
10
0
20
0
30
0
3
DimnDraft3D1
0
MTEXT
5
F3
100
AcDbEntity
8
SK2
62
256
6
ByLayer
370
13
48
1
60
0
100
AcDbMText
10
-234.159451
20
-1.725
30
0
210
0
220
0
230
1
1
\W0.7361;40
40
4.5
41
0
44
1.084337
50
90
71
7
72
5
7
iso_b_vert
0
LINE
5
F5
100
AcDbEntity
8
SK2
62
256
6
ByLayer
370
13
48
1
60
0
100
AcDbLine
10
-224.871951
20
20.075
30
0
11
-236.209451
21
20.075
31
0
39
0
210
0
220
0
230
1
0
LINE
5
F6
100
AcDbEntity
8
SK2
62
256
6
ByLayer
370
13
48
1
60
0
100
AcDbLine
10
-224.871951
20
-19.925
30
0
11
-236.209451
21
-19.925
31
0
39
0
210
0
220
0
230
1
0
LINE
5
F7
100
AcDbEntity
8
SK2
62
256
6
ByLayer
370
13
48
1
60
0
100
AcDbLine
10
-233.034451
20
20.075
30
0
11
-233.034451
21
-19.925
31
0
39
0
210
0
220
0
230
1
0
LINE
5
F8
100
AcDbEntity
8
SK2
62
256
6
ByLayer
370
13
48
1
60
0
100
AcDbLine
10
-233.034451
20
20.075
30
0
11
-232.183712
21
16.900003
31
0
39
0
210
0
220
0
230
1
0
LINE
5
F9
100
AcDbEntity
8
SK2
62
256
6
ByLayer
370
13
48
1
60
0
100
AcDbLine
10
-233.034451
20
20.075
30
0
11
-233.88519
21
16.899997
31
0
39
0
210
0
220
0
230
1
0
LINE
5
FA
100
AcDbEntity
8
SK2
62
256
6
ByLayer
370
13
48
1
60
0
100
AcDbLine
10
-232.183712
20
16.900003
30
0
11
-233.88519
21
16.899997
31
0
39
0
210
0
220
0
230
1
0
LINE
5
FB
100
AcDbEntity
8
SK2
62
256
6
ByLayer
370
13
48
1
60
0
100
AcDbLine
10
-233.034451
20
-19.925
30
0
11
-233.88519
21
-16.750003
31
0
39
0
210
0
220
0
230
1
0
LINE
5
FC
100
AcDbEntity
8
SK2
62
256
6
ByLayer
370
13
48
1
60
0
100
AcDbLine
10
-233.034451
20
-19.925
30
0
11
-232.183712
21
-16.749997
31
0
39
0
210
0
220
0
230
1
0
LINE
5
FD
100
AcDbEntity
8
SK2
62
256
6
ByLayer
370
13
48
1
60
0
100
AcDbLine
10
-233.88519
20
-16.750003
30
0
11
-232.183712
21
-16.749997
31
0
39
0
210
0
220
0
230
1
0
ENDBLK
5
FF
100
AcDbEntity
8
0
100
AcDbBlockEnd
0
BLOCK
5
102
100
AcDbEntity
8
0
100
AcDbBlockBegin
2
_CLOSED
70
0
10
0
20
0
30
0
3
_CLOSED
0
LINE
5
104
100
AcDbEntity
8
0
62
256
6
ByLayer
370
-2
48
1
60
0
100
AcDbLine
10
-1
20
0.166667
30
0
11
0
21
0
31
0
39
0
210
0
220
0
230
1
0
LINE
5
105
100
AcDbEntity
8
0
62
256
6
ByLayer
370
-2
48
1
60
0
100
AcDbLine
10
0
20
0
30
0
11
-1
21
-0.166667
31
0
39
0
210
0
220
0
230
1
0
LINE
5
106
100
AcDbEntity
8
0
62
256
6
ByLayer
370
-2
48
1
60
0
100
AcDbLine
10
-1
20
0.166667
30
0
11
-1
21
-0.166667
31
0
39
0
210
0
220
0
230
1
0
LINE
5
107
100
AcDbEntity
8
0
62
256
6
ByLayer
370
-2
48
1
60
0
100
AcDbLine
10
0
20
0
30
0
11
-1
21
0
31
0
39
0
210
0
220
0
230
1
0
ENDBLK
5
103
100
AcDbEntity
8
0
100
AcDbBlockEnd
0
BLOCK
5
114
100
AcDbEntity
8
0
100
AcDbBlockBegin
2
DimnDraft3D2
70
0
10
0
20
0
30
0
3
DimnDraft3D2
0
MTEXT
5
109
100
AcDbEntity
8
2
62
256
6
ByLayer
370
13
48
1
60
0
100
AcDbMText
10
71.526852
20
3.686842
30
0
210
0
220
0
230
1
1
\W0.6740;50
40
4.5
41
0
44
1.084337
50
90
71
7
72
5
7
iso_b_vert
0
LINE
5
10B
100
AcDbEntity
8
2
62
256
6
ByLayer
370
13
48
1
60
0
100
AcDbLine
10
1.5875
20
-19.925
30
0
11
75.826852
21
-19.925
31
0
39
0
210
0
220
0
230
1
0
LINE
5
10C
100
AcDbEntity
8
2
62
256
6
ByLayer
370
13
48
1
60
0
100
AcDbLine
10
29.653049
20
30.425
30
0
11
75.826852
21
30.425
31
0
39
0
210
0
220
0
230
1
0
LINE
5
10D
100
AcDbEntity
8
2
62
256
6
ByLayer
370
13
48
1
60
0
100
AcDbLine
10
72.651852
20
-19.925
30
0
11
72.651852
21
30.425
31
0
39
0
210
0
220
0
230
1
0
LINE
5
10E
100
AcDbEntity
8
2
62
256
6
ByLayer
370
13
48
1
60
0
100
AcDbLine
10
72.651852
20
-19.925
30
0
11
71.801113
21
-16.750003
31
0
39
0
210
0
220
0
230
1
0
LINE
5
10F
100
AcDbEntity
8
2
62
256
6
ByLayer
370
13
48
1
60
0
100
AcDbLine
10
72.651852
20
-19.925
30
0
11
73.502591
21
-16.749997
31
0
39
0
210
0
220
0
230
1
0
LINE
5
110
100
AcDbEntity
8
2
62
256
6
ByLayer
370
13
48
1
60
0
100
AcDbLine
10
71.801113
20
-16.750003
30
0
11
73.502591
21
-16.749997
31
0
39
0
210
0
220
0
230
1
0
LINE
5
111
100
AcDbEntity
8
2
62
256
6
ByLayer
370
13
48
1
60
0
100
AcDbLine
10
72.651852
20
30.425
30
0
11
73.502591
21
27.250003
31
0
39
0
210
0
220
0
230
1
0
LINE
5
112
100
AcDbEntity
8
2
62
256
6
ByLayer
370
13
48
1
60
0
100
AcDbLine
10
72.651852
20
30.425
30
0
11
71.801113
21
27.249997
31
0
39
0
210
0
220
0
230
1
0
LINE
5
113
100
AcDbEntity
8
2
62
256
6
ByLayer
370
13
48
1
60
0
100
AcDbLine
10
73.502591
20
27.250003
30
0
11
71.801113
21
27.249997
31
0
39
0
210
0
220
0
230
1
0
ENDBLK
5
115
100
AcDbEntity
8
0
100
AcDbBlockEnd
0
BLOCK
5
122
100
AcDbEntity
8
0
100
AcDbBlockBegin
2
DimnDraft3D3
70
0
10
0
20
0
30
0
3
DimnDraft3D3
0
MTEXT
5
118
100
AcDbEntity
8
SK2
62
256
6
ByLayer
370
13
48
1
60
0
100
AcDbMText
10
-100.854188
20
39.05
30
0
210
0
220
0
230
1
1
\W0.7138;250
40
4.5
41
0
44
1.084337
50
0
71
7
72
5
7
iso_b_vert
0
LINE
5
119
100
AcDbEntity
8
SK2
62
256
6
ByLayer
370
13
48
1
60
0
100
AcDbLine
10
-223.284451
20
21.6625
30
0
11
-223.284451
21
41.1
31
0
39
0
210
0
220
0
230
1
0
LINE
5
11A
100
AcDbEntity
8
SK2
62
256
6
ByLayer
370
13
48
1
60
0
100
AcDbLine
10
28.065549
20
32.0125
30
0
11
28.065549
21
41.1
31
0
39
0
210
0
220
0
230
1
0
LINE
5
11B
100
AcDbEntity
8
SK2
62
256
6
ByLayer
370
13
48
1
60
0
100
AcDbLine
10
-223.284451
20
37.925
30
0
11
28.065549
21
37.925
31
0
39
0
210
0
220
0
230
1
0
LINE
5
11C
100
AcDbEntity
8
SK2
62
256
6
ByLayer
370
13
48
1
60
0
100
AcDbLine
10
-223.284451
20
37.925
30
0
11
-220.109454
21
38.775739
31
0
39
0
210
0
220
0
230
1
0
LINE
5
11D
100
AcDbEntity
8
SK2
62
256
6
ByLayer
370
13
48
1
60
0
100
AcDbLine
10
-223.284451
20
37.925
30
0
11
-220.109448
21
37.074261
31
0
39
0
210
0
220
0
230
1
0
LINE
5
11E
100
AcDbEntity
8
SK2
62
256
6
ByLayer
370
13
48
1
60
0
100
AcDbLine
10
-220.109454
20
38.775739
30
0
11
-220.109448
21
37.074261
31
0
39
0
210
0
220
0
230
1
0
LINE
5
11F
100
AcDbEntity
8
SK2
62
256
6
ByLayer
370
13
48
1
60
0
100
AcDbLine
10
28.065549
20
37.925
30
0
11
24.890552
21
37.074261
31
0
39
0
210
0
220
0
230
1
0
LINE
5
120
100
AcDbEntity
8
SK2
62
256
6
ByLayer
370
13
48
1
60
0
100
AcDbLine
10
28.065549
20
37.925
30
0
11
24.890546
21
38.775739
31
0
39
0
210
0
220
0
230
1
0
LINE
5
121
100
AcDbEntity
8
SK2
62
256
6
ByLayer
370
13
48
1
60
0
100
AcDbLine
10
24.890552
20
37.074261
30
0
11
24.890546
21
38.775739
31
0
39
0
210
0
220
0
230
1
0
ENDBLK
5
123
100
AcDbEntity
8
0
100
AcDbBlockEnd
0
BLOCK
5
130
100
AcDbEntity
8
0
100
AcDbBlockBegin
2
DimnDraft3D4
70
0
10
0
20
0
30
0
3
DimnDraft3D4
0
MTEXT
5
126
100
AcDbEntity
8
2
62
256
6
ByLayer
370
13
48
1
60
0
100
AcDbMText
10
51.726976
20
14.160246
30
0
210
0
220
0
230
1
1
\W0.8602;45%%d0'
40
4.5
41
0
44
1.084337
50
67.5000000000001
71
7
72
5
7
iso_b_vert
0
LINE
5
127
100
AcDbEntity
8
2
62
256
6
ByLayer
370
13
48
1
60
0
100
AcDbLine
10
42.274384
20
15.518713
30
0
11
50.723072
21
7.070026
31
0
39
0
210
0
220
0
230
1
0
LINE
5
128
100
AcDbEntity
8
2
62
256
6
ByLayer
370
13
48
1
60
0
100
AcDbLine
10
29.653049
20
30.425
30
0
11
60.397019
21
30.425
31
0
39
0
210
0
220
0
230
1
0
ARC
5
129
100
AcDbEntity
8
2
62
256
6
ByLayer
370
13
48
1
60
0
100
AcDbCircle
39
0
10
27.368097
20
30.425
30
0
40
29.853921645475
210
0
220
0
230
1
100
AcDbArc
50
294.351839
51
20.648161
0
LINE
5
12A
100
AcDbEntity
8
2
62
256
6
ByLayer
370
13
48
1
60
0
100
AcDbLine
10
48.478008
20
9.31509
30
0
11
46.759483
21
6.51312
31
0
39
0
210
0
220
0
230
1
0
LINE
5
12B
100
AcDbEntity
8
2
62
256
6
ByLayer
370
13
48
1
60
0
100
AcDbLine
10
48.478008
20
9.31509
30
0
11
45.588732
21
7.747772
31
0
39
0
210
0
220
0
230
1
0
LINE
5
12C
100
AcDbEntity
8
2
62
256
6
ByLayer
370
13
48
1
60
0
100
AcDbLine
10
46.759483
20
6.51312
30
0
11
45.588732
21
7.747772
31
0
39
0
210
0
220
0
230
1
0
LINE
5
12D
100
AcDbEntity
8
2
62
256
6
ByLayer
370
13
48
1
60
0
100
AcDbLine
10
57.222019
20
30.425
30
0
11
56.287253
21
33.576282
31
0
39
0
210
0
220
0
230
1
0
LINE
5
12E
100
AcDbEntity
8
2
62
256
6
ByLayer
370
13
48
1
60
0
100
AcDbLine
10
57.222019
20
30.425
30
0
11
57.98813
21
33.621478
31
0
39
0
210
0
220
0
230
1
0
LINE
5
12F
100
AcDbEntity
8
2
62
256
6
ByLayer
370
13
48
1
60
0
100
AcDbLine
10
56.287253
20
33.576282
30
0
11
57.98813
21
33.621478
31
0
39
0
210
0
220
0
230
1
0
ENDBLK
5
131
100
AcDbEntity
8
0
100
AcDbBlockEnd
0
ENDSEC
0
SECTION
2
ENTITIES
0
ARC
5
AB
100
AcDbEntity
8
1
62
256
6
ByLayer
370
18
48
1
60
0
100
AcDbCircle
39
0
10
0
20
21.525
30
0
40
1.60000000000038
210
0
220
0
230
-1
100
AcDbArc
50
195
51
270
0
ELLIPSE
5
AC
100
AcDbEntity
8
1
62
256
6
ByLayer
370
18
48
1
60
0
100
AcDbEllipse
10
17.693657
20
20.959864
30
0
11
0.10606632816005
21
-0.106067725829193
31
0
210
0
220
0
230
-1
40
0.127648
41
1.93096823223942
42
-3.13000874050661
0
ELLIPSE
5
AD
100
AcDbEntity
8
1
62
256
6
ByLayer
370
18
48
1
60
0
100
AcDbEllipse
10
15.754198
20
19.342655
30
0
11
1.70523466737816
21
-1.70523466737815
31
0
210
0
220
0
230
1
40
0.990268
41
-2.9693743490171
42
-1.57079632679491
0
ELLIPSE
5
AE
100
AcDbEntity
8
1
62
256
6
ByLayer
370
18
48
1
60
0
100
AcDbEllipse
10
21.737507
20
14.813622
30
0
11
-2.54558441227159
21
2.54558441227156
31
0
210
0
220
0
230
1
40
0.990268
41
1.28110933279769
42
1.57079632679489
0
ELLIPSE
5
AF
100
AcDbEntity
8
1
62
256
6
ByLayer
370
18
48
1
60
0
100
AcDbEllipse
10
10.313688
20
10.196996
30
0
11
3.18198051533947
21
-3.18198051533946
31
0
210
0
220
0
230
1
40
0.990268
41
0
42
6.28318530717959
0
ELLIPSE
5
B0
100
AcDbEntity
8
1
62
256
6
ByLayer
370
18
48
1
60
0
100
AcDbEllipse
10
15.241677
20
19.112976
30
0
11
1.89726938826313
21
-1.89726938826312
31
0
210
0
220
0
230
1
40
0.990268
41
1.5707963267949
42
2.77918032922958
0
ELLIPSE
5
B1
100
AcDbEntity
8
1
62
256
6
ByLayer
370
18
48
1
60
0
100
AcDbEllipse
10
16.269892
20
20.141191
30
0
11
1.81129755765962
21
-1.81129755765961
31
0
210
0
220
0
230
1
40
0.990268
41
1.5707963267949
42
-2.58571869189575
0
ELLIPSE
5
B2
100
AcDbEntity
8
1
62
256
6
ByLayer
370
18
48
1
60
0
100
AcDbEllipse
10
24.243001
20
12.308128
30
0
11
-2.54558441227159
21
2.54558441227155
31
0
210
0
220
0
230
1
40
0.990268
41
1.5707963267949
42
1.86048332079201
0
ELLIPSE
5
B3
100
AcDbEntity
8
1
62
256
6
ByLayer
370
18
48
1
60
0
100
AcDbEllipse
10
0
20
-19.931981
30
0
11
1.5999999999986
21
1.61702248813037E-15
31
0
210
0
220
0
230
-1
40
0.004363
41
-1.5707963267949
42
-0.261799387798099
0
ELLIPSE
5
B4
100
AcDbEntity
8
1
62
256
6
ByLayer
370
18
48
1
60
0
100
AcDbEllipse
10
15.226744
20
19.098043
30
0
11
-1.79121055162358
21
1.79121055162356
31
0
210
0
220
0
230
1
40
0.990268
41
-1.57079632679489
42
-0.278423802909579
0
ELLIPSE
5
B5
100
AcDbEntity
8
1
62
256
6
ByLayer
370
18
48
1
60
0
100
AcDbEllipse
10
26.636292
20
17.424742
30
0
11
-2.82842712474621
21
2.82842712474617
31
0
210
0
220
0
230
1
40
0.990268
41
2.61089068787014
42
3.14156524526637
0
ELLIPSE
5
B6
100
AcDbEntity
8
1
62
256
6
ByLayer
370
18
48
1
60
0
100
AcDbEllipse
10
27.186925
20
16.139645
30
0
11
2.8284271247462
21
-2.82842712474618
31
0
210
0
220
0
230
1
40
0.990268
41
3.14158763703675
42
-2.88857766661205
0
ELLIPSE
5
B7
100
AcDbEntity
8
1
62
256
6
ByLayer
370
18
48
1
60
0
100
AcDbEllipse
10
27.05393
20
16.739094
30
0
11
-2.65165042944957
21
2.65165042944953
31
0
210
0
220
0
230
1
40
0.990268
41
1.6388964935227E-05
42
0.22729974486961
0
ELLIPSE
5
B8
100
AcDbEntity
8
1
62
256
6
ByLayer
370
18
48
1
60
0
100
AcDbEllipse
10
25.701163
20
15.571747
30
0
11
3.00520382004283
21
-3.00520382004281
31
0
210
0
220
0
230
1
40
0.990268
41
0.44020475166071
42
0.479032883564854
0
ELLIPSE
5
B9
100
AcDbEntity
8
1
62
256
6
ByLayer
370
18
48
1
60
0
100
AcDbEllipse
10
27.072784
20
5.156783
30
0
11
0.841899011350235
21
-0.841899011350231
31
0
210
0
220
0
230
1
40
0.990268
41
-1.25423185383063
42
0
0
ELLIPSE
5
BA
100
AcDbEntity
8
1
62
256
6
ByLayer
370
18
48
1
60
0
100
AcDbEllipse
10
15.286198
20
16.943369
30
0
11
0.841899011350235
21
-0.841899011350231
31
0
210
0
220
0
230
1
40
0.990268
41
3.14159265358979
42
-2.83074710709153
0
ELLIPSE
5
BB
100
AcDbEntity
8
1
62
256
6
ByLayer
370
18
48
1
60
0
100
AcDbEllipse
10
27.015431
20
16.886016
30
0
11
-2.80191062045171
21
2.80191062045167
31
0
210
0
220
0
230
1
40
0.990268
41
-3.02871058856017
42
-2.43210257605001
0
ELLIPSE
5
BC
100
AcDbEntity
8
1
62
256
6
ByLayer
370
18
48
1
60
0
100
AcDbEllipse
10
27.015431
20
16.886016
30
0
11
-2.80191062045171
21
2.80191062045167
31
0
210
0
220
0
230
1
40
0.990268
41
-1.03291586137968
42
-0.112920116696644
0
ELLIPSE
5
BD
100
AcDbEntity
8
1
62
256
6
ByLayer
370
18
48
1
60
0
100
AcDbEllipse
10
9.724137
20
9.607445
30
0
11
1.46371103705616
21
-1.46371103705615
31
0
210
0
220
0
230
1
40
0.990268
41
0.19417044426894
42
0.790287775403193
0
ELLIPSE
5
BE
100
AcDbEntity
8
1
62
256
6
ByLayer
370
18
48
1
60
0
100
AcDbEllipse
10
9.724137
20
9.607445
30
0
11
1.46371103705616
21
-1.46371103705615
31
0
210
0
220
0
230
1
40
0.990268
41
0.790287775403192
42
3.07049496421609
0
ELLIPSE
5
BF
100
AcDbEntity
8
1
62
256
6
ByLayer
370
18
48
1
60
0
100
AcDbEllipse
10
9.842229
20
9.725537
30
0
11
-1.46371103705616
21
1.46371103705614
31
0
210
0
220
0
230
1
40
0.990268
41
-0.162631156258812
42
2.36914914127249E-06
0
ELLIPSE
5
C0
100
AcDbEntity
8
1
62
256
6
ByLayer
370
18
48
1
60
0
100
AcDbEllipse
10
9.842229
20
9.725537
30
0
11
-1.46371103705616
21
1.46371103705614
31
0
210
0
220
0
230
1
40
0.990268
41
-2.97673742684858
42
-2.69970881701189
0
ELLIPSE
5
C1
100
AcDbEntity
8
1
62
256
6
ByLayer
370
18
48
1
60
0
100
AcDbEllipse
10
25.927998
20
15.798583
30
0
11
-2.94156420973606
21
2.94156420973602
31
0
210
0
220
0
230
1
40
0.990268
41
-2.75955845701014
42
-2.68858074371968
0
ELLIPSE
5
C2
100
AcDbEntity
8
1
62
256
6
ByLayer
370
18
48
1
60
0
100
AcDbEllipse
10
27.50207
20
17.372655
30
0
11
2.65165042944956
21
-2.65165042944955
31
0
210
0
220
0
230
1
40
0.990268
41
-2.23410147359985
42
-1.67543605086745
0
ELLIPSE
5
C3
100
AcDbEntity
8
1
62
256
6
ByLayer
370
18
48
1
60
0
100
AcDbEllipse
10
27.275959
20
18.064409
30
0
11
-2.47487373415293
21
2.47487373415289
31
0
210
0
220
0
230
1
40
0.990268
41
1.64731460100297
42
-2.41525947188053
0
ELLIPSE
5
C4
100
AcDbEntity
8
1
62
256
6
ByLayer
370
18
48
1
60
0
100
AcDbEllipse
10
27.826591
20
16.779311
30
0
11
-2.47487373415293
21
2.4748737341529
31
0
210
0
220
0
230
1
40
0.990268
41
-1.49427805258675
42
0.72633318170931
0
ELLIPSE
5
C5
100
AcDbEntity
8
1
62
256
6
ByLayer
370
18
48
1
60
0
100
AcDbEllipse
10
27.777386
20
16.730106
30
0
11
2.8284271247462
21
-2.82842712474618
31
0
210
0
220
0
230
1
40
0.990268
41
1.63517715146314
42
-2.4031220223406
0
ELLIPSE
5
C6
100
AcDbEntity
8
1
62
256
6
ByLayer
370
18
48
1
60
0
100
AcDbEllipse
10
27.50207
20
17.372655
30
0
11
2.65165042944955
21
-2.65165042944954
31
0
210
0
220
0
230
1
40
0.990268
41
0.9074911799899
42
1.46615660272239
0
ELLIPSE
5
C7
100
AcDbEntity
8
1
62
256
6
ByLayer
370
18
48
1
60
0
100
AcDbEllipse
10
27.551275
20
17.42186
30
0
11
-2.29809703885629
21
2.29809703885626
31
0
210
0
220
0
230
1
40
0.990268
41
-2.22109275445933
42
-1.68844477000796
0
ELLIPSE
5
C8
100
AcDbEntity
8
1
62
256
6
ByLayer
370
18
48
1
60
0
100
AcDbEllipse
10
27.551275
20
17.42186
30
0
11
-2.29809703885629
21
2.29809703885626
31
0
210
0
220
0
230
1
40
0.990268
41
0.920499899130516
42
1.45314788358177
0
ELLIPSE
5
C9
100
AcDbEntity
8
1
62
256
6
ByLayer
370
18
48
1
60
0
100
AcDbEllipse
10
27.226754
20
18.015204
30
0
11
2.8284271247462
21
-2.82842712474618
31
0
210
0
220
0
230
1
40
0.990268
41
-1.50641550212669
42
0.738470631249145
0
ELLIPSE
5
CA
100
AcDbEntity
8
1
62
256
6
ByLayer
370
18
48
1
60
0
100
AcDbEllipse
10
10.283599
20
10.166907
30
0
11
-1.46371103705616
21
1.46371103705614
31
0
210
0
220
0
230
1
40
0.990268
41
1.48908138777448
42
1.93176394613439
0
ELLIPSE
5
CB
100
AcDbEntity
8
1
62
256
6
ByLayer
370
18
48
1
60
0
100
AcDbEllipse
10
10.304757
20
10.188065
30
0
11
1.72703118440535
21
-1.72703118440534
31
0
210
0
220
0
230
1
40
0.990268
41
0
42
6.28318530717959
0
ELLIPSE
5
CC
100
AcDbEntity
8
1
62
256
6
ByLayer
370
18
48
1
60
0
100
AcDbEllipse
10
10.283599
20
10.166907
30
0
11
-1.46371103705616
21
1.46371103705614
31
0
210
0
220
0
230
1
40
0.990268
41
2.5362789389711
42
2.978961497331
0
ELLIPSE
5
CD
100
AcDbEntity
8
1
62
256
6
ByLayer
370
18
48
1
60
0
100
AcDbEllipse
10
10.283599
20
10.166907
30
0
11
-1.46371103705616
21
1.46371103705614
31
0
210
0
220
0
230
1
40
0.990268
41
-0.605313714618734
42
-0.162631156258802
0
ELLIPSE
5
CE
100
AcDbEntity
8
1
62
256
6
ByLayer
370
18
48
1
60
0
100
AcDbEllipse
10
9.842229
20
9.725537
30
0
11
-1.46371103705616
21
1.46371103705614
31
0
210
0
220
0
230
1
40
0.990268
41
-1.2098287074554
42
-0.605313714618736
0
ELLIPSE
5
CF
100
AcDbEntity
8
1
62
256
6
ByLayer
370
18
48
1
60
0
100
AcDbEllipse
10
9.842229
20
9.725537
30
0
11
-1.46371103705616
21
1.46371103705614
31
0
210
0
220
0
230
1
40
0.990268
41
-2.257026258652
42
-1.65251126581531
0
ELLIPSE
5
D0
100
AcDbEntity
8
1
62
256
6
ByLayer
370
18
48
1
60
0
100
AcDbEllipse
10
10.283599
20
10.166907
30
0
11
-1.46371103705616
21
1.46371103705614
31
0
210
0
220
0
230
1
40
0.990268
41
-1.6525112658153
42
-1.2098287074554
0
ELLIPSE
5
D1
100
AcDbEntity
8
1
62
256
6
ByLayer
370
18
48
1
60
0
100
AcDbEllipse
10
10.304757
20
10.188065
30
0
11
2.99459721832504
21
-2.99459721832502
31
0
210
0
220
0
230
1
40
0.990268
41
0
42
6.28318530717959
0
ELLIPSE
5
D2
100
AcDbEntity
8
1
62
256
6
ByLayer
370
18
48
1
60
0
100
AcDbEllipse
10
10.283599
20
10.166907
30
0
11
-1.46371103705616
21
1.46371103705614
31
0
210
0
220
0
230
1
40
0.990268
41
0.441883836577889
42
0.884566394937801
0
ELLIPSE
5
D3
100
AcDbEntity
8
1
62
256
6
ByLayer
370
18
48
1
60
0
100
AcDbEllipse
10
10.283599
20
10.166907
30
0
11
-1.46371103705616
21
1.46371103705614
31
0
210
0
220
0
230
1
40
0.990268
41
-2.69970881701188
42
-2.25702625865201
0
ELLIPSE
5
D4
100
AcDbEntity
8
1
62
256
6
ByLayer
370
18
48
1
60
0
100
AcDbEllipse
10
27.640336
20
17.510921
30
0
11
-2.80191062045171
21
2.80191062045167
31
0
210
0
220
0
230
1
40
0.990268
41
0
42
6.28318530717959
0
ELLIPSE
5
D5
100
AcDbEntity
8
1
62
256
6
ByLayer
370
18
48
1
60
0
100
AcDbEllipse
10
39.369569
20
17.453568
30
0
11
-0.841899011350239
21
0.841899011350227
31
0
210
0
220
0
230
1
40
0.990268
41
3.14159265358975
42
-1.57079632679487
0
ELLIPSE
5
D6
100
AcDbEntity
8
1
62
256
6
ByLayer
370
18
48
1
60
0
100
AcDbEllipse
10
27.582983
20
29.240154
30
0
11
-0.841899011350239
21
0.841899011350227
31
0
210
0
220
0
230
1
40
0.990268
41
-1.57079632679492
42
0
0
ELLIPSE
5
D7
100
AcDbEntity
8
1
62
256
6
ByLayer
370
18
48
1
60
0
100
AcDbEllipse
10
15.911103
20
17.568274
30
0
11
-0.841899011350239
21
0.841899011350227
31
0
210
0
220
0
230
1
40
0.990268
41
0
42
1.5707963267949
0
ELLIPSE
5
D8
100
AcDbEntity
8
1
62
256
6
ByLayer
370
18
48
1
60
0
100
AcDbEllipse
10
27.69769
20
5.781688
30
0
11
-0.841899011350239
21
0.841899011350227
31
0
210
0
220
0
230
1
40
0.990268
41
1.5707963267949
42
3.14159265358977
0
POINT
5
6C
100
AcDbEntity
8
80
62
256
6
ByLayer
370
18
48
1
60
0
100
AcDbPoint
10
0
20
0
30
0
39
0
210
0
220
0
230
1
50
360
0
POINT
5
6E
100
AcDbEntity
8
81
62
256
6
ByLayer
370
18
48
1
60
0
100
AcDbPoint
10
26.715549
20
30.075
30
0
39
0
210
0
220
0
230
1
50
360
0
POINT
5
70
100
AcDbEntity
8
1
62
256
6
ByLayer
370
18
48
1
60
0
100
AcDbPoint
10
-223.284451
20
-19.925
30
0
39
0
210
0
220
0
230
1
50
360
0
SPLINE
5
D9
100
AcDbEntity
8
1
62
256
6
ByLayer
370
18
48
1
60
0
100
AcDbSpline
70
4
71
3
72
10
73
6
40
0
40
0
40
0
40
0
40
0.961885875373263
40
0.961885875373263
40
1
40
1
40
1
40
1
41
1
10
25.4739731832274
20
20.1636255265659
30
0
41
1
10
25.6696220154248
20
20.2353872222472
30
0
41
1
10
25.8700310161191
20
20.2905059800135
30
0
41
1
10
26.0832978152032
20
20.3307042625853
30
0
41
1
10
26.091433758225
20
20.3322104223536
30
0
41
1
10
26.0995771850699
20
20.333690567192
30
0
0
SPLINE
5
DA
100
AcDbEntity
8
1
62
256
6
ByLayer
370
18
48
1
60
0
100
AcDbSpline
70
4
71
3
72
14
73
10
40
0
40
0
40
0
40
0
40
0.339034490359822
40
0.339034490359822
40
0.509639268876255
40
0.509639268876255
40
0.680244047392689
40
0.680244047392689
40
1
40
1
40
1
40
1
41
1
10
29.4418211594071
20
14.0091074886849
30
0
41
1
10
29.5890361122355
20
14.1560489710976
30
0
41
1
10
29.723119969137
20
14.3141242688862
30
0
41
1
10
29.9053276810739
20
14.5682260503496
30
0
41
1
10
29.9630476100105
20
14.6560784139349
30
0
41
1
10
30.0718139424812
20
14.8374885553096
30
0
41
1
10
30.1223208133425
20
14.9301895917029
30
0
41
1
10
30.2556933464967
20
15.2000931354998
30
0
41
1
10
30.3287578701333
20
15.3810902613251
30
0
41
1
10
30.3885504611042
20
15.5666282726252
30
0
0
SPLINE
5
DB
100
AcDbEntity
8
1
62
256
6
ByLayer
370
18
48
1
60
0
100
AcDbSpline
70
4
71
3
72
16
73
12
40
0
40
0
40
0
40
0
40
0.0414964907670557
40
0.0414964907670557
40
0.233197192613644
40
0.233197192613644
40
0.424897894460233
40
0.424897894460233
40
0.616598596306822
40
0.616598596306822
40
1
40
1
40
1
40
1
41
1
10
23.9159585871486
20
18.7252927740512
30
0
41
1
10
23.9295298558142
20
18.7497298149109
30
0
41
1
10
23.9435103211072
20
18.7741442062133
30
0
41
1
10
24.0241130677237
20
18.9106325915168
30
0
41
1
10
24.0981858706688
20
19.020455140155
30
0
41
1
10
24.2612135088652
20
19.2331367783394
30
0
41
1
10
24.3501772125767
20
19.3360327175635
30
0
41
1
10
24.543075127202
20
19.5334850483188
30
0
41
1
10
24.647190604986
20
19.628024773544
30
0
41
1
10
24.9739364477451
20
19.890701823571
30
0
41
1
10
25.2133485411279
20
20.0409187684309
30
0
41
1
10
25.4739731832274
20
20.1636255265659
30
0
0
SPLINE
5
DC
100
AcDbEntity
8
1
62
256
6
ByLayer
370
18
48
1
60
0
100
AcDbSpline
70
4
71
3
72
18
73
14
40
0
40
0
40
0
40
0
40
0.138749750860457
40
0.138749750860457
40
0.425833167240305
40
0.425833167240305
40
0.569374875430229
40
0.569374875430229
40
0.712916583620153
40
0.712916583620153
40
0.856458291810076
40
0.856458291810076
40
1
40
1
40
1
40
1
41
1
10
23.7251297213347
20
17.8289921478154
30
0
41
1
10
23.7342310145994
20
17.8567403820435
30
0
41
1
10
23.7434525304733
20
17.8838439626425
30
0
41
1
10
23.7718838322613
20
17.9647738101248
30
0
41
1
10
23.7914171825951
20
18.0165958439129
30
0
41
1
10
23.8183998005132
20
18.0856804292805
30
0
41
1
10
23.8269608920609
20
18.1071741093929
30
0
41
1
10
23.8424608590161
20
18.146070704855
30
0
41
1
10
23.8493722906997
20
18.1634070498167
30
0
41
1
10
23.8600318247159
20
18.1913900336829
30
0
41
1
10
23.8638495731606
20
18.2022047608922
30
0
41
1
10
23.8667755646819
20
18.2149261213877
30
0
41
1
10
23.8657617841706
20
18.2164614869137
30
0
41
1
10
23.8619039638741
20
18.2126036666172
30
0
0
SPLINE
5
DD
100
AcDbEntity
8
1
62
256
6
ByLayer
370
18
48
1
60
0
100
AcDbSpline
70
4
71
3
72
8
73
4
40
0
40
0
40
0
40
0
40
1
40
1
40
1
40
1
41
1
10
25.2201847342906
20
20.0079046113414
30
0
41
1
10
24.9051000571147
20
19.8557010229552
30
0
41
1
10
24.5879730373065
20
19.7027833920669
30
0
41
1
10
24.2636354245624
20
19.5473447983685
30
0
0
SPLINE
5
DE
100
AcDbEntity
8
1
62
256
6
ByLayer
370
18
48
1
60
0
100
AcDbSpline
70
4
71
3
72
8
73
4
40
0
40
0
40
0
40
0
40
1
40
1
40
1
40
1
41
1
10
25.0215299624303
20
15.4316034483571
30
0
41
1
10
24.8855035980774
20
15.3004454139908
30
0
41
1
10
24.7495431881549
20
15.1692894148052
30
0
41
1
10
24.6136260558633
20
15.0381347842281
30
0
0
SPLINE
5
DF
100
AcDbEntity
8
1
62
256
6
ByLayer
370
18
48
1
60
0
100
AcDbSpline
70
4
71
3
72
8
73
4
40
0
40
0
40
0
40
0
40
1
40
1
40
1
40
1
41
1
10
23.800319253142
20
16.9362766727361
30
0
41
1
10
23.9830714042264
20
16.9581250603035
30
0
41
1
10
24.1658561835665
20
16.9799996705999
30
0
41
1
10
24.3486906558612
20
17.0019142680382
30
0
0
SPLINE
5
E0
100
AcDbEntity
8
1
62
256
6
ByLayer
370
18
48
1
60
0
100
AcDbSpline
70
4
71
3
72
8
73
4
40
0
40
0
40
0
40
0
40
1
40
1
40
1
40
1
41
1
10
30.7538595942345
20
17.8418058715952
30
0
41
1
10
30.9039007340925
20
17.8309271365967
30
0
41
1
10
31.0538807883546
20
17.8199970218151
30
0
41
1
10
31.2038207535061
20
17.8090332234496
30
0
0
SPLINE
5
E1
100
AcDbEntity
8
1
62
256
6
ByLayer
370
18
48
1
60
0
100
AcDbSpline
70
4
71
3
72
8
73
4
40
0
40
0
40
0
40
0
40
1
40
1
40
1
40
1
41
1
10
30.3905139507847
20
19.7071751119579
30
0
41
1
10
30.287409004426
20
19.6088326673137
30
0
41
1
10
30.1842533195814
20
19.510481393206
30
0
41
1
10
30.0810202876653
20
19.4121166912765
30
0
0
SPLINE
5
E2
100
AcDbEntity
8
1
62
256
6
ByLayer
370
18
48
1
60
0
100
AcDbSpline
70
4
71
3
72
10
73
6
40
0
40
0
40
0
40
0
40
0.5
40
0.5
40
1
40
1
40
1
40
1
41
1
10
12.1585993065784
20
8.77617221463257
30
0
41
1
10
12.0490200117142
20
8.72818464157081
30
0
41
1
10
11.9386744312291
20
8.68006861140412
30
0
41
1
10
11.7159574880949
20
8.58349695692334
30
0
41
1
10
11.6042414420934
20
8.53532921884519
30
0
41
1
10
11.493305162768
20
8.48781971948623
30
0
0
SPLINE
5
E3
100
AcDbEntity
8
1
62
256
6
ByLayer
370
18
48
1
60
0
100
AcDbSpline
70
4
71
3
72
10
73
6
40
0
40
0
40
0
40
0
40
0.5
40
0.5
40
1
40
1
40
1
40
1
41
1
10
10.6624676367296
20
8.13848764209399
30
0
41
1
10
10.5538783027148
20
8.09370102564955
30
0
41
1
10
10.4455531439188
20
8.04936281331166
30
0
41
1
10
10.233716250821
20
7.96321578569044
30
0
41
1
10
10.1296306750985
20
7.92116771154807
30
0
41
1
10
10.0269363476508
20
7.87989800167926
30
0
0
SPLINE
5
E4
100
AcDbEntity
8
1
62
256
6
ByLayer
370
18
48
1
60
0
100
AcDbSpline
70
4
71
3
72
10
73
6
40
0
40
0
40
0
40
0
40
0.5
40
0.5
40
1
40
1
40
1
40
1
41
1
10
9.07389262924488
20
11.845994765672
30
0
41
1
10
8.96530329523011
20
11.8012081492275
30
0
41
1
10
8.85697813643418
20
11.7568699368896
30
0
41
1
10
8.64514124333641
20
11.6707229092684
30
0
41
1
10
8.54105566761388
20
11.628674835126
30
0
41
1
10
8.43836134016618
20
11.5874051252572
30
0
0
SPLINE
5
E5
100
AcDbEntity
8
1
62
256
6
ByLayer
370
18
48
1
60
0
100
AcDbSpline
70
4
71
3
72
8
73
4
40
0
40
0
40
0
40
0
40
1
40
1
40
1
40
1
41
1
10
12.3324083934413
20
10.3608288832204
30
0
41
1
10
12.3637356355917
20
10.603728135379
30
0
41
1
10
12.3965036596964
20
10.8422266256921
30
0
41
1
10
12.4301432822999
20
11.0780628828982
30
0
0
SPLINE
5
E6
100
AcDbEntity
8
1
62
256
6
ByLayer
370
18
48
1
60
0
100
AcDbSpline
70
4
71
3
72
10
73
6
40
0
40
0
40
0
40
0
40
0.5
40
0.5
40
1
40
1
40
1
40
1
41
1
10
8.16681736444474
20
9.28551445699156
30
0
41
1
10
8.25664750730186
20
9.21180929675779
30
0
41
1
10
8.34818401331211
20
9.13738903185512
30
0
41
1
10
8.53264771982748
20
8.98915786370554
30
0
41
1
10
8.6256278722272
20
8.91530120576559
30
0
41
1
10
8.71949519203065
20
8.84175152509434
30
0
0
SPLINE
5
E7
100
AcDbEntity
8
1
62
256
6
ByLayer
370
18
48
1
60
0
100
AcDbSpline
70
4
71
3
72
10
73
6
40
0
40
0
40
0
40
0
40
0.5
40
0.5
40
1
40
1
40
1
40
1
41
1
10
10.5700242990938
20
12.4836793382105
30
0
41
1
10
10.4604450042295
20
12.4356917651488
30
0
41
1
10
10.3500994237444
20
12.3875757349821
30
0
41
1
10
10.1273824806103
20
12.2910040805013
30
0
41
1
10
10.0156664346088
20
12.2428363424231
30
0
41
1
10
9.9047301552834
20
12.1953268430642
30
0
0
SPLINE
5
E8
100
AcDbEntity
8
1
62
256
6
ByLayer
370
18
48
1
60
0
100
AcDbSpline
70
4
71
3
72
8
73
4
40
0
40
0
40
0
40
0
40
1
40
1
40
1
40
1
41
1
10
9.44449566533331
20
8.2938980788449
30
0
41
1
10
9.64136015716451
20
8.15045703890695
30
0
41
1
10
9.83509491571755
20
8.01328216673187
30
0
41
1
10
10.0269363476508
20
7.87989800167926
30
0
0
SPLINE
5
E9
100
AcDbEntity
8
1
62
256
6
ByLayer
370
18
48
1
60
0
100
AcDbSpline
70
4
71
3
72
8
73
4
40
0
40
0
40
0
40
0
40
1
40
1
40
1
40
1
41
1
10
11.1227021266797
20
12.0399164063132
30
0
41
1
10
10.9318997106115
20
12.1894195220143
30
0
41
1
10
10.7486711189904
20
12.3371005611213
30
0
41
1
10
10.5700242990938
20
12.4836793382105
30
0
0
SPLINE
5
EA
100
AcDbEntity
8
1
62
256
6
ByLayer
370
18
48
1
60
0
100
AcDbSpline
70
4
71
3
72
8
73
4
40
0
40
0
40
0
40
0
40
1
40
1
40
1
40
1
41
1
10
8.23478939857171
20
9.97298560193778
30
0
41
1
10
8.20952423218432
20
9.73614842554227
30
0
41
1
10
8.18726237501164
20
9.50815610216111
30
0
41
1
10
8.16681736444474
20
9.28551445699156
30
0
0
SPLINE
5
EB
100
AcDbEntity
8
1
62
256
6
ByLayer
370
18
48
1
60
0
100
AcDbSpline
70
4
71
3
72
10
73
6
40
0
40
0
40
0
40
0
40
0.5
40
0.5
40
1
40
1
40
1
40
1
41
1
10
12.1585993065784
20
8.77617221463257
30
0
41
1
10
12.1688798042721
20
8.88812456174458
30
0
41
1
10
12.1796887732365
20
9.00211083556778
30
0
41
1
10
12.2023173363482
20
9.231579772347
30
0
41
1
10
12.21414186784
20
9.34712873971088
30
0
41
1
10
12.2265713407054
20
9.46364335957878
30
0
0
SPLINE
5
EC
100
AcDbEntity
8
1
62
256
6
ByLayer
370
18
48
1
60
0
100
AcDbSpline
70
4
71
3
72
10
73
6
40
0
40
0
40
0
40
0
40
0.5
40
0.5
40
1
40
1
40
1
40
1
41
1
10
12.4301432822999
20
11.0780628828982
30
0
41
1
10
12.3336784068184
20
11.1451333105077
30
0
41
1
10
12.2361614234825
20
11.2135730980847
30
0
41
1
10
12.0416280779523
20
11.3517346272194
30
0
41
1
10
11.9445522237631
20
11.4214955833699
30
0
41
1
10
11.8477025999823
20
11.4920629600639
30
0
0
SPLINE
5
ED
100
AcDbEntity
8
1
62
256
6
ByLayer
370
18
48
1
60
0
100
AcDbSpline
70
4
71
3
72
10
73
6
40
0
40
0
40
0
40
0
40
0.5
40
0.5
40
1
40
1
40
1
40
1
41
1
10
8.43836134016618
20
11.5874051252572
30
0
41
1
10
8.42144610984815
20
11.4688180455209
30
0
41
1
10
8.40465666355817
20
11.3488512943721
30
0
41
1
10
8.37195846143158
20
11.109312718578
30
0
41
1
10
8.35603822815028
20
10.9896680494246
30
0
41
1
10
8.34062645130757
20
10.8701711255794
30
0
0
LINE
5
72
100
AcDbEntity
8
1
62
256
6
ByLayer
370
18
48
1
60
0
100
AcDbLine
10
29.464719
20
14.596315
30
0
11
30.055181
21
15.186777
31
0
39
0
210
0
220
0
230
1
0
LINE
5
73
100
AcDbEntity
8
1
62
256
6
ByLayer
370
18
48
1
60
0
100
AcDbLine
10
24.475259
20
19.463724
30
0
11
24.40228
21
19.390745
31
0
39
0
210
0
220
0
230
1
0
LINE
5
74
100
AcDbEntity
8
1
62
256
6
ByLayer
370
18
48
1
60
0
100
AcDbLine
10
29.395553
20
13.962837
30
0
11
29.444552
21
14.011836
31
0
39
0
210
0
220
0
230
1
0
LINE
5
75
100
AcDbEntity
8
1
62
256
6
ByLayer
370
18
48
1
60
0
100
AcDbLine
10
24.948959
20
19.558533
30
0
11
24.358498
21
18.968072
31
0
39
0
210
0
220
0
230
1
0
LINE
5
76
100
AcDbEntity
8
SK1
62
256
6
ByLayer
370
18
48
1
60
0
100
AcDbLine
10
-223.284451
20
-19.925
30
0
11
0
21
-19.925
31
0
39
0
210
0
220
0
230
1
0
LINE
5
78
100
AcDbEntity
8
SK1
62
256
6
ByLayer
370
18
48
1
60
0
100
AcDbLine
10
0
20
-19.925
30
0
11
0
21
19.925
31
0
39
0
210
0
220
0
230
1
0
LINE
5
79
100
AcDbEntity
8
SK1
62
256
6
ByLayer
370
18
48
1
60
0
100
AcDbLine
10
-223.284451
20
19.925
30
0
11
-223.284451
21
-19.925
31
0
39
0
210
0
220
0
230
1
0
LINE
5
7A
100
AcDbEntity
8
SK1
62
256
6
ByLayer
370
18
48
1
60
0
100
AcDbLine
10
-223.284451
20
19.925
30
0
11
0
21
19.925
31
0
39
0
210
0
220
0
230
1
0
LINE
5
7B
100
AcDbEntity
8
1
62
256
6
ByLayer
370
18
48
1
60
0
100
AcDbLine
10
3.120135
20
-19.32001
30
0
11
2.02504
21
22.900627
31
0
39
0
210
0
220
0
230
1
0
LINE
5
7C
100
AcDbEntity
8
1
62
256
6
ByLayer
370
18
48
1
60
0
100
AcDbLine
10
0
20
-19.925
30
0
11
0
21
19.925
31
0
39
0
210
0
220
0
230
1
0
LINE
5
7D
100
AcDbEntity
8
1
62
256
6
ByLayer
370
18
48
1
60
0
100
AcDbLine
10
17.000522
20
20.871821
30
0
11
17.120482
21
20.991781
31
0
39
0
210
0
220
0
230
1
0
LINE
5
7E
100
AcDbEntity
8
1
62
256
6
ByLayer
370
18
48
1
60
0
100
AcDbLine
10
26.894809
20
4.824765
30
0
11
27.079859
21
4.639715
31
0
39
0
210
0
220
0
230
1
0
LINE
5
7F
100
AcDbEntity
8
1
62
256
6
ByLayer
370
18
48
1
60
0
100
AcDbLine
10
1.545481
20
21.11089
30
0
11
2.02504
21
22.900627
31
0
39
0
210
0
220
0
230
1
0
LINE
5
80
100
AcDbEntity
8
1
62
256
6
ByLayer
370
18
48
1
60
0
100
AcDbLine
10
18.063562
20
21.934862
30
0
11
18.321066
21
21.677358
31
0
39
0
210
0
220
0
230
1
0
LINE
5
81
100
AcDbEntity
8
1
62
256
6
ByLayer
370
18
48
1
60
0
100
AcDbLine
10
20.06765
20
23.408618
30
0
11
18.321066
21
21.677358
31
0
39
0
210
0
220
0
230
1
0
LINE
5
82
100
AcDbEntity
8
1
62
256
6
ByLayer
370
18
48
1
60
0
100
AcDbLine
10
3.120135
20
-19.32001
30
0
11
2.494515
21
-19.945629
31
0
39
0
210
0
220
0
230
1
0
LINE
5
83
100
AcDbEntity
8
1
62
256
6
ByLayer
370
18
48
1
60
0
100
AcDbLine
10
27.079859
20
4.639715
30
0
11
3.120135
21
-19.32001
31
0
39
0
210
0
220
0
230
1
0
LINE
5
84
100
AcDbEntity
8
1
62
256
6
ByLayer
370
18
48
1
60
0
100
AcDbLine
10
23.318869
20
28.522815
30
0
11
25.181844
21
28.522815
31
0
39
0
210
0
220
0
230
1
0
LINE
5
85
100
AcDbEntity
8
1
62
256
6
ByLayer
370
18
48
1
60
0
100
AcDbLine
10
18.321066
20
21.677358
30
0
11
17.587754
21
21.066081
31
0
39
0
210
0
220
0
230
1
0
LINE
5
86
100
AcDbEntity
8
1
62
256
6
ByLayer
370
18
48
1
60
0
100
AcDbLine
10
1.545481
20
-19.930174
30
0
11
2.494515
21
-19.945629
31
0
39
0
210
0
220
0
230
1
0
LINE
5
87
100
AcDbEntity
8
1
62
256
6
ByLayer
370
18
48
1
60
0
100
AcDbLine
10
17.120482
20
20.991781
30
0
11
17.385648
21
20.726616
31
0
39
0
210
0
220
0
230
1
0
LINE
5
88
100
AcDbEntity
8
1
62
256
6
ByLayer
370
18
48
1
60
0
100
AcDbLine
10
17.265693
20
20.606651
30
0
11
17.000522
21
20.871821
31
0
39
0
210
0
220
0
230
1
0
LINE
5
89
100
AcDbEntity
8
1
62
256
6
ByLayer
370
18
48
1
60
0
100
AcDbLine
10
14.065559
20
17.654015
30
0
11
14.954167
21
16.765408
31
0
39
0
210
0
220
0
230
1
0
LINE
5
8A
100
AcDbEntity
8
1
62
256
6
ByLayer
370
18
48
1
60
0
100
AcDbLine
10
24.250348
20
27.591326
30
0
11
23.318858
21
28.522815
31
0
39
0
210
0
220
0
230
1
0
LINE
5
8B
100
AcDbEntity
8
1
62
256
6
ByLayer
370
18
48
1
60
0
100
AcDbLine
10
23.318858
20
28.522815
30
0
11
3.531501
21
28.522815
31
0
39
0
210
0
220
0
230
1
0
LINE
5
8C
100
AcDbEntity
8
1
62
256
6
ByLayer
370
18
48
1
60
0
100
AcDbLine
10
3.531501
20
28.522815
30
0
11
2.02504
21
22.900627
31
0
39
0
210
0
220
0
230
1
0
LINE
5
8D
100
AcDbEntity
8
1
62
256
6
ByLayer
370
18
48
1
60
0
100
AcDbLine
10
19.216696
20
12.292811
30
0
11
21.72219
21
9.787317
31
0
39
0
210
0
220
0
230
1
0
LINE
5
8E
100
AcDbEntity
8
1
62
256
6
ByLayer
370
18
48
1
60
0
100
AcDbLine
10
17.120482
20
20.991781
30
0
11
18.063562
21
21.934862
31
0
39
0
210
0
220
0
230
1
0
LINE
5
8F
100
AcDbEntity
8
1
62
256
6
ByLayer
370
18
48
1
60
0
100
AcDbLine
10
1.545481
20
21.11089
30
0
11
1.545481
21
-19.930174
31
0
39
0
210
0
220
0
230
1
0
LINE
5
90
100
AcDbEntity
8
1
62
256
6
ByLayer
370
18
48
1
60
0
100
AcDbLine
10
24.60232
20
15.026828
30
0
11
24.613626
21
15.038135
31
0
39
0
210
0
220
0
230
1
0
LINE
5
91
100
AcDbEntity
8
1
62
256
6
ByLayer
370
18
48
1
60
0
100
AcDbLine
10
23.733553
20
18.084253
30
0
11
23.861904
21
18.212604
31
0
39
0
210
0
220
0
230
1
0
LINE
5
92
100
AcDbEntity
8
1
62
256
6
ByLayer
370
18
48
1
60
0
100
AcDbLine
10
23.800319
20
16.936277
30
0
11
23.752741
21
16.888698
31
0
39
0
210
0
220
0
230
1
0
LINE
5
93
100
AcDbEntity
8
1
62
256
6
ByLayer
370
18
48
1
60
0
100
AcDbLine
10
15.077398
20
16.734569
30
0
11
15.027698
21
16.684869
31
0
39
0
210
0
220
0
230
1
0
LINE
5
94
100
AcDbEntity
8
1
62
256
6
ByLayer
370
18
48
1
60
0
100
AcDbLine
10
26.814284
20
4.898283
30
0
11
26.863984
21
4.947983
31
0
39
0
210
0
220
0
230
1
0
LINE
5
95
100
AcDbEntity
8
1
62
256
6
ByLayer
370
18
48
1
60
0
100
AcDbLine
10
8.399187
20
11.306517
30
0
11
8.632523
21
11.404625
31
0
39
0
210
0
220
0
230
1
0
LINE
5
96
100
AcDbEntity
8
1
62
256
6
ByLayer
370
18
48
1
60
0
100
AcDbLine
10
11.785201
20
9.022273
30
0
11
11.734402
21
8.591643
31
0
39
0
210
0
220
0
230
1
0
LINE
5
97
100
AcDbEntity
8
80
62
256
6
ByLayer
370
18
48
1
60
0
100
AcDbLine
10
0
20
0
30
0
11
-5
21
0
31
0
39
0
210
0
220
0
230
1
0
LINE
5
98
100
AcDbEntity
8
81
62
256
6
ByLayer
370
18
48
1
60
0
100
AcDbLine
10
26.715549
20
30.075
30
0
11
36.715549
21
30.075
31
0
39
0
210
0
220
0
230
1
0
LINE
5
99
100
AcDbEntity
8
1
62
256
6
ByLayer
370
18
48
1
60
0
100
AcDbLine
10
11.406333
20
11.050693
30
0
11
11.973892
21
10.621812
31
0
39
0
210
0
220
0
230
1
0
LINE
5
9A
100
AcDbEntity
8
1
62
256
6
ByLayer
370
18
48
1
60
0
100
AcDbLine
10
11.785201
20
9.022273
30
0
11
12.226571
21
9.463643
31
0
39
0
210
0
220
0
230
1
0
LINE
5
9B
100
AcDbEntity
8
1
62
256
6
ByLayer
370
18
48
1
60
0
100
AcDbLine
10
9.073893
20
11.845995
30
0
11
8.632523
21
11.404625
31
0
39
0
210
0
220
0
230
1
0
LINE
5
9C
100
AcDbEntity
8
1
62
256
6
ByLayer
370
18
48
1
60
0
100
AcDbLine
10
11.406333
20
11.050693
30
0
11
11.847703
21
11.492063
31
0
39
0
210
0
220
0
230
1
0
LINE
5
9D
100
AcDbEntity
8
1
62
256
6
ByLayer
370
18
48
1
60
0
100
AcDbLine
10
9.46336
20
11.753957
30
0
11
10.113773
21
12.027428
31
0
39
0
210
0
220
0
230
1
0
LINE
5
9E
100
AcDbEntity
8
1
62
256
6
ByLayer
370
18
48
1
60
0
100
AcDbLine
10
11.122702
20
12.039916
30
0
11
10.681332
21
11.598546
31
0
39
0
210
0
220
0
230
1
0
LINE
5
9F
100
AcDbEntity
8
1
62
256
6
ByLayer
370
18
48
1
60
0
100
AcDbLine
10
12.332408
20
10.360829
30
0
11
11.891038
21
9.919459
31
0
39
0
210
0
220
0
230
1
0
LINE
5
A0
100
AcDbEntity
8
1
62
256
6
ByLayer
370
18
48
1
60
0
100
AcDbLine
10
12.430143
20
11.078063
30
0
11
11.973892
21
10.621812
31
0
39
0
210
0
220
0
230
1
0
LINE
5
A1
100
AcDbEntity
8
1
62
256
6
ByLayer
370
18
48
1
60
0
100
AcDbLine
10
10.113773
20
12.027428
30
0
11
10.681332
21
11.598546
31
0
39
0
210
0
220
0
230
1
0
LINE
5
A2
100
AcDbEntity
8
1
62
256
6
ByLayer
370
18
48
1
60
0
100
AcDbLine
10
11.973892
20
10.621812
30
0
11
11.891038
21
9.919459
31
0
39
0
210
0
220
0
230
1
0
LINE
5
A3
100
AcDbEntity
8
1
62
256
6
ByLayer
370
18
48
1
60
0
100
AcDbLine
10
9.46336
20
11.753957
30
0
11
9.90473
21
12.195327
31
0
39
0
210
0
220
0
230
1
0
LINE
5
A4
100
AcDbEntity
8
1
62
256
6
ByLayer
370
18
48
1
60
0
100
AcDbLine
10
10.570024
20
12.483679
30
0
11
10.113773
21
12.027428
31
0
39
0
210
0
220
0
230
1
0
LINE
5
A5
100
AcDbEntity
8
1
62
256
6
ByLayer
370
18
48
1
60
0
100
AcDbLine
10
28.416689
20
30.07386
30
0
11
40.203275
21
18.287274
31
0
39
0
210
0
220
0
230
1
0
LINE
5
A6
100
AcDbEntity
8
1
62
256
6
ByLayer
370
18
48
1
60
0
100
AcDbLine
10
26.863984
20
4.947983
30
0
11
15.077398
21
16.734569
31
0
39
0
210
0
220
0
230
1
0
LINE
5
A7
100
AcDbEntity
8
1
62
256
6
ByLayer
370
18
48
1
60
0
100
AcDbLine
10
15.069204
20
18.410173
30
0
11
26.741084
21
30.082053
31
0
39
0
210
0
220
0
230
1
0
LINE
5
A8
100
AcDbEntity
8
1
62
256
6
ByLayer
370
18
48
1
60
0
100
AcDbLine
10
28.539589
20
4.939789
30
0
11
27.914683
21
4.314884
31
0
39
0
210
0
220
0
230
1
0
LINE
5
A9
100
AcDbEntity
8
1
62
256
6
ByLayer
370
18
48
1
60
0
100
AcDbLine
10
40.211468
20
16.611669
30
0
11
28.539589
21
4.939789
31
0
39
0
210
0
220
0
230
1
0
LINE
5
AA
100
AcDbEntity
8
1
62
256
6
ByLayer
370
18
48
1
60
0
100
AcDbLine
10
14.444299
20
17.785268
30
0
11
15.069204
21
18.410173
31
0
39
0
210
0
220
0
230
1
0
MTEXT
5
EE
100
AcDbEntity
8
SK6
62
256
6
ByLayer
370
13
48
1
60
0
100
AcDbMText
10
-178.570917
20
-44.986925
30
0
210
0
220
0
230
1
1
\W0.7784;PSSNR 4040S 19
40
3.5
41
0
44
1.084337
50
0
71
7
72
5
7
iso_b_vert
0
DIMENSION
5
100
100
AcDbEntity
8
SK2
62
256
6
ByLayer
370
13
48
1
60
0
100
AcDbDimension
2
DimnDraft3D1
10
-233.034451
20
-19.925
30
0
11
-233.034451
21
0.075
31
0
70
32
71
5
72
1
41
1
210
0
220
0
230
1
3
Standard
100
AcDbAlignedDimension
13
-224.871951
23
20.075
33
0
14
-224.871951
24
-19.925
34
0
50
90
100
AcDbRotatedDimension
1001
ACAD
1000
DSTYLE
1002
{
1070
    74
1070
     0
1070
   279
1070
     0
1070
   172
1070
     1
1070
   173
1070
     1
1070
   340
1005
EF
1070
   271
1070
     1
1070
   272
1070
     2
1070
    77
1070
     1
1070
    73
1070
     0
1070
   171
1070
     3
1070
   274
1070
     4
1070
   177
1070
   150
1070
   176
1070
     9
1070
   178
1070
    43
1070
    78
1070
     8
1070
    48
1040
-0.005
1070
    41
1041
3.175
1070
   147
1041
2.25
1070
    42
1041
1.5875
1070
    44
1041
3.175
1070
   140
1041
4.5
1070
   343
1005
101
1070
   344
1005
101
1002
}
0
DIMENSION
5
116
100
AcDbEntity
8
2
62
256
6
ByLayer
370
13
48
1
60
0
100
AcDbDimension
2
DimnDraft3D2
10
72.651852
20
30.425
30
0
11
72.651852
21
5.25
31
0
70
32
71
5
72
1
41
1
210
0
220
0
230
1
3
Standard
100
AcDbAlignedDimension
13
1.5875
23
-19.925
33
0
14
29.653049
24
30.425
34
0
50
90
100
AcDbRotatedDimension
1001
ACAD
1000
DSTYLE
1002
{
1070
    74
1070
     0
1070
   279
1070
     0
1070
   172
1070
     1
1070
   173
1070
     1
1070
   340
1005
EF
1070
   271
1070
     1
1070
   272
1070
     2
1070
    77
1070
     1
1070
    73
1070
     0
1070
   171
1070
     3
1070
   274
1070
     4
1070
   177
1070
   150
1070
   176
1070
     9
1070
   178
1070
    43
1070
    78
1070
     8
1070
    48
1040
-0.005
1070
    41
1041
3.175
1070
   147
1041
2.25
1070
    42
1041
1.5875
1070
    44
1041
3.175
1070
   140
1041
4.5
1070
   343
1005
101
1070
   344
1005
101
1002
}
0
DIMENSION
5
124
100
AcDbEntity
8
SK2
62
256
6
ByLayer
370
13
48
1
60
0
100
AcDbDimension
2
DimnDraft3D3
10
28.065549
20
37.925
30
0
11
-97.609451
21
37.925
31
0
70
32
71
5
72
1
41
1
210
0
220
0
230
1
3
Standard
100
AcDbAlignedDimension
13
-223.284451
23
21.6625
33
0
14
28.065549
24
32.0125
34
0
50
0
100
AcDbRotatedDimension
1001
ACAD
1000
DSTYLE
1002
{
1070
   279
1070
     0
1070
   172
1070
     1
1070
   173
1070
     1
1070
   340
1005
EF
1070
   271
1070
     1
1070
   272
1070
     2
1070
    77
1070
     1
1070
    73
1070
     0
1070
   171
1070
     3
1070
   274
1070
     4
1070
   177
1070
   150
1070
   176
1070
     9
1070
   178
1070
    43
1070
    78
1070
     8
1070
    48
1040
-0.005
1070
    41
1041
3.175
1070
   147
1041
2.25
1070
    42
1041
1.5875
1070
    44
1041
3.175
1070
   140
1041
4.5
1070
   343
1005
101
1070
   344
1005
101
1002
}
0
DIMENSION
5
132
100
AcDbEntity
8
2
62
256
6
ByLayer
370
13
48
1
60
0
100
AcDbDimension
2
DimnDraft3D4
10
25.684299
20
30.425
30
0
11
50.792066
21
20.722474
31
0
70
34
71
5
72
1
41
1
210
0
220
0
230
1
3
Standard
100
AcDb2LineAngularDimension
13
27.716823
23
30.076274
33
0
14
41.151852
24
16.641245
34
0
15
28.065549
25
30.425
35
0
16
54.949524
26
19.000399
36
0
40
0
0
ENDSEC
0
SECTION
2
OBJECTS
0
DICTIONARY
5
19c
330
0
100
AcDbDictionary
280
0
281
1
3
ACAD_GROUP
350
19d
3
ACAD_MLINESTYLE
350
19e
0
DICTIONARY
5
19d
330
0
100
AcDbDictionary
280
0
281
1
0
DICTIONARY
5
19e
330
0
100
AcDbDictionary
280
0
281
1
3
Standard
350
18
0
MLINESTYLE
5
18
330
19e
100
AcDbMlineStyle
2
Standard
70
0
3

62
256
51
90
52
90
71
2
49
-0.5
62
256
6
ByLayer
49
0.5
62
256
6
ByLayer
0
RASTERVARIABLES
5
18b
330

100
AcDbRasterVariables
90
0
70
1
71
1
72
1
0
ENDSEC
0
EOF
