0
SECTION
2
HEADER
9
$ACADVER
1
AC1015
9
$DWGCODEPAGE
3
ANSI_1252
9
$HANDSEED
5
1a3
9
$ANGBASE
50
0
9
$ANGDIR
70
0
9
$ATTMODE
70
1
9
$AUNITS
70
0
9
$AUPREC
70
0
9
$CECOLOR
62
256
9
$CELTSCALE
40
1
9
$CELTYPE
6
ByLayer
9
$CELWEIGHT
370
18
9
$CLAYER
8
0
9
$CMLJUST
70
0
9
$CMLSCALE
40
1
9
$CMLSTYLE
2
Standard
9
$DIMSTYLE
2
Standard
9
$TEXTSIZE
40
0.2
9
$TEXTSTYLE
7
Standard
9
$LUNITS
70
2
9
$LUPREC
70
4
9
$EXTNAMES
290
1
9
$INSUNITS
70
4
9
$LTSCALE
40
1
9
$LWDISPLAY
290
1
9
$PDMODE
70
0
9
$PDSIZE
40
0
9
$PLINEGEN
70
0
0
ENDSEC
0
SECTION
2
CLASSES
0
CLASS
1
RASTERVARIABLES
2
AcDbRasterVariables
3
ISM
90
0
280
0
281
0
0
ENDSEC
0
SECTION
2
TABLES
0
TABLE
2
VPORT
5
199
100
AcDbSymbolTable
0
VPORT
5
1
100
AcDbSymbolTableRecord
100
AcDbViewportTableRecord
2
*Active
70
0
10
0
20
0
11
1
21
1
12
-1
22
1
13
0
23
0
14
0.5
24
0.5
15
10
25
10
16
0
26
0
36
1
17
0
27
0
37
0
0
ENDTAB
0
TABLE
2
LTYPE
5
19a
100
AcDbSymbolTable
0
LTYPE
5
14
100
AcDbSymbolTableRecord
100
AcDbLinetypeTableRecord
70
0
2
ByBlock
3

72
65
73
0
40
0
0
LTYPE
5
15
100
AcDbSymbolTableRecord
100
AcDbLinetypeTableRecord
70
0
2
ByLayer
3

72
65
73
0
40
0
0
LTYPE
5
16
100
AcDbSymbolTableRecord
100
AcDbLinetypeTableRecord
70
0
2
CONTINUOUS
3
Solid line
72
65
73
0
40
0
0
LTYPE
5
6A
100
AcDbSymbolTableRecord
100
AcDbLinetypeTableRecord
70
0
2
CENTER
3
____ _ ____ _ ____ _ ____
72
65
73
4
40
47.5
49
22
74
0
49
-8.5
74
0
49
8.5
74
0
49
-8.5
74
0
0
LTYPE
5
6B
100
AcDbSymbolTableRecord
100
AcDbLinetypeTableRecord
70
0
2
DASHED
3
__ __ __ __ __ __ __ __ __
72
65
73
2
40
25.72
49
12.86
74
0
49
-12.86
74
0
0
ENDTAB
0
TABLE
2
LAYER
5
19b
100
AcDbSymbolTable
0
LAYER
5
10
100
AcDbSymbolTableRecord
100
AcDbLayerTableRecord
2
0
70
0
62
7
6
CONTINUOUS
290
1
370
-3
390
0
0
LAYER
5
6D
100
AcDbSymbolTableRecord
100
AcDbLayerTableRecord
2
80
70
0
62
-6
6
CONTINUOUS
290
1
370
-3
390
0
0
LAYER
5
6F
100
AcDbSymbolTableRecord
100
AcDbLayerTableRecord
2
81
70
0
62
-3
6
CONTINUOUS
290
1
370
-3
390
0
0
LAYER
5
71
100
AcDbSymbolTableRecord
100
AcDbLayerTableRecord
2
1
70
0
62
4
6
CONTINUOUS
290
1
370
-3
390
0
0
LAYER
5
103
100
AcDbSymbolTableRecord
100
AcDbLayerTableRecord
2
2
70
0
62
7
6
CONTINUOUS
290
1
370
-3
390
0
0
LAYER
5
186
100
AcDbSymbolTableRecord
100
AcDbLayerTableRecord
2
SK1
70
0
62
4
6
CONTINUOUS
290
1
370
-3
390
0
0
LAYER
5
187
100
AcDbSymbolTableRecord
100
AcDbLayerTableRecord
2
SK6
70
0
62
5
6
CONTINUOUS
290
1
370
-3
390
0
0
LAYER
5
188
100
AcDbSymbolTableRecord
100
AcDbLayerTableRecord
2
SK2
70
0
62
7
6
CONTINUOUS
290
1
370
-3
390
0
0
ENDTAB
0
TABLE
2
STYLE
5
19c
100
AcDbSymbolTable
0
STYLE
5
11
100
AcDbSymbolTableRecord
100
AcDbTextStyleTableRecord
2
Standard
3
txt
70
0
71
0
40
0
41
1
42
0
50
0
0
STYLE
5
E8
100
AcDbSymbolTableRecord
100
AcDbTextStyleTableRecord
2
iso_b_vert
3
simplex.shx
70
0
71
0
40
0
41
1
42
0
50
0
0
STYLE
5
E9
100
AcDbSymbolTableRecord
100
AcDbTextStyleTableRecord
2
DWGDirectTextStyle
3
simplex
70
0
71
0
40
0
41
1
42
0
50
0
0
ENDTAB
0
TABLE
2
DIMSTYLE
5
19d
100
AcDbSymbolTable
100
AcDbDimStyleTable
0
DIMSTYLE
105
27
100
AcDbSymbolTableRecord
100
AcDbDimStyleTableRecord
2
Standard
70
0
3
<>
41
0.18
42
0.0625
44
0.18
140
0.18
147
0.09
73
0
74
0
77
1
271
2
275
0
278
52
280
0
340
11
0
ENDTAB
0
TABLE
2
VIEW
5
19e
100
AcDbSymbolTable
0
ENDTAB
0
TABLE
2
UCS
5
19f
100
AcDbSymbolTable
0
ENDTAB
0
TABLE
2
APPID
5
1a0
100
AcDbSymbolTable
0
APPID
5
12
100
AcDbSymbolTableRecord
100
AcDbRegAppTableRecord
2
ACAD
70
0
0
ENDTAB
0
TABLE
2
BLOCK_RECORD
5
1a1
100
AcDbSymbolTable
0
BLOCK_RECORD
5
1F
100
AcDbSymbolTableRecord
100
AcDbBlockTableRecord
2
*Model_Space
340
0
70
0
0
BLOCK_RECORD
5
1B
100
AcDbSymbolTableRecord
100
AcDbBlockTableRecord
2
*Paper_Space
340
0
70
0
0
BLOCK_RECORD
5
23
100
AcDbSymbolTableRecord
100
AcDbBlockTableRecord
2
*Paper_Space0
340
0
70
0
0
BLOCK_RECORD
5
EB
100
AcDbSymbolTableRecord
100
AcDbBlockTableRecord
2
DimnDraft3D1
340
0
70
0
0
BLOCK_RECORD
5
FA
100
AcDbSymbolTableRecord
100
AcDbBlockTableRecord
2
_CLOSED
340
0
70
0
0
BLOCK_RECORD
5
101
100
AcDbSymbolTableRecord
100
AcDbBlockTableRecord
2
DimnDraft3D2
340
0
70
0
0
BLOCK_RECORD
5
110
100
AcDbSymbolTableRecord
100
AcDbBlockTableRecord
2
DimnDraft3D3
340
0
70
0
0
BLOCK_RECORD
5
11E
100
AcDbSymbolTableRecord
100
AcDbBlockTableRecord
2
DimnDraft3D4
340
0
70
0
0
ENDTAB
0
ENDSEC
0
SECTION
2
BLOCKS
0
BLOCK
5
20
100
AcDbEntity
8
0
100
AcDbBlockBegin
2
*Model_Space
70
0
10
0
20
0
30
0
3
*Model_Space
0
ENDBLK
5
21
100
AcDbEntity
8
0
100
AcDbBlockEnd
0
BLOCK
5
1C
100
AcDbEntity
8
0
100
AcDbBlockBegin
2
*Paper_Space
70
0
10
0
20
0
30
0
3
*Paper_Space
0
ENDBLK
5
1D
100
AcDbEntity
8
0
100
AcDbBlockEnd
0
BLOCK
5
24
100
AcDbEntity
8
0
100
AcDbBlockBegin
2
*Paper_Space0
70
0
10
0
20
0
30
0
3
*Paper_Space0
0
ENDBLK
5
25
100
AcDbEntity
8
0
100
AcDbBlockEnd
0
BLOCK
5
F7
100
AcDbEntity
8
0
100
AcDbBlockBegin
2
DimnDraft3D1
70
0
10
0
20
0
30
0
3
DimnDraft3D1
0
MTEXT
5
EC
100
AcDbEntity
8
SK2
62
256
6
ByLayer
370
13
48
1
60
0
100
AcDbMText
10
-156.937341
20
-1.488158
30
0
210
0
220
0
230
1
1
\W0.6740;32
40
4.5
41
0
44
1.084337
50
90
71
7
72
5
7
iso_b_vert
0
LINE
5
EE
100
AcDbEntity
8
SK2
62
256
6
ByLayer
370
13
48
1
60
0
100
AcDbLine
10
-147.649841
20
16.075
30
0
11
-158.987341
21
16.075
31
0
39
0
210
0
220
0
230
1
0
LINE
5
EF
100
AcDbEntity
8
SK2
62
256
6
ByLayer
370
13
48
1
60
0
100
AcDbLine
10
-147.649841
20
-15.925
30
0
11
-158.987341
21
-15.925
31
0
39
0
210
0
220
0
230
1
0
LINE
5
F0
100
AcDbEntity
8
SK2
62
256
6
ByLayer
370
13
48
1
60
0
100
AcDbLine
10
-155.812341
20
16.075
30
0
11
-155.812341
21
-15.925
31
0
39
0
210
0
220
0
230
1
0
LINE
5
F1
100
AcDbEntity
8
SK2
62
256
6
ByLayer
370
13
48
1
60
0
100
AcDbLine
10
-155.812341
20
16.075
30
0
11
-154.961603
21
12.900003
31
0
39
0
210
0
220
0
230
1
0
LINE
5
F2
100
AcDbEntity
8
SK2
62
256
6
ByLayer
370
13
48
1
60
0
100
AcDbLine
10
-155.812341
20
16.075
30
0
11
-156.66308
21
12.899997
31
0
39
0
210
0
220
0
230
1
0
LINE
5
F3
100
AcDbEntity
8
SK2
62
256
6
ByLayer
370
13
48
1
60
0
100
AcDbLine
10
-154.961603
20
12.900003
30
0
11
-156.66308
21
12.899997
31
0
39
0
210
0
220
0
230
1
0
LINE
5
F4
100
AcDbEntity
8
SK2
62
256
6
ByLayer
370
13
48
1
60
0
100
AcDbLine
10
-155.812341
20
-15.925
30
0
11
-156.66308
21
-12.750003
31
0
39
0
210
0
220
0
230
1
0
LINE
5
F5
100
AcDbEntity
8
SK2
62
256
6
ByLayer
370
13
48
1
60
0
100
AcDbLine
10
-155.812341
20
-15.925
30
0
11
-154.961603
21
-12.749997
31
0
39
0
210
0
220
0
230
1
0
LINE
5
F6
100
AcDbEntity
8
SK2
62
256
6
ByLayer
370
13
48
1
60
0
100
AcDbLine
10
-156.66308
20
-12.750003
30
0
11
-154.961603
21
-12.749997
31
0
39
0
210
0
220
0
230
1
0
ENDBLK
5
F8
100
AcDbEntity
8
0
100
AcDbBlockEnd
0
BLOCK
5
FB
100
AcDbEntity
8
0
100
AcDbBlockBegin
2
_CLOSED
70
0
10
0
20
0
30
0
3
_CLOSED
0
LINE
5
FD
100
AcDbEntity
8
0
62
256
6
ByLayer
370
-2
48
1
60
0
100
AcDbLine
10
-1
20
0.166667
30
0
11
0
21
0
31
0
39
0
210
0
220
0
230
1
0
LINE
5
FE
100
AcDbEntity
8
0
62
256
6
ByLayer
370
-2
48
1
60
0
100
AcDbLine
10
0
20
0
30
0
11
-1
21
-0.166667
31
0
39
0
210
0
220
0
230
1
0
LINE
5
FF
100
AcDbEntity
8
0
62
256
6
ByLayer
370
-2
48
1
60
0
100
AcDbLine
10
-1
20
0.166667
30
0
11
-1
21
-0.166667
31
0
39
0
210
0
220
0
230
1
0
LINE
5
100
100
AcDbEntity
8
0
62
256
6
ByLayer
370
-2
48
1
60
0
100
AcDbLine
10
0
20
0
30
0
11
-1
21
0
31
0
39
0
210
0
220
0
230
1
0
ENDBLK
5
FC
100
AcDbEntity
8
0
100
AcDbBlockEnd
0
BLOCK
5
10D
100
AcDbEntity
8
0
100
AcDbBlockBegin
2
DimnDraft3D2
70
0
10
0
20
0
30
0
3
DimnDraft3D2
0
MTEXT
5
102
100
AcDbEntity
8
2
62
256
6
ByLayer
370
13
48
1
60
0
100
AcDbMText
10
65.920534
20
2.45
30
0
210
0
220
0
230
1
1
\W0.7361;40
40
4.5
41
0
44
1.084337
50
90
71
7
72
5
7
iso_b_vert
0
LINE
5
104
100
AcDbEntity
8
2
62
256
6
ByLayer
370
13
48
1
60
0
100
AcDbLine
10
1.5875
20
-15.925
30
0
11
70.220534
21
-15.925
31
0
39
0
210
0
220
0
230
1
0
LINE
5
105
100
AcDbEntity
8
2
62
256
6
ByLayer
370
13
48
1
60
0
100
AcDbLine
10
26.875159
20
24.425
30
0
11
70.220534
21
24.425
31
0
39
0
210
0
220
0
230
1
0
LINE
5
106
100
AcDbEntity
8
2
62
256
6
ByLayer
370
13
48
1
60
0
100
AcDbLine
10
67.045534
20
-15.925
30
0
11
67.045534
21
24.425
31
0
39
0
210
0
220
0
230
1
0
LINE
5
107
100
AcDbEntity
8
2
62
256
6
ByLayer
370
13
48
1
60
0
100
AcDbLine
10
67.045534
20
-15.925
30
0
11
66.194796
21
-12.750003
31
0
39
0
210
0
220
0
230
1
0
LINE
5
108
100
AcDbEntity
8
2
62
256
6
ByLayer
370
13
48
1
60
0
100
AcDbLine
10
67.045534
20
-15.925
30
0
11
67.896273
21
-12.749997
31
0
39
0
210
0
220
0
230
1
0
LINE
5
109
100
AcDbEntity
8
2
62
256
6
ByLayer
370
13
48
1
60
0
100
AcDbLine
10
66.194796
20
-12.750003
30
0
11
67.896273
21
-12.749997
31
0
39
0
210
0
220
0
230
1
0
LINE
5
10A
100
AcDbEntity
8
2
62
256
6
ByLayer
370
13
48
1
60
0
100
AcDbLine
10
67.045534
20
24.425
30
0
11
67.896273
21
21.250003
31
0
39
0
210
0
220
0
230
1
0
LINE
5
10B
100
AcDbEntity
8
2
62
256
6
ByLayer
370
13
48
1
60
0
100
AcDbLine
10
67.045534
20
24.425
30
0
11
66.194796
21
21.249997
31
0
39
0
210
0
220
0
230
1
0
LINE
5
10C
100
AcDbEntity
8
2
62
256
6
ByLayer
370
13
48
1
60
0
100
AcDbLine
10
67.896273
20
21.250003
30
0
11
66.194796
21
21.249997
31
0
39
0
210
0
220
0
230
1
0
ENDBLK
5
10E
100
AcDbEntity
8
0
100
AcDbBlockEnd
0
BLOCK
5
11B
100
AcDbEntity
8
0
100
AcDbBlockBegin
2
DimnDraft3D3
70
0
10
0
20
0
30
0
3
DimnDraft3D3
0
MTEXT
5
111
100
AcDbEntity
8
SK2
62
256
6
ByLayer
370
13
48
1
60
0
100
AcDbMText
10
-63.069578
20
33.05
30
0
210
0
220
0
230
1
1
\W0.6217;170
40
4.5
41
0
44
1.084337
50
0
71
7
72
5
7
iso_b_vert
0
LINE
5
112
100
AcDbEntity
8
SK2
62
256
6
ByLayer
370
13
48
1
60
0
100
AcDbLine
10
-146.062341
20
17.6625
30
0
11
-146.062341
21
35.1
31
0
39
0
210
0
220
0
230
1
0
LINE
5
113
100
AcDbEntity
8
SK2
62
256
6
ByLayer
370
13
48
1
60
0
100
AcDbLine
10
25.287659
20
26.0125
30
0
11
25.287659
21
35.1
31
0
39
0
210
0
220
0
230
1
0
LINE
5
114
100
AcDbEntity
8
SK2
62
256
6
ByLayer
370
13
48
1
60
0
100
AcDbLine
10
-146.062341
20
31.925
30
0
11
25.287659
21
31.925
31
0
39
0
210
0
220
0
230
1
0
LINE
5
115
100
AcDbEntity
8
SK2
62
256
6
ByLayer
370
13
48
1
60
0
100
AcDbLine
10
-146.062341
20
31.925
30
0
11
-142.887345
21
32.775739
31
0
39
0
210
0
220
0
230
1
0
LINE
5
116
100
AcDbEntity
8
SK2
62
256
6
ByLayer
370
13
48
1
60
0
100
AcDbLine
10
-146.062341
20
31.925
30
0
11
-142.887338
21
31.074261
31
0
39
0
210
0
220
0
230
1
0
LINE
5
117
100
AcDbEntity
8
SK2
62
256
6
ByLayer
370
13
48
1
60
0
100
AcDbLine
10
-142.887345
20
32.775739
30
0
11
-142.887338
21
31.074261
31
0
39
0
210
0
220
0
230
1
0
LINE
5
118
100
AcDbEntity
8
SK2
62
256
6
ByLayer
370
13
48
1
60
0
100
AcDbLine
10
25.287659
20
31.925
30
0
11
22.112662
21
31.074261
31
0
39
0
210
0
220
0
230
1
0
LINE
5
119
100
AcDbEntity
8
SK2
62
256
6
ByLayer
370
13
48
1
60
0
100
AcDbLine
10
25.287659
20
31.925
30
0
11
22.112655
21
32.775739
31
0
39
0
210
0
220
0
230
1
0
LINE
5
11A
100
AcDbEntity
8
SK2
62
256
6
ByLayer
370
13
48
1
60
0
100
AcDbLine
10
22.112662
20
31.074261
30
0
11
22.112655
21
32.775739
31
0
39
0
210
0
220
0
230
1
0
ENDBLK
5
11C
100
AcDbEntity
8
0
100
AcDbBlockEnd
0
BLOCK
5
12A
100
AcDbEntity
8
0
100
AcDbBlockBegin
2
DimnDraft3D4
70
0
10
0
20
0
30
0
3
DimnDraft3D4
0
MTEXT
5
11F
100
AcDbEntity
8
2
62
256
6
ByLayer
370
13
48
1
60
0
100
AcDbMText
10
36.217018
20
39.79693
30
0
210
0
220
0
230
1
1
\W0.8602;45%%d0'
40
4.5
41
0
44
1.084337
50
305.680186408971
71
7
72
5
7
iso_b_vert
0
LINE
5
120
100
AcDbEntity
8
2
62
256
6
ByLayer
370
13
48
1
60
0
100
AcDbLine
10
36.668066
20
12.34714
30
0
11
39.0577
21
9.957507
31
0
39
0
210
0
220
0
230
1
0
LINE
5
121
100
AcDbEntity
8
2
62
256
6
ByLayer
370
13
48
1
60
0
100
AcDbLine
10
26.875159
20
24.425
30
0
11
45.050332
21
24.425
31
0
39
0
210
0
220
0
230
1
0
ARC
5
122
100
AcDbEntity
8
2
62
256
6
ByLayer
370
13
48
1
60
0
100
AcDbCircle
39
0
10
24.590207
20
24.425
30
0
40
17.2851253697521
210
0
220
0
230
1
100
AcDbArc
50
0
51
57.240829
0
ARC
5
123
100
AcDbEntity
8
2
62
256
6
ByLayer
370
13
48
1
60
0
100
AcDbCircle
39
0
10
24.590207
20
24.425
30
0
40
17.2851253697521
210
0
220
0
230
1
100
AcDbArc
50
315
51
0
0
LINE
5
124
100
AcDbEntity
8
2
62
256
6
ByLayer
370
13
48
1
60
0
100
AcDbLine
10
36.812636
20
12.202571
30
0
11
38.324103
21
15.121445
31
0
39
0
210
0
220
0
230
1
0
LINE
5
125
100
AcDbEntity
8
2
62
256
6
ByLayer
370
13
48
1
60
0
100
AcDbLine
10
36.812636
20
12.202571
30
0
11
39.581047
21
13.97466
31
0
39
0
210
0
220
0
230
1
0
LINE
5
126
100
AcDbEntity
8
2
62
256
6
ByLayer
370
13
48
1
60
0
100
AcDbLine
10
38.324103
20
15.121445
30
0
11
39.581047
21
13.97466
31
0
39
0
210
0
220
0
230
1
0
LINE
5
127
100
AcDbEntity
8
2
62
256
6
ByLayer
370
13
48
1
60
0
100
AcDbLine
10
41.875332
20
24.425
30
0
11
42.579838
21
21.214388
31
0
39
0
210
0
220
0
230
1
0
LINE
5
128
100
AcDbEntity
8
2
62
256
6
ByLayer
370
13
48
1
60
0
100
AcDbLine
10
41.875332
20
24.425
30
0
11
40.880144
21
21.292269
31
0
39
0
210
0
220
0
230
1
0
LINE
5
129
100
AcDbEntity
8
2
62
256
6
ByLayer
370
13
48
1
60
0
100
AcDbLine
10
42.579838
20
21.214388
30
0
11
40.880144
21
21.292269
31
0
39
0
210
0
220
0
230
1
0
ENDBLK
5
12B
100
AcDbEntity
8
0
100
AcDbBlockEnd
0
ENDSEC
0
SECTION
2
ENTITIES
0
ARC
5
A9
100
AcDbEntity
8
1
62
256
6
ByLayer
370
18
48
1
60
0
100
AcDbCircle
39
0
10
0
20
17.525
30
0
40
1.60000000000157
210
0
220
0
230
-1
100
AcDbArc
50
195
51
270
0
ELLIPSE
5
AA
100
AcDbEntity
8
1
62
256
6
ByLayer
370
18
48
1
60
0
100
AcDbEllipse
10
17.065053
20
17.124665
30
0
11
0.106066328162997
21
-0.106067725831539
31
0
210
0
220
0
230
-1
40
0.127648
41
1.85387760661661
42
-3.13000874051042
0
ELLIPSE
5
AB
100
AcDbEntity
8
1
62
256
6
ByLayer
370
18
48
1
60
0
100
AcDbEllipse
10
15.402
20
16.599198
30
0
11
1.78407394658393
21
-1.78407394658394
31
0
210
0
220
0
230
1
40
0.990268
41
1.57079632679491
42
-2.41248184885653
0
ELLIPSE
5
AC
100
AcDbEntity
8
1
62
256
6
ByLayer
370
18
48
1
60
0
100
AcDbEllipse
10
14.373785
20
15.570983
30
0
11
1.87004577718744
21
-1.87004577718745
31
0
210
0
220
0
230
1
40
0.990268
41
1.5707963267949
42
2.7749589914048
0
ELLIPSE
5
AD
100
AcDbEntity
8
1
62
256
6
ByLayer
370
18
48
1
60
0
100
AcDbEllipse
10
22.300749
20
9.894412
30
0
11
-2.54558441227159
21
2.54558441227155
31
0
210
0
220
0
230
1
40
0.990268
41
1.57079632679489
42
1.86048332079201
0
ELLIPSE
5
AE
100
AcDbEntity
8
1
62
256
6
ByLayer
370
18
48
1
60
0
100
AcDbEllipse
10
15.054687
20
15.686199
30
0
11
1.70523466737815
21
-1.70523466737816
31
0
210
0
220
0
230
1
40
0.990268
41
-2.81181376152493
42
-1.5707963267949
0
ELLIPSE
5
AF
100
AcDbEntity
8
1
62
256
6
ByLayer
370
18
48
1
60
0
100
AcDbEllipse
10
0
20
-15.931981
30
0
11
1.59999999999981
21
1.61702248813159E-15
31
0
210
0
220
0
230
-1
40
0.004363
41
-1.5707963267949
42
-0.261799387798685
0
ELLIPSE
5
B0
100
AcDbEntity
8
1
62
256
6
ByLayer
370
18
48
1
60
0
100
AcDbEllipse
10
14.358852
20
15.556049
30
0
11
-1.7639869405479
21
1.76398694054788
31
0
210
0
220
0
230
1
40
0.990268
41
-1.5707963267949
42
-0.283136077730227
0
ELLIPSE
5
B1
100
AcDbEntity
8
1
62
256
6
ByLayer
370
18
48
1
60
0
100
AcDbEllipse
10
20.573073
20
11.622088
30
0
11
-2.54558441227159
21
2.54558441227156
31
0
210
0
220
0
230
1
40
0.990268
41
1.28110933279778
42
1.5707963267949
0
ELLIPSE
5
B2
100
AcDbEntity
8
1
62
256
6
ByLayer
370
18
48
1
60
0
100
AcDbEllipse
10
24.273045
20
3.625063
30
0
11
0.84189901135023
21
-0.841899011350236
31
0
210
0
220
0
230
1
40
0.990268
41
-1.40146964182033
42
2.37291962401113E-14
0
ELLIPSE
5
B3
100
AcDbEntity
8
1
62
256
6
ByLayer
370
18
48
1
60
0
100
AcDbEllipse
10
14.731523
20
13.166585
30
0
11
0.84189901135023
21
-0.841899011350236
31
0
210
0
220
0
230
1
40
0.990268
41
3.14159265358979
42
-2.81525963857824
0
ELLIPSE
5
B4
100
AcDbEntity
8
1
62
256
6
ByLayer
370
18
48
1
60
0
100
AcDbEllipse
10
24.226616
20
13.120156
30
0
11
-2.2450640302673
21
2.24506403026727
31
0
210
0
220
0
230
1
40
0.990268
41
-3.00053445988055
42
-2.51290024359505
0
ELLIPSE
5
B5
100
AcDbEntity
8
1
62
256
6
ByLayer
370
18
48
1
60
0
100
AcDbEllipse
10
24.226616
20
13.120156
30
0
11
-2.2450640302673
21
2.24506403026727
31
0
210
0
220
0
230
1
40
0.990268
41
-0.865625846221359
42
-0.141095984911438
0
ELLIPSE
5
B6
100
AcDbEntity
8
1
62
256
6
ByLayer
370
18
48
1
60
0
100
AcDbEllipse
10
23.876984
20
13.622827
30
0
11
2.3334523779156
21
-2.33345237791561
31
0
210
0
220
0
230
1
40
0.990268
41
-0.378501633058649
42
-1.11055051609534E-05
0
ELLIPSE
5
B7
100
AcDbEntity
8
1
62
256
6
ByLayer
370
18
48
1
60
0
100
AcDbEllipse
10
24.388285
20
12.429522
30
0
11
-2.33345237791562
21
2.33345237791559
31
0
210
0
220
0
230
1
40
0.990268
41
-5.31843701354291E-06
42
0.138083334497623
0
ELLIPSE
5
B8
100
AcDbEntity
8
1
62
256
6
ByLayer
370
18
48
1
60
0
100
AcDbEllipse
10
24.68858
20
13.184789
30
0
11
-2.39355645431648
21
2.39355645431645
31
0
210
0
220
0
230
1
40
0.990268
41
0.0340446038037952
42
0.0505076315710726
0
ELLIPSE
5
B9
100
AcDbEntity
8
1
62
256
6
ByLayer
370
18
48
1
60
0
100
AcDbEllipse
10
10.641885
20
7.482031
30
0
11
1.09955104474508
21
-1.09955104474509
31
0
210
0
220
0
230
1
40
0.990268
41
0.217928651012358
42
0.790287831593861
0
ELLIPSE
5
BA
100
AcDbEntity
8
1
62
256
6
ByLayer
370
18
48
1
60
0
100
AcDbEllipse
10
10.641885
20
7.482031
30
0
11
1.09955104474508
21
-1.09955104474509
31
0
210
0
220
0
230
1
40
0.990268
41
0.79028783159386
42
3.03328650900651
0
ELLIPSE
5
BB
100
AcDbEntity
8
1
62
256
6
ByLayer
370
18
48
1
60
0
100
AcDbEllipse
10
10.740296
20
7.580441
30
0
11
-1.09955104474509
21
1.09955104474507
31
0
210
0
220
0
230
1
40
0.990268
41
-0.162443732833647
42
3.68089343696442E-06
0
ELLIPSE
5
BC
100
AcDbEntity
8
1
62
256
6
ByLayer
370
18
48
1
60
0
100
AcDbEllipse
10
10.740296
20
7.580441
30
0
11
-1.09955104474509
21
1.09955104474507
31
0
210
0
220
0
230
1
40
0.990268
41
-2.95674048230531
42
-2.69989624043703
0
ELLIPSE
5
BD
100
AcDbEntity
8
1
62
256
6
ByLayer
370
18
48
1
60
0
100
AcDbEllipse
10
24.772301
20
13.665841
30
0
11
-1.75716035124858
21
1.75716035124856
31
0
210
0
220
0
230
1
40
0.990268
41
0.792108223186729
42
1.58153955952557
0
ELLIPSE
5
BE
100
AcDbEntity
8
1
62
256
6
ByLayer
370
18
48
1
60
0
100
AcDbEllipse
10
24.772301
20
13.665841
30
0
11
-1.75716035124858
21
1.75716035124856
31
0
210
0
220
0
230
1
40
0.990268
41
-2.34948443040307
42
-1.56005309406425
0
ELLIPSE
5
BF
100
AcDbEntity
8
1
62
256
6
ByLayer
370
18
48
1
60
0
100
AcDbEllipse
10
24.723096
20
13.616636
30
0
11
2.11071374184184
21
-2.11071374184185
31
0
210
0
220
0
230
1
40
0.990268
41
0.773879650326083
42
1.5997681323862
0
ELLIPSE
5
C0
100
AcDbEntity
8
1
62
256
6
ByLayer
370
18
48
1
60
0
100
AcDbEllipse
10
24.723096
20
13.616636
30
0
11
2.11071374184184
21
-2.11071374184185
31
0
210
0
220
0
230
1
40
0.990268
41
-2.3677130032637
42
-1.54182452120359
0
ELLIPSE
5
C1
100
AcDbEntity
8
1
62
256
6
ByLayer
370
18
48
1
60
0
100
AcDbEllipse
10
24.51665
20
14.262493
30
0
11
1.97989898732233
21
-1.97989898732234
31
0
210
0
220
0
230
1
40
0.990268
41
-1.34408569904559
42
0.576140828168093
0
ELLIPSE
5
C2
100
AcDbEntity
8
1
62
256
6
ByLayer
370
18
48
1
60
0
100
AcDbEllipse
10
24.978747
20
13.019983
30
0
11
2.3334523779156
21
-2.33345237791562
31
0
210
0
220
0
230
1
40
0.990268
41
1.78117452244612
42
-2.54911939332363
0
ELLIPSE
5
C3
100
AcDbEntity
8
1
62
256
6
ByLayer
370
18
48
1
60
0
100
AcDbEllipse
10
24.467445
20
14.213288
30
0
11
-2.33345237791562
21
2.33345237791559
31
0
210
0
220
0
230
1
40
0.990268
41
1.78117452244613
42
-2.54911939332363
0
ELLIPSE
5
C4
100
AcDbEntity
8
1
62
256
6
ByLayer
370
18
48
1
60
0
100
AcDbEllipse
10
25.027952
20
13.069188
30
0
11
-1.97989898732235
21
1.97989898732232
31
0
210
0
220
0
230
1
40
0.990268
41
-1.34408569904558
42
0.576140828168082
0
ELLIPSE
5
C5
100
AcDbEntity
8
1
62
256
6
ByLayer
370
18
48
1
60
0
100
AcDbEllipse
10
11.112778
20
7.952924
30
0
11
-1.09955104474509
21
1.09955104474507
31
0
210
0
220
0
230
1
40
0.990268
41
2.53609151554596
42
2.97914892075611
0
ELLIPSE
5
C6
100
AcDbEntity
8
1
62
256
6
ByLayer
370
18
48
1
60
0
100
AcDbEllipse
10
11.112778
20
7.952924
30
0
11
-1.09955104474509
21
1.09955104474507
31
0
210
0
220
0
230
1
40
0.990268
41
0.441696413152759
42
0.884753818362952
0
ELLIPSE
5
C7
100
AcDbEntity
8
1
62
256
6
ByLayer
370
18
48
1
60
0
100
AcDbEllipse
10
11.112778
20
7.952924
30
0
11
-1.09955104474509
21
1.09955104474507
31
0
210
0
220
0
230
1
40
0.990268
41
-1.65269868924045
42
-1.20964128403026
0
ELLIPSE
5
C8
100
AcDbEntity
8
1
62
256
6
ByLayer
370
18
48
1
60
0
100
AcDbEllipse
10
11.112778
20
7.952924
30
0
11
-1.09955104474509
21
1.09955104474507
31
0
210
0
220
0
230
1
40
0.990268
41
-0.605501138043842
42
-0.162443732833647
0
ELLIPSE
5
C9
100
AcDbEntity
8
1
62
256
6
ByLayer
370
18
48
1
60
0
100
AcDbEllipse
10
11.112778
20
7.952924
30
0
11
-1.09955104474509
21
1.09955104474507
31
0
210
0
220
0
230
1
40
0.990268
41
-2.69989624043705
42
-2.25683883522686
0
ELLIPSE
5
CA
100
AcDbEntity
8
1
62
256
6
ByLayer
370
18
48
1
60
0
100
AcDbEllipse
10
11.112778
20
7.952924
30
0
11
-1.09955104474509
21
1.09955104474507
31
0
210
0
220
0
230
1
40
0.990268
41
1.48889396434934
42
1.93195136955953
0
ELLIPSE
5
CB
100
AcDbEntity
8
1
62
256
6
ByLayer
370
18
48
1
60
0
100
AcDbEllipse
10
11.133937
20
7.974082
30
0
11
1.36287119209427
21
-1.36287119209428
31
0
210
0
220
0
230
1
40
0.990268
41
0
42
6.28318530717959
0
ELLIPSE
5
CC
100
AcDbEntity
8
1
62
256
6
ByLayer
370
18
48
1
60
0
100
AcDbEllipse
10
10.740296
20
7.580441
30
0
11
-1.09955104474509
21
1.09955104474507
31
0
210
0
220
0
230
1
40
0.990268
41
-1.20964128403026
42
-0.605501138043858
0
ELLIPSE
5
CD
100
AcDbEntity
8
1
62
256
6
ByLayer
370
18
48
1
60
0
100
AcDbEllipse
10
10.740296
20
7.580441
30
0
11
-1.09955104474509
21
1.09955104474507
31
0
210
0
220
0
230
1
40
0.990268
41
-2.25683883522686
42
-1.65269868924044
0
ELLIPSE
5
CE
100
AcDbEntity
8
1
62
256
6
ByLayer
370
18
48
1
60
0
100
AcDbEllipse
10
11.133937
20
7.974082
30
0
11
2.28749043713847
21
-2.28749043713849
31
0
210
0
220
0
230
1
40
0.990268
41
0
42
6.28318530717959
0
ELLIPSE
5
CF
100
AcDbEntity
8
1
62
256
6
ByLayer
370
18
48
1
60
0
100
AcDbEllipse
10
15.356428
20
13.79149
30
0
11
-0.841899011350239
21
0.841899011350227
31
0
210
0
220
0
230
1
40
0.990268
41
0
42
1.57079632679488
0
ELLIPSE
5
D0
100
AcDbEntity
8
1
62
256
6
ByLayer
370
18
48
1
60
0
100
AcDbEllipse
10
24.89795
20
4.249968
30
0
11
-0.841899011350239
21
0.841899011350227
31
0
210
0
220
0
230
1
40
0.990268
41
1.57079632679491
42
-3.14159265358977
0
ELLIPSE
5
D1
100
AcDbEntity
8
1
62
256
6
ByLayer
370
18
48
1
60
0
100
AcDbEllipse
10
24.851521
20
13.745061
30
0
11
-2.2450640302673
21
2.24506403026727
31
0
210
0
220
0
230
1
40
0.990268
41
0
42
6.28318530717959
0
ELLIPSE
5
D2
100
AcDbEntity
8
1
62
256
6
ByLayer
370
18
48
1
60
0
100
AcDbEllipse
10
34.346615
20
13.698632
30
0
11
-0.841899011350239
21
0.841899011350227
31
0
210
0
220
0
230
1
40
0.990268
41
3.14159265358979
42
-1.57079632679488
0
ELLIPSE
5
D3
100
AcDbEntity
8
1
62
256
6
ByLayer
370
18
48
1
60
0
100
AcDbEllipse
10
24.805093
20
23.240154
30
0
11
-0.841899011350239
21
0.841899011350227
31
0
210
0
220
0
230
1
40
0.990268
41
-1.5707963267949
42
0
0
POINT
5
6C
100
AcDbEntity
8
80
62
256
6
ByLayer
370
18
48
1
60
0
100
AcDbPoint
10
0
20
0
30
0
39
0
210
0
220
0
230
1
50
360
0
POINT
5
6E
100
AcDbEntity
8
81
62
256
6
ByLayer
370
18
48
1
60
0
100
AcDbPoint
10
23.937659
20
24.075
30
0
39
0
210
0
220
0
230
1
50
360
0
POINT
5
70
100
AcDbEntity
8
1
62
256
6
ByLayer
370
18
48
1
60
0
100
AcDbPoint
10
-146.062341
20
-15.925
30
0
39
0
210
0
220
0
230
1
50
360
0
SPLINE
5
D4
100
AcDbEntity
8
1
62
256
6
ByLayer
370
18
48
1
60
0
100
AcDbSpline
70
4
71
3
72
14
73
10
40
0
40
0
40
0
40
0
40
0.301890032506433
40
0.301890032506433
40
0.476417524379822
40
0.476417524379822
40
0.650945016253212
40
0.650945016253212
40
1
40
1
40
1
40
1
41
1
10
21.7406568183429
20
14.1894897371614
30
0
41
1
10
21.7530835824599
20
14.2198959937474
30
0
41
1
10
21.764657773697
20
14.2472455176739
30
0
41
1
10
21.7797743038019
20
14.2831377526721
30
0
41
1
10
21.7846676078434
20
14.2948112959801
30
0
41
1
10
21.792720012995
20
14.3147152253219
30
0
41
1
10
21.7958840196699
20
14.3229736243199
30
0
41
1
10
21.8017798447606
20
14.3410378063733
30
0
41
1
10
21.8010497439633
20
14.3445053755939
30
0
41
1
10
21.7944485818582
20
14.3379042134888
30
0
0
SPLINE
5
D5
100
AcDbEntity
8
1
62
256
6
ByLayer
370
18
48
1
60
0
100
AcDbSpline
70
4
71
3
72
10
73
6
40
0
40
0
40
0
40
0
40
0.296412420551431
40
0.296412420551431
40
1
40
1
40
1
40
1
41
1
10
22.4762086718804
20
15.7469749724109
30
0
41
1
10
22.4488770471459
20
15.7234337233835
30
0
41
1
10
22.4219937455337
20
15.6994914270572
30
0
41
1
10
22.333005159043
20
15.6175668130098
30
0
41
1
10
22.2730638993777
20
15.5578734445905
30
0
41
1
10
22.2157313876518
20
15.4962795551287
30
0
0
SPLINE
5
D6
100
AcDbEntity
8
1
62
256
6
ByLayer
370
18
48
1
60
0
100
AcDbSpline
70
4
71
3
72
10
73
6
40
0
40
0
40
0
40
0
40
0.389111005289054
40
0.389111005289054
40
1
40
1
40
1
40
1
41
1
10
24.4270221602804
20
16.2290484425811
30
0
41
1
10
24.3544431452489
20
16.2387035673741
30
0
41
1
10
24.2818876715359
20
16.2460377787293
30
0
41
1
10
24.0954791423946
20
16.259034444034
30
0
41
1
10
23.9816576745914
20
16.2613929717121
30
0
41
1
10
23.8678867321566
20
16.2581178691963
30
0
0
SPLINE
5
D7
100
AcDbEntity
8
1
62
256
6
ByLayer
370
18
48
1
60
0
100
AcDbSpline
70
4
71
3
72
8
73
4
40
0
40
0
40
0
40
0
40
1
40
1
40
1
40
1
41
1
10
27.2450724870457
20
13.6703423041702
30
0
41
1
10
27.3946554108095
20
13.636278719099
30
0
41
1
10
27.5441301533907
20
13.6021166589632
30
0
41
1
10
27.6935414386741
20
13.5678969548455
30
0
0
SPLINE
5
D8
100
AcDbEntity
8
1
62
256
6
ByLayer
370
18
48
1
60
0
100
AcDbSpline
70
4
71
3
72
8
73
4
40
0
40
0
40
0
40
0
40
1
40
1
40
1
40
1
41
1
10
22.299529952106
20
13.6613391358705
30
0
41
1
10
22.1171590504239
20
13.6626147430234
30
0
41
1
10
21.9348784104455
20
13.6639709057621
30
0
41
1
10
21.7526507570299
20
13.6653742417475
30
0
0
SPLINE
5
D9
100
AcDbEntity
8
1
62
256
6
ByLayer
370
18
48
1
60
0
100
AcDbSpline
70
4
71
3
72
8
73
4
40
0
40
0
40
0
40
0
40
1
40
1
40
1
40
1
41
1
10
26.4933833722903
20
15.4246773116712
30
0
41
1
10
26.5794616649753
20
15.5388244632639
30
0
41
1
10
26.6653970695525
20
15.6529541407971
30
0
41
1
10
26.7512487368322
20
15.7670735049702
30
0
0
SPLINE
5
DA
100
AcDbEntity
8
1
62
256
6
ByLayer
370
18
48
1
60
0
100
AcDbSpline
70
4
71
3
72
8
73
4
40
0
40
0
40
0
40
0
40
1
40
1
40
1
40
1
41
1
10
23.0512190668613
20
11.9070041283694
30
0
41
1
10
22.9323527962582
20
11.7600689988585
30
0
41
1
10
22.8136114942839
20
11.6131334239282
30
0
41
1
10
22.6949434588718
20
11.4661976916228
30
0
0
SPLINE
5
DB
100
AcDbEntity
8
1
62
256
6
ByLayer
370
18
48
1
60
0
100
AcDbSpline
70
4
71
3
72
10
73
6
40
0
40
0
40
0
40
0
40
0.5
40
0.5
40
1
40
1
40
1
40
1
41
1
10
10.2038029566163
20
9.21409925266744
30
0
41
1
10
10.1222571422737
20
9.1804670253897
30
0
41
1
10
10.0409309414312
20
9.14718014970981
30
0
41
1
10
9.88190747055808
20
9.0825111124754
30
0
41
1
10
9.80377020376324
20
9.05094563085186
30
0
41
1
10
9.72667643340998
20
9.01996400202927
30
0
0
SPLINE
5
DC
100
AcDbEntity
8
1
62
256
6
ByLayer
370
18
48
1
60
0
100
AcDbSpline
70
4
71
3
72
8
73
4
40
0
40
0
40
0
40
0
40
1
40
1
40
1
40
1
41
1
10
12.651829767869
20
8.09888793801582
30
0
41
1
10
12.675348347324
20
8.2812290579995
30
0
41
1
10
12.6999500077169
20
8.46028738168502
30
0
41
1
10
12.7252073599843
20
8.63735831663257
30
0
0
SPLINE
5
DD
100
AcDbEntity
8
1
62
256
6
ByLayer
370
18
48
1
60
0
100
AcDbSpline
70
4
71
3
72
10
73
6
40
0
40
0
40
0
40
0
40
0.5
40
0.5
40
1
40
1
40
1
40
1
41
1
10
11.3279305600221
20
9.69322371039775
30
0
41
1
10
11.2456563463358
20
9.65719373005101
30
0
41
1
10
11.1628057719673
20
9.62106678079257
30
0
41
1
10
10.9955809516198
20
9.54855653450193
30
0
41
1
10
10.9117345492738
20
9.51240483071851
30
0
41
1
10
10.8284543492322
20
9.47673877217602
30
0
0
SPLINE
5
DE
100
AcDbEntity
8
1
62
256
6
ByLayer
370
18
48
1
60
0
100
AcDbSpline
70
4
71
3
72
10
73
6
40
0
40
0
40
0
40
0
40
0.5
40
0.5
40
1
40
1
40
1
40
1
41
1
10
12.5212300333344
20
6.90823321449889
30
0
41
1
10
12.4389558196481
20
6.87220323415215
30
0
41
1
10
12.3561052452797
20
6.83607628489375
30
0
41
1
10
12.1888804249321
20
6.76356603860307
30
0
41
1
10
12.105034022586
20
6.72741433481963
30
0
41
1
10
12.0217538225446
20
6.69174827627717
30
0
0
SPLINE
5
DF
100
AcDbEntity
8
1
62
256
6
ByLayer
370
18
48
1
60
0
100
AcDbSpline
70
4
71
3
72
8
73
4
40
0
40
0
40
0
40
0
40
1
40
1
40
1
40
1
41
1
10
11.7428543349048
20
9.36006342621096
30
0
41
1
10
11.5996249752365
20
9.47229408277758
30
0
41
1
10
11.4620624352446
20
9.58316921152584
30
0
41
1
10
11.3279305600221
20
9.69322371039775
30
0
0
SPLINE
5
E0
100
AcDbEntity
8
1
62
256
6
ByLayer
370
18
48
1
60
0
100
AcDbSpline
70
4
71
3
72
8
73
4
40
0
40
0
40
0
40
0
40
1
40
1
40
1
40
1
41
1
10
9.57372701129191
20
7.80695959092876
30
0
41
1
10
9.5547628913659
20
7.62917293047411
30
0
41
1
10
9.53804966048318
20
7.4580030362988
30
0
41
1
10
9.52269910676011
20
7.29083889989559
30
0
0
SPLINE
5
E1
100
AcDbEntity
8
1
62
256
6
ByLayer
370
18
48
1
60
0
100
AcDbSpline
70
4
71
3
72
10
73
6
40
0
40
0
40
0
40
0
40
0.5
40
0.5
40
1
40
1
40
1
40
1
41
1
10
12.5212300333344
20
6.90823321449889
30
0
41
1
10
12.5289491246844
20
6.99229241279272
30
0
41
1
10
12.5370645782294
20
7.07787490482613
30
0
41
1
10
12.5540509251956
20
7.25013471127789
30
0
41
1
10
12.5629272459057
20
7.33687963465243
30
0
41
1
10
12.5722579378662
20
7.42435390553209
30
0
0
SPLINE
5
E2
100
AcDbEntity
8
1
62
256
6
ByLayer
370
18
48
1
60
0
100
AcDbSpline
70
4
71
3
72
10
73
6
40
0
40
0
40
0
40
0
40
0.5
40
0.5
40
1
40
1
40
1
40
1
41
1
10
9.72667643340998
20
9.01996400202927
30
0
41
1
10
9.71397566619817
20
8.93092312787357
30
0
41
1
10
9.70136982352739
20
8.84085024671435
30
0
41
1
10
9.67682279822026
20
8.66102976192172
30
0
41
1
10
9.664870410189
20
8.571208771226
30
0
41
1
10
9.65329884129466
20
8.48149362341252
30
0
0
SPLINE
5
E3
100
AcDbEntity
8
1
62
256
6
ByLayer
370
18
48
1
60
0
100
AcDbSpline
70
4
71
3
72
8
73
4
40
0
40
0
40
0
40
0
40
1
40
1
40
1
40
1
41
1
10
10.482702444256
20
6.54578410273365
30
0
41
1
10
10.6304862634533
20
6.43810790569606
30
0
41
1
10
10.7759372329555
20
6.33512120645801
30
0
41
1
10
10.9199759067223
20
6.23497350613042
30
0
0
SPLINE
5
E4
100
AcDbEntity
8
1
62
256
6
ByLayer
370
18
48
1
60
0
100
AcDbSpline
70
4
71
3
72
10
73
6
40
0
40
0
40
0
40
0
40
0.5
40
0.5
40
1
40
1
40
1
40
1
41
1
10
11.3971024299286
20
6.42910875676859
30
0
41
1
10
11.3155566155861
20
6.39547652949085
30
0
41
1
10
11.2342304147435
20
6.36218965381099
30
0
41
1
10
11.0752069438704
20
6.29752061657658
30
0
41
1
10
10.9970696770756
20
6.265955134953
30
0
41
1
10
10.9199759067223
20
6.23497350613042
30
0
0
SPLINE
5
E5
100
AcDbEntity
8
1
62
256
6
ByLayer
370
18
48
1
60
0
100
AcDbSpline
70
4
71
3
72
10
73
6
40
0
40
0
40
0
40
0
40
0.5
40
0.5
40
1
40
1
40
1
40
1
41
1
10
12.7252073599843
20
8.63735831663257
30
0
41
1
10
12.6527768991172
20
8.68771801448187
30
0
41
1
10
12.579559633925
20
8.73910353453707
30
0
41
1
10
12.4335242253924
20
8.84281958035723
30
0
41
1
10
12.3606462247479
20
8.89519026566532
30
0
41
1
10
12.287933897518
20
8.9481689132358
30
0
0
SPLINE
5
E6
100
AcDbEntity
8
1
62
256
6
ByLayer
370
18
48
1
60
0
100
AcDbSpline
70
4
71
3
72
10
73
6
40
0
40
0
40
0
40
0
40
0.5
40
0.5
40
1
40
1
40
1
40
1
41
1
10
9.52269910676011
20
7.29083889989559
30
0
41
1
10
9.59014789176535
20
7.23549752618439
30
0
41
1
10
9.65887476783166
20
7.17962161700342
30
0
41
1
10
9.79734949802338
20
7.06834489284239
30
0
41
1
10
9.86715143134671
20
7.01289814021308
30
0
41
1
10
9.93762288164282
20
6.9576786157088
30
0
0
LINE
5
72
100
AcDbEntity
8
1
62
256
6
ByLayer
370
18
48
1
60
0
100
AcDbLine
10
22.645295
20
15.353435
30
0
11
22.054833
21
14.762974
31
0
39
0
210
0
220
0
230
1
0
LINE
5
73
100
AcDbEntity
8
1
62
256
6
ByLayer
370
18
48
1
60
0
100
AcDbLine
10
26.210436
20
11.289374
30
0
11
26.800898
21
11.879836
31
0
39
0
210
0
220
0
230
1
0
LINE
5
74
100
AcDbEntity
8
SK1
62
256
6
ByLayer
370
18
48
1
60
0
100
AcDbLine
10
-146.062341
20
15.925
30
0
11
-146.062341
21
-15.925
31
0
39
0
210
0
220
0
230
1
0
LINE
5
76
100
AcDbEntity
8
1
62
256
6
ByLayer
370
18
48
1
60
0
100
AcDbLine
10
21.262412
20
21.381289
30
0
11
20.368293
21
22.275408
31
0
39
0
210
0
220
0
230
1
0
LINE
5
77
100
AcDbEntity
8
1
62
256
6
ByLayer
370
18
48
1
60
0
100
AcDbLine
10
13.366047
20
13.997559
30
0
11
17.430143
21
9.933463
31
0
39
0
210
0
220
0
230
1
0
LINE
5
78
100
AcDbEntity
8
1
62
256
6
ByLayer
370
18
48
1
60
0
100
AcDbLine
10
2.92931
20
22.275408
30
0
11
1.912051
21
18.478947
31
0
39
0
210
0
220
0
230
1
0
LINE
5
79
100
AcDbEntity
8
1
62
256
6
ByLayer
370
18
48
1
60
0
100
AcDbLine
10
16.225632
20
17.422829
30
0
11
16.105672
21
17.302869
31
0
39
0
210
0
220
0
230
1
0
LINE
5
7A
100
AcDbEntity
8
1
62
256
6
ByLayer
370
18
48
1
60
0
100
AcDbLine
10
17.692462
20
17.84216
30
0
11
16.95915
21
17.230882
31
0
39
0
210
0
220
0
230
1
0
LINE
5
7B
100
AcDbEntity
8
1
62
256
6
ByLayer
370
18
48
1
60
0
100
AcDbLine
10
2.805067
20
-15.950686
30
0
11
1.912051
21
18.478947
31
0
39
0
210
0
220
0
230
1
0
LINE
5
7C
100
AcDbEntity
8
1
62
256
6
ByLayer
370
18
48
1
60
0
100
AcDbLine
10
17.168712
20
18.365909
30
0
11
17.692462
21
17.84216
31
0
39
0
210
0
220
0
230
1
0
LINE
5
7D
100
AcDbEntity
8
1
62
256
6
ByLayer
370
18
48
1
60
0
100
AcDbLine
10
1.545481
20
17.11089
30
0
11
1.545481
21
-15.930174
31
0
39
0
210
0
220
0
230
1
0
LINE
5
7E
100
AcDbEntity
8
1
62
256
6
ByLayer
370
18
48
1
60
0
100
AcDbLine
10
18.052262
20
9.101277
30
0
11
19.779938
21
7.373601
31
0
39
0
210
0
220
0
230
1
0
LINE
5
7F
100
AcDbEntity
8
1
62
256
6
ByLayer
370
18
48
1
60
0
100
AcDbLine
10
4.981968
20
-15.949742
30
0
11
2.805067
21
-15.950686
31
0
39
0
210
0
220
0
230
1
0
LINE
5
80
100
AcDbEntity
8
1
62
256
6
ByLayer
370
18
48
1
60
0
100
AcDbLine
10
16.644845
20
16.763696
30
0
11
16.105672
21
17.302869
31
0
39
0
210
0
220
0
230
1
0
LINE
5
81
100
AcDbEntity
8
1
62
256
6
ByLayer
370
18
48
1
60
0
100
AcDbLine
10
1.545481
20
17.11089
30
0
11
1.912051
21
18.478947
31
0
39
0
210
0
220
0
230
1
0
LINE
5
82
100
AcDbEntity
8
1
62
256
6
ByLayer
370
18
48
1
60
0
100
AcDbLine
10
1.545481
20
-15.930174
30
0
11
2.805067
21
-15.950686
31
0
39
0
210
0
220
0
230
1
0
LINE
5
83
100
AcDbEntity
8
1
62
256
6
ByLayer
370
18
48
1
60
0
100
AcDbLine
10
20.368314
20
22.275408
30
0
11
22.156469
21
22.275408
31
0
39
0
210
0
220
0
230
1
0
LINE
5
84
100
AcDbEntity
8
1
62
256
6
ByLayer
370
18
48
1
60
0
100
AcDbLine
10
20.612124
20
6.751482
30
0
11
24.147658
21
3.215949
31
0
39
0
210
0
220
0
230
1
0
LINE
5
85
100
AcDbEntity
8
1
62
256
6
ByLayer
370
18
48
1
60
0
100
AcDbLine
10
20.368293
20
22.275408
30
0
11
2.92931
21
22.275408
31
0
39
0
210
0
220
0
230
1
0
LINE
5
86
100
AcDbEntity
8
1
62
256
6
ByLayer
370
18
48
1
60
0
100
AcDbLine
10
24.147658
20
3.215949
30
0
11
4.981968
21
-15.949742
31
0
39
0
210
0
220
0
230
1
0
LINE
5
87
100
AcDbEntity
8
1
62
256
6
ByLayer
370
18
48
1
60
0
100
AcDbLine
10
17.168712
20
18.365909
30
0
11
16.225632
21
17.422829
31
0
39
0
210
0
220
0
230
1
0
LINE
5
88
100
AcDbEntity
8
1
62
256
6
ByLayer
370
18
48
1
60
0
100
AcDbLine
10
0
20
-15.925
30
0
11
0
21
15.925
31
0
39
0
210
0
220
0
230
1
0
LINE
5
89
100
AcDbEntity
8
1
62
256
6
ByLayer
370
18
48
1
60
0
100
AcDbLine
10
16.225632
20
17.422829
30
0
11
16.764786
21
16.883675
31
0
39
0
210
0
220
0
230
1
0
LINE
5
8A
100
AcDbEntity
8
1
62
256
6
ByLayer
370
18
48
1
60
0
100
AcDbLine
10
21.20727
20
21.32613
30
0
11
17.692462
21
17.84216
31
0
39
0
210
0
220
0
230
1
0
LINE
5
8B
100
AcDbEntity
8
SK1
62
256
6
ByLayer
370
18
48
1
60
0
100
AcDbLine
10
-146.062341
20
15.925
30
0
11
0
21
15.925
31
0
39
0
210
0
220
0
230
1
0
LINE
5
8C
100
AcDbEntity
8
SK1
62
256
6
ByLayer
370
18
48
1
60
0
100
AcDbLine
10
0
20
-15.925
30
0
11
0
21
15.925
31
0
39
0
210
0
220
0
230
1
0
LINE
5
8D
100
AcDbEntity
8
SK1
62
256
6
ByLayer
370
18
48
1
60
0
100
AcDbLine
10
-146.062341
20
-15.925
30
0
11
0
21
-15.925
31
0
39
0
210
0
220
0
230
1
0
LINE
5
8E
100
AcDbEntity
8
1
62
256
6
ByLayer
370
18
48
1
60
0
100
AcDbLine
10
14.522722
20
12.957784
30
0
11
14.464264
21
12.899326
31
0
39
0
210
0
220
0
230
1
0
LINE
5
8F
100
AcDbEntity
8
1
62
256
6
ByLayer
370
18
48
1
60
0
100
AcDbLine
10
24.005787
20
3.357804
30
0
11
24.064244
21
3.416262
31
0
39
0
210
0
220
0
230
1
0
LINE
5
90
100
AcDbEntity
8
1
62
256
6
ByLayer
370
18
48
1
60
0
100
AcDbLine
10
22.694943
20
11.466198
30
0
11
22.690271
21
11.461525
31
0
39
0
210
0
220
0
230
1
0
LINE
5
91
100
AcDbEntity
8
1
62
256
6
ByLayer
370
18
48
1
60
0
100
AcDbLine
10
21.752651
20
13.665374
30
0
11
21.696341
21
13.609065
31
0
39
0
210
0
220
0
230
1
0
LINE
5
92
100
AcDbEntity
8
1
62
256
6
ByLayer
370
18
48
1
60
0
100
AcDbLine
10
21.731679
20
14.275135
30
0
11
21.794449
21
14.337904
31
0
39
0
210
0
220
0
230
1
0
LINE
5
93
100
AcDbEntity
8
1
62
256
6
ByLayer
370
18
48
1
60
0
100
AcDbLine
10
12.199775
20
7.051871
30
0
11
12.164548
21
6.753249
31
0
39
0
210
0
220
0
230
1
0
LINE
5
94
100
AcDbEntity
8
1
62
256
6
ByLayer
370
18
48
1
60
0
100
AcDbLine
10
9.693894
20
8.783835
30
0
11
9.83132
21
8.841616
31
0
39
0
210
0
220
0
230
1
0
LINE
5
95
100
AcDbEntity
8
81
62
256
6
ByLayer
370
18
48
1
60
0
100
AcDbLine
10
23.937659
20
24.075
30
0
11
33.937659
21
24.075
31
0
39
0
210
0
220
0
230
1
0
LINE
5
96
100
AcDbEntity
8
80
62
256
6
ByLayer
370
18
48
1
60
0
100
AcDbLine
10
0
20
0
30
0
11
-5
21
0
31
0
39
0
210
0
220
0
230
1
0
LINE
5
97
100
AcDbEntity
8
1
62
256
6
ByLayer
370
18
48
1
60
0
100
AcDbLine
10
12.725207
20
8.637358
30
0
11
12.34155
21
8.253701
31
0
39
0
210
0
220
0
230
1
0
LINE
5
98
100
AcDbEntity
8
1
62
256
6
ByLayer
370
18
48
1
60
0
100
AcDbLine
10
10.944273
20
9.309566
30
0
11
11.370372
21
8.987581
31
0
39
0
210
0
220
0
230
1
0
LINE
5
99
100
AcDbEntity
8
1
62
256
6
ByLayer
370
18
48
1
60
0
100
AcDbLine
10
10.455972
20
9.104256
30
0
11
10.944273
21
9.309566
31
0
39
0
210
0
220
0
230
1
0
LINE
5
9A
100
AcDbEntity
8
1
62
256
6
ByLayer
370
18
48
1
60
0
100
AcDbLine
10
11.742854
20
9.360063
30
0
11
11.370372
21
8.987581
31
0
39
0
210
0
220
0
230
1
0
LINE
5
9B
100
AcDbEntity
8
1
62
256
6
ByLayer
370
18
48
1
60
0
100
AcDbLine
10
12.65183
20
8.098888
30
0
11
12.279347
21
7.726405
31
0
39
0
210
0
220
0
230
1
0
LINE
5
9C
100
AcDbEntity
8
1
62
256
6
ByLayer
370
18
48
1
60
0
100
AcDbLine
10
12.34155
20
8.253701
30
0
11
12.279347
21
7.726405
31
0
39
0
210
0
220
0
230
1
0
LINE
5
9D
100
AcDbEntity
8
1
62
256
6
ByLayer
370
18
48
1
60
0
100
AcDbLine
10
11.327931
20
9.693224
30
0
11
10.944273
21
9.309566
31
0
39
0
210
0
220
0
230
1
0
LINE
5
9E
100
AcDbEntity
8
1
62
256
6
ByLayer
370
18
48
1
60
0
100
AcDbLine
10
12.199775
20
7.051871
30
0
11
12.572258
21
7.424354
31
0
39
0
210
0
220
0
230
1
0
LINE
5
9F
100
AcDbEntity
8
1
62
256
6
ByLayer
370
18
48
1
60
0
100
AcDbLine
10
10.455972
20
9.104256
30
0
11
10.828454
21
9.476739
31
0
39
0
210
0
220
0
230
1
0
LINE
5
A0
100
AcDbEntity
8
1
62
256
6
ByLayer
370
18
48
1
60
0
100
AcDbLine
10
10.203803
20
9.214099
30
0
11
9.83132
21
8.841616
31
0
39
0
210
0
220
0
230
1
0
LINE
5
A1
100
AcDbEntity
8
1
62
256
6
ByLayer
370
18
48
1
60
0
100
AcDbLine
10
11.915451
20
8.575686
30
0
11
12.34155
21
8.253701
31
0
39
0
210
0
220
0
230
1
0
LINE
5
A2
100
AcDbEntity
8
1
62
256
6
ByLayer
370
18
48
1
60
0
100
AcDbLine
10
11.915451
20
8.575686
30
0
11
12.287934
21
8.948169
31
0
39
0
210
0
220
0
230
1
0
LINE
5
A3
100
AcDbEntity
8
1
62
256
6
ByLayer
370
18
48
1
60
0
100
AcDbLine
10
35.188514
20
12.856733
30
0
11
25.739849
21
3.408069
31
0
39
0
210
0
220
0
230
1
0
LINE
5
A4
100
AcDbEntity
8
1
62
256
6
ByLayer
370
18
48
1
60
0
100
AcDbLine
10
13.889624
20
14.008484
30
0
11
14.514529
21
14.633389
31
0
39
0
210
0
220
0
230
1
0
LINE
5
A5
100
AcDbEntity
8
1
62
256
6
ByLayer
370
18
48
1
60
0
100
AcDbLine
10
25.739849
20
3.408069
30
0
11
25.114944
21
2.783163
31
0
39
0
210
0
220
0
230
1
0
LINE
5
A6
100
AcDbEntity
8
1
62
256
6
ByLayer
370
18
48
1
60
0
100
AcDbLine
10
25.638798
20
24.07386
30
0
11
35.180321
21
14.532338
31
0
39
0
210
0
220
0
230
1
0
LINE
5
A7
100
AcDbEntity
8
1
62
256
6
ByLayer
370
18
48
1
60
0
100
AcDbLine
10
24.064244
20
3.416262
30
0
11
14.522722
21
12.957784
31
0
39
0
210
0
220
0
230
1
0
LINE
5
A8
100
AcDbEntity
8
1
62
256
6
ByLayer
370
18
48
1
60
0
100
AcDbLine
10
14.514529
20
14.633389
30
0
11
23.963194
21
24.082053
31
0
39
0
210
0
220
0
230
1
0
MTEXT
5
E7
100
AcDbEntity
8
SK6
62
256
6
ByLayer
370
13
48
1
60
0
100
AcDbMText
10
-114.682141
20
-40.986925
30
0
210
0
220
0
230
1
1
\W0.7579;PSSNR 3232P 15
40
3.5
41
0
44
1.084337
50
0
71
7
72
5
7
iso_b_vert
0
DIMENSION
5
F9
100
AcDbEntity
8
SK2
62
256
6
ByLayer
370
13
48
1
60
0
100
AcDbDimension
2
DimnDraft3D1
10
-155.812341
20
-15.925
30
0
11
-155.812341
21
0.075
31
0
70
32
71
5
72
1
41
1
210
0
220
0
230
1
3
Standard
100
AcDbAlignedDimension
13
-147.649841
23
16.075
33
0
14
-147.649841
24
-15.925
34
0
50
90
100
AcDbRotatedDimension
1001
ACAD
1000
DSTYLE
1002
{
1070
    74
1070
     0
1070
   279
1070
     0
1070
   172
1070
     1
1070
   173
1070
     1
1070
   340
1005
E8
1070
   271
1070
     1
1070
   272
1070
     2
1070
    77
1070
     1
1070
    73
1070
     0
1070
   171
1070
     3
1070
   274
1070
     4
1070
   177
1070
   150
1070
   176
1070
     9
1070
   178
1070
    43
1070
    78
1070
     8
1070
    48
1040
-0.005
1070
    41
1041
3.175
1070
   147
1041
2.25
1070
    42
1041
1.5875
1070
    44
1041
3.175
1070
   140
1041
4.5
1070
   343
1005
FA
1070
   344
1005
FA
1002
}
0
DIMENSION
5
10F
100
AcDbEntity
8
2
62
256
6
ByLayer
370
13
48
1
60
0
100
AcDbDimension
2
DimnDraft3D2
10
67.045534
20
24.425
30
0
11
67.045534
21
4.25
31
0
70
32
71
5
72
1
41
1
210
0
220
0
230
1
3
Standard
100
AcDbAlignedDimension
13
1.5875
23
-15.925
33
0
14
26.875159
24
24.425
34
0
50
90
100
AcDbRotatedDimension
1001
ACAD
1000
DSTYLE
1002
{
1070
    74
1070
     0
1070
   279
1070
     0
1070
   172
1070
     1
1070
   173
1070
     1
1070
   340
1005
E8
1070
   271
1070
     1
1070
   272
1070
     2
1070
    77
1070
     1
1070
    73
1070
     0
1070
   171
1070
     3
1070
   274
1070
     4
1070
   177
1070
   150
1070
   176
1070
     9
1070
   178
1070
    43
1070
    78
1070
     8
1070
    48
1040
-0.005
1070
    41
1041
3.175
1070
   147
1041
2.25
1070
    42
1041
1.5875
1070
    44
1041
3.175
1070
   140
1041
4.5
1070
   343
1005
FA
1070
   344
1005
FA
1002
}
0
DIMENSION
5
11D
100
AcDbEntity
8
SK2
62
256
6
ByLayer
370
13
48
1
60
0
100
AcDbDimension
2
DimnDraft3D3
10
25.287659
20
31.925
30
0
11
-60.387341
21
31.925
31
0
70
32
71
5
72
1
41
1
210
0
220
0
230
1
3
Standard
100
AcDbAlignedDimension
13
-146.062341
23
17.6625
33
0
14
25.287659
24
26.0125
34
0
50
0
100
AcDbRotatedDimension
1001
ACAD
1000
DSTYLE
1002
{
1070
   279
1070
     0
1070
   172
1070
     1
1070
   173
1070
     1
1070
   340
1005
E8
1070
   271
1070
     1
1070
   272
1070
     2
1070
    77
1070
     1
1070
    73
1070
     0
1070
   171
1070
     3
1070
   274
1070
     4
1070
   177
1070
   150
1070
   176
1070
     9
1070
   178
1070
    43
1070
    78
1070
     8
1070
    48
1040
-0.005
1070
    41
1041
3.175
1070
   147
1041
2.25
1070
    42
1041
1.5875
1070
    44
1041
3.175
1070
   140
1041
4.5
1070
   343
1005
FA
1070
   344
1005
FA
1002
}
0
DIMENSION
5
12C
100
AcDbEntity
8
2
62
256
6
ByLayer
370
13
48
1
60
0
100
AcDbDimension
2
DimnDraft3D4
10
22.906409
20
24.425
30
0
11
42.285943
21
37.1314
31
0
70
34
71
5
72
1
41
1
210
0
220
0
230
1
3
Standard
100
AcDb2LineAngularDimension
13
24.938933
23
24.076274
33
0
14
35.545534
24
13.469672
34
0
15
25.287659
25
24.425
35
0
16
40.55958
26
17.810269
36
0
40
0
0
ENDSEC
0
SECTION
2
OBJECTS
0
DICTIONARY
5
196
330
0
100
AcDbDictionary
280
0
281
1
3
ACAD_GROUP
350
197
3
ACAD_MLINESTYLE
350
198
0
DICTIONARY
5
197
330
0
100
AcDbDictionary
280
0
281
1
0
DICTIONARY
5
198
330
0
100
AcDbDictionary
280
0
281
1
3
Standard
350
18
0
MLINESTYLE
5
18
330
198
100
AcDbMlineStyle
2
Standard
70
0
3

62
256
51
90
52
90
71
2
49
-0.5
62
256
6
ByLayer
49
0.5
62
256
6
ByLayer
0
RASTERVARIABLES
5
185
330

100
AcDbRasterVariables
90
0
70
1
71
1
72
1
0
ENDSEC
0
EOF
